<?xml version="1.0" standalone="no"?>
<!DOCTYPE svg PUBLIC "-//W3C//DTD SVG 1.1//EN" "http://www.w3.org/Graphics/SVG/1.1/DTD/svg11.dtd" >
<svg>
<metadata>
Created by FontForge 20110222 at Mon Apr 21 12:18:09 2014
 By Orthosie Webhosting
(C)2010 House Industries/Brand Design Co., Inc. All Rights Reserved.
</metadata>
<defs>
<font id="EamesCenturyModernBlack" horiz-adv-x="600" >
  <font-face 
    font-family="EamesCenturyModernBlack"
    font-weight="900"
    font-stretch="normal"
    units-per-em="1000"
    panose-1="2 0 10 3 7 7 5 2 2 3"
    ascent="820"
    descent="-180"
    x-height="482"
    cap-height="690"
    bbox="-222 -290 1166 1114"
    underline-thickness="50"
    underline-position="-50"
    unicode-range="U+0020-FB04"
  />
<missing-glyph horiz-adv-x="500" 
 />
    <glyph glyph-name="f_f" unicode="ff" horiz-adv-x="655" 
d="M635 108q-2 -56 0 -110q-97 2 -152 2l-153 -2q2 55 0 110h2q16 0 22.5 8.5t8.5 30.5q3 31 1 230h-86q-2 -211 0 -230q4 -39 33 -39h4q-2 -55 0 -110q-98 2 -153 2l-154 -2q2 55 0 110h10q16 0 24 9t10 30q4 37 2 227l-46 -2q2 54 0 107l45 -1q-1 14 -1 31q0 80 47 135.5
t138 55.5q64 0 101.5 -25.5t46.5 -67.5q47 93 187 93q93 0 132.5 -34.5t40.5 -83.5q1 -35 -20 -55.5t-61 -20.5q-36 0 -55.5 18t-19.5 49q0 54 50 66q-50 -3 -66 -38.5t3 -123.5l54 2q-2 -53 0 -107l-45 2q-4 -174 3 -227q4 -39 36 -39h11zM288 640q-52 -1 -68.5 -46
t27.5 -119h114q0 32 2 46q-19 -15 -53 -15t-52.5 18t-18.5 51q0 52 49 65z" />
    <glyph glyph-name="f_i" unicode="fi" horiz-adv-x="642" 
d="M8 479l43 -1q1 125 62 173.5t188 48.5q103 0 162.5 -30t59.5 -84q0 -80 -86 -80q-80 0 -80 69q0 38 25 55q-52 -2 -78.5 -27.5t-26.5 -82.5v-41q260 0 310 7q-1 -65 -1 -179t1 -160q1 -21 10 -30t31 -9h5q-2 -55 0 -110q-98 2 -153 2l-153 -2q2 55 0 110h5q26 0 29 39
q2 26 2.5 92.5t-2.5 92.5q-3 24 -14 35t-39 11h-31q0 -200 3 -231q2 -23 7.5 -31t20.5 -8h4q-2 -55 0 -110q-96 2 -150 2l-154 -2q2 55 0 110h13q14 0 21 8.5t9 30.5q1 10 1 41t-0.5 89.5t-0.5 96.5l-43 -2q2 54 0 107z" />
    <glyph glyph-name="f_l" unicode="fl" horiz-adv-x="640" 
d="M588 692q-2 -110 -2 -309t2 -228q2 -27 10.5 -37t30.5 -10h5q-2 -55 0 -110q-102 2 -159 2l-146 -2q2 55 0 110h4q26 0 29 47q2 23 2 171.5t-2 196.5q-20 -17 -56 -17q-75 0 -75 69q0 53 49 64q-30 -2 -49.5 -23t-18 -59t32.5 -80l80 2q-2 -54 0 -107l-44 1
q-2 -209 0 -226q2 -22 7.5 -30.5t18.5 -8.5h6q-2 -55 0 -110q-89 2 -146 2l-159 -2q2 55 0 110h12q16 0 23 8.5t9 30.5q4 37 2 226l-46 -1q2 54 0 107l45 -1q-1 18 -1 31q0 83 47.5 137t137.5 54q46 0 83 -15v5q190 0 268 2z" />
    <glyph glyph-name="f_f_i" unicode="ffi" horiz-adv-x="957" 
d="M628 108q-2 -55 0 -110q-96 2 -150 2l-145 -2q2 55 0 110h9q14 0 18.5 8t6.5 31q2 24 0 230h-92q-4 -177 3 -230q4 -39 32 -39h9q-2 -55 0 -110q-99 2 -154 2l-157 -2q2 55 0 110h13q16 0 22.5 8.5t8.5 30.5q4 42 2 227l-46 -2q2 54 0 107l45 -1q-1 15 -1 30q0 84 50 138
t143 54q69 0 104 -29t38 -77q25 58 81 82t149 24q212 0 212 -114q0 -80 -92 -80q-39 0 -60 18.5t-21 50.5q0 41 36 58q-53 -1 -76 -25t-23 -88v-41q223 0 309 7q-2 -65 -2 -179t2 -160q1 -21 10 -30t31 -9h5q-2 -55 0 -110q-98 2 -153 2l-153 -2q2 55 0 110h5q26 0 29 39
q2 24 2 92.5t-2 92.5q-2 23 -12.5 34.5t-34.5 11.5h-36q0 -200 3 -231q2 -23 7.5 -31t20.5 -8h4zM288 640q-52 -3 -70 -47.5t25 -117.5h124q0 29 3 53q-19 -22 -59 -22q-72 0 -72 69q0 53 49 65z" />
    <glyph glyph-name="f_f_l" unicode="ffl" horiz-adv-x="953" 
d="M8 479l45 -1q-1 14 -1 30q0 81 46.5 136.5t138.5 55.5q66 0 103 -27.5t43 -73.5q47 101 169 101q47 0 81 -14v4q190 0 268 2q-2 -110 -2 -309t2 -228q2 -27 10.5 -37t30.5 -10h5q-2 -55 0 -110q-98 2 -153 2l-153 -2q2 55 0 110h4q19 0 24 8t6 31v8q1 23 1 169.5
t-1 196.5q-19 -15 -52 -15t-51.5 17.5t-18.5 51.5q0 53 50 65q-52 -1 -68.5 -46t27.5 -119h3l74 4q-2 -53 0 -107l-44 3q-4 -189 1 -228q4 -39 26 -39h6q-2 -55 0 -110q-94 2 -147 2l-148 -2q2 55 0 110h4q16 0 21 8t7 31q4 37 2 230h-90q-2 -205 1 -230q4 -39 34 -39h8
q-2 -55 0 -110q-103 2 -158 2l-154 -2q2 55 0 110h10q16 0 24 9t10 30q4 37 2 227l-46 -2q2 54 0 107zM288 640q-52 -1 -70 -45.5t25 -118.5l122 -1v48q-18 -17 -56 -17q-34 0 -52 18.5t-18 50.5q0 52 49 65z" />
    <glyph glyph-name="f_j" unicode="fj" horiz-adv-x="595" 
d="M8 479l43 -1q1 125 62 173.5t188 48.5q212 0 212 -114q0 -80 -96 -80q-81 0 -81 71q0 35 27 52q-46 -2 -66 -25.5t-20 -83.5v-41q273 0 310 3v-413q0 -143 -49.5 -206t-185.5 -63q-81 0 -121 24.5t-40 81.5q0 36 22 56.5t52 20.5q34 0 53 -18t19 -51q0 -67 -85 -67
q15 -5 33 -5q42 0 58.5 26t17.5 98q1 73 1 206.5t-1 155.5q-3 44 -38 44h-46q0 -194 3 -225q2 -23 7.5 -31t20.5 -8h24q-2 -55 0 -110q-116 2 -170 2l-154 -2q2 55 0 110h13q14 0 21 8.5t9 30.5q1 10 1 41t-0.5 89.5t-0.5 96.5l-43 -2q2 54 0 107z" />
    <glyph glyph-name="f_t" unicode="ft" horiz-adv-x="707" 
d="M641 216l54 -1q12 -121 -25 -176.5t-143 -55.5q-77 0 -120.5 42t-43.5 116q0 26 3 107t3 127h-88q-2 -203 1 -228q4 -39 34 -39h9q-2 -55 0 -110q-101 2 -158 2l-159 -2q2 55 0 110h10q16 0 24 9t10 30q2 19 2 225h-46q2 54 0 107l45 -2q-1 26 -1 32q0 80 47 135.5
t138 55.5q73 0 114.5 -32t42.5 -82q0 -37 -19.5 -58.5t-54.5 -21.5q-36 0 -56 17.5t-20 48.5q0 59 55 68q-37 2 -59 -21t-22 -63q0 -44 39 -95h20q63 -1 104.5 9.5t67.5 36.5t40 55t30 80q45 -4 91 0q-8 -67 -8 -163l95 3q-2 -55 0 -110l-95 1v-176q0 -38 2.5 -58.5
t6.5 -26.5t11 -6q18 0 22 35t-3 75z" />
    <glyph glyph-name="t_t" unicode="tt" horiz-adv-x="736" 
d="M670 216l54 -1q12 -121 -25 -176.5t-143 -55.5q-92 0 -129 38.5t-35 119.5q0 16 3 100t3 133h-120v-177q0 -38 2.5 -58.5t6.5 -26.5t11 -6q16 0 19.5 30.5t-5.5 57.5l45 9q27 -104 -10.5 -162t-143.5 -58q-92 0 -129 38.5t-35 119.5q0 16 3 100t3 133h-37q2 44 0 89
q75 -1 124 52t63 127q46 -4 91 0q-8 -68 -8 -167v-14h53q183 -1 217 181q45 -4 91 0q-8 -67 -8 -163l95 3q-2 -55 0 -110h-95v-175q0 -38 2.5 -58.5t6.5 -26.5t11 -6q18 0 22 35t-3 75z" />
    <glyph glyph-name=".notdef" horiz-adv-x="500" 
 />
    <glyph glyph-name=".null" horiz-adv-x="0" 
 />
    <glyph glyph-name="nonmarkingreturn" horiz-adv-x="333" 
 />
    <glyph glyph-name="space" unicode=" " horiz-adv-x="210" 
 />
    <glyph glyph-name="exclam" unicode="!" horiz-adv-x="324" 
d="M271 75q0 -44 -29.5 -71t-77.5 -27q-46 0 -75 27.5t-29 73.5q0 45 29.5 73t74.5 28q48 0 77.5 -28.5t29.5 -75.5zM179 243q0 -19 -3.5 -25.5t-13.5 -6.5q-11 0 -15 7t-4 25q0 54 -7.5 90t-15.5 52.5t-29.5 49t-35.5 57.5q-44 78 -12.5 148t119.5 70q56 0 92 -33.5
t38.5 -82t-25.5 -102.5q-13 -23 -36.5 -57t-30.5 -49t-14 -51.5t-7 -91.5z" />
    <glyph glyph-name="quotedbl" unicode="&#x22;" horiz-adv-x="358" 
d="M118 401q0 -18 -15 -18q-14 0 -14 18q0 126 -25 181q-21 50 -9.5 84.5t50.5 34.5q36 0 48.5 -34.5t-10.5 -84.5q-25 -53 -25 -181zM268 401q0 -18 -15 -18q-14 0 -14 18q0 126 -25 181q-21 50 -9.5 84.5t50.5 34.5q36 0 48.5 -34.5t-10.5 -84.5q-25 -53 -25 -181z" />
    <glyph glyph-name="numbersign" unicode="#" horiz-adv-x="588" 
d="M159 0h-40l45 211q-26 0 -67 -0.5t-54 -0.5q1 4 3 14t4 21.5t3 14.5q62 -2 120 -2q9 43 31 160q-29 0 -75 -0.5t-61 -0.5q1 4 3 14t4 21.5t3 14.5q70 -2 135 -2q27 146 39 223h42q-23 -86 -51 -223h149q20 107 38 223h42q-24 -100 -50 -223q54 0 116 2q-8 -39 -9 -50
q-14 0 -53.5 0.5t-63.5 0.5q-20 -96 -32 -160q59 0 123 2q-8 -39 -9 -50q-14 0 -55.5 0.5t-66.5 0.5q-26 -143 -35 -211h-40q20 84 45 211h-149q-23 -125 -34 -211zM233 418q-20 -96 -32 -160h151l31 160h-150z" />
    <glyph glyph-name="dollar" unicode="$" horiz-adv-x="590" 
d="M279 787l-3 -103q4 0 13 0.5t14 0.5q13 0 19 -1l-3 103h53l-4 -107q78 -12 122.5 -49t43.5 -87q-1 -34 -18.5 -52t-48.5 -18q-29 0 -46 14t-17 39q0 40 37 52q-34 14 -75 20l-4 -117q212 -25 212 -223q0 -97 -53.5 -158t-152.5 -80l4 -120h-53l4 115l-48 -2l4 -113h-53
l3 115q-96 10 -151 51.5t-53 99.5q1 34 21 54.5t54 20.5q30 0 48 -15.5t18 -41.5q0 -44 -40 -57q41 -17 106 -24l4 117q-100 12 -152 71t-52 151q0 88 50 152.5t147 82.5l-3 109h53zM268 218l4 -115l54 3l3 111q-10 1 -30.5 1h-30.5zM270 487q10 -1 30.5 -1.5t27.5 -0.5
l-4 118q-30 0 -51 -3zM424 165q0 42 -62 49l3 -102q59 16 59 53zM177 539q0 -38 58 -48l-3 101q-55 -18 -55 -53z" />
    <glyph glyph-name="percent" unicode="%" 
d="M89 85q0 10 10 10t10 -10t-10 -10t-10 10zM125 139q0 6 4.5 11t11.5 5t11.5 -5t4.5 -11q0 -7 -4.5 -12t-11.5 -5t-11.5 5t-4.5 12zM161 192q0 9 6.5 15.5t15.5 6.5t15.5 -6.5t6.5 -15.5t-6.5 -15.5t-15.5 -6.5t-15.5 6.5t-6.5 15.5zM199 246q0 10 7.5 17.5t18.5 7.5
t18.5 -7.5t7.5 -17.5q0 -11 -7.5 -18.5t-18.5 -7.5t-18.5 7.5t-7.5 18.5zM238 299q0 12 8.5 20.5t20.5 8.5t20.5 -8.5t8.5 -20.5t-8.5 -20.5t-20.5 -8.5t-20.5 8.5t-8.5 20.5zM279 353q0 12 9 20.5t21 8.5t21 -8.5t9 -20.5q0 -13 -9 -21.5t-21 -8.5t-21 8.5t-9 21.5z
M322 406q0 12 8.5 20.5t20.5 8.5t20.5 -8.5t8.5 -20.5t-8.5 -20.5t-20.5 -8.5t-20.5 8.5t-8.5 20.5zM367 460q0 10 7.5 17.5t18.5 7.5t18.5 -7.5t7.5 -17.5q0 -11 -7.5 -18.5t-18.5 -7.5t-18.5 7.5t-7.5 18.5zM413 513q0 9 6.5 15.5t15.5 6.5t15.5 -6.5t6.5 -15.5
t-6.5 -15.5t-15.5 -6.5t-15.5 6.5t-6.5 15.5zM461 567q0 6 4.5 11t11.5 5t11.5 -5t4.5 -11q0 -7 -4.5 -12t-11.5 -5t-11.5 5t-4.5 12zM509 620q0 10 10 10t10 -10t-10 -10t-10 10zM414 32q8 0 12.5 6t7.5 28.5t3 63.5t-3 63t-7.5 28t-12.5 6t-12.5 -6t-8 -28t-3.5 -63
q0 -42 3 -64t8 -28t13 -6zM414 -29q-71 0 -109.5 35.5t-38.5 123.5q0 86 42 123t106 37q71 0 109.5 -36t38.5 -124q0 -86 -41.5 -122.5t-106.5 -36.5zM186 457q8 0 12.5 6t7.5 28.5t3 63.5t-3 63t-7.5 28t-12.5 6t-12.5 -6t-8 -28t-3.5 -63q0 -42 3 -64t8 -28t13 -6z
M186 396q-71 0 -109.5 35.5t-38.5 123.5q0 86 42 123t106 37q71 0 109.5 -36t38.5 -124q0 -86 -41.5 -122.5t-106.5 -36.5z" />
    <glyph glyph-name="ampersand" unicode="&#x26;" horiz-adv-x="840" 
d="M809 165q2 -88 -51 -135t-145 -47q-65 0 -108.5 14t-82.5 47q-61 -61 -180 -61q-98 0 -155 48t-57 138q0 78 49.5 131t122.5 73q-26 62 -26 109q0 218 235 218q94 0 138 -44.5t44 -122.5q0 -123 -118 -195l28 -38q52 -71 73 -97q21 31 21 54q0 39 -33 39h-13v76
q77 -2 120 -2l120 2v-76h-29q-21 0 -33.5 -10t-25.5 -38q-29 -66 -75 -100q18 -13 42 -13q45 0 58 40zM233 244q0 -51 41 -95t87 -37q-22 28 -51 71q-38 57 -62 100q-15 -15 -15 -39zM407 530q0 -58 25 -114q25 45 25 116q0 52 -24 52q-26 0 -26 -54z" />
    <glyph glyph-name="quotesingle" unicode="'" horiz-adv-x="208" 
d="M118 401q0 -18 -15 -18q-14 0 -14 18q0 126 -25 181q-21 50 -9.5 84.5t50.5 34.5q36 0 48.5 -34.5t-10.5 -84.5q-25 -53 -25 -181z" />
    <glyph glyph-name="parenleft" unicode="(" horiz-adv-x="335" 
d="M220 306q0 -206 17.5 -299.5t67.5 -156.5l-54 -44q-111 43 -166 156.5t-55 343.5t55 343.5t166 156.5l54 -44q-49 -61 -67 -162t-18 -294z" />
    <glyph glyph-name="parenright" unicode=")" horiz-adv-x="335" 
d="M115 306q0 193 -18 294t-67 162l54 44q111 -43 166 -156.5t55 -343.5t-55 -343.5t-166 -156.5l-54 44q50 63 67.5 156.5t17.5 299.5z" />
    <glyph glyph-name="asterisk" unicode="*" horiz-adv-x="500" 
d="M276 587q-15 -18 -16 -49l11 -6q17 11 24 18.5t12 21.5q1 3 4.5 15t6 18t10 15.5t18.5 15.5q25 15 51.5 9.5t40.5 -29.5q14 -29 5 -52.5t-33 -37.5q-13 -8 -27.5 -8.5t-31.5 3t-19 3.5q-22 4 -49 -10v-13q28 -16 52 -11q2 0 15 3.5t19 4t18 -1.5t23 -8q25 -15 33.5 -40
t-5.5 -50q-15 -26 -42.5 -30.5t-49.5 10.5q-13 7 -20.5 19t-13.5 29l-6 18q-10 23 -34 38l-11 -6q0 -33 17 -51l11 -11t12.5 -14.5t8 -16.5t4.5 -24q0 -29 -18 -49t-46 -20q-30 0 -47 20.5t-17 48.5q0 11 5 23t10.5 19t13 15.5t9.5 10.5q15 18 16 49l-11 6q-29 -18 -36 -40
q-1 -3 -4.5 -15t-6 -18t-10 -15.5t-18.5 -15.5q-25 -15 -51.5 -9t-40.5 30q-14 28 -5 51.5t33 37.5q13 8 27.5 8.5t31.5 -3t19 -3.5q23 -4 50 10v12q-29 16 -53 12q-2 0 -15 -3.5t-19 -4t-18 1.5t-23 8q-25 15 -33.5 40t5.5 50q15 26 42.5 30.5t49.5 -10.5q13 -7 20.5 -19
t13.5 -29l6 -18q7 -22 34 -39l11 6q-1 33 -17 52l-11 11t-12.5 14.5t-8 16.5t-4.5 24q0 29 18 49t46 20q30 0 47 -20.5t17 -48.5q0 -11 -5 -23t-10.5 -19t-13 -15.5t-9.5 -10.5z" />
    <glyph glyph-name="plus" unicode="+" 
d="M357 26h-115q5 115 14 181q-90 -14 -179 -14v115q88 0 178 -14q-13 84 -13 179h115q0 -89 -14 -179q90 14 180 14v-115q-91 0 -181 14q11 -75 15 -181z" />
    <glyph glyph-name="comma" unicode="," horiz-adv-x="261" 
d="M55 -60q111 26 121 130q-17 -33 -62 -33q-33 0 -53.5 21t-20.5 57q0 37 23 61t67 24q42 0 66.5 -28t24.5 -77q0 -69 -41 -117t-116 -63z" />
    <glyph glyph-name="hyphen" unicode="-" horiz-adv-x="256" 
d="M10 183q2 67 0 136q118 -4 236 0q-2 -68 0 -136q-118 4 -236 0z" />
    <glyph glyph-name="period" unicode="." horiz-adv-x="328" 
d="M278 92q0 -50 -29.5 -78t-84.5 -28q-53 0 -83.5 27t-30.5 80q0 47 32 77t82 30q55 0 84.5 -30.5t29.5 -77.5z" />
    <glyph glyph-name="slash" unicode="/" horiz-adv-x="375" 
d="M149 -173q-13 1 -69.5 1t-69.5 -1q46 160 115 434.5t101 428.5q69 -4 139 0q-46 -160 -115 -434.5t-101 -428.5z" />
    <glyph glyph-name="zero" unicode="0" horiz-adv-x="641" 
d="M268 280q0 -131 10 -172t42 -41q21 0 32 17t15.5 62.5t4.5 137.5q0 138 -9.5 181.5t-42.5 43.5q-31 0 -41.5 -45.5t-10.5 -183.5zM30 284q0 154 76 232t214 78q146 0 218.5 -76t72.5 -234q0 -304 -291 -304q-144 0 -217 72.5t-73 231.5z" />
    <glyph glyph-name="one" unicode="1" horiz-adv-x="469" 
d="M116 164q3 67 1 204q-41 -20 -87 -8q2 61 0 122q148 -12 155 112q88 -4 176 0q-5 -88 -6 -132q-3 -124 1 -298q1 -32 11 -44t38 -12h34q-2 -55 0 -110q-130 2 -204 2l-205 -2q2 55 0 110h37q22 0 33 8t13 17.5t3 30.5z" />
    <glyph glyph-name="two" unicode="2" horiz-adv-x="566" 
d="M512 255q30 -49 30 -114q0 -81 -43 -127t-116 -46q-35 0 -68.5 12.5t-53 26t-56.5 41.5q-42 34 -77 34q-18 0 -32 -8q5 1 10 1q22 0 33 -13t11 -32q0 -22 -13.5 -34.5t-38.5 -12.5q-29 0 -48 23.5t-19 64.5q0 134 134 188q64 26 95.5 58t31.5 86q0 88 -98 88
q-30 0 -59 -13q6 1 13 1q43 0 66 -23t23 -61q0 -39 -26 -61t-73 -22q-46 0 -73 28t-27 77q0 83 65.5 130t182.5 47q111 0 173.5 -45t62.5 -123q0 -84 -66 -136.5t-184 -62.5q-107 -9 -158 -58q50 32 174 17q28 -3 43.5 -4.5t39 -2t36 3t25.5 10.5t17 20t2 32z" />
    <glyph glyph-name="three" unicode="3" horiz-adv-x="611" 
d="M556 402q0 -133 -132 -169q157 -22 157 -172q0 -98 -77.5 -150t-230.5 -52q-115 0 -179.5 46.5t-64.5 124.5q0 49 30 81t78 32q44 0 70 -23t26 -63q0 -41 -26 -63.5t-73 -24.5q27 -21 77 -21q110 0 110 126q0 56 -29.5 85.5t-77.5 29.5h-29v75h18q45 0 76.5 29t31.5 90
q0 47 -26.5 77.5t-73.5 30.5q-35 0 -64 -12h6q40 0 64.5 -22.5t24.5 -60.5q0 -39 -25.5 -61.5t-69.5 -22.5q-47 0 -73 28.5t-26 76.5q0 73 70.5 125t190.5 52q117 0 182 -52t65 -140z" />
    <glyph glyph-name="four" unicode="4" horiz-adv-x="620" 
d="M243 49q0 1 0.5 14.5t0.5 25.5q-162 0 -214 -1v57q133 221 256 449q111 -4 221 0q-4 -202 -2 -440l72 2q-2 -36 0 -72l-72 2q2 -35 2 -36q5 -50 39 -50h25q-2 -56 0 -112q-120 3 -199 3l-200 -3q2 56 0 112h29q21 0 30.5 11.5t11.5 37.5zM244 395q-54 -111 -114 -244
q35 -1 115 -1q0 173 -1 245z" />
    <glyph glyph-name="five" unicode="5" horiz-adv-x="616" 
d="M184 205q-54 0 -92 -19l-27 30q34 63 46.5 169t8.5 209q59 -21 200 -21q131 0 207 30l33 -23q4 -63 -13 -108.5t-50.5 -70t-73 -35t-87.5 -10.5q-102 0 -176 42q-5 -72 -29 -121q81 43 206 43q124 0 186.5 -58t62.5 -165q0 -238 -303 -238q-122 0 -188 45.5t-66 127.5
q0 51 30.5 81t78.5 30q43 0 69 -22.5t26 -62.5t-23 -62.5t-66 -25.5q26 -14 56 -14q55 0 82.5 32.5t27.5 90.5q0 56 -32 91t-94 35z" />
    <glyph glyph-name="six" unicode="6" horiz-adv-x="622" 
d="M389 636q-63 0 -90 -57t-29 -202q41 61 135 61q187 0 187 -207q0 -118 -75 -182t-212 -64q-135 0 -205 80.5t-70 255.5q0 191 81 290t225 99q100 0 157.5 -38.5t57.5 -102.5q0 -109 -107 -109q-48 0 -73.5 25t-25.5 65q0 35 18.5 57t52.5 27q-12 2 -27 2zM271 212
q0 -70 9 -100t36 -30q26 0 34.5 29.5t8.5 100.5q0 68 -10 96.5t-33 28.5q-27 0 -36 -27t-9 -98z" />
    <glyph glyph-name="seven" unicode="7" horiz-adv-x="560" 
d="M130 594l6 -65q29 68 107 68q61 0 110 -55q34 -38 57.5 -50.5t48.5 -12.5q27 0 41 17q-8 -2 -17 -2q-24 0 -40 14.5t-16 39.5t17 41t47 16t48 -21.5t18 -59.5q0 -109 -90 -195q-64 -61 -81 -121.5t-1 -154.5q15 -92 -26 -134.5t-109 -42.5q-140 0 -140 142q0 108 64 174
t204 127q52 22 79 48q-53 -39 -122 -39q-40 0 -97 24q-36 15 -58 15q-52 0 -49 -54q-10 1 -43 1t-43 -1q3 33 2.5 131.5t-4.5 149.5q10 -2 43.5 -2t43.5 2z" />
    <glyph glyph-name="eight" unicode="8" horiz-adv-x="640" 
d="M566 554q0 -71 -62 -110q60 -30 85 -77.5t25 -119.5q0 -128 -81.5 -195t-235.5 -67q-267 0 -267 158q0 88 104 123q-95 62 -95 190q0 117 74.5 185.5t212.5 68.5q112 0 176 -41.5t64 -114.5zM259 220q-25 4 -49 11q-25 -26 -25 -69q0 -76 132 -76q64 0 94.5 16.5
t30.5 41.5q0 18 -12.5 29t-51.5 22t-119 25zM323 617q-46 0 -75 -17t-29 -45t31.5 -42.5t126.5 -30.5l38 -8q16 27 16 63q0 35 -26.5 57.5t-81.5 22.5z" />
    <glyph glyph-name="nine" unicode="9" horiz-adv-x="622" 
d="M213 -74q72 0 102.5 57.5t31.5 211.5q-31 -69 -120 -69q-90 0 -143.5 55t-53.5 160q0 111 74 182t203 71q285 0 285 -361q0 -374 -327 -374q-105 0 -164.5 37.5t-59.5 100.5q0 47 29 73t81 26q47 0 72.5 -23t25.5 -66q0 -61 -53 -80q10 -1 17 -1zM347 379q0 81 -9.5 111
t-34.5 30q-26 0 -35 -30t-9 -111q0 -88 10 -122.5t33 -34.5q25 0 35 34t10 123z" />
    <glyph glyph-name="colon" unicode=":" horiz-adv-x="248" 
d="M198 342q0 -31 -19.5 -49t-54.5 -18q-34 0 -54 18t-20 50q0 33 19.5 51.5t54.5 18.5q34 0 54 -19t20 -52zM198 126q0 -31 -19.5 -49t-54.5 -18q-34 0 -54 18t-20 50q0 33 19.5 51.5t54.5 18.5q34 0 54 -19t20 -52z" />
    <glyph glyph-name="semicolon" unicode=";" horiz-adv-x="277" 
d="M67 126q0 34 21 54t58 20q38 0 59.5 -27t21.5 -74q0 -71 -50.5 -119.5t-139.5 -60.5l-7 26q150 26 152 148q-13 -35 -55 -35q-28 0 -44 17t-16 51zM220 342q0 -31 -19.5 -49t-54.5 -18q-34 0 -54 18t-20 50q0 33 19.5 51.5t54.5 18.5q34 0 54 -19t20 -52z" />
    <glyph glyph-name="less" unicode="&#x3c;" 
d="M140 215v68q183 104 279 173l42 -89q-80 -34 -230 -118q161 -90 230 -118l-42 -89q-96 69 -279 173z" />
    <glyph glyph-name="equal" unicode="=" 
d="M80 118q3 50 0 101q220 -4 440 0q-3 -50 0 -101q-220 4 -440 0zM80 283q3 50 0 101q220 -4 440 0q-3 -50 0 -101q-220 4 -440 0z" />
    <glyph glyph-name="greater" unicode="&#x3e;" 
d="M461 283v-68q-183 -104 -279 -173l-42 89q69 28 230 118q-150 84 -230 118l42 89q96 -69 279 -173z" />
    <glyph glyph-name="question" unicode="?" horiz-adv-x="550" 
d="M397 282l14 -34q-74 -39 -147 -39q-49 0 -77 20t-28 55q0 28 13.5 48t47.5 46q66 50 66 111q0 108 -101 108q-39 0 -70 -18q14 2 27 2q43 0 68 -24.5t25 -65.5q0 -40 -27.5 -64.5t-75.5 -24.5q-52 0 -79 29t-27 81q0 92 70 145t182 53q132 0 195 -54t63 -145
q0 -89 -55 -135t-155 -73q-28 -8 -37 -15t-9 -16q0 -6 7.5 -10.5t18.5 -4.5q39 0 91 25zM388 78q0 -47 -27.5 -74t-76.5 -27q-50 0 -78.5 27t-28.5 74t28.5 74t78.5 27q49 0 76.5 -27t27.5 -74z" />
    <glyph glyph-name="at" unicode="@" horiz-adv-x="806" 
d="M662 434q-31 -121 -51 -255q-12 -80 25 -80q29 0 52 37.5t31 87.5q15 70 7 133.5t-33 111.5t-83.5 76.5t-144.5 28.5q-145 0 -241 -84t-120 -244q-25 -166 44 -255.5t208 -89.5q162 0 272 95l26 -26q-49 -54 -128 -84.5t-169 -30.5q-195 0 -280.5 109.5t-58.5 285.5
q26 172 147 269.5t298 97.5t272 -103t57 -290q-18 -91 -77.5 -138.5t-143.5 -47.5q-56 0 -91 21t-40 63q-46 -84 -146 -84q-58 0 -88.5 42t-19.5 126q17 129 76 187.5t135 58.5q89 0 104 -68q47 26 58 50q51 -4 103 0zM385 122q36 0 66 157q18 96 -11 96q-39 0 -70 -165
q-17 -88 15 -88z" />
    <glyph glyph-name="A" unicode="A" horiz-adv-x="886" 
d="M428 131q33 0 41.5 18.5t-1.5 56.5q-96 2 -193 0q-11 -41 -0.5 -58t40.5 -17h32q-2 -67 0 -133q-106 2 -166 2l-166 -2q2 66 0 133h14q44 0 68 20.5t44 72.5q91 236 180 471q83 -2 130 -2l129 2q95 -265 181 -471q23 -56 44.5 -74.5t51.5 -18.5h14q-2 -66 0 -133
q-153 2 -239 2l-239 -2q2 67 0 133h35zM447 276q-36 105 -74 208q-62 -173 -74 -209q102 0 148 1z" />
    <glyph glyph-name="B" unicode="B" horiz-adv-x="754" 
d="M739 206q2 -103 -66.5 -155.5t-233.5 -52.5q-19 0 -100.5 1t-125.5 1l-198 -2q2 66 0 133h11q29 0 44 16t17 53q2 38 2 149t-2 144q-2 34 -15 50t-40 16h-17q2 65 0 131q2 0 91 -1t129 -1q23 0 99 0.5t96 0.5q280 0 280 -174q0 -125 -129 -155q77 -12 116.5 -52.5
t41.5 -101.5zM368 315h-29q0 -107 2 -133q2 -24 15 -37.5t35 -13.5h10q36 0 52 20.5t16 72.5q0 51 -25.5 71t-75.5 20zM341 521q-2 -18 -2 -130h29q51 0 68 16.5t17 68.5q0 45 -15 64t-46 19h-8q-40 0 -43 -38z" />
    <glyph glyph-name="C" unicode="C" horiz-adv-x="724" 
d="M550 662q25 -17 35.5 -12t14.5 40q54 -4 108 0q-11 -84 -20 -267q-31 1 -93 1t-93 -1q0 136 -87 136q-37 0 -57 -14.5t-32.5 -62t-12.5 -136.5q0 -68 7.5 -113t22.5 -66t31 -28.5t40 -7.5q42 0 67.5 34t21.5 105q32 -2 102.5 -2t102.5 2q4 -158 -69.5 -221.5
t-261.5 -63.5q-175 0 -263.5 82t-88.5 279q0 178 90 271t245 93q115 0 190 -48z" />
    <glyph glyph-name="D" unicode="D" horiz-adv-x="804" 
d="M15 690q5 0 42 -0.5t87 -1t86 -0.5t107 0.5t106 0.5q178 0 255.5 -81t79.5 -258q4 -352 -326 -352q-20 0 -98 1t-122 1l-217 -2q2 66 0 133h9q34 0 47.5 15t15.5 54t2 149.5t-2 143.5q-5 66 -58 66h-14q2 65 0 131zM341 177q2 -36 40 -36h12q66 0 97 43.5t31 166.5
q0 117 -31.5 159t-95.5 42h-13q-38 0 -40 -32q-6 -133 0 -343z" />
    <glyph glyph-name="E" unicode="E" horiz-adv-x="734" 
d="M410 456v39h98q-8 -93 -8 -151q0 -69 8 -151q-48 1 -96 0v36q0 46 -11 61.5t-47 15.5h-12q0 -64 2 -106q2 -40 17.5 -54.5t50.5 -14.5h58q59 0 82 29t23 122q72 -4 144 0q-10 -106 -10 -288q-101 6 -248 6h-233q-46 0 -130 -1l-83 -1q2 66 0 133h11q34 0 47.5 16t15.5 53
t2.5 138.5t-1.5 143.5q-4 77 -63 77h-12q2 65 0 131l83 -1q84 -1 130 -1h233q199 0 254 7q-8 -142 -6 -272q-69 4 -137 0q0 45 -8 74t-24.5 41.5t-32 16t-39.5 3.5h-55q-34 0 -51 -15t-18 -50q-2 -58 -2 -111h12q34 0 45 15t11 59z" />
    <glyph glyph-name="F" unicode="F" horiz-adv-x="727" 
d="M446 131q-2 -68 0 -133q-137 2 -215 2l-216 -2q2 66 0 133h15q30 0 44 16t16 52t2 140t-2 154q-2 30 -17 48t-41 18h-17q2 65 0 131q5 0 39.5 -0.5t84.5 -1t91 -0.5q38 0 97 0.5t135 0.5q203 0 250 6q-7 -250 -6 -312q-77 3 -135 -1q1 107 -20.5 142t-81.5 34h-56
q-34 0 -51 -15t-19 -50q-2 -40 -2 -111h12q34 0 45.5 20t11.5 76v16h98q-8 -91 -8 -150q0 -69 8 -151q-49 1 -96 0v37q0 44 -11.5 60t-47.5 16h-12q0 -64 2 -106q2 -41 16.5 -55t52.5 -14h34z" />
    <glyph glyph-name="G" unicode="G" horiz-adv-x="772" 
d="M357 710q122 0 193 -50q24 -18 35 -11.5t15 41.5q54 -4 108 0q-11 -84 -20 -267q-31 1 -93 1t-93 -1q0 136 -87 136q-37 0 -57 -14.5t-32.5 -62t-12.5 -136.5q0 -68 8 -113t23.5 -66t31.5 -28.5t37 -7.5q83 0 83 96q0 29 -9.5 42.5t-32.5 13.5h-29v94q116 -3 176 -3
l166 3q-1 -49 0 -94h-17q-21 0 -28 -11.5t-7 -41.5q0 -126 18 -230q-71 4 -143 0q-11 35 -24 69q-27 -42 -82.5 -65.5t-126.5 -23.5q-76 0 -133.5 17.5t-104 58t-70.5 113.5t-24 177q0 179 88.5 271.5t243.5 92.5z" />
    <glyph glyph-name="H" unicode="H" horiz-adv-x="840" 
d="M15 -3q2 67 0 134h17q31 0 42 12t13 46t2 158t-2 153q-2 30 -14 44.5t-38 14.5h-20q2 65 0 131q126 -2 197 -2l196 2q-2 -66 0 -131h-9q-54 0 -59 -59q-2 -17 -2 -122q77 -2 163 0q0 105 -1 122q-5 59 -60 59h-9q2 65 0 131q125 -2 196 -2l196 2q-2 -66 0 -131h-18
q-26 0 -38 -14.5t-14 -44.5q-2 -28 -2 -153.5t2 -156.5q2 -32 12.5 -45.5t40.5 -13.5h17q-2 -67 0 -134q-125 3 -196 3l-196 -3q2 67 0 134h15q28 0 39.5 13.5t13.5 45.5q2 34 2 112q-86 2 -163 0q0 -78 2 -112q1 -20 4 -31t15 -19.5t34 -8.5h15q-2 -67 0 -134
q-125 3 -196 3z" />
    <glyph glyph-name="I" unicode="I" horiz-adv-x="428" 
d="M17 -3q2 67 0 134h21q27 0 36.5 14.5t12.5 44.5q2 26 2 153.5t-2 156.5q-2 30 -14 44.5t-38 14.5h-18q2 65 0 131q127 -2 198 -2l197 2q-2 -66 0 -131h-19q-26 0 -38 -14.5t-14 -44.5q-2 -29 -2 -156.5t2 -153.5q5 -59 49 -59h21q-2 -67 0 -134q-126 3 -197 3z" />
    <glyph glyph-name="J" unicode="J" horiz-adv-x="593" 
d="M226 152q0 -38 -22 -63.5t-62 -31.5q12 -2 24 -2q47 0 70.5 27.5t26.5 108.5q2 56 2 168.5t-2 140.5q-2 30 -13.5 44.5t-38.5 14.5h-27q2 65 0 131q126 -2 197 -2l197 2q-2 -66 0 -131h-9q-26 0 -39 -12.5t-13 -46.5v-299q0 -104 -73 -160t-207 -56q-109 0 -168 40
t-59 115q0 52 30.5 82.5t84.5 30.5q47 0 74.5 -27t26.5 -74z" />
    <glyph glyph-name="K" unicode="K" horiz-adv-x="834" 
d="M15 -2q2 66 0 133h12q32 0 44 15t15 44q2 26 2 153.5t-2 156.5q-2 31 -15.5 45t-46.5 14h-9q2 65 0 131q125 -2 196 -2l196 2q-2 -66 0 -131h-16q-26 0 -38 -14.5t-14 -44.5q-2 -17 -2 -130q117 91 137 107q30 24 21 53t-44 29h-22q2 65 0 131q125 -2 195 -2l194 2
q-2 -66 0 -131h-35q-53 0 -92 -17t-90 -56l-24 -19l163 -285q17 -30 31.5 -40.5t33.5 -10.5h14q-2 -66 0 -133q-128 2 -200 2l-200 -2q2 67 0 133h10q28 0 28 26t-26 72q-25 45 -51 87l-43 -33q0 -71 2 -93q5 -59 45 -59h14q-2 -67 0 -133q-122 2 -191 2z" />
    <glyph glyph-name="L" unicode="L" horiz-adv-x="665" 
d="M428 690q-2 -23 -2.5 -66t1.5 -65h-15q-33 0 -50 -16.5t-19 -52.5q-2 -37 -2 -145t2 -149q2 -39 18.5 -52t49.5 -13h16q36 0 55 11t31.5 53.5t12.5 124.5q62 -4 124 0q-2 -162 0 -324q-79 4 -226 4h-231q-115 0 -178 -1q2 66 0 132h22q22 0 33.5 10.5t14 24t4.5 43.5
q2 37 2 144.5t-2 136.5q-5 69 -52 69h-18q2 65 0 131q131 -2 205 -2z" />
    <glyph glyph-name="M" unicode="M" horiz-adv-x="990" 
d="M408 59q-68 137 -179 335q0 -168 1 -186q5 -77 69 -77h30q-2 -67 0 -133q-100 2 -157 2l-157 -2q2 66 0 133h26q59 0 64 77q2 36 2 143t-2 140q-5 68 -63 68h-27q2 65 0 131q187 -4 373 0q53 -108 134 -247q80 156 119 247q167 -4 334 0q-2 -66 0 -131h-19
q-26 0 -41.5 -19t-17.5 -49q-2 -29 -2 -136t2 -148q2 -43 14 -59.5t45 -16.5h19q-2 -66 0 -133q-136 2 -213 2l-213 -2q2 67 0 133h23q30 0 43.5 19t15.5 58q1 17 1 190q-103 -196 -168 -339h-56z" />
    <glyph glyph-name="N" unicode="N" horiz-adv-x="827" 
d="M365 690q104 -178 228 -362q0 132 -1 153q-4 78 -66 78h-38q2 65 0 131q104 -3 162 -3l162 3q-2 -66 0 -131h-19q-62 0 -66 -78q-2 -42 -2 -200t2 -282q-116 4 -233 0q-105 174 -256 409q-2 -152 1 -199q5 -78 68 -78h40q-2 -67 0 -133q-106 2 -166 2l-166 -2q2 66 0 133
h21q63 0 68 78q2 33 2 142.5t-2 138.5q-2 30 -20.5 49.5t-47.5 19.5h-20q2 65 0 131q175 -4 349 0z" />
    <glyph glyph-name="O" unicode="O" horiz-adv-x="797" 
d="M399 122q52 0 68.5 46t16.5 176q0 134 -15.5 178.5t-69.5 44.5q-52 0 -69 -46.5t-17 -177.5t16.5 -176t69.5 -45zM399 -15q-189 0 -281.5 82t-92.5 276q0 362 374 362q191 0 282 -83.5t91 -277.5q0 -359 -373 -359z" />
    <glyph glyph-name="P" unicode="P" horiz-adv-x="725" 
d="M416 233q-36 0 -76 2q0 -29 1 -44q4 -60 57 -60h49q-2 -67 0 -133q-138 2 -216 2l-216 -2q2 66 0 133h15q28 0 41.5 14t15.5 46t2 162t-2 157t-12 38t-33 11h-27q2 65 0 131q8 0 115.5 -1t117.5 -1q24 0 85 0.5t81 0.5q144 0 220 -56.5t76 -167.5q0 -232 -294 -232z
M341 530q-3 -40 -3 -196q12 -1 17 -1q56 1 75 27t19 95q0 59 -15.5 81.5t-51.5 22.5h-12q-27 0 -29 -29z" />
    <glyph glyph-name="Q" unicode="Q" horiz-adv-x="797" 
d="M399 -15q-189 0 -281.5 82t-92.5 276q0 362 374 362q191 0 282 -83.5t91 -277.5q0 -227 -151 -311q13 -79 25 -103.5t33 -24.5q43 0 45 100l40 2q2 -41 -4 -71t-23 -56.5t-53 -40.5t-91 -14q-73 0 -118.5 40.5t-44.5 120.5q-10 -1 -31 -1zM440 254q19 0 41 -4q3 39 3 94
q0 134 -15.5 178.5t-69.5 44.5q-52 0 -69 -46.5t-17 -177.5q0 -163 28 -198q-2 8 -2 17q0 41 26.5 66.5t74.5 25.5zM368 162q0 -40 39 -40q30 0 48 23q0 64 -43 64q-44 0 -44 -47z" />
    <glyph glyph-name="R" unicode="R" horiz-adv-x="821" 
d="M703 176q7 -41 15 -55.5t22 -14.5q9 0 14 9.5t4.5 30.5t-7.5 51q27 -1 54 3q24 -99 -18.5 -162.5t-162.5 -63.5q-101 0 -140.5 42.5t-45.5 134.5q-5 78 -27 107t-72 31q0 -68 2 -98q4 -60 57 -60h20q-2 -67 0 -133q-128 2 -201 2l-202 -2q2 66 0 133h23q24 0 35.5 13.5
t13.5 45.5q2 31 2 156t-2 154q-2 31 -13 45t-37 14h-22q2 65 0 131q2 0 94 -1t129 -1q16 0 103 0.5t146 0.5q118 0 182.5 -49t64.5 -139q0 -70 -45 -116t-135 -55q70 -8 104 -48t45 -106zM341 519q-2 -25 -2 -138h30q47 0 65.5 20t18.5 68q0 45 -13 67.5t-48 22.5h-12
q-37 0 -39 -40z" />
    <glyph glyph-name="S" unicode="S" horiz-adv-x="711" 
d="M367 577q-120 0 -120 -48q0 -23 25.5 -31t108.5 -11q320 -12 320 -243q0 -259 -310 -259q-111 0 -203 45q-47 24 -57 -35q-15 1 -52 1t-52 -1q10 167 8 230q49 -4 98 0q51 -114 255 -114q111 0 111 48q0 21 -32.5 30t-123.5 14q-158 8 -231 69t-73 173q0 118 75 189
t213 71q107 0 189 -42q16 -8 24.5 -10.5t14 3.5t6.5 10.5t6 23.5q13 -2 47 -2t47 2q-6 -109 -3 -203q-56 5 -100 1q-44 89 -191 89z" />
    <glyph glyph-name="T" unicode="T" horiz-adv-x="754" 
d="M525 550h-22q-2 -76 -1.5 -201t2.5 -149q5 -69 68 -69h21q-2 -66 0 -133q-138 2 -216 2l-216 -2q2 67 0 133h21q64 0 69 69q2 28 2 150t-1 200h-23q-34 0 -50 -23.5t-18 -69.5l-4 -75q-69 4 -137 0q6 147 -5 310q68 -4 214 -4h296q144 0 214 4q-11 -163 -5 -310
q-68 4 -137 0l-4 75q-2 46 -18 69.5t-50 23.5z" />
    <glyph glyph-name="U" unicode="U" horiz-adv-x="803" 
d="M83 250q0 13 1.5 117t-0.5 126q-3 66 -58 66h-11q2 65 0 131q135 -2 210 -2q45 0 131.5 1t87.5 1q-2 -66 0 -131h-29q-59 0 -62 -66q-4 -114 0 -227q3 -73 26 -104t74 -31t74.5 31t26.5 104q6 124 0 227q-3 66 -58 66h-27q2 65 0 131q96 -2 155 -2q35 0 98 1t66 1
q-2 -66 0 -131h-12q-55 0 -58 -66v-236q0 -151 -79.5 -216.5t-227.5 -65.5q-174 0 -251 66t-77 209z" />
    <glyph glyph-name="V" unicode="V" horiz-adv-x="848" 
d="M419 464q19 -77 67 -227q53 163 67 226q12 45 5.5 70.5t-38.5 25.5h-19q2 65 0 131q106 -2 166 -2q35 0 99 1t67 1q-2 -66 0 -131h-25q-43 0 -66 -15.5t-41 -65.5q-22 -59 -70 -217t-76 -267q-140 4 -280 0q-23 91 -73.5 264t-67.5 220q-16 46 -36.5 63.5t-60.5 17.5h-22
q2 65 0 131q147 -2 229 -2q36 0 89 0.5t93.5 1t45.5 0.5q-2 -66 0 -131h-19q-29 0 -37.5 -21.5t3.5 -73.5z" />
    <glyph glyph-name="W" unicode="W" horiz-adv-x="1181" 
d="M916 -6q-140 4 -279 0q-29 122 -66 266q-39 -144 -69 -266q-124 4 -249 0q-23 104 -69.5 282t-59.5 217q-11 34 -30 50t-57 16h-22q2 65 0 131q145 -2 227 -2q36 0 89 0.5t93 1t44 0.5q-2 -66 0 -131h-18q-27 0 -34 -15.5t-1 -50.5q8 -50 66 -257q56 207 64 257
q5 36 -3 51t-36 15h-14q2 65 0 131q115 -2 180 -2q39 0 109 1t71 1q-2 -66 0 -131h-19q-25 0 -32.5 -14t-0.5 -51q10 -55 67 -263q53 202 62 262q8 31 2.5 48.5t-36.5 17.5h-19q2 65 0 131q93 -2 145 -2q31 0 86 1t59 1q-2 -66 0 -131h-25q-41 0 -62.5 -13t-32.5 -53z" />
    <glyph glyph-name="X" unicode="X" horiz-adv-x="831" 
d="M321 236l-19 36l-23 -36q-23 -37 -27.5 -62t3.5 -34t22 -9h12q-2 -67 0 -133q-88 2 -137 2l-137 -2q2 66 0 133h19q75 0 115 31.5t91 115.5l31 51q-19 36 -85 147q-30 49 -62.5 66t-81.5 17h-20q2 65 0 131q7 0 105 -1t152 -1l257 2q-2 -66 0 -131h-7q-51 0 -7 -96
q4 -9 27 -51l23 50q16 36 19 58.5t-4 30.5t-20 8h-8q2 65 0 131q80 -2 124 -2l123 2q-4 -66 0 -131h-14q-70 0 -103.5 -24.5t-59.5 -82.5l-46 -103q65 -114 87 -148q24 -38 50 -54t70 -16h26q-2 -66 0 -133q-161 2 -252 2l-252 -2q2 67 0 133h15q12 0 17.5 9.5t0.5 34
t-24 61.5z" />
    <glyph glyph-name="Y" unicode="Y" horiz-adv-x="879" 
d="M702 480q-31 -56 -119 -243v-47q0 -59 59 -59h27q2 -66 0 -133q-151 2 -236 2l-237 -2q2 67 0 133h30q32 0 41 14t9 45v48q-97 200 -129 259q-35 62 -115 62h-17v131q161 -2 252 -2l251 2v-131h-14q-28 0 -34 -24t15 -81q23 -57 43 -94q23 46 44 94q20 44 16.5 74.5
t-33.5 30.5h-14v131q104 -2 162 -2l161 2v-131h-13q-68 0 -97 -19t-52 -60z" />
    <glyph glyph-name="Z" unicode="Z" horiz-adv-x="687" 
d="M15 0q2 60 0 121q167 216 328 438h-43q-92 0 -125.5 -36.5t-33.5 -139.5q-57 4 -115 0q4 155 0 309q8 0 96 -2t122 -2h418q-2 -60 0 -120q-165 -218 -321 -437h44q82 0 127 43.5t45 153.5q57 -4 115 0q-4 -166 0 -332l-204 4h-453z" />
    <glyph glyph-name="bracketleft" unicode="[" horiz-adv-x="322" 
d="M50 147v365q0 52 -2.5 124t-5.5 118l-2 46q126 -4 252 0q-2 -50 0 -99h-17q-27 0 -39 -10.5t-13 -38.5t-1 -345.5t1 -345.5q2 -28 13.5 -38.5t45.5 -10.5h10q-2 -49 0 -99q-126 4 -252 0q10 212 10 334z" />
    <glyph glyph-name="backslash" unicode="\" horiz-adv-x="375" 
d="M226 -173q-32 154 -101 428.5t-115 434.5q70 -4 139 0q32 -154 101 -428.5t115 -434.5q-13 1 -69.5 1t-69.5 -1z" />
    <glyph glyph-name="bracketright" unicode="]" horiz-adv-x="322" 
d="M277 512v-405q0 -29 1 -69.5t3 -78t4 -71t3 -54.5l1 -21q-127 4 -254 0q2 50 0 99h10q34 0 45.5 10.5t13.5 38.5t2 345.5t-2 345.5q-1 28 -13 38.5t-39 10.5h-17v99q127 -4 254 0q-12 -186 -12 -288z" />
    <glyph glyph-name="asciicircum" unicode="^" 
d="M290 710h18q29 -25 100 -128t98 -151l-85 -40q-54 135 -122 256q-49 -83 -122 -256l-85 40q39 64 104.5 159t93.5 120z" />
    <glyph glyph-name="underscore" unicode="_" horiz-adv-x="500" 
d="M0 -177q1 15 1 57.5t-1 58.5q80 -1 250 -1t250 1q-1 -16 -1 -58t1 -58q-80 1 -250 1t-250 -1z" />
    <glyph glyph-name="grave" unicode="`" horiz-adv-x="532" 
d="M397 561l-8 -13q-38 -3 -89.5 8.5t-90.5 33.5q-44 24 -47.5 57.5t27 45t77.5 -5.5q35 -17 72 -53.5t59 -72.5z" />
    <glyph glyph-name="a" unicode="a" horiz-adv-x="582" 
d="M497 278v-96v-15v-28.5t1.5 -17t5 -11t9.5 -2.5q27 0 12 108h41q26 -233 -146 -233q-100 0 -130 65q-45 -65 -148 -65q-56 0 -94 28.5t-38 85.5q0 156 262 160v51q0 43 -15.5 67t-59.5 29q24 -19 24 -56q0 -38 -25.5 -59.5t-70.5 -21.5q-41 0 -64 21.5t-23 61.5
q0 67 64.5 105t161.5 38q129 0 181 -50.5t52 -164.5zM274 109q-2 16 -2 37v70q-22 -2 -31 -12.5t-9 -41.5q0 -33 8 -43.5t23 -10.5z" />
    <glyph glyph-name="b" unicode="b" horiz-adv-x="596" 
d="M413 -17q-125 0 -162 110q-41 -37 -42 -95q-84 4 -168 0q7 82 11 196q6 198 -2 340q-2 29 -8 38.5t-25 9.5h-9v108q231 0 270 3l-2 -261v-58q19 119 141 119q87 0 128 -59t41 -203q0 -136 -43.5 -192t-129.5 -56zM276 238q0 -58 6.5 -88.5t14 -37.5t20.5 -7q24 0 33.5 25
t9.5 108q0 85 -8 109.5t-31 24.5q-26 0 -36 -25t-9 -109z" />
    <glyph glyph-name="c" unicode="c" horiz-adv-x="514" 
d="M320 186q90 -4 183 0q2 -55 -16 -95.5t-51.5 -63t-75 -33.5t-91.5 -11q-126 0 -192.5 57.5t-66.5 183.5q0 130 69 199.5t202 69.5q103 0 159 -40.5t56 -115.5q0 -47 -28 -74.5t-79 -27.5q-48 0 -74 22.5t-26 63.5q0 50 38 71q-9 3 -23 3q-67 0 -67 -137q0 -83 8 -116.5
t33 -33.5q24 0 33 19t9 59z" />
    <glyph glyph-name="d" unicode="d" horiz-adv-x="599" 
d="M182 492q56 0 90.5 -29t46.5 -81v147q0 29 -10 41.5t-31 12.5h-11q2 53 0 107q36 0 141.5 1t135.5 1q-1 -93 -0.5 -276.5t1.5 -260.5q1 -26 10 -36.5t31 -10.5h5q-2 -54 0 -108q-35 0 -138.5 -0.5t-132.5 -0.5v115q-21 -131 -146 -131q-80 0 -122 58t-42 204
q0 134 45 190.5t127 56.5zM320 245q0 57 -5.5 86t-13 35t-22.5 6q-23 0 -33 -25t-10 -102q0 -85 8 -112.5t34 -27.5q25 0 33.5 28.5t8.5 111.5z" />
    <glyph glyph-name="e" unicode="e" horiz-adv-x="515" 
d="M320 186q90 -4 182 0q4 -94 -54 -148.5t-183 -54.5q-255 0 -255 241q0 130 67 199.5t192 69.5q251 0 233 -286h-273q2 -55 13 -77t36 -22q22 0 31.5 18t10.5 60zM262 372q-11 0 -17.5 -7t-11 -33.5t-4.5 -76.5h29q18 0 26 7.5t8 34.5q0 45 -7.5 60t-22.5 15z" />
    <glyph glyph-name="f" unicode="f" horiz-adv-x="345" 
d="M335 641q-53 1 -70.5 -38t1.5 -126l63 2q-2 -54 0 -107l-54 2q-4 -174 3 -227q4 -39 36 -39h10v-110q-101 2 -158 2l-158 -2q2 55 0 110h11q16 0 23.5 9t9.5 30q4 40 2 227l-46 -2q2 54 0 107l43 -1q-2 106 47 164t164 58q82 0 127 -31t45 -87q0 -76 -80 -76
q-35 0 -55 17.5t-20 49.5q0 56 56 68z" />
    <glyph glyph-name="g" unicode="g" horiz-adv-x="531" 
d="M256 493q32 0 61 -4q8 43 37 69.5t73 26.5q41 0 64 -19t23 -53q0 -28 -14.5 -43.5t-41.5 -15.5q-53 0 -53 52q0 16 6 26q-47 -9 -63 -49q71 -17 109 -61.5t38 -112.5q0 -89 -62 -137t-177 -48q-61 0 -104 13q-22 -6 -22 -20q0 -12 23 -14.5t96 -2.5h50q71 0 117 -9
t70 -27.5t33 -41t9 -55.5q0 -74 -70 -120.5t-209 -46.5q-134 0 -186.5 25t-52.5 73q0 41 43 60q-39 27 -39 78q0 52 27.5 80.5t73.5 34.5q-95 46 -95 158q0 88 61.5 136t174.5 48zM246 -79q-86 0 -139 13q-15 -7 -15 -20q0 -38 155 -38q55 0 97 8t60 17.5t18 17.5q0 9 -15 9
t-64.5 -3.5t-96.5 -3.5zM258 397q-19 0 -24.5 -16t-5.5 -72q0 -53 7 -71t23 -18q19 0 24.5 16.5t5.5 72.5q0 57 -5 72.5t-25 15.5z" />
    <glyph glyph-name="h" unicode="h" horiz-adv-x="639" 
d="M590 314v-159q0 -47 37 -47h4q-2 -55 0 -110q-96 2 -150 2l-151 -2q2 55 0 110h4q17 0 22.5 10t7.5 37q3 52 0 162q-1 29 -9 42t-30 13q-45 0 -45 -65v-152q0 -24 6.5 -35.5t24.5 -11.5h4q-2 -55 0 -110q-98 2 -153 2l-154 -2q2 55 0 110h6q21 0 29.5 10.5t10.5 36.5
t2 188.5t-2 188.5q-2 28 -9.5 39t-27.5 11h-5q2 54 0 108q235 0 274 3q-6 -88 -6 -309q26 109 154 109q75 0 115.5 -46.5t40.5 -132.5z" />
    <glyph glyph-name="i" unicode="i" horiz-adv-x="334" 
d="M282 618q0 -57 -30 -87.5t-86 -30.5t-85.5 30.5t-29.5 87.5q0 56 30 86t85 30q56 0 86 -30t30 -86zM280 481q-2 -52 -2.5 -178t1.5 -148q2 -25 11 -36t31 -11h5q-2 -55 0 -110q-102 2 -159 2l-159 -2q2 55 0 110h4q22 0 30.5 10.5t10.5 36.5t2 86t-1 87q-1 25 -10 34.5
t-28 9.5h-8q2 54 0 107q36 0 139.5 1t132.5 1z" />
    <glyph glyph-name="j" unicode="j" horiz-adv-x="328" 
d="M64 -83q0 -33 -25 -53.5t-64 -11.5q16 -13 43 -13q66 0 71 81q3 68 3 223.5t-2 184.5q-3 44 -38 44h-4q2 54 0 107q232 0 271 3q-3 -59 -3 -180v-275q0 -109 -59 -168t-171 -59q-78 0 -122 27t-44 77q0 79 77 79q32 0 49.5 -17t17.5 -49zM320 618q0 -56 -30.5 -87
t-85.5 -31t-85 31t-30 87q0 55 30 85.5t85 30.5q56 0 86 -30t30 -86z" />
    <glyph glyph-name="k" unicode="k" horiz-adv-x="664" 
d="M280 693q-2 -81 -2 -414l69 43q18 11 24.5 23t-1.5 19.5t-29 7.5h-11q2 55 0 110q103 -3 161 -3q26 0 64 0.5t66.5 1.5t30.5 1q-2 -55 0 -110h-26q-77 0 -121 -26l-10 -6q89 -173 102 -191q30 -42 54 -42h5q-2 -55 0 -109q-106 2 -166 2l-167 -2q2 55 0 110h5
q17 0 21.5 13t-4.5 32q-16 33 -42 73l-24 -14q0 -42 1 -57q3 -47 25 -47h6q-2 -55 0 -110q-96 2 -151 2l-152 -2q2 55 0 110h4q22 0 31 10.5t11 36.5q2 29 2 190t-2 189q-2 27 -9.5 38t-26.5 11h-6q2 53 0 107q229 0 268 3z" />
    <glyph glyph-name="l" unicode="l" horiz-adv-x="331" 
d="M279 692q-2 -110 -2 -309t2 -228q2 -27 10.5 -37t30.5 -10h5q-2 -55 0 -110q-102 2 -159 2l-159 -2q4 55 0 110h4q22 0 31 10.5t11 36.5q1 25 1 191.5t-1 188.5q-3 48 -38 48h-4q2 53 0 107q190 0 268 2z" />
    <glyph glyph-name="m" unicode="m" horiz-adv-x="954" 
d="M900 314v-159q0 -25 9.5 -36t31.5 -11h5q-2 -55 0 -110q-98 2 -153 2l-153 -2q2 55 0 110h4q16 0 22 11t8 36q2 22 2 78.5t-2 83.5q-2 30 -9.5 42.5t-29.5 12.5q-23 0 -34 -14t-11 -51v-152q0 -25 7 -36t24 -11h4q-2 -55 0 -110q-94 2 -147 2l-148 -2q4 55 0 110h4
q15 0 22 10t8 37q4 83 0 162q-2 30 -9.5 42.5t-29.5 12.5q-23 0 -34 -14t-11 -51v-152q0 -28 7 -37.5t23 -9.5h5q-4 -55 0 -110q-98 2 -153 2l-154 -2q2 55 0 110h4q23 0 31.5 9.5t10.5 37.5t2 89.5t-2 83.5q-2 23 -10 33.5t-28 10.5h-4q2 54 0 107q228 0 268 3v-98
q26 109 154 109q125 0 150 -115q25 115 160 115q156 0 156 -179z" />
    <glyph glyph-name="n" unicode="n" horiz-adv-x="644" 
d="M590 314v-159q0 -27 9 -37t32 -10h5q-2 -55 0 -110q-98 2 -153 2l-153 -2q2 55 0 110h5q26 0 29 47q2 25 2 80t-2 82q-2 30 -9.5 42.5t-29.5 12.5q-45 0 -45 -65v-152q0 -28 7 -37.5t23 -9.5h5q-4 -55 0 -110q-98 2 -153 2l-154 -2q2 55 0 110h4q23 0 31.5 9.5t10.5 37.5
t2 89.5t-2 83.5q-2 23 -10 33.5t-28 10.5h-4q2 54 0 107q228 0 268 3v-100q13 53 53 82t101 29q156 0 156 -179z" />
    <glyph glyph-name="o" unicode="o" horiz-adv-x="554" 
d="M18 235q0 129 67.5 193.5t191.5 64.5q130 0 194.5 -63.5t64.5 -196.5t-65 -191.5t-194 -58.5t-194 59.5t-65 192.5zM239 233q0 -78 8 -101.5t30 -23.5t30 23.5t8 101.5q0 86 -8 112.5t-31 26.5q-21 0 -29 -27t-8 -112z" />
    <glyph glyph-name="p" unicode="p" 
d="M424 -17q-120 0 -144 105v-105q0 -48 38 -48h7q-2 -54 0 -108q-101 2 -158 2l-159 -2q2 54 0 108h4q23 0 31.5 10t10.5 38q2 27 2 175t-2 170q-5 44 -38 44h-4q2 54 0 107q229 0 268 3v-105q13 61 47.5 88.5t95.5 27.5q83 0 125 -60t42 -202q0 -131 -42 -189.5
t-124 -58.5zM280 238q0 -76 10 -104.5t33 -28.5t32 26t9 107q0 85 -8 109.5t-31 24.5q-27 0 -36 -24t-9 -110z" />
    <glyph glyph-name="q" unicode="q" 
d="M10 235q0 258 211 258q111 0 156 -67q22 31 29 67q76 -4 152 0q-12 -90 -12 -221v-278q0 -30 9 -44.5t32 -14.5h5q-2 -54 0 -108q-106 2 -166 2l-167 -2q2 54 0 108h9q52 0 52 59v117q-21 -128 -144 -128q-86 0 -126 56.5t-40 195.5zM320 235q0 61 -5 91.5t-12.5 38
t-23.5 7.5q-27 0 -35 -26t-8 -111q0 -80 9.5 -105t32.5 -25q24 0 33 25t9 105z" />
    <glyph glyph-name="r" unicode="r" horiz-adv-x="498" 
d="M10 108h4q23 0 31.5 9.5t10.5 37.5t2 89.5t-2 83.5q-2 23 -10 33.5t-28 10.5h-4q2 54 0 107q33 -1 112 0t107 2l-4 -105h2q11 52 47 84.5t91 32.5q58 0 89.5 -31t31.5 -88q0 -50 -24.5 -77t-69.5 -27q-41 0 -63.5 18.5t-22.5 53.5q0 37 25.5 58.5t62.5 20.5q-13 5 -29 5
q-84 0 -87 -98q-3 -90 0 -181q1 -24 9 -31.5t38 -7.5h9q-2 -55 0 -110q-105 2 -164 2l-164 -2q2 55 0 110z" />
    <glyph glyph-name="s" unicode="s" horiz-adv-x="525" 
d="M269 402q-66 0 -66 -27q0 -15 21.5 -21t97.5 -12q194 -15 194 -182q0 -82 -54 -129.5t-163 -47.5q-83 0 -151 36q-52 28 -62 -19q-36 4 -73 0q13 93 13 144q36 -4 73 0q25 -34 69 -55.5t96 -21.5q66 0 66 29q0 14 -17.5 20t-77.5 10q-107 7 -160 54.5t-53 130.5
q0 81 60.5 131.5t164.5 50.5q60 0 111 -28q16 -9 26.5 -11.5t17 3t8 9t6.5 16.5q35 -4 71 0q-9 -61 -13 -136q-39 4 -78 0q-44 56 -127 56z" />
    <glyph glyph-name="t" unicode="t" horiz-adv-x="383" 
d="M317 216l54 -1q12 -121 -25 -176.5t-143 -55.5q-79 0 -121.5 41t-42.5 117q0 26 3 106.5t3 126.5h-37q2 44 0 89q75 -1 124 52t63 127q46 -4 91 0q-8 -67 -8 -163l95 3q-2 -55 0 -110l-95 1v-176q0 -38 2.5 -58.5t6.5 -26.5t11 -6q18 0 22 35t-3 75z" />
    <glyph glyph-name="u" unicode="u" horiz-adv-x="613" 
d="M577 482q-3 -64 -3 -171v-134q0 -36 6 -52.5t22 -16.5h4q-2 -54 0 -108q-219 0 -258 -2v100q-27 -115 -149 -115q-161 0 -161 179v139q0 71 -27 71h-6q2 55 0 110q83 -3 130 -3l132 3q-4 -79 -4 -177q0 -90 1 -116q2 -46 9.5 -65t29.5 -19q30 0 37.5 33t7.5 122v57
q0 30 -10 42.5t-40 12.5h-3q2 55 0 110q90 -3 140 -3z" />
    <glyph glyph-name="v" unicode="v" horiz-adv-x="587" 
d="M579 372h-4q-38 0 -54 -16t-39 -84q-65 -192 -88 -279q-114 4 -227 0q-43 153 -83 281q-20 65 -31.5 81.5t-38.5 16.5h-6q2 55 0 110q96 -2 142 -2l176 2q-2 -55 0 -110h-8q-33 0 -25 -55q5 -35 40 -170q39 137 46 170q11 55 -28 55h-8q2 55 0 110q89 -2 124 -2l112 2
q-2 -55 0 -110z" />
    <glyph glyph-name="w" unicode="w" horiz-adv-x="890" 
d="M460 -7q-22 108 -52 238q-41 -148 -63 -238q-95 4 -191 0q-49 196 -73 281q-18 64 -29.5 81t-37.5 17h-6q2 55 0 110q105 -3 163 -3l162 3q-2 -55 0 -110h-5q-18 0 -23.5 -11t-1.5 -41q4 -32 38 -179q41 150 45 179q4 30 -2.5 41t-28.5 11h-5q2 55 0 110q93 -3 145 -3
l144 3q-2 -55 0 -110h-7q-31 0 -24 -49q3 -27 39 -187q31 134 40 184q5 25 0.5 38.5t-24.5 13.5h-7q2 55 0 110q72 -3 113 -3l113 3q-2 -55 0 -110h-12q-34 0 -48.5 -16.5t-35.5 -81.5l-89 -281q-119 4 -237 0z" />
    <glyph glyph-name="x" unicode="x" horiz-adv-x="627" 
d="M237 165q-14 26 -21 37l-22 -37q-15 -26 -10.5 -41.5t26.5 -15.5h3q-2 -55 0 -110q-65 2 -102 2l-103 -2q2 55 0 110h22q49 0 75 16.5t58 69.5l29 47q-26 44 -48 76q-23 33 -41 44t-63 11h-22q2 55 0 110q131 -2 204 -2l203 2q-2 -55 0 -110h-4q-15 0 -20 -15t10 -44
q10 -21 24 -42l27 41q17 26 11 43t-28 17h-5q2 55 0 110q55 -2 85 -2l84 2q-2 -55 0 -110h-14q-31 0 -47 -12.5t-50 -63.5l-41 -62l45 -71q36 -55 106 -55h11q-2 -55 0 -110q-125 2 -196 2l-196 -2q2 55 0 110h7q33 0 3 57z" />
    <glyph glyph-name="y" unicode="y" horiz-adv-x="597" 
d="M398 320q12 52 -25 52h-10q2 55 0 110q72 -3 113 -3l113 3q-3 -37 0 -110h-14q-26 0 -40.5 -13t-24.5 -40q-29 -79 -84 -261q-25 -80 -53 -132t-60 -76.5t-61 -32.5t-69 -8q-64 0 -98.5 27.5t-34.5 79.5q0 41 26.5 68.5t75.5 27.5q42 0 64.5 -20.5t22.5 -58.5
q0 -34 -23 -54.5t-59 -20.5t-61 19q23 -29 66 -29q28 0 49 8.5t34 19t25 36t18.5 43.5t17.5 57q3 11 5 17q-69 1 -159 -1q-13 56 -41.5 157.5t-39.5 133.5q-1 2 -3.5 10t-3 10t-3 8t-4 7.5t-4.5 6t-5.5 5.5t-6.5 3t-9 2.5t-11 0.5h-13q2 55 0 110q108 -3 169 -3l169 3
q2 -55 0 -110h-8q-18 0 -26 -14t-3 -38q7 -40 41 -165q31 100 48 165z" />
    <glyph glyph-name="z" unicode="z" horiz-adv-x="492" 
d="M287 0h-279q2 54 0 108q85 115 205 296h-10q-59 0 -86.5 -28t-32.5 -103q-36 4 -73 0q2 106 0 212q28 -3 192 -3h270q-2 -55 0 -110q-105 -144 -207 -298h21q116 0 124 134q37 -4 73 0q-9 -89 -4 -211q-106 3 -193 3z" />
    <glyph glyph-name="braceleft" unicode="{" horiz-adv-x="326" 
d="M30 282v49h15q30 0 44.5 13.5t11 47.5t-8 52.5t-19.5 67.5q-3 11 -5 17q-42 133 20 197t206 64l2 -62q-46 0 -61.5 -41.5t0.5 -153.5q18 -118 -3.5 -169t-114.5 -57q63 -7 92.5 -33t32.5 -69.5t-4 -106.5q-16 -108 -5.5 -160.5t63.5 -52.5l-2 -62q-33 0 -59.5 2t-56.5 9
t-52 18.5t-40 31.5t-26.5 46.5t-7 66t15.5 87.5q3 12 10 34q7 24 10.5 35t8 30t5.5 28.5t1 23.5t-4 20.5t-10.5 13.5t-17.5 10t-26 3h-15z" />
    <glyph glyph-name="bar" unicode="|" horiz-adv-x="300" 
d="M139 -119q0 11 11 11t11 -11t-11 -11t-11 11zM133 -43q0 7 5 12t12 5t12 -5t5 -12t-5 -12t-12 -5t-12 5t-5 12zM128 33q0 9 6.5 15.5t15.5 6.5t15.5 -6.5t6.5 -15.5t-6.5 -15.5t-15.5 -6.5t-15.5 6.5t-6.5 15.5zM123 109q0 11 8 18.5t19 7.5t19 -7.5t8 -18.5t-8 -19
t-19 -8t-19 8t-8 19zM120 185q0 12 8.5 21t21.5 9t21.5 -9t8.5 -21q0 -13 -8.5 -22t-21.5 -9t-21.5 9t-8.5 22zM118 261q0 13 9.5 22.5t22.5 9.5t22.5 -9.5t9.5 -22.5q0 -14 -9.5 -23.5t-22.5 -9.5t-22.5 9.5t-9.5 23.5zM117 337q0 13 9.5 23t23.5 10t23.5 -10t9.5 -23
q0 -14 -9.5 -24t-23.5 -10t-23.5 10t-9.5 24zM118 412q0 14 9.5 23.5t22.5 9.5t22.5 -9.5t9.5 -23.5q0 -13 -9.5 -22.5t-22.5 -9.5t-22.5 9.5t-9.5 22.5zM120 488q0 13 8.5 22t21.5 9t21.5 -9t8.5 -22q0 -12 -8.5 -21t-21.5 -9t-21.5 9t-8.5 21zM123 564q0 11 8 19t19 8
t19 -8t8 -19t-8 -18.5t-19 -7.5t-19 7.5t-8 18.5zM128 640q0 9 6.5 15.5t15.5 6.5t15.5 -6.5t6.5 -15.5t-6.5 -15.5t-15.5 -6.5t-15.5 6.5t-6.5 15.5zM133 716q0 7 5 12t12 5t12 -5t5 -12t-5 -12t-12 -5t-12 5t-5 12zM139 792q0 11 11 11t11 -11t-11 -11t-11 11z" />
    <glyph glyph-name="braceright" unicode="}" horiz-adv-x="316" 
d="M286 331v-49h-15q-56 0 -58 -46.5t25 -117.5q7 -22 10 -34q16 -56 17 -99.5t-13 -71.5t-35 -46.5t-53.5 -27.5t-63 -12.5t-68.5 -3.5l-2 62q53 0 63.5 52.5t-5.5 160.5q-7 63 -4 106.5t32.5 69.5t92.5 33q-93 6 -114.5 57t-3.5 169q16 112 0.5 153.5t-61.5 41.5l2 62
q298 0 216 -261q-32 -104 -33 -136q-2 -62 56 -62h15z" />
    <glyph glyph-name="asciitilde" unicode="~" horiz-adv-x="532" 
d="M403 686l39 14q31 -77 -6 -125t-108 -48q-86 0 -133 77q-17 27 -39 27q-13 0 -21.5 -6.5t-12 -23.5t9.5 -46l-39 -13q-31 79 7.5 125.5t106.5 46.5q83 0 133 -77q17 -27 39 -27t30 17t-6 59z" />
    <glyph glyph-name="exclamdown" unicode="&#xa1;" horiz-adv-x="324" 
d="M56 395q0 47 27.5 72.5t79.5 25.5q50 0 77 -26t27 -75t-27 -75t-77 -26q-52 0 -79.5 27t-27.5 77zM148 227q0 32 17 32q19 0 19 -32q0 -54 7.5 -90t15.5 -52.5t29.5 -49t35.5 -57.5q44 -78 12.5 -148t-119.5 -70q-56 0 -92 33.5t-38.5 82t25.5 102.5q13 23 36.5 57
t30.5 49t14 51.5t7 91.5z" />
    <glyph glyph-name="cent" unicode="&#xa2;" horiz-adv-x="528" 
d="M288 331l-21 -130q21 -15 52 -15q25 0 47 8q-38 18 -38 65q0 35 24.5 54t65.5 19q43 0 66.5 -24t23.5 -68q0 -75 -57 -115.5t-163 -40.5q-16 0 -36 2l-14 -117l-52 9q14 58 26 113q-192 36 -192 244q0 130 76 197t205 61l14 116l52 -9q-11 -47 -25 -110q80 -10 122 -44.5
t42 -91.5q0 -40 -24 -61.5t-68 -21.5q-39 0 -60 20t-21 54q0 30 19 49q-18 2 -31 2q-20 -93 -33 -165zM225 341q0 -73 18 -110q14 70 20 104q8 44 24 156q-62 -21 -62 -150z" />
    <glyph glyph-name="sterling" unicode="&#xa3;" 
d="M72 256q1 37 0 74q15 -2 57 -4q-65 82 -65 162q0 93 73 152.5t188 59.5q112 0 167.5 -45.5t55.5 -121.5q0 -55 -28.5 -84.5t-77.5 -29.5q-38 0 -60.5 20.5t-22.5 54.5q0 37 27.5 57t69.5 10q-22 25 -65 25t-69.5 -27.5t-26.5 -79.5q0 -11 1 -22t3.5 -23t4.5 -20.5
t6.5 -23t6.5 -20.5t8 -22.5t8 -21.5q83 2 105 4q-1 -37 0 -74l-86 3q5 -27 5 -50q0 -13 -2 -37q37 -8 75 -8q58 0 72 31l73 -10q16 -87 -22.5 -146t-124.5 -59q-75 0 -153 41q-53 -37 -124 -37q-63 0 -95 27t-32 73q0 55 40 86t97 31q30 0 54 -3q-9 29 -32 63zM136 29
q43 0 67 37q-39 22 -67 22q-47 0 -47 -29q0 -30 47 -30z" />
    <glyph glyph-name="yen" unicode="&#xa5;" horiz-adv-x="599" 
d="M61 438l54 -2l-5 17q-21 64 -38.5 85t-50.5 21h-16q2 65 0 131q115 -2 180 -2l179 2q-2 -66 0 -131h-6q-20 0 -26 -20.5t5 -61.5q17 -61 38 -112q34 75 42 114q16 80 -20 80h-8q2 65 0 131q66 -2 103 -2l102 2q-2 -66 0 -131h-7q-43 0 -67 -54l-29 -69l56 2q-2 -49 0 -97
l-93 4q-3 -8 -8.5 -21.5t-7.5 -18.5l109 3q-2 -49 0 -97l-121 4v-25q0 -59 56 -59h17q-2 -67 0 -133q-125 2 -196 2l-197 -2q2 66 0 133h19q31 0 39.5 14t8.5 45v26l-112 -5v97l90 -3l-11 39l-79 -3v97z" />
    <glyph glyph-name="brokenbar" unicode="&#xa6;" horiz-adv-x="300" 
d="M139 -119q0 11 11 11t11 -11t-11 -11t-11 11zM133 -43q0 7 5 12t12 5t12 -5t5 -12t-5 -12t-12 -5t-12 5t-5 12zM128 33q0 9 6.5 15.5t15.5 6.5t15.5 -6.5t6.5 -15.5t-6.5 -15.5t-15.5 -6.5t-15.5 6.5t-6.5 15.5zM123 109q0 11 8 18.5t19 7.5t19 -7.5t8 -18.5t-8 -19
t-19 -8t-19 8t-8 19zM120 185q0 12 8.5 21t21.5 9t21.5 -9t8.5 -21q0 -13 -8.5 -22t-21.5 -9t-21.5 9t-8.5 22zM118 261q0 13 9.5 22.5t22.5 9.5t22.5 -9.5t9.5 -22.5q0 -14 -9.5 -23.5t-22.5 -9.5t-22.5 9.5t-9.5 23.5zM118 412q0 14 9.5 23.5t22.5 9.5t22.5 -9.5
t9.5 -23.5q0 -13 -9.5 -22.5t-22.5 -9.5t-22.5 9.5t-9.5 22.5zM120 488q0 13 8.5 22t21.5 9t21.5 -9t8.5 -22q0 -12 -8.5 -21t-21.5 -9t-21.5 9t-8.5 21zM123 564q0 11 8 19t19 8t19 -8t8 -19t-8 -18.5t-19 -7.5t-19 7.5t-8 18.5zM128 640q0 9 6.5 15.5t15.5 6.5t15.5 -6.5
t6.5 -15.5t-6.5 -15.5t-15.5 -6.5t-15.5 6.5t-6.5 15.5zM133 716q0 7 5 12t12 5t12 -5t5 -12t-5 -12t-12 -5t-12 5t-5 12zM139 792q0 11 11 11t11 -11t-11 -11t-11 11z" />
    <glyph glyph-name="section" unicode="&#xa7;" horiz-adv-x="899" 
d="M326 -153l-2 13q57 51 88 140.5t65 319.5q15 103 41 178t53.5 115t64 63t64 28.5t63.5 5.5q71 0 106 -34t29 -86q-4 -42 -29.5 -64t-61.5 -22t-55.5 18.5t-15.5 53.5q3 25 23.5 42.5t55.5 16.5q-19 11 -37 11q-41 0 -61 -21.5t-39 -98t-41 -246.5q-12 -92 -38.5 -165.5
t-58.5 -119t-72 -78t-73.5 -47.5t-68.5 -23zM574 663l2 -13q-57 -51 -88 -140.5t-65 -319.5q-16 -107 -43.5 -183.5t-55.5 -115.5t-67 -61t-66 -26t-65 -4q-58 0 -94 32t-30 88q4 41 30 63.5t61 22.5q80 0 71 -72q-3 -25 -23.5 -42.5t-56.5 -16.5q19 -11 46 -11
q39 0 58 23.5t36 97.5t39 245q12 92 39 165.5t58.5 119t72 78t73.5 47.5t68 23z" />
    <glyph glyph-name="dieresis" unicode="&#xa8;" horiz-adv-x="534" 
d="M247 621q0 -30 -18 -46.5t-46 -16.5q-27 0 -45 16.5t-18 46.5t18 47t45 17q28 0 46 -17t18 -47zM422 621q0 -30 -18 -46.5t-46 -16.5t-45.5 16.5t-17.5 46.5t18 47t45 17q28 0 46 -17t18 -47z" />
    <glyph glyph-name="copyright" unicode="&#xa9;" horiz-adv-x="854" 
d="M427 45q140 0 216 77.5t76 221.5t-76 222t-216 78t-216 -78t-76 -222t76 -221.5t216 -77.5zM427 -16q-176 0 -271.5 93.5t-95.5 266.5t95.5 267t271.5 94t271.5 -94t95.5 -267t-95.5 -266.5t-271.5 -93.5zM404 555q62 0 102 -24q12 -10 22.5 -9t15.5 18q33 -2 64 0
q-7 -68 -12 -152q-46 2 -91 0q3 75 -50 75q-26 0 -39.5 -23t-13.5 -91q0 -69 11.5 -91.5t34.5 -22.5q50 0 45 72q60 -4 120 0q4 -85 -41 -124.5t-144 -39.5q-105 0 -152 46t-47 160q0 99 46.5 152.5t128.5 53.5z" />
    <glyph glyph-name="ordfeminine" unicode="&#xaa;" horiz-adv-x="507" 
d="M53 183q2 67 0 136q43 -1 190 -1t190 1q-2 -68 0 -136q-43 1 -190 1t-190 -1zM390 546v-73q0 -44 5 -48q3 -2 7 -2q18 0 9 75l29 1q16 -160 -100 -160q-69 0 -89 47q-31 -47 -103 -47q-40 0 -66.5 20.5t-26.5 60.5q0 107 185 112v34q0 34 -13.5 51.5t-51.5 18.5
q24 -13 24 -41q0 -26 -17 -40.5t-48 -14.5q-28 0 -44 15t-16 42q0 46 44.5 72t111.5 26q89 0 124.5 -35t35.5 -114zM241 426q-1 7 -1 24v54q-19 -2 -27.5 -11t-8.5 -32q0 -38 24 -38z" />
    <glyph glyph-name="guillemotleft" unicode="&#xab;" horiz-adv-x="476" 
d="M233 432l13 -11q-3 -37 -21 -86t-43 -87q52 -78 63 -165l-13 -11q-109 86 -182 138v86q69 54 183 136zM413 432l13 -11q-3 -37 -21 -86t-43 -87q52 -78 63 -165l-13 -11q-109 86 -182 138v86q69 54 183 136z" />
    <glyph glyph-name="registered" unicode="&#xae;" horiz-adv-x="854" 
d="M427 45q140 0 216 77.5t76 221.5t-76 222t-216 78t-216 -78t-76 -222t76 -221.5t216 -77.5zM427 -16q-176 0 -271.5 93.5t-95.5 266.5t95.5 267t271.5 94t271.5 -94t95.5 -267t-95.5 -266.5t-271.5 -93.5zM618 255q5 -32 15 -32q7 2 5 16.5t-8 27.5q2 0 17.5 1.5
t16.5 1.5q15 -53 -6.5 -89.5t-84.5 -36.5t-88 24.5t-27 71.5q-3 40 -14.5 58t-36.5 22q0 -33 2 -49q1 -18 6.5 -25.5t20.5 -7.5h9q-2 -41 0 -80q-73 1 -115 1l-115 -1q2 39 0 80h11q23 0 27 32q1 17 1 79.5t-1 78.5q-2 18 -8 25.5t-21 7.5h-9q2 39 0 79q62 -2 131 -2h106
q98 0 139.5 -24.5t41.5 -81.5q0 -70 -78 -95q53 -15 63 -82zM409 439q-2 -30 -2 -79h19q41 0 41 55q0 23 -6.5 34.5t-27.5 11.5h-3q-21 0 -21 -22z" />
    <glyph glyph-name="macron" unicode="&#xaf;" horiz-adv-x="532" 
d="M109 553q1 15 1 52.5t-1 53.5q46 -1 148 -1t148 1q-1 -16 -1 -53t1 -53q-46 1 -148 1t-148 -1z" />
    <glyph glyph-name="degree" unicode="&#xb0;" horiz-adv-x="356" 
d="M178 417q42 0 62.5 27.5t20.5 90.5t-20.5 90t-62.5 27t-63 -27t-21 -90t20.5 -90.5t63.5 -27.5zM178 376q-71 0 -109.5 41t-38.5 118t38.5 118.5t109.5 41.5t109.5 -41.5t38.5 -118.5t-38.5 -118t-109.5 -41z" />
    <glyph glyph-name="plusminus" unicode="&#xb1;" 
d="M80 0q3 50 0 101q88 -2 165 -2q7 82 11 108q-90 -14 -179 -14v115q88 0 178 -14q-13 84 -13 179h115q0 -89 -14 -179q90 14 180 14v-115q-91 0 -181 14q6 -49 11 -108q77 0 167 2q-3 -50 0 -101q-220 4 -440 0z" />
    <glyph glyph-name="acute" unicode="&#xb4;" horiz-adv-x="532" 
d="M157 548l-7 13q21 36 59 72.5t74 54.5q28 12 51 12t35 -12.5t15 -28.5t-9.5 -35.5t-37.5 -33.5q-38 -21 -89.5 -32.5t-90.5 -9.5z" />
    <glyph glyph-name="paragraph" unicode="&#xb6;" horiz-adv-x="593" 
d="M194 -156q81 0 81 106v223h-3q-112 0 -172 67t-60 191q0 125 83.5 192t237.5 67h192q-2 -54 0 -107h-12q-49 0 -49 -49l1 -488q0 -118 -61.5 -182t-174.5 -64q-79 0 -122 27.5t-43 78.5q0 73 78 73q67 0 67 -65q0 -28 -22 -46.5t-57 -18.5q15 -5 36 -5z" />
    <glyph glyph-name="periodcentered" unicode="&#xb7;" horiz-adv-x="328" 
d="M278 245q0 -50 -29.5 -78t-84.5 -28q-53 0 -83.5 27t-30.5 80q0 47 32 77t82 30q55 0 84.5 -30.5t29.5 -77.5z" />
    <glyph glyph-name="cedilla" unicode="&#xb8;" horiz-adv-x="532" 
d="M213 -105l-12 28q66 19 69 84l39 -7q3 -36 -19 -60q44 1 74.5 -20t30.5 -61q0 -42 -32.5 -67.5t-89.5 -25.5q-81 0 -124 56l25 26q29 -32 64 -32q50 0 50 46q0 25 -20 35t-55 -2z" />
    <glyph glyph-name="ordmasculine" unicode="&#xba;" horiz-adv-x="453" 
d="M53 183q2 67 0 136q43 -1 175 -1t175 1q-2 -68 0 -136q-43 1 -175 1t-175 -1zM53 515q0 90 47 135t132 45q180 0 180 -182q0 -91 -45.5 -132.5t-134.5 -41.5q-88 0 -133.5 41.5t-45.5 134.5zM202 513q0 -57 6.5 -74.5t23.5 -17.5t24 17.5t7 74.5q0 62 -7 82t-24 20
t-23.5 -20t-6.5 -82z" />
    <glyph glyph-name="guillemotright" unicode="&#xbb;" horiz-adv-x="476" 
d="M50 421l13 11q114 -82 183 -136v-86q-73 -53 -182 -138l-13 11q11 87 63 165q-25 38 -43 87t-21 86zM230 421l13 11q114 -82 183 -136v-86q-73 -53 -182 -138l-13 11q11 87 63 165q-25 38 -43 87t-21 86z" />
    <glyph glyph-name="onequarter" unicode="&#xbc;" horiz-adv-x="378" 
d="M6 344q0 25 26 25q10 0 17.5 -7.5t7.5 -17.5q0 -26 -25 -26q-26 0 -26 26zM72 344q0 22 23 22q22 0 22 -22q0 -23 -22 -23q-23 0 -23 23zM137 344q0 20 21 20q8 0 14 -6t6 -14q0 -21 -20 -21q-21 0 -21 21zM200 344q0 20 21 20q8 0 14 -6t6 -14q0 -21 -20 -21
q-21 0 -21 21zM261 344q0 22 23 22q22 0 22 -22q0 -23 -22 -23q-23 0 -23 23zM321 344q0 25 26 25q11 0 18 -7.5t7 -17.5q0 -26 -25 -26q-26 0 -26 26zM94 466q30 0 30 29v92l-53 -1q2 34 0 68h18q88 0 96 56q41 -4 81 0q-8 -84 -8 -143v-72q0 -29 31 -29h26q-2 -31 0 -63
q-80 2 -125 2l-126 -2q2 31 0 63h30zM132 31q19 0 19 22v6q-87 0 -114 -1v25l133 203q67 -4 131 0v-198l37 1q-1 -17 0 -33l-37 1v-3q0 -23 18 -23h23q-2 -28 0 -53q-75 2 -118 2l-118 -2q2 25 0 53h26zM94 86h57v106z" />
    <glyph glyph-name="onehalf" unicode="&#xbd;" horiz-adv-x="378" 
d="M6 344q0 25 26 25q10 0 17.5 -7.5t7.5 -17.5q0 -26 -25 -26q-26 0 -26 26zM72 344q0 22 23 22q22 0 22 -22q0 -23 -22 -23q-23 0 -23 23zM137 344q0 20 21 20q8 0 14 -6t6 -14q0 -21 -20 -21q-21 0 -21 21zM200 344q0 20 21 20q8 0 14 -6t6 -14q0 -21 -20 -21
q-21 0 -21 21zM261 344q0 22 23 22q22 0 22 -22q0 -23 -22 -23q-23 0 -23 23zM321 344q0 25 26 25q11 0 18 -7.5t7 -17.5q0 -26 -25 -26q-26 0 -26 26zM316 99q17 -20 19 -49.5t-20 -54.5t-67 -25q-44 0 -95 28q-45 25 -71 12q22 -2 22 -19q0 -21 -26 -21q-34 0 -34 44
q0 19 7.5 36t15 27t25.5 24t24 18t27 16q42 24 42 57q0 46 -50 46q-29 0 -43 -17q13 6 31 6q44 0 44 -35q0 -40 -55 -40q-26 0 -41 13.5t-15 37.5q0 44 37.5 65.5t94.5 21.5q69 0 102.5 -24.5t33.5 -64.5q0 -23 -8.5 -40t-18.5 -27t-31 -18t-32.5 -11t-36.5 -8
q-4 -1 -15.5 -3.5t-16.5 -3.5t-15 -3.5t-15.5 -4.5t-13 -5.5t-13 -7t-10.5 -8.5q37 26 106 10q41 -11 62 -6t17 29zM94 466q30 0 30 29v92l-53 -1q2 34 0 68h18q88 0 96 56q41 -4 81 0q-8 -84 -8 -143v-72q0 -29 31 -29h26q-2 -31 0 -63q-80 2 -125 2l-126 -2q2 31 0 63h30z
" />
    <glyph glyph-name="threequarters" unicode="&#xbe;" horiz-adv-x="378" 
d="M6 344q0 25 26 25q10 0 17.5 -7.5t7.5 -17.5q0 -26 -25 -26q-26 0 -26 26zM72 344q0 22 23 22q22 0 22 -22q0 -23 -22 -23q-23 0 -23 23zM137 344q0 20 21 20q8 0 14 -6t6 -14q0 -21 -20 -21q-21 0 -21 21zM200 344q0 20 21 20q8 0 14 -6t6 -14q0 -21 -20 -21
q-21 0 -21 21zM261 344q0 22 23 22q22 0 22 -22q0 -23 -22 -23q-23 0 -23 23zM321 344q0 25 26 25q11 0 18 -7.5t7 -17.5q0 -26 -25 -26q-26 0 -26 26zM324 629q0 -55 -70 -72q79 -13 79 -71q0 -49 -41 -70t-120 -21q-61 0 -93.5 22t-31.5 60q1 23 16.5 36.5t41.5 13.5
q25 0 40 -11t15 -28q0 -42 -62 -41q14 -7 34 -7q54 0 54 49q0 22 -14.5 34.5t-40.5 12.5h-7v35h8q24 0 39 13t15 36q0 43 -49 43q-28 0 -42 -16q11 4 28 4q42 0 42 -33q0 -16 -13.5 -26.5t-37.5 -10.5q-26 0 -41.5 13t-15.5 38q0 41 37.5 62t97.5 21q61 0 96.5 -24t35.5 -62
zM132 31q19 0 19 22v6q-87 0 -114 -1v25l133 203q67 -4 131 0v-198l37 1q-1 -17 0 -33l-37 1v-3q0 -23 18 -23h23q-2 -28 0 -53q-75 2 -118 2l-118 -2q2 25 0 53h26zM94 86h57v106z" />
    <glyph glyph-name="questiondown" unicode="&#xbf;" horiz-adv-x="550" 
d="M159 188l-14 34q74 39 147 39q49 0 77 -20t28 -55q0 -28 -13.5 -48t-47.5 -46q-66 -50 -66 -111q0 -108 101 -108q39 0 70 18q-14 -2 -27 -2q-43 0 -68 24.5t-25 65.5q0 40 27.5 64.5t75.5 24.5q52 0 79 -29t27 -81q0 -92 -70 -145t-182 -53q-132 0 -195 54t-63 145
q0 89 55 135t155 73q28 8 37 15t9 16q0 6 -7.5 10.5t-18.5 4.5q-39 0 -91 -25zM168 392q0 47 27.5 74t76.5 27q50 0 78.5 -27t28.5 -74t-28.5 -74t-78.5 -27q-49 0 -76.5 27t-27.5 74z" />
    <glyph glyph-name="Agrave" unicode="&#xc0;" horiz-adv-x="886" 
d="M428 131q33 0 41.5 18.5t-1.5 56.5q-96 2 -193 0q-11 -41 -0.5 -58t40.5 -17h32q-2 -67 0 -133q-106 2 -166 2l-166 -2q2 66 0 133h14q44 0 68 20.5t44 72.5q91 236 180 471q83 -2 130 -2l129 2q95 -265 181 -471q23 -56 44.5 -74.5t51.5 -18.5h14q-2 -66 0 -133
q-153 2 -239 2l-239 -2q2 67 0 133h35zM447 276q-36 105 -74 208q-62 -173 -74 -209q102 0 148 1zM523 751l-8 -13q-38 -3 -89.5 8.5t-90.5 33.5q-44 24 -47.5 57.5t27 45t77.5 -5.5q35 -17 72 -53.5t59 -72.5z" />
    <glyph glyph-name="Aacute" unicode="&#xc1;" horiz-adv-x="886" 
d="M428 131q33 0 41.5 18.5t-1.5 56.5q-96 2 -193 0q-11 -41 -0.5 -58t40.5 -17h32q-2 -67 0 -133q-106 2 -166 2l-166 -2q2 66 0 133h14q44 0 68 20.5t44 72.5q91 236 180 471q83 -2 130 -2l129 2q95 -265 181 -471q23 -56 44.5 -74.5t51.5 -18.5h14q-2 -66 0 -133
q-153 2 -239 2l-239 -2q2 67 0 133h35zM447 276q-36 105 -74 208q-62 -173 -74 -209q102 0 148 1zM393 738l-7 13q21 36 59 72.5t74 54.5q28 12 51 12t35 -12.5t15 -28.5t-9.5 -35.5t-37.5 -33.5q-38 -21 -89.5 -32.5t-90.5 -9.5z" />
    <glyph glyph-name="Acircumflex" unicode="&#xc2;" horiz-adv-x="886" 
d="M428 131q33 0 41.5 18.5t-1.5 56.5q-96 2 -193 0q-11 -41 -0.5 -58t40.5 -17h32q-2 -67 0 -133q-106 2 -166 2l-166 -2q2 66 0 133h14q44 0 68 20.5t44 72.5q91 236 180 471q83 -2 130 -2l129 2q95 -265 181 -471q23 -56 44.5 -74.5t51.5 -18.5h14q-2 -66 0 -133
q-153 2 -239 2l-239 -2q2 67 0 133h35zM447 276q-36 105 -74 208q-62 -173 -74 -209q102 0 148 1zM593 742l-9 -11q-75 8 -144 54q-65 -44 -138 -53l-9 11q26 83 107 152h88q63 -50 105 -153z" />
    <glyph glyph-name="Atilde" unicode="&#xc3;" horiz-adv-x="886" 
d="M428 131q33 0 41.5 18.5t-1.5 56.5q-96 2 -193 0q-11 -41 -0.5 -58t40.5 -17h32q-2 -67 0 -133q-106 2 -166 2l-166 -2q2 66 0 133h14q44 0 68 20.5t44 72.5q91 236 180 471q83 -2 130 -2l129 2q95 -265 181 -471q23 -56 44.5 -74.5t51.5 -18.5h14q-2 -66 0 -133
q-153 2 -239 2l-239 -2q2 67 0 133h35zM447 276q-36 105 -74 208q-62 -173 -74 -209q102 0 148 1zM556 862l33 12q26 -65 -5 -105.5t-91 -40.5q-71 0 -112 65q-14 23 -33 23q-17 0 -24.5 -13.5t4.5 -50.5l-33 -11q-27 66 6 105.5t90 39.5q70 0 112 -65q15 -23 33 -23
t25 14.5t-5 49.5z" />
    <glyph glyph-name="Adieresis" unicode="&#xc4;" horiz-adv-x="886" 
d="M428 131q33 0 41.5 18.5t-1.5 56.5q-96 2 -193 0q-11 -41 -0.5 -58t40.5 -17h32q-2 -67 0 -133q-106 2 -166 2l-166 -2q2 66 0 133h14q44 0 68 20.5t44 72.5q91 236 180 471q83 -2 130 -2l129 2q95 -265 181 -471q23 -56 44.5 -74.5t51.5 -18.5h14q-2 -66 0 -133
q-153 2 -239 2l-239 -2q2 67 0 133h35zM447 276q-36 105 -74 208q-62 -173 -74 -209q102 0 148 1zM419 811q0 -30 -18 -46.5t-46 -16.5q-27 0 -45 16.5t-18 46.5t18 47t45 17q28 0 46 -17t18 -47zM594 811q0 -30 -18 -46.5t-46 -16.5t-45.5 16.5t-17.5 46.5t18 47t45 17
q28 0 46 -17t18 -47z" />
    <glyph glyph-name="Aring" unicode="&#xc5;" horiz-adv-x="886" 
d="M428 131q33 0 41.5 18.5t-1.5 56.5q-96 2 -193 0q-11 -41 -0.5 -58t40.5 -17h32q-2 -67 0 -133q-106 2 -166 2l-166 -2q2 66 0 133h14q44 0 68 20.5t44 72.5q91 236 180 471q83 -2 130 -2l129 2q95 -265 181 -471q23 -56 44.5 -74.5t51.5 -18.5h14q-2 -66 0 -133
q-153 2 -239 2l-239 -2q2 67 0 133h35zM447 276q-36 105 -74 208q-62 -173 -74 -209q102 0 148 1zM489 840q0 47 -45 47q-46 0 -46 -47q0 -49 46 -49q45 0 45 49zM540 840q0 -47 -25 -72t-71 -25t-71.5 25.5t-25.5 71.5t24.5 71t70.5 25q47 0 72.5 -25t25.5 -71z" />
    <glyph glyph-name="AE" unicode="&#xc6;" horiz-adv-x="1108" 
d="M338 296q88 0 127 1q2 140 -7 200q-61 -95 -120 -201zM728 306h-12q0 -64 2 -106q2 -40 17.5 -54.5t50.5 -14.5h58q58 0 81.5 28t23.5 114v9q72 -4 144 0q-10 -106 -10 -288q-47 4 -225 4q-203 2 -276 2l-199 -2q2 67 0 133h17q34 0 47.5 16t15.5 53l1 31h-159l-3 -7
q-39 -93 22 -93h25q-2 -67 0 -133q-108 2 -168 2l-166 -2q2 66 0 133h15q42 0 70.5 21.5t61.5 71.5q113 170 176 275q15 20 6.5 39.5t-41.5 19.5h-13v136q67 -6 312 -6q33 0 94.5 0.5t138.5 0.5q207 0 254 6q-8 -142 -6 -269q-69 4 -137 0v9q0 41 -8 67.5t-24.5 37.5
t-32 14.5t-39.5 3.5h-55q-34 0 -51 -15t-18 -50q-2 -58 -2 -111h12q34 0 45 15t11 59v39h98q-8 -93 -8 -151q0 -69 8 -151q-48 1 -96 0v36q0 46 -11 61.5t-47 15.5z" />
    <glyph glyph-name="Ccedilla" unicode="&#xc7;" horiz-adv-x="724" 
d="M299 -105l-12 28q53 15 66 62q-108 4 -178 38t-110 114t-40 209q0 178 90 271t245 93q115 0 190 -48q25 -17 35.5 -12t14.5 40q54 -4 108 0q-11 -84 -20 -267q-31 1 -93 1t-93 -1q0 136 -87 136q-37 0 -57 -14.5t-32.5 -62t-12.5 -136.5q0 -68 7.5 -113t22.5 -66
t31 -28.5t40 -7.5q42 0 67.5 34t21.5 105q32 -2 102.5 -2t102.5 2q4 -155 -66 -218.5t-247 -66.5q-1 -24 -19 -45q44 1 74.5 -20t30.5 -61q0 -42 -32.5 -67.5t-89.5 -25.5q-81 0 -124 56l25 26q29 -32 64 -32q50 0 50 46q0 25 -20 35t-55 -2z" />
    <glyph glyph-name="Egrave" unicode="&#xc8;" horiz-adv-x="734" 
d="M410 456v39h98q-8 -93 -8 -151q0 -69 8 -151q-48 1 -96 0v36q0 46 -11 61.5t-47 15.5h-12q0 -64 2 -106q2 -40 17.5 -54.5t50.5 -14.5h58q59 0 82 29t23 122q72 -4 144 0q-10 -106 -10 -288q-101 6 -248 6h-233q-46 0 -130 -1l-83 -1q2 66 0 133h11q34 0 47.5 16t15.5 53
t2.5 138.5t-1.5 143.5q-4 77 -63 77h-12q2 65 0 131l83 -1q84 -1 130 -1h233q199 0 254 7q-8 -142 -6 -272q-69 4 -137 0q0 45 -8 74t-24.5 41.5t-32 16t-39.5 3.5h-55q-34 0 -51 -15t-18 -50q-2 -58 -2 -111h12q34 0 45 15t11 59zM467 751l-8 -13q-38 -3 -89.5 8.5
t-90.5 33.5q-44 24 -47.5 57.5t27 45t77.5 -5.5q35 -17 72 -53.5t59 -72.5z" />
    <glyph glyph-name="Eacute" unicode="&#xc9;" horiz-adv-x="734" 
d="M317 738l-7 13q21 36 59 72.5t74 54.5q28 12 51 12t35 -12.5t15 -28.5t-9.5 -35.5t-37.5 -33.5q-38 -21 -89.5 -32.5t-90.5 -9.5zM410 456v39h98q-8 -93 -8 -151q0 -69 8 -151q-48 1 -96 0v36q0 46 -11 61.5t-47 15.5h-12q0 -64 2 -106q2 -40 17.5 -54.5t50.5 -14.5h58
q59 0 82 29t23 122q72 -4 144 0q-10 -106 -10 -288q-101 6 -248 6h-233q-46 0 -130 -1l-83 -1q2 66 0 133h11q34 0 47.5 16t15.5 53t2.5 138.5t-1.5 143.5q-4 77 -63 77h-12q2 65 0 131l83 -1q84 -1 130 -1h233q199 0 254 7q-8 -142 -6 -272q-69 4 -137 0q0 45 -8 74
t-24.5 41.5t-32 16t-39.5 3.5h-55q-34 0 -51 -15t-18 -50q-2 -58 -2 -111h12q34 0 45 15t11 59z" />
    <glyph glyph-name="Ecircumflex" unicode="&#xca;" horiz-adv-x="734" 
d="M527 742l-9 -11q-75 8 -144 54q-65 -44 -138 -53l-9 11q26 83 107 152h88q63 -50 105 -153zM410 456v39h98q-8 -93 -8 -151q0 -69 8 -151q-48 1 -96 0v36q0 46 -11 61.5t-47 15.5h-12q0 -64 2 -106q2 -40 17.5 -54.5t50.5 -14.5h58q59 0 82 29t23 122q72 -4 144 0
q-10 -106 -10 -288q-101 6 -248 6h-233q-46 0 -130 -1l-83 -1q2 66 0 133h11q34 0 47.5 16t15.5 53t2.5 138.5t-1.5 143.5q-4 77 -63 77h-12q2 65 0 131l83 -1q84 -1 130 -1h233q199 0 254 7q-8 -142 -6 -272q-69 4 -137 0q0 45 -8 74t-24.5 41.5t-32 16t-39.5 3.5h-55
q-34 0 -51 -15t-18 -50q-2 -58 -2 -111h12q34 0 45 15t11 59z" />
    <glyph glyph-name="Edieresis" unicode="&#xcb;" horiz-adv-x="734" 
d="M353 811q0 -30 -18 -46.5t-46 -16.5q-27 0 -45 16.5t-18 46.5t18 47t45 17q28 0 46 -17t18 -47zM528 811q0 -30 -18 -46.5t-46 -16.5t-45.5 16.5t-17.5 46.5t18 47t45 17q28 0 46 -17t18 -47zM410 456v39h98q-8 -93 -8 -151q0 -69 8 -151q-48 1 -96 0v36q0 46 -11 61.5
t-47 15.5h-12q0 -64 2 -106q2 -40 17.5 -54.5t50.5 -14.5h58q59 0 82 29t23 122q72 -4 144 0q-10 -106 -10 -288q-101 6 -248 6h-233q-46 0 -130 -1l-83 -1q2 66 0 133h11q34 0 47.5 16t15.5 53t2.5 138.5t-1.5 143.5q-4 77 -63 77h-12q2 65 0 131l83 -1q84 -1 130 -1h233
q199 0 254 7q-8 -142 -6 -272q-69 4 -137 0q0 45 -8 74t-24.5 41.5t-32 16t-39.5 3.5h-55q-34 0 -51 -15t-18 -50q-2 -58 -2 -111h12q34 0 45 15t11 59z" />
    <glyph glyph-name="Igrave" unicode="&#xcc;" horiz-adv-x="428" 
d="M17 -3q2 67 0 134h21q27 0 36.5 14.5t12.5 44.5q2 26 2 153.5t-2 156.5q-2 30 -14 44.5t-38 14.5h-18q2 65 0 131q127 -2 198 -2l197 2q-2 -66 0 -131h-19q-26 0 -38 -14.5t-14 -44.5q-2 -29 -2 -156.5t2 -153.5q5 -59 49 -59h21q-2 -67 0 -134q-126 3 -197 3zM294 751
l-8 -13q-38 -3 -89.5 8.5t-90.5 33.5q-44 24 -47.5 57.5t27 45t77.5 -5.5q35 -17 72 -53.5t59 -72.5z" />
    <glyph glyph-name="Iacute" unicode="&#xcd;" horiz-adv-x="428" 
d="M17 -3q2 67 0 134h21q27 0 36.5 14.5t12.5 44.5q2 26 2 153.5t-2 156.5q-2 30 -14 44.5t-38 14.5h-18q2 65 0 131q127 -2 198 -2l197 2q-2 -66 0 -131h-19q-26 0 -38 -14.5t-14 -44.5q-2 -29 -2 -156.5t2 -153.5q5 -59 49 -59h21q-2 -67 0 -134q-126 3 -197 3zM164 738
l-7 13q21 36 59 72.5t74 54.5q28 12 51 12t35 -12.5t15 -28.5t-9.5 -35.5t-37.5 -33.5q-38 -21 -89.5 -32.5t-90.5 -9.5z" />
    <glyph glyph-name="Icircumflex" unicode="&#xce;" horiz-adv-x="428" 
d="M17 -3q2 67 0 134h21q27 0 36.5 14.5t12.5 44.5q2 26 2 153.5t-2 156.5q-2 30 -14 44.5t-38 14.5h-18q2 65 0 131q127 -2 198 -2l197 2q-2 -66 0 -131h-19q-26 0 -38 -14.5t-14 -44.5q-2 -29 -2 -156.5t2 -153.5q5 -59 49 -59h21q-2 -67 0 -134q-126 3 -197 3zM364 742
l-9 -11q-75 8 -144 54q-65 -44 -138 -53l-9 11q26 83 107 152h88q63 -50 105 -153z" />
    <glyph glyph-name="Idieresis" unicode="&#xcf;" horiz-adv-x="428" 
d="M17 -3q2 67 0 134h21q27 0 36.5 14.5t12.5 44.5q2 26 2 153.5t-2 156.5q-2 30 -14 44.5t-38 14.5h-18q2 65 0 131q127 -2 198 -2l197 2q-2 -66 0 -131h-19q-26 0 -38 -14.5t-14 -44.5q-2 -29 -2 -156.5t2 -153.5q5 -59 49 -59h21q-2 -67 0 -134q-126 3 -197 3zM190 811
q0 -30 -18 -46.5t-46 -16.5q-27 0 -45 16.5t-18 46.5t18 47t45 17q28 0 46 -17t18 -47zM365 811q0 -30 -18 -46.5t-46 -16.5t-45.5 16.5t-17.5 46.5t18 47t45 17q28 0 46 -17t18 -47z" />
    <glyph glyph-name="Eth" unicode="&#xd0;" horiz-adv-x="804" 
d="M15 690q5 0 42 -0.5t87 -1t86 -0.5t107 0.5t106 0.5q178 0 255.5 -81t79.5 -258q4 -352 -326 -352q-20 0 -98 1t-122 1l-217 -2q2 66 0 133h9q34 0 47.5 15t15.5 54q2 34 2 88q-29 0 -46 -1q2 14 2.5 57.5t-1.5 58.5q16 -1 45 -1q0 59 -2 91q-5 66 -58 66h-14q2 65 0 131
zM341 177q1 -36 40 -36h12q66 0 97 43.5t31 166.5q0 117 -31.5 159t-95.5 42h-13q-38 0 -40 -32q-2 -52 -2 -119q56 0 90 2q-1 -19 -1 -58t1 -58q-6 0 -37 0.5t-53 0.5q0 -61 2 -111z" />
    <glyph glyph-name="Ntilde" unicode="&#xd1;" horiz-adv-x="827" 
d="M365 690q104 -178 228 -362q0 132 -1 153q-4 78 -66 78h-38q2 65 0 131q104 -3 162 -3l162 3q-2 -66 0 -131h-19q-62 0 -66 -78q-2 -42 -2 -200t2 -282q-116 4 -233 0q-105 174 -256 409q-2 -152 1 -199q5 -78 68 -78h40q-2 -67 0 -133q-106 2 -166 2l-166 -2q2 66 0 133
h21q63 0 68 78q2 33 2 142.5t-2 138.5q-2 30 -20.5 49.5t-47.5 19.5h-20q2 65 0 131q175 -4 349 0zM526 862l33 12q26 -65 -5 -105.5t-91 -40.5q-71 0 -112 65q-14 23 -33 23q-17 0 -24.5 -13.5t4.5 -50.5l-33 -11q-27 66 6 105.5t90 39.5q70 0 112 -65q15 -23 33 -23
t25 14.5t-5 49.5z" />
    <glyph glyph-name="Ograve" unicode="&#xd2;" horiz-adv-x="797" 
d="M399 122q52 0 68.5 46t16.5 176q0 134 -15.5 178.5t-69.5 44.5q-52 0 -69 -46.5t-17 -177.5t16.5 -176t69.5 -45zM399 -15q-189 0 -281.5 82t-92.5 276q0 362 374 362q191 0 282 -83.5t91 -277.5q0 -359 -373 -359zM478 751l-8 -13q-38 -3 -89.5 8.5t-90.5 33.5
q-44 24 -47.5 57.5t27 45t77.5 -5.5q35 -17 72 -53.5t59 -72.5z" />
    <glyph glyph-name="Oacute" unicode="&#xd3;" horiz-adv-x="797" 
d="M348 738l-7 13q21 36 59 72.5t74 54.5q28 12 51 12t35 -12.5t15 -28.5t-9.5 -35.5t-37.5 -33.5q-38 -21 -89.5 -32.5t-90.5 -9.5zM399 122q52 0 68.5 46t16.5 176q0 134 -15.5 178.5t-69.5 44.5q-52 0 -69 -46.5t-17 -177.5t16.5 -176t69.5 -45zM399 -15
q-189 0 -281.5 82t-92.5 276q0 362 374 362q191 0 282 -83.5t91 -277.5q0 -359 -373 -359z" />
    <glyph glyph-name="Ocircumflex" unicode="&#xd4;" horiz-adv-x="797" 
d="M548 742l-9 -11q-75 8 -144 54q-65 -44 -138 -53l-9 11q26 83 107 152h88q63 -50 105 -153zM399 122q52 0 68.5 46t16.5 176q0 134 -15.5 178.5t-69.5 44.5q-52 0 -69 -46.5t-17 -177.5t16.5 -176t69.5 -45zM399 -15q-189 0 -281.5 82t-92.5 276q0 362 374 362
q191 0 282 -83.5t91 -277.5q0 -359 -373 -359z" />
    <glyph glyph-name="Otilde" unicode="&#xd5;" horiz-adv-x="797" 
d="M399 122q52 0 68.5 46t16.5 176q0 134 -15.5 178.5t-69.5 44.5q-52 0 -69 -46.5t-17 -177.5t16.5 -176t69.5 -45zM399 -15q-189 0 -281.5 82t-92.5 276q0 362 374 362q191 0 282 -83.5t91 -277.5q0 -359 -373 -359zM511 862l33 12q26 -65 -5 -105.5t-91 -40.5
q-71 0 -112 65q-14 23 -33 23q-17 0 -24.5 -13.5t4.5 -50.5l-33 -11q-27 66 6 105.5t90 39.5q70 0 112 -65q15 -23 33 -23t25 14.5t-5 49.5z" />
    <glyph glyph-name="Odieresis" unicode="&#xd6;" horiz-adv-x="797" 
d="M374 811q0 -30 -18 -46.5t-46 -16.5q-27 0 -45 16.5t-18 46.5t18 47t45 17q28 0 46 -17t18 -47zM549 811q0 -30 -18 -46.5t-46 -16.5t-45.5 16.5t-17.5 46.5t18 47t45 17q28 0 46 -17t18 -47zM399 122q52 0 68.5 46t16.5 176q0 134 -15.5 178.5t-69.5 44.5
q-52 0 -69 -46.5t-17 -177.5t16.5 -176t69.5 -45zM399 -15q-189 0 -281.5 82t-92.5 276q0 362 374 362q191 0 282 -83.5t91 -277.5q0 -359 -373 -359z" />
    <glyph glyph-name="multiply" unicode="&#xd7;" 
d="M498 132l-81 -82q-71 75 -118 138q-55 -74 -117 -136l-81 81q66 66 136 117q-78 57 -136 117l81 81q69 -71 117 -136q46 63 117 137l82 -82q-64 -64 -138 -118q67 -50 138 -117z" />
    <glyph glyph-name="Oslash" unicode="&#xd8;" horiz-adv-x="797" 
d="M399 -15q-143 0 -229 45l-73 -70l-23 18l52 81q-101 86 -101 284q0 362 374 362q140 0 223 -43l80 77l22 -17l-58 -89q106 -85 106 -289q0 -359 -373 -359zM399 122q52 0 68.5 46t16.5 176q0 55 -1 78l-62 -70l-103 -134q6 -53 24.5 -74.5t56.5 -21.5zM314 276l83 95
l82 106q-7 50 -24.5 70t-55.5 20q-52 0 -69 -46.5t-17 -177.5q0 -47 1 -67z" />
    <glyph glyph-name="Ugrave" unicode="&#xd9;" horiz-adv-x="803" 
d="M83 250q0 13 1.5 117t-0.5 126q-3 66 -58 66h-11q2 65 0 131q135 -2 210 -2q45 0 131.5 1t87.5 1q-2 -66 0 -131h-29q-59 0 -62 -66q-4 -114 0 -227q3 -73 26 -104t74 -31t74.5 31t26.5 104q6 124 0 227q-3 66 -58 66h-27q2 65 0 131q96 -2 155 -2q35 0 98 1t66 1
q-2 -66 0 -131h-12q-55 0 -58 -66v-236q0 -151 -79.5 -216.5t-227.5 -65.5q-174 0 -251 66t-77 209zM491 751l-8 -13q-38 -3 -89.5 8.5t-90.5 33.5q-44 24 -47.5 57.5t27 45t77.5 -5.5q35 -17 72 -53.5t59 -72.5z" />
    <glyph glyph-name="Uacute" unicode="&#xda;" horiz-adv-x="803" 
d="M401 738l-7 13q21 36 59 72.5t74 54.5q28 12 51 12t35 -12.5t15 -28.5t-9.5 -35.5t-37.5 -33.5q-38 -21 -89.5 -32.5t-90.5 -9.5zM83 250q0 13 1.5 117t-0.5 126q-3 66 -58 66h-11q2 65 0 131q135 -2 210 -2q45 0 131.5 1t87.5 1q-2 -66 0 -131h-29q-59 0 -62 -66
q-4 -114 0 -227q3 -73 26 -104t74 -31t74.5 31t26.5 104q6 124 0 227q-3 66 -58 66h-27q2 65 0 131q96 -2 155 -2q35 0 98 1t66 1q-2 -66 0 -131h-12q-55 0 -58 -66v-236q0 -151 -79.5 -216.5t-227.5 -65.5q-174 0 -251 66t-77 209z" />
    <glyph glyph-name="Ucircumflex" unicode="&#xdb;" horiz-adv-x="803" 
d="M605 742l-9 -11q-75 8 -144 54q-65 -44 -138 -53l-9 11q26 83 107 152h88q63 -50 105 -153zM83 250q0 13 1.5 117t-0.5 126q-3 66 -58 66h-11q2 65 0 131q135 -2 210 -2q45 0 131.5 1t87.5 1q-2 -66 0 -131h-29q-59 0 -62 -66q-4 -114 0 -227q3 -73 26 -104t74 -31
t74.5 31t26.5 104q6 124 0 227q-3 66 -58 66h-27q2 65 0 131q96 -2 155 -2q35 0 98 1t66 1q-2 -66 0 -131h-12q-55 0 -58 -66v-236q0 -151 -79.5 -216.5t-227.5 -65.5q-174 0 -251 66t-77 209z" />
    <glyph glyph-name="Udieresis" unicode="&#xdc;" horiz-adv-x="803" 
d="M427 811q0 -30 -18 -46.5t-46 -16.5q-27 0 -45 16.5t-18 46.5t18 47t45 17q28 0 46 -17t18 -47zM602 811q0 -30 -18 -46.5t-46 -16.5t-45.5 16.5t-17.5 46.5t18 47t45 17q28 0 46 -17t18 -47zM83 250q0 13 1.5 117t-0.5 126q-3 66 -58 66h-11q2 65 0 131q135 -2 210 -2
q45 0 131.5 1t87.5 1q-2 -66 0 -131h-29q-59 0 -62 -66q-4 -114 0 -227q3 -73 26 -104t74 -31t74.5 31t26.5 104q6 124 0 227q-3 66 -58 66h-27q2 65 0 131q96 -2 155 -2q35 0 98 1t66 1q-2 -66 0 -131h-12q-55 0 -58 -66v-236q0 -151 -79.5 -216.5t-227.5 -65.5
q-174 0 -251 66t-77 209z" />
    <glyph glyph-name="Yacute" unicode="&#xdd;" horiz-adv-x="879" 
d="M702 480q-31 -56 -119 -243v-47q0 -59 59 -59h27q2 -66 0 -133q-151 2 -236 2l-237 -2q2 67 0 133h30q32 0 41 14t9 45v48q-97 200 -129 259q-35 62 -115 62h-17v131q161 -2 252 -2l251 2v-131h-14q-28 0 -34 -24t15 -81q23 -57 43 -94q23 46 44 94q20 44 16.5 74.5
t-33.5 30.5h-14v131q104 -2 162 -2l161 2v-131h-13q-68 0 -97 -19t-52 -60zM489 738l-7 13q21 36 59 72.5t74 54.5q28 12 51 12t35 -12.5t15 -28.5t-9.5 -35.5t-37.5 -33.5q-38 -21 -89.5 -32.5t-90.5 -9.5z" />
    <glyph glyph-name="Thorn" unicode="&#xde;" horiz-adv-x="695" 
d="M12 -3q2 67 0 134h21q27 0 36.5 14.5t12.5 44.5q2 26 2 153.5t-2 156.5q-2 30 -14 44.5t-38 14.5h-18q2 65 0 131q127 -2 198 -2l197 2q-2 -66 0 -131h-19q-36 0 -47 -30q46 4 84 4q255 0 255 -191q0 -91 -72 -136t-238 -45h-29q12 -30 44 -30h21q-2 -67 0 -134
q-126 3 -197 3zM394 342q0 36 -13.5 54.5t-46.5 21.5q-2 -75 0 -148q31 2 46 17t14 55z" />
    <glyph glyph-name="germandbls" unicode="&#xdf;" horiz-adv-x="681" 
d="M18 479l35 -1q15 220 269 220q120 0 185 -51.5t65 -146.5q0 -120 -95 -155q164 -19 164 -182q0 -86 -50.5 -133t-144.5 -47q-93 0 -128 45.5t1 156.5l44 -8q-11 -39 -11 -64.5t7 -34.5t19 -9t18.5 5t9.5 22t3.5 32.5t0.5 52.5q0 71 -24.5 99.5t-73.5 24.5q4 33 0 66
q28 0 43.5 28t15.5 101q0 65 -12 88.5t-37 23.5q-48 0 -48 -112q0 -51 -0.5 -175t-0.5 -160q0 -9 0.5 -32t0 -35t-1.5 -31t-3.5 -35.5t-6.5 -31.5q-67 3 -116 3l-136 -3q4 54 0 108h11q6 0 10.5 1.5t7.5 3.5t5.5 6.5t3.5 7t2 9t1.5 9.5t1 10.5t0.5 10.5q4 73 2 207l-37 -1
q2 54 0 107z" />
    <glyph glyph-name="agrave" unicode="&#xe0;" horiz-adv-x="582" 
d="M497 278v-96v-15v-28.5t1.5 -17t5 -11t9.5 -2.5q27 0 12 108h41q26 -233 -146 -233q-100 0 -130 65q-45 -65 -148 -65q-56 0 -94 28.5t-38 85.5q0 156 262 160v51q0 43 -15.5 67t-59.5 29q24 -19 24 -56q0 -38 -25.5 -59.5t-70.5 -21.5q-41 0 -64 21.5t-23 61.5
q0 67 64.5 105t161.5 38q129 0 181 -50.5t52 -164.5zM274 109q-2 16 -2 37v70q-22 -2 -31 -12.5t-9 -41.5q0 -33 8 -43.5t23 -10.5zM371 541l-8 -13q-38 -3 -89.5 8.5t-90.5 33.5q-44 24 -47.5 57.5t27 45t77.5 -5.5q35 -17 72 -53.5t59 -72.5z" />
    <glyph glyph-name="aacute" unicode="&#xe1;" horiz-adv-x="582" 
d="M497 278v-96v-15v-28.5t1.5 -17t5 -11t9.5 -2.5q27 0 12 108h41q26 -233 -146 -233q-100 0 -130 65q-45 -65 -148 -65q-56 0 -94 28.5t-38 85.5q0 156 262 160v51q0 43 -15.5 67t-59.5 29q24 -19 24 -56q0 -38 -25.5 -59.5t-70.5 -21.5q-41 0 -64 21.5t-23 61.5
q0 67 64.5 105t161.5 38q129 0 181 -50.5t52 -164.5zM274 109q-2 16 -2 37v70q-22 -2 -31 -12.5t-9 -41.5q0 -33 8 -43.5t23 -10.5zM250 528l-7 13q21 36 59 72.5t74 54.5q28 12 51 12t35 -12.5t15 -28.5t-9.5 -35.5t-37.5 -33.5q-38 -21 -89.5 -32.5t-90.5 -9.5z" />
    <glyph glyph-name="acircumflex" unicode="&#xe2;" horiz-adv-x="582" 
d="M497 278v-96v-15v-28.5t1.5 -17t5 -11t9.5 -2.5q27 0 12 108h41q26 -233 -146 -233q-100 0 -130 65q-45 -65 -148 -65q-56 0 -94 28.5t-38 85.5q0 156 262 160v51q0 43 -15.5 67t-59.5 29q24 -19 24 -56q0 -38 -25.5 -59.5t-70.5 -21.5q-41 0 -64 21.5t-23 61.5
q0 67 64.5 105t161.5 38q129 0 181 -50.5t52 -164.5zM274 109q-2 16 -2 37v70q-22 -2 -31 -12.5t-9 -41.5q0 -33 8 -43.5t23 -10.5zM440 532l-9 -11q-75 8 -144 54q-65 -44 -138 -53l-9 11q26 83 107 152h88q63 -50 105 -153z" />
    <glyph glyph-name="atilde" unicode="&#xe3;" horiz-adv-x="582" 
d="M497 278v-96v-15v-28.5t1.5 -17t5 -11t9.5 -2.5q27 0 12 108h41q26 -233 -146 -233q-100 0 -130 65q-45 -65 -148 -65q-56 0 -94 28.5t-38 85.5q0 156 262 160v51q0 43 -15.5 67t-59.5 29q24 -19 24 -56q0 -38 -25.5 -59.5t-70.5 -21.5q-41 0 -64 21.5t-23 61.5
q0 67 64.5 105t161.5 38q129 0 181 -50.5t52 -164.5zM274 109q-2 16 -2 37v70q-22 -2 -31 -12.5t-9 -41.5q0 -33 8 -43.5t23 -10.5zM384 652l33 12q26 -65 -5 -105.5t-91 -40.5q-71 0 -112 65q-14 23 -33 23q-17 0 -24.5 -13.5t4.5 -50.5l-33 -11q-27 66 6 105.5t90 39.5
q70 0 112 -65q15 -23 33 -23t25 14.5t-5 49.5z" />
    <glyph glyph-name="adieresis" unicode="&#xe4;" horiz-adv-x="582" 
d="M497 278v-96v-15v-28.5t1.5 -17t5 -11t9.5 -2.5q27 0 12 108h41q26 -233 -146 -233q-100 0 -130 65q-45 -65 -148 -65q-56 0 -94 28.5t-38 85.5q0 156 262 160v51q0 43 -15.5 67t-59.5 29q24 -19 24 -56q0 -38 -25.5 -59.5t-70.5 -21.5q-41 0 -64 21.5t-23 61.5
q0 67 64.5 105t161.5 38q129 0 181 -50.5t52 -164.5zM274 109q-2 16 -2 37v70q-22 -2 -31 -12.5t-9 -41.5q0 -33 8 -43.5t23 -10.5zM266 601q0 -30 -18 -46.5t-46 -16.5q-27 0 -45 16.5t-18 46.5t18 47t45 17q28 0 46 -17t18 -47zM441 601q0 -30 -18 -46.5t-46 -16.5
t-45.5 16.5t-17.5 46.5t18 47t45 17q28 0 46 -17t18 -47z" />
    <glyph glyph-name="aring" unicode="&#xe5;" horiz-adv-x="582" 
d="M497 278v-96v-15v-28.5t1.5 -17t5 -11t9.5 -2.5q27 0 12 108h41q26 -233 -146 -233q-100 0 -130 65q-45 -65 -148 -65q-56 0 -94 28.5t-38 85.5q0 156 262 160v51q0 43 -15.5 67t-59.5 29q24 -19 24 -56q0 -38 -25.5 -59.5t-70.5 -21.5q-41 0 -64 21.5t-23 61.5
q0 67 64.5 105t161.5 38q129 0 181 -50.5t52 -164.5zM274 109q-2 16 -2 37v70q-22 -2 -31 -12.5t-9 -41.5q0 -33 8 -43.5t23 -10.5zM326 630q0 47 -45 47q-46 0 -46 -47q0 -49 46 -49q45 0 45 49zM377 630q0 -47 -25 -72t-71 -25q-47 0 -72 25.5t-25 71.5t24.5 71t70.5 25
q47 0 72.5 -25t25.5 -71z" />
    <glyph glyph-name="ae" unicode="&#xe6;" horiz-adv-x="788" 
d="M775 186q4 -94 -54 -148.5t-183 -54.5q-155 0 -220 84q-43 -84 -155 -84q-153 0 -153 127q0 69 68 107.5t194 39.5v64q0 42 -17.5 63.5t-61.5 19.5q28 -19 28 -56q0 -39 -25 -60t-71 -21q-42 0 -64.5 21.5t-22.5 61.5q0 67 64.5 105t161.5 38q93 0 147 -27q54 27 131 27
q129 0 185.5 -77.5t48.5 -208.5h-274q2 -55 13 -77t36 -22q22 0 31.5 18t10.5 60q90 -4 182 0zM535 372q-11 0 -17.5 -7t-11 -33.5t-4.5 -76.5h39q15 0 19.5 6.5t4.5 24.5q0 37 -4 56.5t-10 24.5t-16 5zM288 122q-14 39 -16 94q-22 -1 -31 -11.5t-9 -42.5q0 -33 8 -43.5
t23 -10.5q19 0 25 14z" />
    <glyph glyph-name="ccedilla" unicode="&#xe7;" horiz-adv-x="514" 
d="M194 -105l-12 28q52 15 65 61q-116 5 -176.5 62t-60.5 178q0 130 69 199.5t202 69.5q103 0 159 -40.5t56 -115.5q0 -47 -28 -74.5t-79 -27.5q-48 0 -74 22.5t-26 63.5q0 50 38 71q-9 3 -23 3q-67 0 -67 -137q0 -83 8 -116.5t33 -33.5q24 0 33 19t9 59q90 -4 183 0
q3 -101 -56.5 -149.5t-156.5 -52.5q-3 -27 -19 -44q44 1 74.5 -20t30.5 -61q0 -42 -32.5 -67.5t-89.5 -25.5q-81 0 -124 56l25 26q29 -32 64 -32q50 0 50 46q0 25 -20.5 35t-54.5 -2z" />
    <glyph glyph-name="egrave" unicode="&#xe8;" horiz-adv-x="515" 
d="M320 186q90 -4 182 0q4 -94 -54 -148.5t-183 -54.5q-255 0 -255 241q0 130 67 199.5t192 69.5q251 0 233 -286h-273q2 -55 13 -77t36 -22q22 0 31.5 18t10.5 60zM262 372q-11 0 -17.5 -7t-11 -33.5t-4.5 -76.5h29q18 0 26 7.5t8 34.5q0 45 -7.5 60t-22.5 15zM338 541
l-8 -13q-38 -3 -89.5 8.5t-90.5 33.5q-44 24 -47.5 57.5t27 45t77.5 -5.5q35 -17 72 -53.5t59 -72.5z" />
    <glyph glyph-name="eacute" unicode="&#xe9;" horiz-adv-x="515" 
d="M237 528l-7 13q21 36 59 72.5t74 54.5q28 12 51 12t35 -12.5t15 -28.5t-9.5 -35.5t-37.5 -33.5q-38 -21 -89.5 -32.5t-90.5 -9.5zM320 186q90 -4 182 0q4 -94 -54 -148.5t-183 -54.5q-255 0 -255 241q0 130 67 199.5t192 69.5q251 0 233 -286h-273q2 -55 13 -77t36 -22
q22 0 31.5 18t10.5 60zM262 372q-11 0 -17.5 -7t-11 -33.5t-4.5 -76.5h29q18 0 26 7.5t8 34.5q0 45 -7.5 60t-22.5 15z" />
    <glyph glyph-name="ecircumflex" unicode="&#xea;" horiz-adv-x="515" 
d="M427 532l-9 -11q-75 8 -144 54q-65 -44 -138 -53l-9 11q26 83 107 152h88q63 -50 105 -153zM320 186q90 -4 182 0q4 -94 -54 -148.5t-183 -54.5q-255 0 -255 241q0 130 67 199.5t192 69.5q251 0 233 -286h-273q2 -55 13 -77t36 -22q22 0 31.5 18t10.5 60zM262 372
q-11 0 -17.5 -7t-11 -33.5t-4.5 -76.5h29q18 0 26 7.5t8 34.5q0 45 -7.5 60t-22.5 15z" />
    <glyph glyph-name="edieresis" unicode="&#xeb;" horiz-adv-x="515" 
d="M250 601q0 -30 -18 -46.5t-46 -16.5q-27 0 -45 16.5t-18 46.5t18 47t45 17q28 0 46 -17t18 -47zM425 601q0 -30 -18 -46.5t-46 -16.5t-45.5 16.5t-17.5 46.5t18 47t45 17q28 0 46 -17t18 -47zM320 186q90 -4 182 0q4 -94 -54 -148.5t-183 -54.5q-255 0 -255 241
q0 130 67 199.5t192 69.5q251 0 233 -286h-273q2 -55 13 -77t36 -22q22 0 31.5 18t10.5 60zM262 372q-11 0 -17.5 -7t-11 -33.5t-4.5 -76.5h29q18 0 26 7.5t8 34.5q0 45 -7.5 60t-22.5 15z" />
    <glyph glyph-name="igrave" unicode="&#xec;" horiz-adv-x="334" 
d="M280 481q-2 -52 -2.5 -178t1.5 -148q2 -25 11 -36t31 -11h5q-2 -54 0 -108q-8 0 -77 1t-79 1q-11 0 -84.5 -1t-77.5 -1q2 54 0 108h4q22 0 30.5 10.5t10.5 36.5t2 86t-1 87q-1 25 -10 34.5t-28 9.5h-8q2 54 0 107q36 0 139.5 1t132.5 1zM227 541l-8 -13q-38 -3 -89.5 8.5
t-90.5 33.5q-44 24 -47.5 57.5t27 45t77.5 -5.5q35 -17 72 -53.5t59 -72.5z" />
    <glyph glyph-name="iacute" unicode="&#xed;" horiz-adv-x="334" 
d="M117 528l-7 13q21 36 59 72.5t74 54.5q28 12 51 12t35 -12.5t15 -28.5t-9.5 -35.5t-37.5 -33.5q-38 -21 -89.5 -32.5t-90.5 -9.5zM280 481q-2 -52 -2.5 -178t1.5 -148q2 -25 11 -36t31 -11h5q-2 -54 0 -108q-8 0 -77 1t-79 1q-11 0 -84.5 -1t-77.5 -1q2 54 0 108h4
q22 0 30.5 10.5t10.5 36.5t2 86t-1 87q-1 25 -10 34.5t-28 9.5h-8q2 54 0 107q36 0 139.5 1t132.5 1z" />
    <glyph glyph-name="icircumflex" unicode="&#xee;" horiz-adv-x="334" 
d="M307 532l-9 -11q-75 8 -144 54q-65 -44 -138 -53l-9 11q26 83 107 152h88q63 -50 105 -153zM280 481q-2 -52 -2.5 -178t1.5 -148q2 -25 11 -36t31 -11h5q-2 -54 0 -108q-8 0 -77 1t-79 1q-11 0 -84.5 -1t-77.5 -1q2 54 0 108h4q22 0 30.5 10.5t10.5 36.5t2 86t-1 87
q-1 25 -10 34.5t-28 9.5h-8q2 54 0 107q36 0 139.5 1t132.5 1z" />
    <glyph glyph-name="idieresis" unicode="&#xef;" horiz-adv-x="334" 
d="M133 601q0 -30 -18 -46.5t-46 -16.5q-27 0 -45 16.5t-18 46.5t18 47t45 17q28 0 46 -17t18 -47zM308 601q0 -30 -18 -46.5t-46 -16.5t-45.5 16.5t-17.5 46.5t18 47t45 17q28 0 46 -17t18 -47zM280 481q-2 -52 -2.5 -178t1.5 -148q2 -25 11 -36t31 -11h5q-2 -54 0 -108
q-8 0 -77 1t-79 1q-11 0 -84.5 -1t-77.5 -1q2 54 0 108h4q22 0 30.5 10.5t10.5 36.5t2 86t-1 87q-1 25 -10 34.5t-28 9.5h-8q2 54 0 107q36 0 139.5 1t132.5 1z" />
    <glyph glyph-name="eth" unicode="&#xf0;" horiz-adv-x="537" 
d="M197 525l-21 27l44 36q-39 24 -105 34l26 66q86 0 157 -27l45 45l21 -27l-37 -31q100 -50 150 -151.5t50 -229.5q0 -149 -67 -216.5t-199 -67.5q-128 0 -189.5 58t-61.5 194q0 134 70 196t189 62l22 -1q-16 50 -49 80zM231 233q0 -78 8 -101.5t30 -23.5t30 23.5t8 101.5
q0 86 -8 112.5t-31 26.5q-21 0 -29 -27t-8 -112z" />
    <glyph glyph-name="ntilde" unicode="&#xf1;" horiz-adv-x="644" 
d="M590 314v-159q0 -27 9 -37t32 -10h5q-2 -55 0 -110q-98 2 -153 2l-153 -2q2 55 0 110h5q26 0 29 47q2 25 2 80t-2 82q-2 30 -9.5 42.5t-29.5 12.5q-45 0 -45 -65v-152q0 -28 7 -37.5t23 -9.5h5q-4 -55 0 -110q-98 2 -153 2l-154 -2q2 55 0 110h4q23 0 31.5 9.5t10.5 37.5
t2 89.5t-2 83.5q-2 23 -10 33.5t-28 10.5h-4q2 54 0 107q228 0 268 3v-100q13 53 53 82t101 29q156 0 156 -179zM435 652l33 12q26 -65 -5 -105.5t-91 -40.5q-71 0 -112 65q-14 23 -33 23q-17 0 -24.5 -13.5t4.5 -50.5l-33 -11q-27 66 6 105.5t90 39.5q70 0 112 -65
q15 -23 33 -23t25 14.5t-5 49.5z" />
    <glyph glyph-name="ograve" unicode="&#xf2;" horiz-adv-x="554" 
d="M18 235q0 129 67.5 193.5t191.5 64.5q130 0 194.5 -63.5t64.5 -196.5t-65 -191.5t-194 -58.5t-194 59.5t-65 192.5zM239 233q0 -78 8 -101.5t30 -23.5t30 23.5t8 101.5q0 86 -8 112.5t-31 26.5q-21 0 -29 -27t-8 -112zM347 541l-8 -13q-38 -3 -89.5 8.5t-90.5 33.5
q-44 24 -47.5 57.5t27 45t77.5 -5.5q35 -17 72 -53.5t59 -72.5z" />
    <glyph glyph-name="oacute" unicode="&#xf3;" horiz-adv-x="554" 
d="M227 528l-7 13q21 36 59 72.5t74 54.5q28 12 51 12t35 -12.5t15 -28.5t-9.5 -35.5t-37.5 -33.5q-38 -21 -89.5 -32.5t-90.5 -9.5zM18 235q0 129 67.5 193.5t191.5 64.5q130 0 194.5 -63.5t64.5 -196.5t-65 -191.5t-194 -58.5t-194 59.5t-65 192.5zM239 233
q0 -78 8 -101.5t30 -23.5t30 23.5t8 101.5q0 86 -8 112.5t-31 26.5q-21 0 -29 -27t-8 -112z" />
    <glyph glyph-name="ocircumflex" unicode="&#xf4;" horiz-adv-x="554" 
d="M437 532l-9 -11q-75 8 -144 54q-65 -44 -138 -53l-9 11q26 83 107 152h88q63 -50 105 -153zM18 235q0 129 67.5 193.5t191.5 64.5q130 0 194.5 -63.5t64.5 -196.5t-65 -191.5t-194 -58.5t-194 59.5t-65 192.5zM239 233q0 -78 8 -101.5t30 -23.5t30 23.5t8 101.5
q0 86 -8 112.5t-31 26.5q-21 0 -29 -27t-8 -112z" />
    <glyph glyph-name="otilde" unicode="&#xf5;" horiz-adv-x="554" 
d="M18 235q0 129 67.5 193.5t191.5 64.5q130 0 194.5 -63.5t64.5 -196.5t-65 -191.5t-194 -58.5t-194 59.5t-65 192.5zM239 233q0 -78 8 -101.5t30 -23.5t30 23.5t8 101.5q0 86 -8 112.5t-31 26.5q-21 0 -29 -27t-8 -112zM380 652l33 12q26 -65 -5 -105.5t-91 -40.5
q-71 0 -112 65q-14 23 -33 23q-17 0 -24.5 -13.5t4.5 -50.5l-33 -11q-27 66 6 105.5t90 39.5q70 0 112 -65q15 -23 33 -23t25 14.5t-5 49.5z" />
    <glyph glyph-name="odieresis" unicode="&#xf6;" horiz-adv-x="554" 
d="M263 601q0 -30 -18 -46.5t-46 -16.5q-27 0 -45 16.5t-18 46.5t18 47t45 17q28 0 46 -17t18 -47zM438 601q0 -30 -18 -46.5t-46 -16.5t-45.5 16.5t-17.5 46.5t18 47t45 17q28 0 46 -17t18 -47zM18 235q0 129 67.5 193.5t191.5 64.5q130 0 194.5 -63.5t64.5 -196.5
t-65 -191.5t-194 -58.5t-194 59.5t-65 192.5zM239 233q0 -78 8 -101.5t30 -23.5t30 23.5t8 101.5q0 86 -8 112.5t-31 26.5q-21 0 -29 -27t-8 -112z" />
    <glyph glyph-name="divide" unicode="&#xf7;" 
d="M374 101q0 -31 -19 -49t-55 -18q-74 0 -74 68q0 30 21 50t53 20q35 0 54.5 -20.5t19.5 -50.5zM77 193v115q47 0 118 -6.5t105 -16.5q35 10 105.5 16.5t117.5 6.5v-115q-47 0 -118 6.5t-105 16.5q-35 -10 -105.5 -16.5t-117.5 -6.5zM374 397q0 -31 -19 -49t-55 -18
q-74 0 -74 68q0 30 21 50t53 20q35 0 54.5 -20.5t19.5 -50.5z" />
    <glyph glyph-name="oslash" unicode="&#xf8;" horiz-adv-x="554" 
d="M18 235q0 129 67.5 193.5t191.5 64.5q95 0 156 -35l54 57l16 -13l-38 -67q71 -63 71 -202q0 -133 -65 -191.5t-194 -58.5q-88 0 -149 29l-56 -55l-17 14l38 63q-75 60 -75 201zM239 233v-30l35 40l39 54q-2 44 -10.5 59.5t-26.5 15.5q-21 0 -29 -27t-8 -112zM277 108
q22 0 30 23.5t8 101.5v24l-26 -30l-48 -64q4 -33 12 -44t24 -11z" />
    <glyph glyph-name="ugrave" unicode="&#xf9;" horiz-adv-x="613" 
d="M577 482q-3 -64 -3 -171v-134q0 -36 6 -52.5t22 -16.5h4q-2 -54 0 -108q-219 0 -258 -2v100q-27 -115 -149 -115q-161 0 -161 179v139q0 71 -27 71h-6q2 55 0 110q83 -3 130 -3l132 3q-4 -79 -4 -177q0 -90 1 -116q2 -46 9.5 -65t29.5 -19q30 0 37.5 33t7.5 122v57
q0 30 -10 42.5t-40 12.5h-3q2 55 0 110q90 -3 140 -3zM325 541l-8 -13q-38 -3 -89.5 8.5t-90.5 33.5q-44 24 -47.5 57.5t27 45t77.5 -5.5q35 -17 72 -53.5t59 -72.5z" />
    <glyph glyph-name="uacute" unicode="&#xfa;" horiz-adv-x="613" 
d="M275 528l-7 13q21 36 59 72.5t74 54.5q28 12 51 12t35 -12.5t15 -28.5t-9.5 -35.5t-37.5 -33.5q-38 -21 -89.5 -32.5t-90.5 -9.5zM577 482q-3 -64 -3 -171v-134q0 -36 6 -52.5t22 -16.5h4q-2 -54 0 -108q-219 0 -258 -2v100q-27 -115 -149 -115q-161 0 -161 179v139
q0 71 -27 71h-6q2 55 0 110q83 -3 130 -3l132 3q-4 -79 -4 -177q0 -90 1 -116q2 -46 9.5 -65t29.5 -19q30 0 37.5 33t7.5 122v57q0 30 -10 42.5t-40 12.5h-3q2 55 0 110q90 -3 140 -3z" />
    <glyph glyph-name="ucircumflex" unicode="&#xfb;" horiz-adv-x="613" 
d="M435 532l-9 -11q-75 8 -144 54q-65 -44 -138 -53l-9 11q26 83 107 152h88q63 -50 105 -153zM577 482q-3 -64 -3 -171v-134q0 -36 6 -52.5t22 -16.5h4q-2 -54 0 -108q-219 0 -258 -2v100q-27 -115 -149 -115q-161 0 -161 179v139q0 71 -27 71h-6q2 55 0 110q83 -3 130 -3
l132 3q-4 -79 -4 -177q0 -90 1 -116q2 -46 9.5 -65t29.5 -19q30 0 37.5 33t7.5 122v57q0 30 -10 42.5t-40 12.5h-3q2 55 0 110q90 -3 140 -3z" />
    <glyph glyph-name="udieresis" unicode="&#xfc;" horiz-adv-x="613" 
d="M261 601q0 -30 -18 -46.5t-46 -16.5q-27 0 -45 16.5t-18 46.5t18 47t45 17q28 0 46 -17t18 -47zM436 601q0 -30 -18 -46.5t-46 -16.5t-45.5 16.5t-17.5 46.5t18 47t45 17q28 0 46 -17t18 -47zM577 482q-3 -64 -3 -171v-134q0 -36 6 -52.5t22 -16.5h4q-2 -54 0 -108
q-219 0 -258 -2v100q-27 -115 -149 -115q-161 0 -161 179v139q0 71 -27 71h-6q2 55 0 110q83 -3 130 -3l132 3q-4 -79 -4 -177q0 -90 1 -116q2 -46 9.5 -65t29.5 -19q30 0 37.5 33t7.5 122v57q0 30 -10 42.5t-40 12.5h-3q2 55 0 110q90 -3 140 -3z" />
    <glyph glyph-name="yacute" unicode="&#xfd;" horiz-adv-x="597" 
d="M398 320q12 52 -25 52h-10q2 55 0 110q72 -3 113 -3l113 3q-3 -37 0 -110h-14q-26 0 -40.5 -13t-24.5 -40q-29 -79 -84 -261q-25 -80 -53 -132t-60 -76.5t-61 -32.5t-69 -8q-64 0 -98.5 27.5t-34.5 79.5q0 41 26.5 68.5t75.5 27.5q42 0 64.5 -20.5t22.5 -58.5
q0 -34 -23 -54.5t-59 -20.5t-61 19q23 -29 66 -29q28 0 49 8.5t34 19t25 36t18.5 43.5t17.5 57q3 11 5 17q-69 1 -159 -1q-13 56 -41.5 157.5t-39.5 133.5q-1 2 -3.5 10t-3 10t-3 8t-4 7.5t-4.5 6t-5.5 5.5t-6.5 3t-9 2.5t-11 0.5h-13q2 55 0 110q108 -3 169 -3l169 3
q2 -55 0 -110h-8q-18 0 -26 -14t-3 -38q7 -40 41 -165q31 100 48 165zM338 528l-7 13q21 36 59 72.5t74 54.5q28 12 51 12t35 -12.5t15 -28.5t-9.5 -35.5t-37.5 -33.5q-38 -21 -89.5 -32.5t-90.5 -9.5z" />
    <glyph glyph-name="thorn" unicode="&#xfe;" 
d="M424 -17q-124 0 -144 113v-113q0 -48 38 -48h7q-2 -54 0 -108q-3 0 -63.5 1.5t-94.5 1.5q-25 0 -62.5 -1t-65.5 -1.5t-31 -0.5q2 54 0 108h4q23 0 31.5 10t10.5 38q4 53 4 282t-4 274q-5 44 -38 44h-4q2 53 0 107q229 0 268 3v-335q23 135 154 135q80 0 118 -57.5
t38 -204.5q0 -130 -40.5 -189t-125.5 -59zM280 238q0 -76 10 -104.5t33 -28.5t32.5 26t9.5 107q0 84 -8 109t-32 25t-34 -21.5t-11 -87.5v-25z" />
    <glyph glyph-name="ydieresis" unicode="&#xff;" horiz-adv-x="597" 
d="M398 320q12 52 -25 52h-10q2 55 0 110q72 -3 113 -3l113 3q-3 -37 0 -110h-14q-26 0 -40.5 -13t-24.5 -40q-29 -79 -84 -261q-25 -80 -53 -132t-60 -76.5t-61 -32.5t-69 -8q-64 0 -98.5 27.5t-34.5 79.5q0 41 26.5 68.5t75.5 27.5q42 0 64.5 -20.5t22.5 -58.5
q0 -34 -23 -54.5t-59 -20.5t-61 19q23 -29 66 -29q28 0 49 8.5t34 19t25 36t18.5 43.5t17.5 57q3 11 5 17q-69 1 -159 -1q-13 56 -41.5 157.5t-39.5 133.5q-1 2 -3.5 10t-3 10t-3 8t-4 7.5t-4.5 6t-5.5 5.5t-6.5 3t-9 2.5t-11 0.5h-13q2 55 0 110q108 -3 169 -3l169 3
q2 -55 0 -110h-8q-18 0 -26 -14t-3 -38q7 -40 41 -165q31 100 48 165zM336 601q0 -30 -18 -46.5t-46 -16.5q-27 0 -45 16.5t-18 46.5t18 47t45 17q28 0 46 -17t18 -47zM511 601q0 -30 -18 -46.5t-46 -16.5t-45.5 16.5t-17.5 46.5t18 47t45 17q28 0 46 -17t18 -47z" />
    <glyph glyph-name="Amacron" unicode="&#x100;" horiz-adv-x="886" 
d="M428 131q33 0 41.5 18.5t-1.5 56.5q-96 2 -193 0q-11 -41 -0.5 -58t40.5 -17h32q-2 -67 0 -133q-106 2 -166 2l-166 -2q2 66 0 133h14q44 0 68 20.5t44 72.5q91 236 180 471q83 -2 130 -2l129 2q95 -265 181 -471q23 -56 44.5 -74.5t51.5 -18.5h14q-2 -66 0 -133
q-153 2 -239 2l-239 -2q2 67 0 133h35zM447 276q-36 105 -74 208q-62 -173 -74 -209q102 0 148 1zM301 753q1 15 1 52.5t-1 53.5q46 -1 148 -1t148 1q-1 -16 -1 -53t1 -53q-46 1 -148 1t-148 -1z" />
    <glyph glyph-name="amacron" unicode="&#x101;" horiz-adv-x="582" 
d="M497 278v-96v-15v-28.5t1.5 -17t5 -11t9.5 -2.5q27 0 12 108h41q26 -233 -146 -233q-100 0 -130 65q-45 -65 -148 -65q-56 0 -94 28.5t-38 85.5q0 156 262 160v51q0 43 -15.5 67t-59.5 29q24 -19 24 -56q0 -38 -25.5 -59.5t-70.5 -21.5q-41 0 -64 21.5t-23 61.5
q0 67 64.5 105t161.5 38q129 0 181 -50.5t52 -164.5zM274 109q-2 16 -2 37v70q-22 -2 -31 -12.5t-9 -41.5q0 -33 8 -43.5t23 -10.5zM122 543q1 15 1 52.5t-1 53.5q46 -1 148 -1t148 1q-1 -16 -1 -53t1 -53q-46 1 -148 1t-148 -1z" />
    <glyph glyph-name="Abreve" unicode="&#x102;" horiz-adv-x="886" 
d="M428 131q33 0 41.5 18.5t-1.5 56.5q-96 2 -193 0q-11 -41 -0.5 -58t40.5 -17h32q-2 -67 0 -133q-106 2 -166 2l-166 -2q2 66 0 133h14q44 0 68 20.5t44 72.5q91 236 180 471q83 -2 130 -2l129 2q95 -265 181 -471q23 -56 44.5 -74.5t51.5 -18.5h14q-2 -66 0 -133
q-153 2 -239 2l-239 -2q2 67 0 133h35zM447 276q-36 105 -74 208q-62 -173 -74 -209q102 0 148 1zM443 739q-77 0 -111.5 40.5t-25.5 104.5l35 1q6 -44 102 -44t102 44l35 -1q9 -64 -25.5 -104.5t-111.5 -40.5z" />
    <glyph glyph-name="abreve" unicode="&#x103;" horiz-adv-x="582" 
d="M497 278v-96v-15v-28.5t1.5 -17t5 -11t9.5 -2.5q27 0 12 108h41q26 -233 -146 -233q-100 0 -130 65q-45 -65 -148 -65q-56 0 -94 28.5t-38 85.5q0 156 262 160v51q0 43 -15.5 67t-59.5 29q24 -19 24 -56q0 -38 -25.5 -59.5t-70.5 -21.5q-41 0 -64 21.5t-23 61.5
q0 67 64.5 105t161.5 38q129 0 181 -50.5t52 -164.5zM274 109q-2 16 -2 37v70q-22 -2 -31 -12.5t-9 -41.5q0 -33 8 -43.5t23 -10.5zM270 534q-77 0 -111.5 40.5t-25.5 104.5l35 1q6 -44 102 -44t102 44l35 -1q9 -64 -25.5 -104.5t-111.5 -40.5z" />
    <glyph glyph-name="Aogonek" unicode="&#x104;" horiz-adv-x="886" 
d="M771 -54q6 -65 -21.5 -108.5t-102.5 -43.5q-56 0 -88 24t-32 73q0 38 21.5 66.5t57.5 42.5l-213 -2q2 67 0 133h35q33 0 41.5 18.5t-1.5 56.5q-96 2 -193 0q-11 -41 -0.5 -58t40.5 -17h32q-2 -67 0 -133q-106 2 -166 2l-166 -2q2 66 0 133h14q44 0 68 20.5t44 72.5
q91 236 180 471q83 -2 130 -2l129 2q95 -265 181 -471q23 -56 44.5 -74.5t51.5 -18.5h14q-2 -66 0 -133q-111 2 -197 2q-51 -11 -51 -58q0 -43 48 -43q53 0 60 53zM447 276q-36 105 -74 208q-62 -173 -74 -209q102 0 148 1z" />
    <glyph glyph-name="aogonek" unicode="&#x105;" horiz-adv-x="582" 
d="M420 -17q-100 0 -130 65q-45 -65 -148 -65q-56 0 -94 28.5t-38 85.5q0 156 262 160v51q0 43 -15.5 67t-59.5 29q24 -19 24 -56q0 -38 -25.5 -59.5t-70.5 -21.5q-41 0 -64 21.5t-23 61.5q0 67 64.5 105t161.5 38q129 0 181 -50.5t52 -164.5v-96v-15v-28.5t1.5 -17t5 -11
t9.5 -2.5q27 0 12 108h41q16 -142 -43 -199q-45 -42 -45 -80t45 -38q27 0 41 11t21 42l40 -6q2 -33 -1 -56t-15 -47t-40.5 -36.5t-72.5 -12.5q-48 0 -81.5 25t-32.5 72q2 60 60 93q-10 -1 -22 -1zM274 109q-2 16 -2 37v70q-22 -2 -31 -12.5t-9 -41.5q0 -33 8 -43.5t23 -10.5
z" />
    <glyph glyph-name="Cacute" unicode="&#x106;" horiz-adv-x="724" 
d="M346 738l-7 13q21 36 59 72.5t74 54.5q28 12 51 12t35 -12.5t15 -28.5t-9.5 -35.5t-37.5 -33.5q-38 -21 -89.5 -32.5t-90.5 -9.5zM550 662q25 -17 35.5 -12t14.5 40q54 -4 108 0q-11 -84 -20 -267q-31 1 -93 1t-93 -1q0 136 -87 136q-37 0 -57 -14.5t-32.5 -62
t-12.5 -136.5q0 -68 7.5 -113t22.5 -66t31 -28.5t40 -7.5q42 0 67.5 34t21.5 105q32 -2 102.5 -2t102.5 2q4 -158 -69.5 -221.5t-261.5 -63.5q-175 0 -263.5 82t-88.5 279q0 178 90 271t245 93q115 0 190 -48z" />
    <glyph glyph-name="cacute" unicode="&#x107;" horiz-adv-x="514" 
d="M246 528l-7 13q21 36 59 72.5t74 54.5q28 12 51 12t35 -12.5t15 -28.5t-9.5 -35.5t-37.5 -33.5q-38 -21 -89.5 -32.5t-90.5 -9.5zM320 186q90 -4 183 0q2 -55 -16 -95.5t-51.5 -63t-75 -33.5t-91.5 -11q-126 0 -192.5 57.5t-66.5 183.5q0 130 69 199.5t202 69.5
q103 0 159 -40.5t56 -115.5q0 -47 -28 -74.5t-79 -27.5q-48 0 -74 22.5t-26 63.5q0 50 38 71q-9 3 -23 3q-67 0 -67 -137q0 -83 8 -116.5t33 -33.5q24 0 33 19t9 59z" />
    <glyph glyph-name="Ccircumflex" unicode="&#x108;" horiz-adv-x="724" 
d="M516 742l-9 -11q-75 8 -144 54q-65 -44 -138 -53l-9 11q26 83 107 152h88q63 -50 105 -153zM550 662q25 -17 35.5 -12t14.5 40q54 -4 108 0q-11 -84 -20 -267q-31 1 -93 1t-93 -1q0 136 -87 136q-37 0 -57 -14.5t-32.5 -62t-12.5 -136.5q0 -68 7.5 -113t22.5 -66
t31 -28.5t40 -7.5q42 0 67.5 34t21.5 105q32 -2 102.5 -2t102.5 2q4 -158 -69.5 -221.5t-261.5 -63.5q-175 0 -263.5 82t-88.5 279q0 178 90 271t245 93q115 0 190 -48z" />
    <glyph glyph-name="ccircumflex" unicode="&#x109;" horiz-adv-x="514" 
d="M416 532l-9 -11q-75 8 -144 54q-65 -44 -138 -53l-9 11q26 83 107 152h88q63 -50 105 -153zM320 186q90 -4 183 0q2 -55 -16 -95.5t-51.5 -63t-75 -33.5t-91.5 -11q-126 0 -192.5 57.5t-66.5 183.5q0 130 69 199.5t202 69.5q103 0 159 -40.5t56 -115.5q0 -47 -28 -74.5
t-79 -27.5q-48 0 -74 22.5t-26 63.5q0 50 38 71q-9 3 -23 3q-67 0 -67 -137q0 -83 8 -116.5t33 -33.5q24 0 33 19t9 59z" />
    <glyph glyph-name="Cdotaccent" unicode="&#x10a;" horiz-adv-x="724" 
d="M550 662q25 -17 35.5 -12t14.5 40q54 -4 108 0q-11 -84 -20 -267q-31 1 -93 1t-93 -1q0 136 -87 136q-37 0 -57 -14.5t-32.5 -62t-12.5 -136.5q0 -68 7.5 -113t22.5 -66t31 -28.5t40 -7.5q42 0 67.5 34t21.5 105q32 -2 102.5 -2t102.5 2q4 -158 -69.5 -221.5
t-261.5 -63.5q-175 0 -263.5 82t-88.5 279q0 178 90 271t245 93q115 0 190 -48zM442 821q0 -36 -20 -56.5t-56 -20.5q-35 0 -55 20t-20 57q0 36 20 55.5t55 19.5q36 0 56 -19.5t20 -55.5z" />
    <glyph glyph-name="cdotaccent" unicode="&#x10b;" horiz-adv-x="514" 
d="M320 186q90 -4 183 0q2 -55 -16 -95.5t-51.5 -63t-75 -33.5t-91.5 -11q-126 0 -192.5 57.5t-66.5 183.5q0 130 69 199.5t202 69.5q103 0 159 -40.5t56 -115.5q0 -47 -28 -74.5t-79 -27.5q-48 0 -74 22.5t-26 63.5q0 50 38 71q-9 3 -23 3q-67 0 -67 -137q0 -83 8 -116.5
t33 -33.5q24 0 33 19t9 59zM343 611q0 -36 -20 -56.5t-56 -20.5q-35 0 -55 20t-20 57q0 36 20 55.5t55 19.5q36 0 56 -19.5t20 -55.5z" />
    <glyph glyph-name="Ccaron" unicode="&#x10c;" horiz-adv-x="724" 
d="M216 897l9 11q75 -8 144 -54q65 44 138 53l9 -11q-26 -83 -107 -152h-88q-63 50 -105 153zM550 662q25 -17 35.5 -12t14.5 40q54 -4 108 0q-11 -84 -20 -267q-31 1 -93 1t-93 -1q0 136 -87 136q-37 0 -57 -14.5t-32.5 -62t-12.5 -136.5q0 -68 7.5 -113t22.5 -66t31 -28.5
t40 -7.5q42 0 67.5 34t21.5 105q32 -2 102.5 -2t102.5 2q4 -158 -69.5 -221.5t-261.5 -63.5q-175 0 -263.5 82t-88.5 279q0 178 90 271t245 93q115 0 190 -48z" />
    <glyph glyph-name="ccaron" unicode="&#x10d;" horiz-adv-x="514" 
d="M126 687l9 11q75 -8 144 -54q65 44 138 53l9 -11q-26 -83 -107 -152h-88q-63 50 -105 153zM320 186q90 -4 183 0q2 -55 -16 -95.5t-51.5 -63t-75 -33.5t-91.5 -11q-126 0 -192.5 57.5t-66.5 183.5q0 130 69 199.5t202 69.5q103 0 159 -40.5t56 -115.5q0 -47 -28 -74.5
t-79 -27.5q-48 0 -74 22.5t-26 63.5q0 50 38 71q-9 3 -23 3q-67 0 -67 -137q0 -83 8 -116.5t33 -33.5q24 0 33 19t9 59z" />
    <glyph glyph-name="Dcaron" unicode="&#x10e;" horiz-adv-x="804" 
d="M236 897l9 11q75 -8 144 -54q65 44 138 53l9 -11q-26 -83 -107 -152h-88q-63 50 -105 153zM15 690q5 0 42 -0.5t87 -1t86 -0.5t107 0.5t106 0.5q178 0 255.5 -81t79.5 -258q4 -352 -326 -352q-20 0 -98 1t-122 1l-217 -2q2 66 0 133h9q34 0 47.5 15t15.5 54t2 149.5
t-2 143.5q-5 66 -58 66h-14q2 65 0 131zM341 177q2 -36 40 -36h12q66 0 97 43.5t31 166.5q0 117 -31.5 159t-95.5 42h-13q-38 0 -40 -32q-6 -133 0 -343z" />
    <glyph glyph-name="dcaron" unicode="&#x10f;" horiz-adv-x="764" 
d="M576 485q106 18 121 96q-16 -21 -47 -21q-26 0 -40.5 16.5t-14.5 46.5q0 32 19 50.5t52 18.5q32 0 50.5 -22.5t18.5 -61.5q0 -61 -44.5 -98t-109.5 -45zM182 492q56 0 90.5 -29t46.5 -81v147q0 29 -10 41.5t-31 12.5h-11q2 53 0 107q36 0 141.5 1t135.5 1
q-1 -93 -0.5 -276.5t1.5 -260.5q1 -26 10 -36.5t31 -10.5h5q-2 -54 0 -108q-35 0 -138.5 -0.5t-132.5 -0.5v115q-21 -131 -146 -131q-80 0 -122 58t-42 204q0 134 45 190.5t127 56.5zM320 245q0 57 -5.5 86t-13 35t-22.5 6q-23 0 -33 -25t-10 -102q0 -85 8 -112.5t34 -27.5
q25 0 33.5 28.5t8.5 111.5z" />
    <glyph glyph-name="Dcroat" unicode="&#x110;" horiz-adv-x="804" 
d="M15 690q5 0 42 -0.5t87 -1t86 -0.5t107 0.5t106 0.5q178 0 255.5 -81t79.5 -258q4 -352 -326 -352q-20 0 -98 1t-122 1l-217 -2q2 66 0 133h9q34 0 47.5 15t15.5 54q2 34 2 88q-29 0 -46 -1q2 14 2.5 57.5t-1.5 58.5q16 -1 45 -1q0 59 -2 91q-5 66 -58 66h-14q2 65 0 131
zM341 177q1 -36 40 -36h12q66 0 97 43.5t31 166.5q0 117 -31.5 159t-95.5 42h-13q-38 0 -40 -32q-2 -52 -2 -119q56 0 90 2q-1 -19 -1 -58t1 -58q-6 0 -37 0.5t-53 0.5q0 -61 2 -111z" />
    <glyph glyph-name="dcroat" unicode="&#x111;" horiz-adv-x="599" 
d="M182 492q56 0 90.5 -29t46.5 -81v115l-42 -1v52l41 -1q-6 36 -40 36h-11q2 53 0 107q36 0 141.5 1t135.5 1q-1 -36 -1 -145l37 1v-52l-37 1q0 -271 2 -342q1 -26 10 -36.5t31 -10.5h5q-2 -54 0 -108q-35 0 -138.5 -0.5t-132.5 -0.5v115q-21 -131 -146 -131q-80 0 -122 58
t-42 204q0 134 45 190.5t127 56.5zM320 245q0 57 -5.5 86t-13 35t-22.5 6q-23 0 -33 -25t-10 -102q0 -85 8 -112.5t34 -27.5q25 0 33.5 28.5t8.5 111.5z" />
    <glyph glyph-name="Emacron" unicode="&#x112;" horiz-adv-x="734" 
d="M410 456v39h98q-8 -93 -8 -151q0 -69 8 -151q-48 1 -96 0v36q0 46 -11 61.5t-47 15.5h-12q0 -64 2 -106q2 -40 17.5 -54.5t50.5 -14.5h58q59 0 82 29t23 122q72 -4 144 0q-10 -106 -10 -288q-101 6 -248 6h-233q-46 0 -130 -1l-83 -1q2 66 0 133h11q34 0 47.5 16t15.5 53
t2.5 138.5t-1.5 143.5q-4 77 -63 77h-12q2 65 0 131l83 -1q84 -1 130 -1h233q199 0 254 7q-8 -142 -6 -272q-69 4 -137 0q0 45 -8 74t-24.5 41.5t-32 16t-39.5 3.5h-55q-34 0 -51 -15t-18 -50q-2 -58 -2 -111h12q34 0 45 15t11 59zM239 753q1 15 1 52.5t-1 53.5
q46 -1 148 -1t148 1q-1 -16 -1 -53t1 -53q-46 1 -148 1t-148 -1z" />
    <glyph glyph-name="emacron" unicode="&#x113;" horiz-adv-x="515" 
d="M320 186q90 -4 182 0q4 -94 -54 -148.5t-183 -54.5q-255 0 -255 241q0 130 67 199.5t192 69.5q251 0 233 -286h-273q2 -55 13 -77t36 -22q22 0 31.5 18t10.5 60zM262 372q-11 0 -17.5 -7t-11 -33.5t-4.5 -76.5h29q18 0 26 7.5t8 34.5q0 45 -7.5 60t-22.5 15zM119 543
q1 15 1 52.5t-1 53.5q46 -1 148 -1t148 1q-1 -16 -1 -53t1 -53q-46 1 -148 1t-148 -1z" />
    <glyph glyph-name="Ebreve" unicode="&#x114;" horiz-adv-x="734" 
d="M410 456v39h98q-8 -93 -8 -151q0 -69 8 -151q-48 1 -96 0v36q0 46 -11 61.5t-47 15.5h-12q0 -64 2 -106q2 -40 17.5 -54.5t50.5 -14.5h58q59 0 82 29t23 122q72 -4 144 0q-10 -106 -10 -288q-101 6 -248 6h-233q-46 0 -130 -1l-83 -1q2 66 0 133h11q34 0 47.5 16t15.5 53
t2.5 138.5t-1.5 143.5q-4 77 -63 77h-12q2 65 0 131l83 -1q84 -1 130 -1h233q199 0 254 7q-8 -142 -6 -272q-69 4 -137 0q0 45 -8 74t-24.5 41.5t-32 16t-39.5 3.5h-55q-34 0 -51 -15t-18 -50q-2 -58 -2 -111h12q34 0 45 15t11 59zM377 739q-77 0 -111.5 40.5t-25.5 104.5
l35 1q6 -44 102 -44t102 44l35 -1q9 -64 -25.5 -104.5t-111.5 -40.5z" />
    <glyph glyph-name="ebreve" unicode="&#x115;" horiz-adv-x="515" 
d="M320 186q90 -4 182 0q4 -94 -54 -148.5t-183 -54.5q-255 0 -255 241q0 130 67 199.5t192 69.5q251 0 233 -286h-273q2 -55 13 -77t36 -22q22 0 31.5 18t10.5 60zM262 372q-11 0 -17.5 -7t-11 -33.5t-4.5 -76.5h29q18 0 26 7.5t8 34.5q0 45 -7.5 60t-22.5 15zM267 534
q-77 0 -111.5 40.5t-25.5 104.5l35 1q6 -44 102 -44t102 44l35 -1q9 -64 -25.5 -104.5t-111.5 -40.5z" />
    <glyph glyph-name="Edotaccent" unicode="&#x116;" horiz-adv-x="734" 
d="M410 456v39h98q-8 -93 -8 -151q0 -69 8 -151q-48 1 -96 0v36q0 46 -11 61.5t-47 15.5h-12q0 -64 2 -106q2 -40 17.5 -54.5t50.5 -14.5h58q59 0 82 29t23 122q72 -4 144 0q-10 -106 -10 -288q-101 6 -248 6h-233q-46 0 -130 -1l-83 -1q2 66 0 133h11q34 0 47.5 16t15.5 53
t2.5 138.5t-1.5 143.5q-4 77 -63 77h-12q2 65 0 131l83 -1q84 -1 130 -1h233q199 0 254 7q-8 -142 -6 -272q-69 4 -137 0q0 45 -8 74t-24.5 41.5t-32 16t-39.5 3.5h-55q-34 0 -51 -15t-18 -50q-2 -58 -2 -111h12q34 0 45 15t11 59zM443 821q0 -36 -20 -56.5t-56 -20.5
q-35 0 -55 20t-20 57q0 36 20 55.5t55 19.5q36 0 56 -19.5t20 -55.5z" />
    <glyph glyph-name="edotaccent" unicode="&#x117;" horiz-adv-x="515" 
d="M320 186q90 -4 182 0q4 -94 -54 -148.5t-183 -54.5q-255 0 -255 241q0 130 67 199.5t192 69.5q251 0 233 -286h-273q2 -55 13 -77t36 -22q22 0 31.5 18t10.5 60zM262 372q-11 0 -17.5 -7t-11 -33.5t-4.5 -76.5h29q18 0 26 7.5t8 34.5q0 45 -7.5 60t-22.5 15zM344 611
q0 -36 -20 -56.5t-56 -20.5q-35 0 -55 20t-20 57q0 36 20 55.5t55 19.5q36 0 56 -19.5t20 -55.5z" />
    <glyph glyph-name="Eogonek" unicode="&#x118;" horiz-adv-x="734" 
d="M410 456v39h98q-8 -93 -8 -151q0 -69 8 -151q-48 1 -96 0v36q0 46 -11 61.5t-47 15.5h-12q0 -64 2 -106q2 -40 17.5 -54.5t50.5 -14.5h58q59 0 82 29t23 122q72 -4 144 0q-10 -106 -10 -288q-27 2 -93 4q-44 -13 -44 -56t48 -43q53 0 60 53l40 -6q6 -65 -21.5 -108.5
t-102.5 -43.5q-56 0 -88 24t-32 73q0 77 77 109h-325q-46 0 -130 -1l-83 -1q2 66 0 133h11q34 0 47.5 16t15.5 53t2.5 138.5t-1.5 143.5q-4 77 -63 77h-12q2 65 0 131l83 -1q84 -1 130 -1h233q199 0 254 7q-8 -142 -6 -272q-69 4 -137 0q0 45 -8 74t-24.5 41.5t-32 16
t-39.5 3.5h-55q-34 0 -51 -15t-18 -50q-2 -58 -2 -111h12q34 0 45 15t11 59z" />
    <glyph glyph-name="eogonek" unicode="&#x119;" horiz-adv-x="515" 
d="M515 -54q2 -33 -1 -56t-15 -47t-40.5 -36.5t-72.5 -12.5q-48 0 -81.5 25t-32.5 72q2 64 72 99q-31 -7 -79 -7q-255 0 -255 241q0 130 67 199.5t192 69.5q251 0 233 -286h-273q2 -55 13 -77t36 -22q22 0 31.5 18t10.5 60q90 -4 182 0q4 -106 -75 -164q-34 -26 -46.5 -44
t-12.5 -41q0 -17 12 -27.5t33 -10.5q27 0 41 11t21 42zM262 372q-11 0 -17.5 -7t-11 -33.5t-4.5 -76.5h29q18 0 26 7.5t8 34.5q0 45 -7.5 60t-22.5 15z" />
    <glyph glyph-name="Ecaron" unicode="&#x11a;" horiz-adv-x="734" 
d="M217 897l9 11q75 -8 144 -54q65 44 138 53l9 -11q-26 -83 -107 -152h-88q-63 50 -105 153zM410 456v39h98q-8 -93 -8 -151q0 -69 8 -151q-48 1 -96 0v36q0 46 -11 61.5t-47 15.5h-12q0 -64 2 -106q2 -40 17.5 -54.5t50.5 -14.5h58q59 0 82 29t23 122q72 -4 144 0
q-10 -106 -10 -288q-101 6 -248 6h-233q-46 0 -130 -1l-83 -1q2 66 0 133h11q34 0 47.5 16t15.5 53t2.5 138.5t-1.5 143.5q-4 77 -63 77h-12q2 65 0 131l83 -1q84 -1 130 -1h233q199 0 254 7q-8 -142 -6 -272q-69 4 -137 0q0 45 -8 74t-24.5 41.5t-32 16t-39.5 3.5h-55
q-34 0 -51 -15t-18 -50q-2 -58 -2 -111h12q34 0 45 15t11 59z" />
    <glyph glyph-name="ecaron" unicode="&#x11b;" horiz-adv-x="515" 
d="M117 687l9 11q75 -8 144 -54q65 44 138 53l9 -11q-26 -83 -107 -152h-88q-63 50 -105 153zM320 186q90 -4 182 0q4 -94 -54 -148.5t-183 -54.5q-255 0 -255 241q0 130 67 199.5t192 69.5q251 0 233 -286h-273q2 -55 13 -77t36 -22q22 0 31.5 18t10.5 60zM262 372
q-11 0 -17.5 -7t-11 -33.5t-4.5 -76.5h29q18 0 26 7.5t8 34.5q0 45 -7.5 60t-22.5 15z" />
    <glyph glyph-name="Gcircumflex" unicode="&#x11c;" horiz-adv-x="772" 
d="M526 742l-9 -11q-75 8 -144 54q-65 -44 -138 -53l-9 11q26 83 107 152h88q63 -50 105 -153zM357 710q122 0 193 -50q24 -18 35 -11.5t15 41.5q54 -4 108 0q-11 -84 -20 -267q-31 1 -93 1t-93 -1q0 136 -87 136q-37 0 -57 -14.5t-32.5 -62t-12.5 -136.5q0 -68 8 -113
t23.5 -66t31.5 -28.5t37 -7.5q83 0 83 96q0 29 -9.5 42.5t-32.5 13.5h-29v94q116 -3 176 -3l166 3q-1 -49 0 -94h-17q-21 0 -28 -11.5t-7 -41.5q0 -126 18 -230q-71 4 -143 0q-11 35 -24 69q-27 -42 -82.5 -65.5t-126.5 -23.5q-76 0 -133.5 17.5t-104 58t-70.5 113.5
t-24 177q0 179 88.5 271.5t243.5 92.5z" />
    <glyph glyph-name="gcircumflex" unicode="&#x11d;" horiz-adv-x="531" 
d="M256 493q32 0 61 -4q4 29 22 53q-37 15 -63 33q-65 -44 -138 -53l-9 11q26 83 107 152h88q43 -34 81 -102q14 2 22 2q41 0 64 -19t23 -53q0 -28 -14.5 -43.5t-41.5 -15.5q-53 0 -53 52q0 16 6 26q-47 -9 -63 -49q71 -17 109 -61.5t38 -112.5q0 -89 -62 -137t-177 -48
q-61 0 -104 13q-22 -6 -22 -20q0 -12 23 -14.5t96 -2.5h50q71 0 117 -9t70 -27.5t33 -41t9 -55.5q0 -74 -70 -120.5t-209 -46.5q-134 0 -186.5 25t-52.5 73q0 41 43 60q-39 27 -39 78q0 52 27.5 80.5t73.5 34.5q-95 46 -95 158q0 88 61.5 136t174.5 48zM246 -79
q-86 0 -139 13q-15 -7 -15 -20q0 -38 155 -38q55 0 97 8t60 17.5t18 17.5q0 9 -15 9t-64.5 -3.5t-96.5 -3.5zM258 397q-19 0 -24.5 -16t-5.5 -72q0 -53 7 -71t23 -18q19 0 24.5 16.5t5.5 72.5q0 57 -5 72.5t-25 15.5z" />
    <glyph glyph-name="Gbreve" unicode="&#x11e;" horiz-adv-x="772" 
d="M357 710q122 0 193 -50q24 -18 35 -11.5t15 41.5q54 -4 108 0q-11 -84 -20 -267q-31 1 -93 1t-93 -1q0 136 -87 136q-37 0 -57 -14.5t-32.5 -62t-12.5 -136.5q0 -68 8 -113t23.5 -66t31.5 -28.5t37 -7.5q83 0 83 96q0 29 -9.5 42.5t-32.5 13.5h-29v94q116 -3 176 -3
l166 3q-1 -49 0 -94h-17q-21 0 -28 -11.5t-7 -41.5q0 -126 18 -230q-71 4 -143 0q-11 35 -24 69q-27 -42 -82.5 -65.5t-126.5 -23.5q-76 0 -133.5 17.5t-104 58t-70.5 113.5t-24 177q0 179 88.5 271.5t243.5 92.5zM366 739q-77 0 -111.5 40.5t-25.5 104.5l35 1
q6 -44 102 -44t102 44l35 -1q9 -64 -25.5 -104.5t-111.5 -40.5z" />
    <glyph glyph-name="gbreve" unicode="&#x11f;" horiz-adv-x="531" 
d="M256 493q32 0 61 -4q8 43 37 69.5t73 26.5q41 0 64 -19t23 -53q0 -28 -14.5 -43.5t-41.5 -15.5q-53 0 -53 52q0 16 6 26q-47 -9 -63 -49q71 -17 109 -61.5t38 -112.5q0 -89 -62 -137t-177 -48q-61 0 -104 13q-22 -6 -22 -20q0 -12 23 -14.5t96 -2.5h50q71 0 117 -9
t70 -27.5t33 -41t9 -55.5q0 -74 -70 -120.5t-209 -46.5q-134 0 -186.5 25t-52.5 73q0 41 43 60q-39 27 -39 78q0 52 27.5 80.5t73.5 34.5q-95 46 -95 158q0 88 61.5 136t174.5 48zM246 -79q-86 0 -139 13q-15 -7 -15 -20q0 -38 155 -38q55 0 97 8t60 17.5t18 17.5q0 9 -15 9
t-64.5 -3.5t-96.5 -3.5zM258 397q-19 0 -24.5 -16t-5.5 -72q0 -53 7 -71t23 -18q19 0 24.5 16.5t5.5 72.5q0 57 -5 72.5t-25 15.5zM239 534q-77 0 -111.5 40.5t-25.5 104.5l35 1q6 -44 102 -44t102 44l35 -1q9 -64 -25.5 -104.5t-111.5 -40.5z" />
    <glyph glyph-name="Gdotaccent" unicode="&#x120;" horiz-adv-x="772" 
d="M357 710q122 0 193 -50q24 -18 35 -11.5t15 41.5q54 -4 108 0q-11 -84 -20 -267q-31 1 -93 1t-93 -1q0 136 -87 136q-37 0 -57 -14.5t-32.5 -62t-12.5 -136.5q0 -68 8 -113t23.5 -66t31.5 -28.5t37 -7.5q83 0 83 96q0 29 -9.5 42.5t-32.5 13.5h-29v94q116 -3 176 -3
l166 3q-1 -49 0 -94h-17q-21 0 -28 -11.5t-7 -41.5q0 -126 18 -230q-71 4 -143 0q-11 35 -24 69q-27 -42 -82.5 -65.5t-126.5 -23.5q-76 0 -133.5 17.5t-104 58t-70.5 113.5t-24 177q0 179 88.5 271.5t243.5 92.5zM432 821q0 -36 -20 -56.5t-56 -20.5q-35 0 -55 20t-20 57
q0 36 20 55.5t55 19.5q36 0 56 -19.5t20 -55.5z" />
    <glyph glyph-name="gdotaccent" unicode="&#x121;" horiz-adv-x="531" 
d="M256 493q32 0 61 -4q8 43 37 69.5t73 26.5q41 0 64 -19t23 -53q0 -28 -14.5 -43.5t-41.5 -15.5q-53 0 -53 52q0 16 6 26q-47 -9 -63 -49q71 -17 109 -61.5t38 -112.5q0 -89 -62 -137t-177 -48q-61 0 -104 13q-22 -6 -22 -20q0 -12 23 -14.5t96 -2.5h50q71 0 117 -9
t70 -27.5t33 -41t9 -55.5q0 -74 -70 -120.5t-209 -46.5q-134 0 -186.5 25t-52.5 73q0 41 43 60q-39 27 -39 78q0 52 27.5 80.5t73.5 34.5q-95 46 -95 158q0 88 61.5 136t174.5 48zM246 -79q-86 0 -139 13q-15 -7 -15 -20q0 -38 155 -38q55 0 97 8t60 17.5t18 17.5q0 9 -15 9
t-64.5 -3.5t-96.5 -3.5zM258 397q-19 0 -24.5 -16t-5.5 -72q0 -53 7 -71t23 -18q19 0 24.5 16.5t5.5 72.5q0 57 -5 72.5t-25 15.5zM329 611q0 -36 -20 -56.5t-56 -20.5q-35 0 -55 20t-20 57q0 36 20 55.5t55 19.5q36 0 56 -19.5t20 -55.5z" />
    <glyph glyph-name="Gcommaaccent" unicode="&#x122;" horiz-adv-x="772" 
d="M277 -260q106 18 121 96q-16 -21 -47 -21q-26 0 -40.5 16.5t-14.5 46.5q0 32 19 50.5t52 18.5q32 0 50.5 -22.5t18.5 -61.5q0 -61 -44.5 -98t-109.5 -45zM357 710q122 0 193 -50q24 -18 35 -11.5t15 41.5q54 -4 108 0q-11 -84 -20 -267q-31 1 -93 1t-93 -1q0 136 -87 136
q-37 0 -57 -14.5t-32.5 -62t-12.5 -136.5q0 -68 8 -113t23.5 -66t31.5 -28.5t37 -7.5q83 0 83 96q0 29 -9.5 42.5t-32.5 13.5h-29v94q116 -3 176 -3l166 3q-1 -49 0 -94h-17q-21 0 -28 -11.5t-7 -41.5q0 -126 18 -230q-71 4 -143 0q-11 35 -24 69q-27 -42 -82.5 -65.5
t-126.5 -23.5q-76 0 -133.5 17.5t-104 58t-70.5 113.5t-24 177q0 179 88.5 271.5t243.5 92.5z" />
    <glyph glyph-name="gcommaaccent" unicode="&#x123;" horiz-adv-x="531" 
d="M348 767q-106 -18 -121 -96q16 21 47 21q26 0 40.5 -16.5t14.5 -46.5q0 -32 -19 -50.5t-52 -18.5q-32 0 -50.5 22.5t-18.5 61.5q0 61 44.5 98t109.5 45zM256 493q32 0 61 -4q8 43 37 69.5t73 26.5q41 0 64 -19t23 -53q0 -28 -14.5 -43.5t-41.5 -15.5q-53 0 -53 52
q0 16 6 26q-47 -9 -63 -49q71 -17 109 -61.5t38 -112.5q0 -89 -62 -137t-177 -48q-61 0 -104 13q-22 -6 -22 -20q0 -12 23 -14.5t96 -2.5h50q71 0 117 -9t70 -27.5t33 -41t9 -55.5q0 -74 -70 -120.5t-209 -46.5q-134 0 -186.5 25t-52.5 73q0 41 43 60q-39 27 -39 78
q0 52 27.5 80.5t73.5 34.5q-95 46 -95 158q0 88 61.5 136t174.5 48zM246 -79q-86 0 -139 13q-15 -7 -15 -20q0 -38 155 -38q55 0 97 8t60 17.5t18 17.5q0 9 -15 9t-64.5 -3.5t-96.5 -3.5zM258 397q-19 0 -24.5 -16t-5.5 -72q0 -53 7 -71t23 -18q19 0 24.5 16.5t5.5 72.5
q0 57 -5 72.5t-25 15.5z" />
    <glyph glyph-name="Hcircumflex" unicode="&#x124;" horiz-adv-x="840" 
d="M569 742l-9 -11q-75 8 -144 54q-65 -44 -138 -53l-9 11q26 83 107 152h88q63 -50 105 -153zM15 -3q2 67 0 134h17q31 0 42 12t13 46t2 158t-2 153q-2 30 -14 44.5t-38 14.5h-20q2 65 0 131q126 -2 197 -2l196 2q-2 -66 0 -131h-9q-54 0 -59 -59q-2 -17 -2 -122
q77 -2 163 0q0 105 -1 122q-5 59 -60 59h-9q2 65 0 131q125 -2 196 -2l196 2q-2 -66 0 -131h-18q-26 0 -38 -14.5t-14 -44.5q-2 -28 -2 -153.5t2 -156.5q2 -32 12.5 -45.5t40.5 -13.5h17q-2 -67 0 -134q-125 3 -196 3l-196 -3q2 67 0 134h15q28 0 39.5 13.5t13.5 45.5
q2 34 2 112q-86 2 -163 0q0 -78 2 -112q1 -20 4 -31t15 -19.5t34 -8.5h15q-2 -67 0 -134q-125 3 -196 3z" />
    <glyph glyph-name="hcircumflex" unicode="&#x125;" horiz-adv-x="639" 
d="M297 728l-9 -11q-75 8 -144 54q-65 -44 -138 -53l-9 11q26 83 107 152h88q63 -50 105 -153zM590 314v-159q0 -47 37 -47h4q-2 -55 0 -110q-96 2 -150 2l-151 -2q2 55 0 110h4q17 0 22.5 10t7.5 37q3 52 0 162q-1 29 -9 42t-30 13q-45 0 -45 -65v-152q0 -24 6.5 -35.5
t24.5 -11.5h4q-2 -55 0 -110q-98 2 -153 2l-154 -2q2 55 0 110h6q21 0 29.5 10.5t10.5 36.5t2 188.5t-2 188.5q-2 28 -9.5 39t-27.5 11h-5q2 54 0 108q235 0 274 3q-6 -88 -6 -309q26 109 154 109q75 0 115.5 -46.5t40.5 -132.5z" />
    <glyph glyph-name="Hbar" unicode="&#x126;" horiz-adv-x="840" 
d="M15 -3q2 67 0 134h17q31 0 42 12t13 46q4 63 2 233l-51 -1v67l50 -1q0 72 -53 72h-20q2 65 0 131q126 -2 197 -2l196 2q-2 -66 0 -131h-9q-59 0 -60 -72h161q0 72 -60 72h-9q2 65 0 131q125 -2 196 -2l196 2q-2 -66 0 -131h-18q-26 0 -39 -16t-14 -56l49 1v-67l-50 1
q-2 -173 2 -232q2 -32 12.5 -45.5t40.5 -13.5h17q-2 -67 0 -134q-125 3 -196 3l-196 -3q2 67 0 134h15q28 0 39.5 13.5t13.5 45.5q2 34 2 112q-86 2 -163 0q0 -78 2 -112q1 -20 4 -31t15 -19.5t34 -8.5h15q-2 -67 0 -134q-125 3 -196 3zM501 422h-163v-44q77 -2 163 0v44z
" />
    <glyph glyph-name="hbar" unicode="&#x127;" horiz-adv-x="639" 
d="M19 496v52l33 -1q-4 35 -35 35h-5q2 54 0 108q235 0 274 3q-5 -69 -6 -146q23 0 42 1q-1 -26 0 -52l-42 1v-113q26 109 154 109q75 0 115.5 -46.5t40.5 -132.5v-159q0 -47 37 -47h4q-2 -55 0 -110q-96 2 -150 2l-151 -2q2 55 0 110h4q17 0 22.5 10t7.5 37q3 52 0 162
q-1 29 -9 42t-30 13q-45 0 -45 -65v-152q0 -24 6.5 -35.5t24.5 -11.5h4q-2 -55 0 -110q-98 2 -153 2l-154 -2q2 55 0 110h6q21 0 29.5 10.5t10.5 36.5q2 22 2 147.5t-1 194.5q-16 0 -36 -1z" />
    <glyph glyph-name="Itilde" unicode="&#x128;" horiz-adv-x="428" 
d="M17 -3q2 67 0 134h21q27 0 36.5 14.5t12.5 44.5q2 26 2 153.5t-2 156.5q-2 30 -14 44.5t-38 14.5h-18q2 65 0 131q127 -2 198 -2l197 2q-2 -66 0 -131h-19q-26 0 -38 -14.5t-14 -44.5q-2 -29 -2 -156.5t2 -153.5q5 -59 49 -59h21q-2 -67 0 -134q-126 3 -197 3zM329 862
l33 12q26 -65 -5 -105.5t-91 -40.5q-71 0 -112 65q-14 23 -33 23q-17 0 -24.5 -13.5t4.5 -50.5l-33 -11q-27 66 6 105.5t90 39.5q70 0 112 -65q15 -23 33 -23t25 14.5t-5 49.5z" />
    <glyph glyph-name="itilde" unicode="&#x129;" horiz-adv-x="334" 
d="M280 481q-2 -52 -2.5 -178t1.5 -148q2 -25 11 -36t31 -11h5q-2 -54 0 -108q-8 0 -77 1t-79 1q-11 0 -84.5 -1t-77.5 -1q2 54 0 108h4q22 0 30.5 10.5t10.5 36.5t2 86t-1 87q-1 25 -10 34.5t-28 9.5h-8q2 54 0 107q36 0 139.5 1t132.5 1zM272 652l33 12q26 -65 -5 -105.5
t-91 -40.5q-71 0 -112 65q-14 23 -33 23q-17 0 -24.5 -13.5t4.5 -50.5l-33 -11q-27 66 6 105.5t90 39.5q70 0 112 -65q15 -23 33 -23t25 14.5t-5 49.5z" />
    <glyph glyph-name="Imacron" unicode="&#x12a;" horiz-adv-x="428" 
d="M17 -3q2 67 0 134h21q27 0 36.5 14.5t12.5 44.5q2 26 2 153.5t-2 156.5q-2 30 -14 44.5t-38 14.5h-18q2 65 0 131q127 -2 198 -2l197 2q-2 -66 0 -131h-19q-26 0 -38 -14.5t-14 -44.5q-2 -29 -2 -156.5t2 -153.5q5 -59 49 -59h21q-2 -67 0 -134q-126 3 -197 3zM66 753
q1 15 1 52.5t-1 53.5q46 -1 148 -1t148 1q-1 -16 -1 -53t1 -53q-46 1 -148 1t-148 -1z" />
    <glyph glyph-name="imacron" unicode="&#x12b;" horiz-adv-x="334" 
d="M280 481q-2 -52 -2.5 -178t1.5 -148q2 -25 11 -36t31 -11h5q-2 -54 0 -108q-8 0 -77 1t-79 1q-11 0 -84.5 -1t-77.5 -1q2 54 0 108h4q22 0 30.5 10.5t10.5 36.5t2 86t-1 87q-1 25 -10 34.5t-28 9.5h-8q2 54 0 107q36 0 139.5 1t132.5 1zM11 543q1 15 1 52.5t-1 53.5
q46 -1 148 -1t148 1q-1 -16 -1 -53t1 -53q-46 1 -148 1t-148 -1z" />
    <glyph glyph-name="Ibreve" unicode="&#x12c;" horiz-adv-x="428" 
d="M17 -3q2 67 0 134h21q27 0 36.5 14.5t12.5 44.5q2 26 2 153.5t-2 156.5q-2 30 -14 44.5t-38 14.5h-18q2 65 0 131q127 -2 198 -2l197 2q-2 -66 0 -131h-19q-26 0 -38 -14.5t-14 -44.5q-2 -29 -2 -156.5t2 -153.5q5 -59 49 -59h21q-2 -67 0 -134q-126 3 -197 3zM214 739
q-77 0 -111.5 40.5t-25.5 104.5l35 1q6 -44 102 -44t102 44l35 -1q9 -64 -25.5 -104.5t-111.5 -40.5z" />
    <glyph glyph-name="ibreve" unicode="&#x12d;" horiz-adv-x="334" 
d="M280 481q-2 -52 -2.5 -178t1.5 -148q2 -25 11 -36t31 -11h5q-2 -54 0 -108q-8 0 -77 1t-79 1q-11 0 -84.5 -1t-77.5 -1q2 54 0 108h4q22 0 30.5 10.5t10.5 36.5t2 86t-1 87q-1 25 -10 34.5t-28 9.5h-8q2 54 0 107q36 0 139.5 1t132.5 1zM155 534q-77 0 -111.5 40.5
t-25.5 104.5l35 1q6 -44 102 -44t102 44l35 -1q9 -64 -25.5 -104.5t-111.5 -40.5z" />
    <glyph glyph-name="Iogonek" unicode="&#x12e;" horiz-adv-x="428" 
d="M362 -54q6 -65 -21.5 -108.5t-102.5 -43.5q-56 0 -88 24t-32 73q0 38 21.5 66.5t57.5 42.5l-180 -3q2 67 0 134h21q27 0 36.5 14.5t12.5 44.5q2 26 2 153.5t-2 156.5q-2 30 -14 44.5t-38 14.5h-18q2 65 0 131q127 -2 198 -2l197 2q-2 -66 0 -131h-19q-26 0 -38 -14.5
t-14 -44.5q-2 -29 -2 -156.5t2 -153.5q5 -59 49 -59h21q-2 -67 0 -134q-79 2 -147 3q-50 -11 -50 -58q0 -43 48 -43q53 0 60 53z" />
    <glyph glyph-name="iogonek" unicode="&#x12f;" horiz-adv-x="334" 
d="M307 -54q6 -65 -21.5 -108.5t-102.5 -43.5q-56 0 -88 24t-32 73q0 38 21.5 66.5t57.5 42.5l-134 -2q2 55 0 110h4q22 0 30.5 10.5t10.5 36.5t2 86t-1 87q-1 25 -10 34.5t-28 9.5h-8q2 54 0 107q36 0 139.5 1t132.5 1q-2 -52 -2.5 -178t1.5 -148q2 -25 11 -36t31 -11h5
q-2 -55 0 -110q-62 2 -116 2q-51 -11 -51 -58q0 -43 48 -43q53 0 60 53zM282 618q0 -57 -30 -87.5t-86 -30.5t-85.5 30.5t-29.5 87.5q0 56 30 86t85 30q56 0 86 -30t30 -86z" />
    <glyph glyph-name="Idotaccent" unicode="&#x130;" horiz-adv-x="428" 
d="M17 -3q2 67 0 134h21q27 0 36.5 14.5t12.5 44.5q2 26 2 153.5t-2 156.5q-2 30 -14 44.5t-38 14.5h-18q2 65 0 131q127 -2 198 -2l197 2q-2 -66 0 -131h-19q-26 0 -38 -14.5t-14 -44.5q-2 -29 -2 -156.5t2 -153.5q5 -59 49 -59h21q-2 -67 0 -134q-126 3 -197 3zM290 821
q0 -36 -20 -56.5t-56 -20.5q-35 0 -55 20t-20 57q0 36 20 55.5t55 19.5q36 0 56 -19.5t20 -55.5z" />
    <glyph glyph-name="dotlessi" unicode="&#x131;" horiz-adv-x="334" 
d="M280 481q-2 -52 -2.5 -178t1.5 -148q2 -25 11 -36t31 -11h5q-2 -54 0 -108q-8 0 -77 1t-79 1q-11 0 -84.5 -1t-77.5 -1q2 54 0 108h4q22 0 30.5 10.5t10.5 36.5t2 86t-1 87q-1 25 -10 34.5t-28 9.5h-8q2 54 0 107q36 0 139.5 1t132.5 1z" />
    <glyph glyph-name="IJ" unicode="&#x132;" horiz-adv-x="1021" 
d="M654 152q0 -38 -22 -63.5t-62 -31.5q12 -2 24 -2q47 0 70.5 27.5t26.5 108.5q2 56 2 168.5t-2 140.5q-2 30 -13.5 44.5t-38.5 14.5h-27q2 65 0 131q126 -2 197 -2l197 2q-2 -66 0 -131h-9q-26 0 -39 -12.5t-13 -46.5v-299q0 -104 -73 -160t-207 -56q-109 0 -168 40
t-59 115q0 52 30.5 82.5t84.5 30.5q47 0 74.5 -27t26.5 -74zM17 -3q2 67 0 134h21q27 0 36.5 14.5t12.5 44.5q2 26 2 153.5t-2 156.5q-2 30 -14 44.5t-38 14.5h-18q2 65 0 131q127 -2 198 -2l197 2q-2 -66 0 -131h-19q-26 0 -38 -14.5t-14 -44.5q-2 -29 -2 -156.5t2 -153.5
q5 -59 49 -59h21q-2 -67 0 -134q-126 3 -197 3z" />
    <glyph glyph-name="ij" unicode="&#x133;" horiz-adv-x="586" 
d="M282 618q0 -57 -30 -87.5t-86 -30.5t-85.5 30.5t-29.5 87.5q0 56 30 86t85 30q56 0 86 -30t30 -86zM280 481q-2 -52 -2.5 -178t1.5 -148q2 -25 11 -36t31 -11h5q-2 -55 0 -110q-102 2 -159 2l-159 -2q2 55 0 110h4q22 0 30.5 10.5t10.5 36.5t2 86t-1 87q-1 25 -10 34.5
t-28 9.5h-8q2 54 0 107q36 0 139.5 1t132.5 1zM322 -83q0 -33 -25 -53.5t-64 -11.5q16 -13 43 -13q66 0 71 81q3 68 3 223.5t-2 184.5q-3 44 -38 44h-4q2 53 0 107q232 0 271 3q-3 -59 -3 -180v-275q0 -109 -59 -168t-171 -59q-78 0 -122 27t-44 77q0 79 77 79
q32 0 49.5 -17t17.5 -49zM578 618q0 -56 -30.5 -87t-85.5 -31t-85 31t-30 87q0 55 30 85.5t85 30.5q56 0 86 -30t30 -86z" />
    <glyph glyph-name="Jcircumflex" unicode="&#x134;" horiz-adv-x="593" 
d="M226 152q0 -38 -22 -63.5t-62 -31.5q12 -2 24 -2q47 0 70.5 27.5t26.5 108.5q2 56 2 168.5t-2 140.5q-2 30 -13.5 44.5t-38.5 14.5h-27q2 65 0 131q126 -2 197 -2l197 2q-2 -66 0 -131h-9q-26 0 -39 -12.5t-13 -46.5v-299q0 -104 -73 -160t-207 -56q-109 0 -168 40
t-59 115q0 52 30.5 82.5t84.5 30.5q47 0 74.5 -27t26.5 -74zM530 742l-9 -11q-75 8 -144 54q-65 -44 -138 -53l-9 11q26 83 107 152h88q63 -50 105 -153z" />
    <glyph glyph-name="jcircumflex" unicode="&#x135;" horiz-adv-x="328" 
d="M64 -83q0 -33 -25 -53.5t-64 -11.5q16 -13 43 -13q66 0 71 81q3 68 3 223.5t-2 184.5q-3 44 -38 44h-4q2 54 0 107q232 0 271 3q-3 -59 -3 -180v-275q0 -109 -59 -168t-171 -59q-78 0 -122 27t-44 77q0 79 77 79q32 0 49.5 -17t17.5 -49zM332 532l-9 -11q-75 8 -144 54
q-65 -44 -138 -53l-9 11q26 83 107 152h88q63 -50 105 -153z" />
    <glyph glyph-name="Kcommaaccent" unicode="&#x136;" horiz-adv-x="834" 
d="M15 -2q2 66 0 133h12q32 0 44 15t15 44q2 26 2 153.5t-2 156.5q-2 31 -15.5 45t-46.5 14h-9q2 65 0 131q125 -2 196 -2l196 2q-2 -66 0 -131h-16q-26 0 -38 -14.5t-14 -44.5q-2 -17 -2 -130q117 91 137 107q30 24 21 53t-44 29h-22q2 65 0 131q125 -2 195 -2l194 2
q-2 -66 0 -131h-35q-53 0 -92 -17t-90 -56l-24 -19l163 -285q17 -30 31.5 -40.5t33.5 -10.5h14q-2 -66 0 -133q-128 2 -200 2l-200 -2q2 67 0 133h10q28 0 28 26t-26 72q-25 45 -51 87l-43 -33q0 -71 2 -93q5 -59 45 -59h14q-2 -67 0 -133q-122 2 -191 2zM328 -260
q106 18 121 96q-16 -21 -47 -21q-26 0 -40.5 16.5t-14.5 46.5q0 32 19 50.5t52 18.5q32 0 50.5 -22.5t18.5 -61.5q0 -61 -44.5 -98t-109.5 -45z" />
    <glyph glyph-name="kcommaaccent" unicode="&#x137;" horiz-adv-x="664" 
d="M229 -260q106 18 121 96q-16 -21 -47 -21q-26 0 -40.5 16.5t-14.5 46.5q0 32 19 50.5t52 18.5q32 0 50.5 -22.5t18.5 -61.5q0 -61 -44.5 -98t-109.5 -45zM280 693q-2 -81 -2 -414l69 43q18 11 24.5 23t-1.5 19.5t-29 7.5h-11q2 55 0 110q103 -3 161 -3q26 0 64 0.5
t66.5 1.5t30.5 1q-2 -55 0 -110h-26q-77 0 -121 -26l-10 -6q89 -173 102 -191q30 -42 54 -42h5q-2 -55 0 -109q-106 2 -166 2l-167 -2q2 55 0 110h5q17 0 21.5 13t-4.5 32q-16 33 -42 73l-24 -14q0 -42 1 -57q3 -47 25 -47h6q-2 -55 0 -110q-96 2 -151 2l-152 -2q2 55 0 110
h4q22 0 31 10.5t11 36.5q2 29 2 190t-2 189q-2 27 -9.5 38t-26.5 11h-6q2 53 0 107q229 0 268 3z" />
    <glyph glyph-name="kgreenlandic" unicode="&#x138;" horiz-adv-x="664" 
d="M280 482q-2 -128 -2 -203l69 43q18 11 24.5 22.5t-1.5 19.5t-29 8h-11q2 55 0 110q103 -3 161 -3q26 0 64 0.5t66.5 1.5t30.5 1q-2 -55 0 -110h-26q-77 0 -121 -26l-10 -6q81 -161 102 -191q30 -42 54 -42h5q-2 -55 0 -109q-106 2 -166 2l-167 -2q2 55 0 110h5
q17 0 21.5 13t-4.5 32q-14 28 -42 74l-25 -15q0 -39 2 -57q4 -47 25 -47h6q-2 -55 0 -110q-96 2 -151 2l-152 -2q2 55 0 110h4q22 0 31 10.5t11 36.5q6 102 0 168q-2 27 -9.5 38t-26.5 11h-6q2 54 0 107q229 0 268 3z" />
    <glyph glyph-name="Lacute" unicode="&#x139;" horiz-adv-x="665" 
d="M206 738l-7 13q21 36 59 72.5t74 54.5q28 12 51 12t35 -12.5t15 -28.5t-9.5 -35.5t-37.5 -33.5q-38 -21 -89.5 -32.5t-90.5 -9.5zM428 690q-2 -23 -2.5 -66t1.5 -65h-15q-33 0 -50 -16.5t-19 -52.5q-2 -37 -2 -145t2 -149q2 -39 18.5 -52t49.5 -13h16q36 0 55 11
t31.5 53.5t12.5 124.5q62 -4 124 0q-2 -162 0 -324q-79 4 -226 4h-231q-115 0 -178 -1q2 66 0 132h22q22 0 33.5 10.5t14 24t4.5 43.5q2 37 2 144.5t-2 136.5q-5 69 -52 69h-18q2 65 0 131q131 -2 205 -2z" />
    <glyph glyph-name="lacute" unicode="&#x13a;" horiz-adv-x="331" 
d="M116 724l-7 13q21 36 59 72.5t74 54.5q28 12 51 12t35 -12.5t15 -28.5t-9.5 -35.5t-37.5 -33.5q-38 -21 -89.5 -32.5t-90.5 -9.5zM279 692q-2 -110 -2 -309t2 -228q2 -27 10.5 -37t30.5 -10h5q-2 -55 0 -110q-102 2 -159 2l-159 -2q4 55 0 110h4q22 0 31 10.5t11 36.5
q1 25 1 191.5t-1 188.5q-3 48 -38 48h-4q2 53 0 107q190 0 268 2z" />
    <glyph glyph-name="Lcommaaccent" unicode="&#x13b;" horiz-adv-x="665" 
d="M233 -260q106 18 121 96q-16 -21 -47 -21q-26 0 -40.5 16.5t-14.5 46.5q0 32 19 50.5t52 18.5q32 0 50.5 -22.5t18.5 -61.5q0 -61 -44.5 -98t-109.5 -45zM428 690q-2 -23 -2.5 -66t1.5 -65h-15q-33 0 -50 -16.5t-19 -52.5q-2 -37 -2 -145t2 -149q2 -39 18.5 -52t49.5 -13
h16q36 0 55 11t31.5 53.5t12.5 124.5q62 -4 124 0q-2 -162 0 -324q-79 4 -226 4h-231q-115 0 -178 -1q2 66 0 132h22q22 0 33.5 10.5t14 24t4.5 43.5q2 37 2 144.5t-2 136.5q-5 69 -52 69h-18q2 65 0 131q131 -2 205 -2z" />
    <glyph glyph-name="lcommaaccent" unicode="&#x13c;" horiz-adv-x="331" 
d="M77 -260q106 18 121 96q-16 -21 -47 -21q-26 0 -40.5 16.5t-14.5 46.5q0 32 19 50.5t52 18.5q32 0 50.5 -22.5t18.5 -61.5q0 -61 -44.5 -98t-109.5 -45zM279 692q-2 -110 -2 -309t2 -228q2 -27 10.5 -37t30.5 -10h5q-2 -55 0 -110q-102 2 -159 2l-159 -2q4 55 0 110h4
q22 0 31 10.5t11 36.5q1 25 1 191.5t-1 188.5q-3 48 -38 48h-4q2 53 0 107q190 0 268 2z" />
    <glyph glyph-name="Lcaron" unicode="&#x13d;" horiz-adv-x="665" 
d="M490 484q106 18 121 96q-16 -21 -47 -21q-26 0 -40.5 16.5t-14.5 46.5q0 32 19 50.5t52 18.5q32 0 50.5 -22.5t18.5 -61.5q0 -61 -44.5 -98t-109.5 -45zM428 690q-2 -23 -2.5 -66t1.5 -65h-15q-33 0 -50 -16.5t-19 -52.5q-2 -37 -2 -145t2 -149q2 -39 18.5 -52t49.5 -13
h16q36 0 55 11t31.5 53.5t12.5 124.5q62 -4 124 0q-2 -162 0 -324q-79 4 -226 4h-231q-115 0 -178 -1q2 66 0 132h22q22 0 33.5 10.5t14 24t4.5 43.5q2 37 2 144.5t-2 136.5q-5 69 -52 69h-18q2 65 0 131q131 -2 205 -2z" />
    <glyph glyph-name="lcaron" unicode="&#x13e;" horiz-adv-x="479" 
d="M300 485q106 18 121 96q-16 -21 -47 -21q-26 0 -40.5 16.5t-14.5 46.5q0 32 19 50.5t52 18.5q32 0 50.5 -22.5t18.5 -61.5q0 -61 -44.5 -98t-109.5 -45zM279 692q-2 -110 -2 -309t2 -228q2 -27 10.5 -37t30.5 -10h5q-2 -55 0 -110q-102 2 -159 2l-159 -2q4 55 0 110h4
q22 0 31 10.5t11 36.5q1 25 1 191.5t-1 188.5q-3 48 -38 48h-4q2 53 0 107q190 0 268 2z" />
    <glyph glyph-name="Ldot" unicode="&#x13f;" horiz-adv-x="665" 
d="M428 690q-2 -23 -2.5 -66t1.5 -65h-15q-33 0 -50 -16.5t-19 -52.5q-2 -37 -2 -145t2 -149q2 -39 18.5 -52t49.5 -13h16q36 0 55 11t31.5 53.5t12.5 124.5q62 -4 124 0q-2 -162 0 -324q-79 4 -226 4h-231q-115 0 -178 -1q2 66 0 132h22q22 0 33.5 10.5t14 24t4.5 43.5
q2 37 2 144.5t-2 136.5q-5 69 -52 69h-18q2 65 0 131q131 -2 205 -2zM557 432q0 -36 -20 -56.5t-56 -20.5q-35 0 -55 20t-20 57q0 36 20 55.5t55 19.5q36 0 56 -19.5t20 -55.5z" />
    <glyph glyph-name="ldot" unicode="&#x140;" horiz-adv-x="460" 
d="M279 692q-2 -110 -2 -309t2 -228q2 -27 10.5 -37t30.5 -10h5q-2 -55 0 -110q-102 2 -159 2l-159 -2q4 55 0 110h4q22 0 31 10.5t11 36.5q1 25 1 191.5t-1 188.5q-3 48 -38 48h-4q2 53 0 107q190 0 268 2zM470 336q0 -36 -20 -56.5t-56 -20.5q-35 0 -55 20t-20 57
q0 36 20 55.5t55 19.5q36 0 56 -19.5t20 -55.5z" />
    <glyph glyph-name="Lslash" unicode="&#x141;" horiz-adv-x="665" 
d="M428 690q-2 -23 -2.5 -66t1.5 -65h-15q-33 0 -50 -16.5t-19 -52.5q-2 -26 -2 -65l100 36l16 -64q-40 -12 -116 -38q0 -134 2 -163q2 -39 18.5 -52t49.5 -13h16q36 0 55 11t31.5 53.5t12.5 124.5q62 -4 124 0q-2 -162 0 -324q-79 4 -226 4h-231q-115 0 -178 -1q2 66 0 132
h22q22 0 33.5 10.5t14 24t4.5 43.5q2 32 2 63l-44 -16l-16 64l60 19q0 109 -2 151q-5 69 -52 69h-18q2 65 0 131q131 -2 205 -2z" />
    <glyph glyph-name="lslash" unicode="&#x142;" horiz-adv-x="331" 
d="M279 692q-2 -63 -2 -269q4 2 14 5.5t15 5.5l16 -64l-45 -14q0 -169 2 -201q2 -27 10.5 -37t30.5 -10h5q-2 -55 0 -110q-102 2 -159 2l-159 -2q4 55 0 110h4q22 0 31 10.5t11 36.5q1 12 1 125l-19 -7l-16 64l35 11q0 172 -1 187q-3 48 -38 48h-4q2 53 0 107q190 0 268 2z
" />
    <glyph glyph-name="Nacute" unicode="&#x143;" horiz-adv-x="827" 
d="M443 738l-7 13q21 36 59 72.5t74 54.5q28 12 51 12t35 -12.5t15 -28.5t-9.5 -35.5t-37.5 -33.5q-38 -21 -89.5 -32.5t-90.5 -9.5zM365 690q104 -178 228 -362q0 132 -1 153q-4 78 -66 78h-38q2 65 0 131q104 -3 162 -3l162 3q-2 -66 0 -131h-19q-62 0 -66 -78
q-2 -42 -2 -200t2 -282q-116 4 -233 0q-105 174 -256 409q-2 -152 1 -199q5 -78 68 -78h40q-2 -67 0 -133q-106 2 -166 2l-166 -2q2 66 0 133h21q63 0 68 78q2 33 2 142.5t-2 138.5q-2 30 -20.5 49.5t-47.5 19.5h-20q2 65 0 131q175 -4 349 0z" />
    <glyph glyph-name="nacute" unicode="&#x144;" horiz-adv-x="644" 
d="M322 528l-7 13q21 36 59 72.5t74 54.5q28 12 51 12t35 -12.5t15 -28.5t-9.5 -35.5t-37.5 -33.5q-38 -21 -89.5 -32.5t-90.5 -9.5zM590 314v-159q0 -27 9 -37t32 -10h5q-2 -55 0 -110q-98 2 -153 2l-153 -2q2 55 0 110h5q26 0 29 47q2 25 2 80t-2 82q-2 30 -9.5 42.5
t-29.5 12.5q-45 0 -45 -65v-152q0 -28 7 -37.5t23 -9.5h5q-4 -55 0 -110q-98 2 -153 2l-154 -2q2 55 0 110h4q23 0 31.5 9.5t10.5 37.5t2 89.5t-2 83.5q-2 23 -10 33.5t-28 10.5h-4q2 54 0 107q228 0 268 3v-100q13 53 53 82t101 29q156 0 156 -179z" />
    <glyph glyph-name="Ncommaaccent" unicode="&#x145;" horiz-adv-x="827" 
d="M324 -260q106 18 121 96q-16 -21 -47 -21q-26 0 -40.5 16.5t-14.5 46.5q0 32 19 50.5t52 18.5q32 0 50.5 -22.5t18.5 -61.5q0 -61 -44.5 -98t-109.5 -45zM365 690q104 -178 228 -362q0 132 -1 153q-4 78 -66 78h-38q2 65 0 131q104 -3 162 -3l162 3q-2 -66 0 -131h-19
q-62 0 -66 -78q-2 -42 -2 -200t2 -282q-116 4 -233 0q-105 174 -256 409q-2 -152 1 -199q5 -78 68 -78h40q-2 -67 0 -133q-106 2 -166 2l-166 -2q2 66 0 133h21q63 0 68 78q2 33 2 142.5t-2 138.5q-2 30 -20.5 49.5t-47.5 19.5h-20q2 65 0 131q175 -4 349 0z" />
    <glyph glyph-name="ncommaaccent" unicode="&#x146;" horiz-adv-x="644" 
d="M233 -260q106 18 121 96q-16 -21 -47 -21q-26 0 -40.5 16.5t-14.5 46.5q0 32 19 50.5t52 18.5q32 0 50.5 -22.5t18.5 -61.5q0 -61 -44.5 -98t-109.5 -45zM590 314v-159q0 -27 9 -37t32 -10h5q-2 -55 0 -110q-98 2 -153 2l-153 -2q2 55 0 110h5q26 0 29 47q2 25 2 80
t-2 82q-2 30 -9.5 42.5t-29.5 12.5q-45 0 -45 -65v-152q0 -28 7 -37.5t23 -9.5h5q-4 -55 0 -110q-98 2 -153 2l-154 -2q2 55 0 110h4q23 0 31.5 9.5t10.5 37.5t2 89.5t-2 83.5q-2 23 -10 33.5t-28 10.5h-4q2 54 0 107q228 0 268 3v-100q13 53 53 82t101 29q156 0 156 -179z
" />
    <glyph glyph-name="Ncaron" unicode="&#x147;" horiz-adv-x="827" 
d="M283 897l9 11q75 -8 144 -54q65 44 138 53l9 -11q-26 -83 -107 -152h-88q-63 50 -105 153zM365 690q104 -178 228 -362q0 132 -1 153q-4 78 -66 78h-38q2 65 0 131q104 -3 162 -3l162 3q-2 -66 0 -131h-19q-62 0 -66 -78q-2 -42 -2 -200t2 -282q-116 4 -233 0
q-105 174 -256 409q-2 -152 1 -199q5 -78 68 -78h40q-2 -67 0 -133q-106 2 -166 2l-166 -2q2 66 0 133h21q63 0 68 78q2 33 2 142.5t-2 138.5q-2 30 -20.5 49.5t-47.5 19.5h-20q2 65 0 131q175 -4 349 0z" />
    <glyph glyph-name="ncaron" unicode="&#x148;" horiz-adv-x="644" 
d="M182 687l9 11q75 -8 144 -54q65 44 138 53l9 -11q-26 -83 -107 -152h-88q-63 50 -105 153zM590 314v-159q0 -27 9 -37t32 -10h5q-2 -55 0 -110q-98 2 -153 2l-153 -2q2 55 0 110h5q26 0 29 47q2 25 2 80t-2 82q-2 30 -9.5 42.5t-29.5 12.5q-45 0 -45 -65v-152
q0 -28 7 -37.5t23 -9.5h5q-4 -55 0 -110q-98 2 -153 2l-154 -2q2 55 0 110h4q23 0 31.5 9.5t10.5 37.5t2 89.5t-2 83.5q-2 23 -10 33.5t-28 10.5h-4q2 54 0 107q228 0 268 3v-100q13 53 53 82t101 29q156 0 156 -179z" />
    <glyph glyph-name="napostrophe" unicode="&#x149;" horiz-adv-x="644" 
d="M20 528q106 18 121 96q-16 -21 -47 -21q-26 0 -40.5 16.5t-14.5 46.5q0 32 19 50.5t52 18.5q32 0 50.5 -22.5t18.5 -61.5q0 -61 -44.5 -98t-109.5 -45zM590 314v-159q0 -27 9 -37t32 -10h5q-2 -55 0 -110q-98 2 -153 2l-153 -2q2 55 0 110h5q26 0 29 47q2 25 2 80t-2 82
q-2 30 -9.5 42.5t-29.5 12.5q-45 0 -45 -65v-152q0 -28 7 -37.5t23 -9.5h5q-4 -55 0 -110q-98 2 -153 2l-154 -2q2 55 0 110h4q23 0 31.5 9.5t10.5 37.5t2 89.5t-2 83.5q-2 23 -10 33.5t-28 10.5h-4q2 54 0 107q228 0 268 3v-100q13 53 53 82t101 29q156 0 156 -179z" />
    <glyph glyph-name="Eng" unicode="&#x14a;" horiz-adv-x="827" 
d="M365 690q104 -178 228 -362q0 132 -1 153q-4 78 -66 78h-38q2 65 0 131q104 -3 162 -3l162 3q-2 -66 0 -131h-19q-62 0 -66 -78q-2 -42 -2 -200t2 -282q0 -199 -239 -199q-78 0 -122 28t-44 78q0 38 21 59.5t58 21.5q32 0 50.5 -18t18.5 -50q0 -33 -22.5 -53t-65.5 -12
q21 -15 60 -15q119 0 120 128v33q-51 0 -68 -1q-105 174 -256 409q-2 -152 1 -199q5 -78 68 -78h40q-2 -67 0 -133q-106 2 -166 2l-166 -2q2 66 0 133h21q63 0 68 78q2 33 2 142.5t-2 138.5q-2 30 -20.5 49.5t-47.5 19.5h-20q2 65 0 131q175 -4 349 0z" />
    <glyph glyph-name="eng" unicode="&#x14b;" horiz-adv-x="598" 
d="M590 314v-287q0 -109 -59 -168t-171 -59q-78 0 -122 27t-44 73q0 35 19.5 55t53.5 20q29 0 46 -17t17 -46t-21 -47.5t-60 -12.5q16 -13 43 -13q33 0 51.5 21.5t20.5 59.5q2 32 2 200t-2 197q-2 30 -9.5 42.5t-29.5 12.5q-45 0 -45 -61v-156q0 -28 7 -37.5t23 -9.5h5
q-4 -55 0 -110q-98 2 -153 2l-154 -2q2 55 0 110h4q23 0 31.5 9.5t10.5 37.5t2 89.5t-2 83.5q-2 23 -10 33.5t-28 10.5h-4q2 54 0 107q228 0 268 3v-100q13 53 53 82t101 29q156 0 156 -179z" />
    <glyph glyph-name="Omacron" unicode="&#x14c;" horiz-adv-x="797" 
d="M262 753q1 15 1 52.5t-1 53.5q46 -1 148 -1t148 1q-1 -16 -1 -53t1 -53q-46 1 -148 1t-148 -1zM399 122q52 0 68.5 46t16.5 176q0 134 -15.5 178.5t-69.5 44.5q-52 0 -69 -46.5t-17 -177.5t16.5 -176t69.5 -45zM399 -15q-189 0 -281.5 82t-92.5 276q0 362 374 362
q191 0 282 -83.5t91 -277.5q0 -359 -373 -359z" />
    <glyph glyph-name="omacron" unicode="&#x14d;" horiz-adv-x="554" 
d="M129 543q1 15 1 52.5t-1 53.5q46 -1 148 -1t148 1q-1 -16 -1 -53t1 -53q-46 1 -148 1t-148 -1zM18 235q0 129 67.5 193.5t191.5 64.5q130 0 194.5 -63.5t64.5 -196.5t-65 -191.5t-194 -58.5t-194 59.5t-65 192.5zM239 233q0 -78 8 -101.5t30 -23.5t30 23.5t8 101.5
q0 86 -8 112.5t-31 26.5q-21 0 -29 -27t-8 -112z" />
    <glyph glyph-name="Obreve" unicode="&#x14e;" horiz-adv-x="797" 
d="M399 122q52 0 68.5 46t16.5 176q0 134 -15.5 178.5t-69.5 44.5q-52 0 -69 -46.5t-17 -177.5t16.5 -176t69.5 -45zM399 -15q-189 0 -281.5 82t-92.5 276q0 362 374 362q191 0 282 -83.5t91 -277.5q0 -359 -373 -359zM418 739q-77 0 -111.5 40.5t-25.5 104.5l35 1
q6 -44 102 -44t102 44l35 -1q9 -64 -25.5 -104.5t-111.5 -40.5z" />
    <glyph glyph-name="obreve" unicode="&#x14f;" horiz-adv-x="554" 
d="M18 235q0 129 67.5 193.5t191.5 64.5q130 0 194.5 -63.5t64.5 -196.5t-65 -191.5t-194 -58.5t-194 59.5t-65 192.5zM239 233q0 -78 8 -101.5t30 -23.5t30 23.5t8 101.5q0 86 -8 112.5t-31 26.5q-21 0 -29 -27t-8 -112zM275 534q-77 0 -111.5 40.5t-25.5 104.5l35 1
q6 -44 102 -44t102 44l35 -1q9 -64 -25.5 -104.5t-111.5 -40.5z" />
    <glyph glyph-name="Ohungarumlaut" unicode="&#x150;" horiz-adv-x="797" 
d="M327 741l-11 9q9 38 30 79.5t48 66.5q33 31 65 26.5t36 -32t-24 -62.5q-27 -30 -68.5 -54t-75.5 -33zM491 741l-11 9q9 38 30 79.5t48 66.5q33 31 65 26.5t36 -32t-24 -62.5q-27 -30 -68.5 -54t-75.5 -33zM399 122q52 0 68.5 46t16.5 176q0 134 -15.5 178.5t-69.5 44.5
q-52 0 -69 -46.5t-17 -177.5t16.5 -176t69.5 -45zM399 -15q-189 0 -281.5 82t-92.5 276q0 362 374 362q191 0 282 -83.5t91 -277.5q0 -359 -373 -359z" />
    <glyph glyph-name="ohungarumlaut" unicode="&#x151;" horiz-adv-x="554" 
d="M176 531l-11 9q9 38 30 79.5t48 66.5q33 31 65 26.5t36 -32t-24 -62.5q-27 -30 -68.5 -54t-75.5 -33zM340 531l-11 9q9 38 30 79.5t48 66.5q33 31 65 26.5t36 -32t-24 -62.5q-27 -30 -68.5 -54t-75.5 -33zM18 235q0 129 67.5 193.5t191.5 64.5q130 0 194.5 -63.5
t64.5 -196.5t-65 -191.5t-194 -58.5t-194 59.5t-65 192.5zM239 233q0 -78 8 -101.5t30 -23.5t30 23.5t8 101.5q0 86 -8 112.5t-31 26.5q-21 0 -29 -27t-8 -112z" />
    <glyph glyph-name="OE" unicode="&#x152;" horiz-adv-x="1127" 
d="M735 382h12q34 0 45 15t11 59v39h98q-8 -93 -8 -151q0 -69 8 -151q-48 1 -96 0v36q0 46 -11 61.5t-47 15.5h-12q0 -64 2 -106q2 -40 17.5 -54.5t50.5 -14.5h58q58 0 81.5 28t23.5 114v9q72 -4 144 0q-10 -106 -10 -286q-47 4 -225 4q-3 0 -47.5 0.5t-96 0.5h-106.5h-79
q-68 -21 -149 -21q-188 0 -281 84t-93 279q0 187 97.5 277t276.5 90q93 0 159 -20q20 -1 296 -1q207 0 254 6q-8 -142 -6 -269q-69 4 -137 0v9q0 41 -8 67.5t-24.5 37.5t-32 14.5t-39.5 3.5h-55q-34 0 -51 -15t-18 -50q-2 -58 -2 -111zM399 122q53 0 75 38q12 21 11.5 183
t-11.5 184q-20 40 -75 40q-52 0 -69 -46.5t-17 -177.5t16.5 -176t69.5 -45z" />
    <glyph glyph-name="oe" unicode="&#x153;" horiz-adv-x="820" 
d="M807 186q4 -94 -54 -148.5t-183 -54.5q-84 0 -144 27q-55 -27 -149 -27q-129 0 -194 59.5t-65 192.5q0 129 67.5 193.5t191.5 64.5q93 0 153 -33q61 33 144 33q129 0 185.5 -77.5t48.5 -208.5h-274q2 -55 13 -77t36 -22q22 0 31.5 18t10.5 60q90 -4 182 0zM239 233
q0 -78 8 -101.5t30 -23.5t30 23.5t8 101.5q0 86 -8 112.5t-31 26.5q-21 0 -29 -27t-8 -112zM567 372q-11 0 -17.5 -7t-11 -33.5t-4.5 -76.5h39q15 0 19.5 6.5t4.5 24.5q0 37 -4 56.5t-10 24.5t-16 5z" />
    <glyph glyph-name="Racute" unicode="&#x154;" horiz-adv-x="821" 
d="M350 738l-7 13q21 36 59 72.5t74 54.5q28 12 51 12t35 -12.5t15 -28.5t-9.5 -35.5t-37.5 -33.5q-38 -21 -89.5 -32.5t-90.5 -9.5zM703 176q7 -41 15 -55.5t22 -14.5q9 0 14 9.5t4.5 30.5t-7.5 51q27 -1 54 3q24 -99 -18.5 -162.5t-162.5 -63.5q-101 0 -140.5 42.5
t-45.5 134.5q-5 78 -27 107t-72 31q0 -68 2 -98q4 -60 57 -60h20q-2 -67 0 -133q-128 2 -201 2l-202 -2q2 66 0 133h23q24 0 35.5 13.5t13.5 45.5q2 31 2 156t-2 154q-2 31 -13 45t-37 14h-22q2 65 0 131q2 0 94 -1t129 -1q16 0 103 0.5t146 0.5q118 0 182.5 -49t64.5 -139
q0 -70 -45 -116t-135 -55q70 -8 104 -48t45 -106zM341 519q-2 -25 -2 -138h30q47 0 65.5 20t18.5 68q0 45 -13 67.5t-48 22.5h-12q-37 0 -39 -40z" />
    <glyph glyph-name="racute" unicode="&#x155;" horiz-adv-x="498" 
d="M200 528l-7 13q21 36 59 72.5t74 54.5q28 12 51 12t35 -12.5t15 -28.5t-9.5 -35.5t-37.5 -33.5q-38 -21 -89.5 -32.5t-90.5 -9.5zM10 108h4q23 0 31.5 9.5t10.5 37.5t2 89.5t-2 83.5q-2 23 -10 33.5t-28 10.5h-4q2 54 0 107q33 -1 112 0t107 2l-4 -105h2q11 52 47 84.5
t91 32.5q58 0 89.5 -31t31.5 -88q0 -50 -24.5 -77t-69.5 -27q-41 0 -63.5 18.5t-22.5 53.5q0 37 25.5 58.5t62.5 20.5q-13 5 -29 5q-84 0 -87 -98q-3 -90 0 -181q1 -24 9 -31.5t38 -7.5h9q-2 -55 0 -110q-105 2 -164 2l-164 -2q2 55 0 110z" />
    <glyph glyph-name="Rcommaaccent" unicode="&#x156;" horiz-adv-x="821" 
d="M321 -260q106 18 121 96q-16 -21 -47 -21q-26 0 -40.5 16.5t-14.5 46.5q0 32 19 50.5t52 18.5q32 0 50.5 -22.5t18.5 -61.5q0 -61 -44.5 -98t-109.5 -45zM703 176q7 -41 15 -55.5t22 -14.5q9 0 14 9.5t4.5 30.5t-7.5 51q27 -1 54 3q24 -99 -18.5 -162.5t-162.5 -63.5
q-101 0 -140.5 42.5t-45.5 134.5q-5 78 -27 107t-72 31q0 -68 2 -98q4 -60 57 -60h20q-2 -67 0 -133q-128 2 -201 2l-202 -2q2 66 0 133h23q24 0 35.5 13.5t13.5 45.5q2 31 2 156t-2 154q-2 31 -13 45t-37 14h-22q2 65 0 131q2 0 94 -1t129 -1q16 0 103 0.5t146 0.5
q118 0 182.5 -49t64.5 -139q0 -70 -45 -116t-135 -55q70 -8 104 -48t45 -106zM341 519q-2 -25 -2 -138h30q47 0 65.5 20t18.5 68q0 45 -13 67.5t-48 22.5h-12q-37 0 -39 -40z" />
    <glyph glyph-name="rcommaaccent" unicode="&#x157;" horiz-adv-x="498" 
d="M81 -260q106 18 121 96q-16 -21 -47 -21q-26 0 -40.5 16.5t-14.5 46.5q0 32 19 50.5t52 18.5q32 0 50.5 -22.5t18.5 -61.5q0 -61 -44.5 -98t-109.5 -45zM10 108h4q23 0 31.5 9.5t10.5 37.5t2 89.5t-2 83.5q-2 23 -10 33.5t-28 10.5h-4q2 54 0 107q33 -1 112 0t107 2
l-4 -105h2q11 52 47 84.5t91 32.5q58 0 89.5 -31t31.5 -88q0 -50 -24.5 -77t-69.5 -27q-41 0 -63.5 18.5t-22.5 53.5q0 37 25.5 58.5t62.5 20.5q-13 5 -29 5q-84 0 -87 -98q-3 -90 0 -181q1 -24 9 -31.5t38 -7.5h9q-2 -55 0 -110q-105 2 -164 2l-164 -2q2 55 0 110z" />
    <glyph glyph-name="Rcaron" unicode="&#x158;" horiz-adv-x="821" 
d="M220 897l9 11q75 -8 144 -54q65 44 138 53l9 -11q-26 -83 -107 -152h-88q-63 50 -105 153zM703 176q7 -41 15 -55.5t22 -14.5q9 0 14 9.5t4.5 30.5t-7.5 51q27 -1 54 3q24 -99 -18.5 -162.5t-162.5 -63.5q-101 0 -140.5 42.5t-45.5 134.5q-5 78 -27 107t-72 31
q0 -68 2 -98q4 -60 57 -60h20q-2 -67 0 -133q-128 2 -201 2l-202 -2q2 66 0 133h23q24 0 35.5 13.5t13.5 45.5q2 31 2 156t-2 154q-2 31 -13 45t-37 14h-22q2 65 0 131q2 0 94 -1t129 -1q16 0 103 0.5t146 0.5q118 0 182.5 -49t64.5 -139q0 -70 -45 -116t-135 -55
q70 -8 104 -48t45 -106zM341 519q-2 -25 -2 -138h30q47 0 65.5 20t18.5 68q0 45 -13 67.5t-48 22.5h-12q-37 0 -39 -40z" />
    <glyph glyph-name="rcaron" unicode="&#x159;" horiz-adv-x="498" 
d="M100 687l9 11q75 -8 144 -54q65 44 138 53l9 -11q-26 -83 -107 -152h-88q-63 50 -105 153zM10 108h4q23 0 31.5 9.5t10.5 37.5t2 89.5t-2 83.5q-2 23 -10 33.5t-28 10.5h-4q2 54 0 107q33 -1 112 0t107 2l-4 -105h2q11 52 47 84.5t91 32.5q58 0 89.5 -31t31.5 -88
q0 -50 -24.5 -77t-69.5 -27q-41 0 -63.5 18.5t-22.5 53.5q0 37 25.5 58.5t62.5 20.5q-13 5 -29 5q-84 0 -87 -98q-3 -90 0 -181q1 -24 9 -31.5t38 -7.5h9q-2 -55 0 -110q-105 2 -164 2l-164 -2q2 55 0 110z" />
    <glyph glyph-name="Sacute" unicode="&#x15a;" horiz-adv-x="711" 
d="M341 738l-7 13q21 36 59 72.5t74 54.5q28 12 51 12t35 -12.5t15 -28.5t-9.5 -35.5t-37.5 -33.5q-38 -21 -89.5 -32.5t-90.5 -9.5zM367 577q-120 0 -120 -48q0 -23 25.5 -31t108.5 -11q320 -12 320 -243q0 -259 -310 -259q-111 0 -203 45q-47 24 -57 -35q-15 1 -52 1
t-52 -1q10 167 8 230q49 -4 98 0q51 -114 255 -114q111 0 111 48q0 21 -32.5 30t-123.5 14q-158 8 -231 69t-73 173q0 118 75 189t213 71q107 0 189 -42q16 -8 24.5 -10.5t14 3.5t6.5 10.5t6 23.5q13 -2 47 -2t47 2q-6 -109 -3 -203q-56 5 -100 1q-44 89 -191 89z" />
    <glyph glyph-name="sacute" unicode="&#x15b;" horiz-adv-x="525" 
d="M214 528l-7 13q21 36 59 72.5t74 54.5q28 12 51 12t35 -12.5t15 -28.5t-9.5 -35.5t-37.5 -33.5q-38 -21 -89.5 -32.5t-90.5 -9.5zM269 402q-66 0 -66 -27q0 -15 21.5 -21t97.5 -12q194 -15 194 -182q0 -82 -54 -129.5t-163 -47.5q-83 0 -151 36q-52 28 -62 -19
q-36 4 -73 0q13 93 13 144q36 -4 73 0q25 -34 69 -55.5t96 -21.5q66 0 66 29q0 14 -17.5 20t-77.5 10q-107 7 -160 54.5t-53 130.5q0 81 60.5 131.5t164.5 50.5q60 0 111 -28q16 -9 26.5 -11.5t17 3t8 9t6.5 16.5q35 -4 71 0q-9 -61 -13 -136q-39 4 -78 0q-44 56 -127 56z
" />
    <glyph glyph-name="Scircumflex" unicode="&#x15c;" horiz-adv-x="711" 
d="M491 742l-9 -11q-75 8 -144 54q-65 -44 -138 -53l-9 11q26 83 107 152h88q63 -50 105 -153zM367 577q-120 0 -120 -48q0 -23 25.5 -31t108.5 -11q320 -12 320 -243q0 -259 -310 -259q-111 0 -203 45q-47 24 -57 -35q-15 1 -52 1t-52 -1q10 167 8 230q49 -4 98 0
q51 -114 255 -114q111 0 111 48q0 21 -32.5 30t-123.5 14q-158 8 -231 69t-73 173q0 118 75 189t213 71q107 0 189 -42q16 -8 24.5 -10.5t14 3.5t6.5 10.5t6 23.5q13 -2 47 -2t47 2q-6 -109 -3 -203q-56 5 -100 1q-44 89 -191 89z" />
    <glyph glyph-name="scircumflex" unicode="&#x15d;" horiz-adv-x="525" 
d="M414 532l-9 -11q-75 8 -144 54q-65 -44 -138 -53l-9 11q26 83 107 152h88q63 -50 105 -153zM269 402q-66 0 -66 -27q0 -15 21.5 -21t97.5 -12q194 -15 194 -182q0 -82 -54 -129.5t-163 -47.5q-83 0 -151 36q-52 28 -62 -19q-36 4 -73 0q13 93 13 144q36 -4 73 0
q25 -34 69 -55.5t96 -21.5q66 0 66 29q0 14 -17.5 20t-77.5 10q-107 7 -160 54.5t-53 130.5q0 81 60.5 131.5t164.5 50.5q60 0 111 -28q16 -9 26.5 -11.5t17 3t8 9t6.5 16.5q35 -4 71 0q-9 -61 -13 -136q-39 4 -78 0q-44 56 -127 56z" />
    <glyph glyph-name="Scedilla" unicode="&#x15e;" horiz-adv-x="711" 
d="M312 -105l-12 28q53 15 66 63q-97 3 -178 44q-47 24 -57 -35q-15 1 -52 1t-52 -1q10 167 8 230q49 -4 98 0q51 -114 255 -114q111 0 111 48q0 21 -32.5 30t-123.5 14q-158 8 -231 69t-73 173q0 118 75 189t213 71q107 0 189 -42q16 -8 24.5 -10.5t14 3.5t6.5 10.5t6 23.5
q13 -2 47 -2t47 2q-6 -109 -3 -203q-56 5 -100 1q-44 89 -191 89q-120 0 -120 -48q0 -23 25.5 -31t108.5 -11q320 -12 320 -243q0 -251 -293 -259q-1 -24 -19 -45q44 1 74.5 -20t30.5 -61q0 -42 -32.5 -67.5t-89.5 -25.5q-81 0 -124 56l25 26q29 -32 64 -32q50 0 50 46
q0 25 -20.5 35t-54.5 -2z" />
    <glyph glyph-name="scedilla" unicode="&#x15f;" horiz-adv-x="525" 
d="M203 -105l-12 28q53 15 66 62q-61 8 -109 34q-52 28 -62 -19q-36 4 -73 0q13 93 13 144q36 -4 73 0q25 -34 69 -55.5t96 -21.5q66 0 66 29q0 14 -17.5 20t-77.5 10q-107 7 -160 54.5t-53 130.5q0 81 60.5 131.5t164.5 50.5q60 0 111 -28q16 -9 26.5 -11.5t17 3t8 9
t6.5 16.5q35 -4 71 0q-9 -61 -13 -136q-39 4 -78 0q-44 56 -127 56q-66 0 -66 -27q0 -15 21.5 -21t97.5 -12q194 -15 194 -182q0 -82 -54 -129.5t-163 -47.5q-3 -26 -19 -43q44 1 74.5 -20t30.5 -61q0 -42 -32.5 -67.5t-89.5 -25.5q-81 0 -124 56l25 26q29 -32 64 -32
q50 0 50 46q0 25 -20 35t-55 -2z" />
    <glyph glyph-name="Scaron" unicode="&#x160;" horiz-adv-x="711" 
d="M201 897l9 11q75 -8 144 -54q65 44 138 53l9 -11q-26 -83 -107 -152h-88q-63 50 -105 153zM367 577q-120 0 -120 -48q0 -23 25.5 -31t108.5 -11q320 -12 320 -243q0 -259 -310 -259q-111 0 -203 45q-47 24 -57 -35q-15 1 -52 1t-52 -1q10 167 8 230q49 -4 98 0
q51 -114 255 -114q111 0 111 48q0 21 -32.5 30t-123.5 14q-158 8 -231 69t-73 173q0 118 75 189t213 71q107 0 189 -42q16 -8 24.5 -10.5t14 3.5t6.5 10.5t6 23.5q13 -2 47 -2t47 2q-6 -109 -3 -203q-56 5 -100 1q-44 89 -191 89z" />
    <glyph glyph-name="scaron" unicode="&#x161;" horiz-adv-x="525" 
d="M124 687l9 11q75 -8 144 -54q65 44 138 53l9 -11q-26 -83 -107 -152h-88q-63 50 -105 153zM269 402q-66 0 -66 -27q0 -15 21.5 -21t97.5 -12q194 -15 194 -182q0 -82 -54 -129.5t-163 -47.5q-83 0 -151 36q-52 28 -62 -19q-36 4 -73 0q13 93 13 144q36 -4 73 0
q25 -34 69 -55.5t96 -21.5q66 0 66 29q0 14 -17.5 20t-77.5 10q-107 7 -160 54.5t-53 130.5q0 81 60.5 131.5t164.5 50.5q60 0 111 -28q16 -9 26.5 -11.5t17 3t8 9t6.5 16.5q35 -4 71 0q-9 -61 -13 -136q-39 4 -78 0q-44 56 -127 56z" />
    <glyph glyph-name="Tcommaaccent" unicode="&#x162;" horiz-adv-x="754" 
d="M306 -104l-12 28q63 19 68 76l-201 -2q2 67 0 133h21q64 0 69 69q2 28 2 150t-1 200h-23q-34 0 -50 -23.5t-18 -69.5l-4 -75q-69 4 -137 0q6 147 -5 310q68 -4 214 -4h296q144 0 214 4q-11 -163 -5 -310q-68 4 -137 0l-4 75q-2 46 -18 69.5t-50 23.5h-22
q-2 -76 -1.5 -201t2.5 -149q5 -69 68 -69h21q-2 -66 0 -133q-112 2 -191 2q3 -35 -19 -59q44 1 74.5 -20t30.5 -61q0 -42 -32.5 -67.5t-89.5 -25.5q-81 0 -124 56l25 26q29 -32 64 -32q50 0 50 46q0 25 -20.5 35t-54.5 -2z" />
    <glyph glyph-name="tcommaaccent" unicode="&#x163;" horiz-adv-x="383" 
d="M132 -105l-12 28q52 15 65 61q-71 5 -108.5 45t-37.5 112q0 26 3 106.5t3 126.5h-37q2 44 0 89q75 -1 124 52t63 127q46 -4 91 0q-8 -67 -8 -163l95 3q-2 -55 0 -110l-95 1v-176q0 -38 2.5 -58.5t6.5 -26.5t11 -6q18 0 22 35t-3 75l54 -1q12 -113 -20 -168.5t-123 -62.5
q-3 -25 -19 -44q44 1 74.5 -20t30.5 -61q0 -42 -32.5 -67.5t-89.5 -25.5q-81 0 -124 56l25 26q29 -32 64 -32q50 0 50 46q0 25 -20.5 35t-54.5 -2z" />
    <glyph glyph-name="Tcaron" unicode="&#x164;" horiz-adv-x="754" 
d="M227 897l9 11q75 -8 144 -54q65 44 138 53l9 -11q-26 -83 -107 -152h-88q-63 50 -105 153zM525 550h-22q-2 -76 -1.5 -201t2.5 -149q5 -69 68 -69h21q-2 -66 0 -133q-138 2 -216 2l-216 -2q2 67 0 133h21q64 0 69 69q2 28 2 150t-1 200h-23q-34 0 -50 -23.5t-18 -69.5
l-4 -75q-69 4 -137 0q6 147 -5 310q68 -4 214 -4h296q144 0 214 4q-11 -163 -5 -310q-68 4 -137 0l-4 75q-2 46 -18 69.5t-50 23.5z" />
    <glyph glyph-name="tcaron" unicode="&#x165;" horiz-adv-x="515" 
d="M327 523q106 18 121 96q-16 -21 -47 -21q-26 0 -40.5 16.5t-14.5 46.5q0 32 19 50.5t52 18.5q32 0 50.5 -22.5t18.5 -61.5q0 -61 -44.5 -98t-109.5 -45zM317 216l54 -1q12 -121 -25 -176.5t-143 -55.5q-79 0 -121.5 41t-42.5 117q0 26 3 106.5t3 126.5h-37q2 44 0 89
q75 -1 124 52t63 127q46 -4 91 0q-8 -67 -8 -163l95 3q-2 -55 0 -110l-95 1v-176q0 -38 2.5 -58.5t6.5 -26.5t11 -6q18 0 22 35t-3 75z" />
    <glyph glyph-name="Tbar" unicode="&#x166;" horiz-adv-x="754" 
d="M525 550h-22q-2 -118 -2 -229l95 5v-67l-94 4q0 -45 2 -63q5 -69 68 -69h21q-2 -66 0 -133q-138 2 -216 2l-216 -2q2 67 0 133h21q64 0 69 69q0 2 0.5 24t0.5 40l-95 -5v67l96 -5q0 170 -1 229h-23q-34 0 -50 -23.5t-18 -69.5l-4 -75q-69 4 -137 0q6 147 -5 310
q68 -4 214 -4h296q144 0 214 4q-11 -163 -5 -310q-68 4 -137 0l-4 75q-2 46 -18 69.5t-50 23.5z" />
    <glyph glyph-name="tbar" unicode="&#x167;" horiz-adv-x="383" 
d="M10 269v67l34 -3q1 14 1 41h-37q2 44 0 89q75 -1 124 52t63 127q46 -4 91 0q-8 -67 -8 -163l95 3q-2 -55 0 -110l-95 1v-42l85 5v-67l-85 5v-77q0 -38 2.5 -58.5t6.5 -26.5t11 -6q18 0 22 35t-3 75l54 -1q12 -121 -25 -176.5t-143 -55.5q-79 0 -121.5 41t-42.5 117
q0 32 4 130z" />
    <glyph glyph-name="Utilde" unicode="&#x168;" horiz-adv-x="803" 
d="M83 250q0 13 1.5 117t-0.5 126q-3 66 -58 66h-11q2 65 0 131q135 -2 210 -2q45 0 131.5 1t87.5 1q-2 -66 0 -131h-29q-59 0 -62 -66q-4 -114 0 -227q3 -73 26 -104t74 -31t74.5 31t26.5 104q6 124 0 227q-3 66 -58 66h-27q2 65 0 131q96 -2 155 -2q35 0 98 1t66 1
q-2 -66 0 -131h-12q-55 0 -58 -66v-236q0 -151 -79.5 -216.5t-227.5 -65.5q-174 0 -251 66t-77 209zM541 862l33 12q26 -65 -5 -105.5t-91 -40.5q-71 0 -112 65q-14 23 -33 23q-17 0 -24.5 -13.5t4.5 -50.5l-33 -11q-27 66 6 105.5t90 39.5q70 0 112 -65q15 -23 33 -23
t25 14.5t-5 49.5z" />
    <glyph glyph-name="utilde" unicode="&#x169;" horiz-adv-x="613" 
d="M577 482q-3 -64 -3 -171v-134q0 -36 6 -52.5t22 -16.5h4q-2 -54 0 -108q-219 0 -258 -2v100q-27 -115 -149 -115q-161 0 -161 179v139q0 71 -27 71h-6q2 55 0 110q83 -3 130 -3l132 3q-4 -79 -4 -177q0 -90 1 -116q2 -46 9.5 -65t29.5 -19q30 0 37.5 33t7.5 122v57
q0 30 -10 42.5t-40 12.5h-3q2 55 0 110q90 -3 140 -3zM421 652l33 12q26 -65 -5 -105.5t-91 -40.5q-71 0 -112 65q-14 23 -33 23q-17 0 -24.5 -13.5t4.5 -50.5l-33 -11q-27 66 6 105.5t90 39.5q70 0 112 -65q15 -23 33 -23t25 14.5t-5 49.5z" />
    <glyph glyph-name="Umacron" unicode="&#x16a;" horiz-adv-x="803" 
d="M83 250q0 13 1.5 117t-0.5 126q-3 66 -58 66h-11q2 65 0 131q135 -2 210 -2q45 0 131.5 1t87.5 1q-2 -66 0 -131h-29q-59 0 -62 -66q-4 -114 0 -227q3 -73 26 -104t74 -31t74.5 31t26.5 104q6 124 0 227q-3 66 -58 66h-27q2 65 0 131q96 -2 155 -2q35 0 98 1t66 1
q-2 -66 0 -131h-12q-55 0 -58 -66v-236q0 -151 -79.5 -216.5t-227.5 -65.5q-174 0 -251 66t-77 209zM311 753q1 15 1 52.5t-1 53.5q46 -1 148 -1t148 1q-1 -16 -1 -53t1 -53q-46 1 -148 1t-148 -1z" />
    <glyph glyph-name="umacron" unicode="&#x16b;" horiz-adv-x="613" 
d="M577 482q-3 -64 -3 -171v-134q0 -36 6 -52.5t22 -16.5h4q-2 -54 0 -108q-219 0 -258 -2v100q-27 -115 -149 -115q-161 0 -161 179v139q0 71 -27 71h-6q2 55 0 110q83 -3 130 -3l132 3q-4 -79 -4 -177q0 -90 1 -116q2 -46 9.5 -65t29.5 -19q30 0 37.5 33t7.5 122v57
q0 30 -10 42.5t-40 12.5h-3q2 55 0 110q90 -3 140 -3zM157 543q1 15 1 52.5t-1 53.5q46 -1 148 -1t148 1q-1 -16 -1 -53t1 -53q-46 1 -148 1t-148 -1z" />
    <glyph glyph-name="Ubreve" unicode="&#x16c;" horiz-adv-x="803" 
d="M83 250q0 13 1.5 117t-0.5 126q-3 66 -58 66h-11q2 65 0 131q135 -2 210 -2q45 0 131.5 1t87.5 1q-2 -66 0 -131h-29q-59 0 -62 -66q-4 -114 0 -227q3 -73 26 -104t74 -31t74.5 31t26.5 104q6 124 0 227q-3 66 -58 66h-27q2 65 0 131q96 -2 155 -2q35 0 98 1t66 1
q-2 -66 0 -131h-12q-55 0 -58 -66v-236q0 -151 -79.5 -216.5t-227.5 -65.5q-174 0 -251 66t-77 209zM455 739q-77 0 -111.5 40.5t-25.5 104.5l35 1q6 -44 102 -44t102 44l35 -1q9 -64 -25.5 -104.5t-111.5 -40.5z" />
    <glyph glyph-name="ubreve" unicode="&#x16d;" horiz-adv-x="613" 
d="M577 482q-3 -64 -3 -171v-134q0 -36 6 -52.5t22 -16.5h4q-2 -54 0 -108q-219 0 -258 -2v100q-27 -115 -149 -115q-161 0 -161 179v139q0 71 -27 71h-6q2 55 0 110q83 -3 130 -3l132 3q-4 -79 -4 -177q0 -90 1 -116q2 -46 9.5 -65t29.5 -19q30 0 37.5 33t7.5 122v57
q0 30 -10 42.5t-40 12.5h-3q2 55 0 110q90 -3 140 -3zM305 534q-77 0 -111.5 40.5t-25.5 104.5l35 1q6 -44 102 -44t102 44l35 -1q9 -64 -25.5 -104.5t-111.5 -40.5z" />
    <glyph glyph-name="Uring" unicode="&#x16e;" horiz-adv-x="803" 
d="M499 840q0 47 -45 47q-46 0 -46 -47q0 -49 46 -49q45 0 45 49zM550 840q0 -47 -25 -72t-71 -25t-71.5 25.5t-25.5 71.5t24.5 71t70.5 25q47 0 72.5 -25t25.5 -71zM83 250q0 13 1.5 117t-0.5 126q-3 66 -58 66h-11q2 65 0 131q135 -2 210 -2q45 0 131.5 1t87.5 1
q-2 -66 0 -131h-29q-59 0 -62 -66q-4 -114 0 -227q3 -73 26 -104t74 -31t74.5 31t26.5 104q6 124 0 227q-3 66 -58 66h-27q2 65 0 131q96 -2 155 -2q35 0 98 1t66 1q-2 -66 0 -131h-12q-55 0 -58 -66v-236q0 -151 -79.5 -216.5t-227.5 -65.5q-174 0 -251 66t-77 209z" />
    <glyph glyph-name="uring" unicode="&#x16f;" horiz-adv-x="613" 
d="M321 630q0 47 -45 47q-46 0 -46 -47q0 -49 46 -49q45 0 45 49zM372 630q0 -47 -25 -72t-71 -25t-71.5 25.5t-25.5 71.5t24.5 71t70.5 25q47 0 72.5 -25t25.5 -71zM577 482q-3 -64 -3 -171v-134q0 -36 6 -52.5t22 -16.5h4q-2 -54 0 -108q-219 0 -258 -2v100
q-27 -115 -149 -115q-161 0 -161 179v139q0 71 -27 71h-6q2 55 0 110q83 -3 130 -3l132 3q-4 -79 -4 -177q0 -90 1 -116q2 -46 9.5 -65t29.5 -19q30 0 37.5 33t7.5 122v57q0 30 -10 42.5t-40 12.5h-3q2 55 0 110q90 -3 140 -3z" />
    <glyph glyph-name="Uhungarumlaut" unicode="&#x170;" horiz-adv-x="803" 
d="M83 250q0 13 1.5 117t-0.5 126q-3 66 -58 66h-11q2 65 0 131q135 -2 210 -2q45 0 131.5 1t87.5 1q-2 -66 0 -131h-29q-59 0 -62 -66q-4 -114 0 -227q3 -73 26 -104t74 -31t74.5 31t26.5 104q6 124 0 227q-3 66 -58 66h-27q2 65 0 131q96 -2 155 -2q35 0 98 1t66 1
q-2 -66 0 -131h-12q-55 0 -58 -66v-236q0 -151 -79.5 -216.5t-227.5 -65.5q-174 0 -251 66t-77 209zM360 741l-11 9q9 38 30 79.5t48 66.5q33 31 65 26.5t36 -32t-24 -62.5q-27 -30 -68.5 -54t-75.5 -33zM524 741l-11 9q9 38 30 79.5t48 66.5q33 31 65 26.5t36 -32
t-24 -62.5q-27 -30 -68.5 -54t-75.5 -33z" />
    <glyph glyph-name="uhungarumlaut" unicode="&#x171;" horiz-adv-x="613" 
d="M577 482q-3 -64 -3 -171v-134q0 -36 6 -52.5t22 -16.5h4q-2 -54 0 -108q-219 0 -258 -2v100q-27 -115 -149 -115q-161 0 -161 179v139q0 71 -27 71h-6q2 55 0 110q83 -3 130 -3l132 3q-4 -79 -4 -177q0 -90 1 -116q2 -46 9.5 -65t29.5 -19q30 0 37.5 33t7.5 122v57
q0 30 -10 42.5t-40 12.5h-3q2 55 0 110q90 -3 140 -3zM194 531l-11 9q9 38 30 79.5t48 66.5q33 31 65 26.5t36 -32t-24 -62.5q-27 -30 -68.5 -54t-75.5 -33zM358 531l-11 9q9 38 30 79.5t48 66.5q33 31 65 26.5t36 -32t-24 -62.5q-27 -30 -68.5 -54t-75.5 -33z" />
    <glyph glyph-name="Uogonek" unicode="&#x172;" horiz-adv-x="803" 
d="M83 250q0 13 1.5 117t-0.5 126q-3 66 -58 66h-11q2 65 0 131q135 -2 210 -2q45 0 131.5 1t87.5 1q-2 -66 0 -131h-29q-59 0 -62 -66q-4 -114 0 -227q3 -73 26 -104t74 -31t74.5 31t26.5 104q6 124 0 227q-3 66 -58 66h-27q2 65 0 131q96 -2 155 -2q35 0 98 1t66 1
q-2 -66 0 -131h-12q-55 0 -58 -66v-236q0 -147 -75 -213t-216 -69q-9 -13 -9 -33q0 -43 48 -43q53 0 60 53l40 -6q6 -65 -21.5 -108.5t-102.5 -43.5q-56 0 -88 24t-32 73q0 52 39 86q-147 9 -212.5 75t-65.5 198z" />
    <glyph glyph-name="uogonek" unicode="&#x173;" horiz-adv-x="613" 
d="M577 482q-3 -64 -3 -171v-134q0 -36 6 -52.5t22 -16.5h4q-2 -54 0 -108h-85q-51 -11 -51 -58q0 -43 48 -43q53 0 60 53l40 -6q6 -65 -21.5 -108.5t-102.5 -43.5q-56 0 -88 24t-32 73q0 38 21 66.5t57 42.5q-72 0 -104 -2v100q-27 -115 -149 -115q-161 0 -161 179v139
q0 71 -27 71h-6q2 55 0 110q83 -3 130 -3l132 3q-4 -79 -4 -177q0 -90 1 -116q2 -46 9.5 -65t29.5 -19q30 0 37.5 33t7.5 122v57q0 30 -10 42.5t-40 12.5h-3q2 55 0 110q90 -3 140 -3z" />
    <glyph glyph-name="Wcircumflex" unicode="&#x174;" horiz-adv-x="1181" 
d="M820 742l-9 -11q-75 8 -144 54q-65 -44 -138 -53l-9 11q26 83 107 152h88q63 -50 105 -153zM916 -6q-140 4 -279 0q-29 122 -66 266q-39 -144 -69 -266q-124 4 -249 0q-23 104 -69.5 282t-59.5 217q-11 34 -30 50t-57 16h-22q2 65 0 131q145 -2 227 -2q36 0 89 0.5t93 1
t44 0.5q-2 -66 0 -131h-18q-27 0 -34 -15.5t-1 -50.5q8 -50 66 -257q56 207 64 257q5 36 -3 51t-36 15h-14q2 65 0 131q115 -2 180 -2q39 0 109 1t71 1q-2 -66 0 -131h-19q-25 0 -32.5 -14t-0.5 -51q10 -55 67 -263q53 202 62 262q8 31 2.5 48.5t-36.5 17.5h-19q2 65 0 131
q93 -2 145 -2q31 0 86 1t59 1q-2 -66 0 -131h-25q-41 0 -62.5 -13t-32.5 -53z" />
    <glyph glyph-name="wcircumflex" unicode="&#x175;" horiz-adv-x="890" 
d="M646 532l-9 -11q-75 8 -144 54q-65 -44 -138 -53l-9 11q26 83 107 152h88q63 -50 105 -153zM460 -7q-22 108 -52 238q-41 -148 -63 -238q-95 4 -191 0q-49 196 -73 281q-18 64 -29.5 81t-37.5 17h-6q2 55 0 110q105 -3 163 -3l162 3q-2 -55 0 -110h-5q-18 0 -23.5 -11
t-1.5 -41q4 -32 38 -179q41 150 45 179q4 30 -2.5 41t-28.5 11h-5q2 55 0 110q93 -3 145 -3l144 3q-2 -55 0 -110h-7q-31 0 -24 -49q3 -27 39 -187q31 134 40 184q5 25 0.5 38.5t-24.5 13.5h-7q2 55 0 110q72 -3 113 -3l113 3q-2 -55 0 -110h-12q-34 0 -48.5 -16.5
t-35.5 -81.5l-89 -281q-119 4 -237 0z" />
    <glyph glyph-name="Ycircumflex" unicode="&#x176;" horiz-adv-x="879" 
d="M702 480q-31 -56 -119 -243v-47q0 -59 59 -59h27q2 -66 0 -133q-151 2 -236 2l-237 -2q2 67 0 133h30q32 0 41 14t9 45v48q-97 200 -129 259q-35 62 -115 62h-17v131q161 -2 252 -2l251 2v-131h-14q-28 0 -34 -24t15 -81q23 -57 43 -94q23 46 44 94q20 44 16.5 74.5
t-33.5 30.5h-14v131q104 -2 162 -2l161 2v-131h-13q-68 0 -97 -19t-52 -60zM651 742l-9 -11q-75 8 -144 54q-65 -44 -138 -53l-9 11q26 83 107 152h88q63 -50 105 -153z" />
    <glyph glyph-name="ycircumflex" unicode="&#x177;" horiz-adv-x="597" 
d="M398 320q12 52 -25 52h-10q2 55 0 110q72 -3 113 -3l113 3q-3 -37 0 -110h-14q-26 0 -40.5 -13t-24.5 -40q-29 -79 -84 -261q-25 -80 -53 -132t-60 -76.5t-61 -32.5t-69 -8q-64 0 -98.5 27.5t-34.5 79.5q0 41 26.5 68.5t75.5 27.5q42 0 64.5 -20.5t22.5 -58.5
q0 -34 -23 -54.5t-59 -20.5t-61 19q23 -29 66 -29q28 0 49 8.5t34 19t25 36t18.5 43.5t17.5 57q3 11 5 17q-69 1 -159 -1q-13 56 -41.5 157.5t-39.5 133.5q-1 2 -3.5 10t-3 10t-3 8t-4 7.5t-4.5 6t-5.5 5.5t-6.5 3t-9 2.5t-11 0.5h-13q2 55 0 110q108 -3 169 -3l169 3
q2 -55 0 -110h-8q-18 0 -26 -14t-3 -38q7 -40 41 -165q31 100 48 165zM478 532l-9 -11q-75 8 -144 54q-65 -44 -138 -53l-9 11q26 83 107 152h88q63 -50 105 -153z" />
    <glyph glyph-name="Ydieresis" unicode="&#x178;" horiz-adv-x="879" 
d="M702 480q-31 -56 -119 -243v-47q0 -59 59 -59h27q2 -66 0 -133q-151 2 -236 2l-237 -2q2 67 0 133h30q32 0 41 14t9 45v48q-97 200 -129 259q-35 62 -115 62h-17v131q161 -2 252 -2l251 2v-131h-14q-28 0 -34 -24t15 -81q23 -57 43 -94q23 46 44 94q20 44 16.5 74.5
t-33.5 30.5h-14v131q104 -2 162 -2l161 2v-131h-13q-68 0 -97 -19t-52 -60zM681 811q0 -30 -18 -46.5t-46 -16.5t-45.5 16.5t-17.5 46.5t18 47t45 17q28 0 46 -17t18 -47zM506 811q0 -30 -18 -46.5t-46 -16.5q-27 0 -45 16.5t-18 46.5t18 47t45 17q28 0 46 -17t18 -47z" />
    <glyph glyph-name="Zacute" unicode="&#x179;" horiz-adv-x="687" 
d="M363 738l-7 13q21 36 59 72.5t74 54.5q28 12 51 12t35 -12.5t15 -28.5t-9.5 -35.5t-37.5 -33.5q-38 -21 -89.5 -32.5t-90.5 -9.5zM15 0q2 60 0 121q167 216 328 438h-43q-92 0 -125.5 -36.5t-33.5 -139.5q-57 4 -115 0q4 155 0 309q8 0 96 -2t122 -2h418q-2 -60 0 -120
q-165 -218 -321 -437h44q82 0 127 43.5t45 153.5q57 -4 115 0q-4 -166 0 -332l-204 4h-453z" />
    <glyph glyph-name="zacute" unicode="&#x17a;" horiz-adv-x="492" 
d="M196 528l-7 13q21 36 59 72.5t74 54.5q28 12 51 12t35 -12.5t15 -28.5t-9.5 -35.5t-37.5 -33.5q-38 -21 -89.5 -32.5t-90.5 -9.5zM287 0h-279q2 54 0 108q85 115 205 296h-10q-59 0 -86.5 -28t-32.5 -103q-36 4 -73 0q2 106 0 212q28 -3 192 -3h270q-2 -55 0 -110
q-105 -144 -207 -298h21q116 0 124 134q37 -4 73 0q-9 -89 -4 -211q-106 3 -193 3z" />
    <glyph glyph-name="Zdotaccent" unicode="&#x17b;" horiz-adv-x="687" 
d="M15 0q2 60 0 121q167 216 328 438h-43q-92 0 -125.5 -36.5t-33.5 -139.5q-57 4 -115 0q4 155 0 309q8 0 96 -2t122 -2h418q-2 -60 0 -120q-165 -218 -321 -437h44q82 0 127 43.5t45 153.5q57 -4 115 0q-4 -166 0 -332l-204 4h-453zM439 821q0 -36 -20 -56.5t-56 -20.5
q-35 0 -55 20t-20 57q0 36 20 55.5t55 19.5q36 0 56 -19.5t20 -55.5z" />
    <glyph glyph-name="zdotaccent" unicode="&#x17c;" horiz-adv-x="492" 
d="M287 0h-279q2 54 0 108q85 115 205 296h-10q-59 0 -86.5 -28t-32.5 -103q-36 4 -73 0q2 106 0 212q28 -3 192 -3h270q-2 -55 0 -110q-105 -144 -207 -298h21q116 0 124 134q37 -4 73 0q-9 -89 -4 -211q-106 3 -193 3zM322 611q0 -36 -20 -56.5t-56 -20.5q-35 0 -55 20
t-20 57q0 36 20 55.5t55 19.5q36 0 56 -19.5t20 -55.5z" />
    <glyph glyph-name="Zcaron" unicode="&#x17d;" horiz-adv-x="687" 
d="M213 897l9 11q75 -8 144 -54q65 44 138 53l9 -11q-26 -83 -107 -152h-88q-63 50 -105 153zM15 0q2 60 0 121q167 216 328 438h-43q-92 0 -125.5 -36.5t-33.5 -139.5q-57 4 -115 0q4 155 0 309q8 0 96 -2t122 -2h418q-2 -60 0 -120q-165 -218 -321 -437h44q82 0 127 43.5
t45 153.5q57 -4 115 0q-4 -166 0 -332l-204 4h-453z" />
    <glyph glyph-name="zcaron" unicode="&#x17e;" horiz-adv-x="492" 
d="M106 687l9 11q75 -8 144 -54q65 44 138 53l9 -11q-26 -83 -107 -152h-88q-63 50 -105 153zM287 0h-279q2 54 0 108q85 115 205 296h-10q-59 0 -86.5 -28t-32.5 -103q-36 4 -73 0q2 106 0 212q28 -3 192 -3h270q-2 -55 0 -110q-105 -144 -207 -298h21q116 0 124 134
q37 -4 73 0q-9 -89 -4 -211q-106 3 -193 3z" />
    <glyph glyph-name="longs" unicode="&#x17f;" horiz-adv-x="345" 
d="M324 108v-110q-101 2 -158 2l-158 -2q2 55 0 110h11q16 0 23.5 9t9.5 30t2 142t-2 181q-4 110 44.5 170t165.5 60q82 0 127 -31t45 -87q0 -76 -80 -76q-35 0 -55 17.5t-20 49.5q0 55 53 67q-53 -3 -69 -41.5t4 -124.5l11 -44q-4 -50 -3.5 -154t3.5 -129q4 -39 36 -39h10z
" />
    <glyph glyph-name="florin" unicode="&#x192;" horiz-adv-x="583" 
d="M187 321l-76 -2v80l64 -2q-10 80 5.5 142t49 98t76.5 54.5t91 18.5q85 0 130.5 -32.5t45.5 -92.5q0 -40 -21.5 -62t-61.5 -22q-72 0 -72 59q0 29 18.5 45.5t54.5 16.5h6q-20 11 -43 11q-22 0 -36.5 -4t-28.5 -18.5t-19.5 -39.5t-4 -69t11.5 -105l90 2q-2 -41 0 -80l-77 2
q13 -97 -0.5 -167t-48.5 -107.5t-78 -54.5t-96 -17q-76 0 -116.5 29t-40.5 83q0 39 22 60t62 21q72 0 72 -58t-69 -58l-13 1q21 -12 45 -12q35 0 53 22.5t22.5 85t-17.5 172.5z" />
    <glyph glyph-name="uni01B5" unicode="&#x1b5;" horiz-adv-x="687" 
d="M66 262v57l96 -5q119 158 181 245h-43q-92 0 -125.5 -36.5t-33.5 -139.5q-57 4 -115 0q4 155 0 309q8 0 96 -2t122 -2h418q-2 -60 0 -120q-32 -43 -187 -252l50 3v-57l-87 4l-97 -135h44q82 0 127 43.5t45 153.5q57 -4 115 0q-4 -166 0 -332l-204 4h-453q2 60 0 121
q46 59 110 144z" />
    <glyph glyph-name="uni01B6" unicode="&#x1b6;" horiz-adv-x="492" 
d="M24 193l-4 41l83 7l110 163h-10q-59 0 -86.5 -28t-32.5 -103q-36 4 -73 0q2 106 0 212q28 -3 192 -3h270q-2 -55 0 -110l-63 -88l46 9l4 -41l-76 -6q-68 -96 -118 -172h21q116 0 124 134q37 -4 73 0q-9 -89 -4 -211q-106 3 -193 3h-279q2 54 0 108q20 26 68 95z" />
    <glyph glyph-name="uni01FA" unicode="&#x1fa;" horiz-adv-x="886" 
d="M428 131q33 0 41.5 18.5t-1.5 56.5q-96 2 -193 0q-11 -41 -0.5 -58t40.5 -17h32q-2 -67 0 -133q-106 2 -166 2l-166 -2q2 66 0 133h14q44 0 68 20.5t44 72.5q91 236 180 471q83 -2 130 -2l129 2q95 -265 181 -471q23 -56 44.5 -74.5t51.5 -18.5h14q-2 -66 0 -133
q-153 2 -239 2l-239 -2q2 67 0 133h35zM447 276q-36 105 -74 208q-62 -173 -74 -209q102 0 148 1zM383 962l-7 13q21 36 59 72.5t74 54.5q28 12 51 12t35 -12.5t15 -28.5t-9.5 -35.5t-37.5 -33.5q-38 -21 -89.5 -32.5t-90.5 -9.5zM488 840q0 47 -45 47q-46 0 -46 -47
q0 -49 46 -49q45 0 45 49zM539 840q0 -47 -25 -72t-71 -25q-47 0 -72 25.5t-25 71.5t24.5 71t70.5 25q47 0 72.5 -25t25.5 -71z" />
    <glyph glyph-name="aringacute" unicode="&#x1fb;" horiz-adv-x="582" 
d="M497 278v-96v-15v-28.5t1.5 -17t5 -11t9.5 -2.5q27 0 12 108h41q26 -233 -146 -233q-100 0 -130 65q-45 -65 -148 -65q-56 0 -94 28.5t-38 85.5q0 156 262 160v51q0 43 -15.5 67t-59.5 29q24 -19 24 -56q0 -38 -25.5 -59.5t-70.5 -21.5q-41 0 -64 21.5t-23 61.5
q0 67 64.5 105t161.5 38q129 0 181 -50.5t52 -164.5zM274 109q-2 16 -2 37v70q-22 -2 -31 -12.5t-9 -41.5q0 -33 8 -43.5t23 -10.5zM235 751l-7 13q21 36 59 72.5t74 54.5q28 12 51 12t35 -12.5t15 -28.5t-9.5 -35.5t-37.5 -33.5q-38 -21 -89.5 -32.5t-90.5 -9.5zM336 630
q0 47 -45 47q-46 0 -46 -47q0 -49 46 -49q45 0 45 49zM387 630q0 -47 -25 -72t-71 -25q-47 0 -72 25.5t-25 71.5t24.5 71t70.5 25q47 0 72.5 -25t25.5 -71z" />
    <glyph glyph-name="AEacute" unicode="&#x1fc;" horiz-adv-x="1108" 
d="M600 738l-7 13q21 36 59 72.5t74 54.5q28 12 51 12t35 -12.5t15 -28.5t-9.5 -35.5t-37.5 -33.5q-38 -21 -89.5 -32.5t-90.5 -9.5zM338 296q88 0 127 1q2 140 -7 200q-61 -95 -120 -201zM728 306h-12q0 -64 2 -106q2 -40 17.5 -54.5t50.5 -14.5h58q58 0 81.5 28t23.5 114
v9q72 -4 144 0q-10 -106 -10 -288q-47 4 -225 4q-203 2 -276 2l-199 -2q2 67 0 133h17q34 0 47.5 16t15.5 53l1 31h-159l-3 -7q-39 -93 22 -93h25q-2 -67 0 -133q-108 2 -168 2l-166 -2q2 66 0 133h15q42 0 70.5 21.5t61.5 71.5q113 170 176 275q15 20 6.5 39.5t-41.5 19.5
h-13v136q67 -6 312 -6q33 0 94.5 0.5t138.5 0.5q207 0 254 6q-8 -142 -6 -269q-69 4 -137 0v9q0 41 -8 67.5t-24.5 37.5t-32 14.5t-39.5 3.5h-55q-34 0 -51 -15t-18 -50q-2 -58 -2 -111h12q34 0 45 15t11 59v39h98q-8 -93 -8 -151q0 -69 8 -151q-48 1 -96 0v36
q0 46 -11 61.5t-47 15.5z" />
    <glyph glyph-name="aeacute" unicode="&#x1fd;" horiz-adv-x="788" 
d="M351 528l-7 13q21 36 59 72.5t74 54.5q28 12 51 12t35 -12.5t15 -28.5t-9.5 -35.5t-37.5 -33.5q-38 -21 -89.5 -32.5t-90.5 -9.5zM775 186q4 -94 -54 -148.5t-183 -54.5q-155 0 -220 84q-43 -84 -155 -84q-153 0 -153 127q0 69 68 107.5t194 39.5v64q0 42 -17.5 63.5
t-61.5 19.5q28 -19 28 -56q0 -39 -25 -60t-71 -21q-42 0 -64.5 21.5t-22.5 61.5q0 67 64.5 105t161.5 38q93 0 147 -27q54 27 131 27q129 0 185.5 -77.5t48.5 -208.5h-274q2 -55 13 -77t36 -22q22 0 31.5 18t10.5 60q90 -4 182 0zM535 372q-11 0 -17.5 -7t-11 -33.5
t-4.5 -76.5h39q15 0 19.5 6.5t4.5 24.5q0 37 -4 56.5t-10 24.5t-16 5zM288 122q-14 39 -16 94q-22 -1 -31 -11.5t-9 -42.5q0 -33 8 -43.5t23 -10.5q19 0 25 14z" />
    <glyph glyph-name="Oslashacute" unicode="&#x1fe;" horiz-adv-x="797" 
d="M348 738l-7 13q21 36 59 72.5t74 54.5q28 12 51 12t35 -12.5t15 -28.5t-9.5 -35.5t-37.5 -33.5q-38 -21 -89.5 -32.5t-90.5 -9.5zM399 -15q-143 0 -229 45l-73 -70l-23 18l52 81q-101 86 -101 284q0 362 374 362q140 0 223 -43l80 77l22 -17l-58 -89q106 -85 106 -289
q0 -359 -373 -359zM399 122q52 0 68.5 46t16.5 176q0 55 -1 78l-62 -70l-103 -134q6 -53 24.5 -74.5t56.5 -21.5zM314 276l83 95l82 106q-7 50 -24.5 70t-55.5 20q-52 0 -69 -46.5t-17 -177.5q0 -47 1 -67z" />
    <glyph glyph-name="oslashacute" unicode="&#x1ff;" horiz-adv-x="554" 
d="M227 528l-7 13q21 36 59 72.5t74 54.5q28 12 51 12t35 -12.5t15 -28.5t-9.5 -35.5t-37.5 -33.5q-38 -21 -89.5 -32.5t-90.5 -9.5zM18 235q0 129 67.5 193.5t191.5 64.5q95 0 156 -35l54 57l16 -13l-38 -67q71 -63 71 -202q0 -133 -65 -191.5t-194 -58.5q-88 0 -149 29
l-56 -55l-17 14l38 63q-75 60 -75 201zM239 233v-30l35 40l39 54q-2 44 -10.5 59.5t-26.5 15.5q-21 0 -29 -27t-8 -112zM277 108q22 0 30 23.5t8 101.5v24l-26 -30l-48 -64q4 -33 12 -44t24 -11z" />
    <glyph glyph-name="Scommaaccent" unicode="&#x218;" horiz-adv-x="711" 
d="M282 -260q106 18 121 96q-16 -21 -47 -21q-26 0 -40.5 16.5t-14.5 46.5q0 32 19 50.5t52 18.5q32 0 50.5 -22.5t18.5 -61.5q0 -61 -44.5 -98t-109.5 -45zM367 577q-120 0 -120 -48q0 -23 25.5 -31t108.5 -11q320 -12 320 -243q0 -259 -310 -259q-111 0 -203 45
q-47 24 -57 -35q-15 1 -52 1t-52 -1q10 167 8 230q49 -4 98 0q51 -114 255 -114q111 0 111 48q0 21 -32.5 30t-123.5 14q-158 8 -231 69t-73 173q0 118 75 189t213 71q107 0 189 -42q16 -8 24.5 -10.5t14 3.5t6.5 10.5t6 23.5q13 -2 47 -2t47 2q-6 -109 -3 -203
q-56 5 -100 1q-44 89 -191 89z" />
    <glyph glyph-name="scommaaccent" unicode="&#x219;" horiz-adv-x="525" 
d="M185 -260q106 18 121 96q-16 -21 -47 -21q-26 0 -40.5 16.5t-14.5 46.5q0 32 19 50.5t52 18.5q32 0 50.5 -22.5t18.5 -61.5q0 -61 -44.5 -98t-109.5 -45zM269 402q-66 0 -66 -27q0 -15 21.5 -21t97.5 -12q194 -15 194 -182q0 -82 -54 -129.5t-163 -47.5q-83 0 -151 36
q-52 28 -62 -19q-36 4 -73 0q13 93 13 144q36 -4 73 0q25 -34 69 -55.5t96 -21.5q66 0 66 29q0 14 -17.5 20t-77.5 10q-107 7 -160 54.5t-53 130.5q0 81 60.5 131.5t164.5 50.5q60 0 111 -28q16 -9 26.5 -11.5t17 3t8 9t6.5 16.5q35 -4 71 0q-9 -61 -13 -136q-39 4 -78 0
q-44 56 -127 56z" />
    <glyph glyph-name="uni021A" unicode="&#x21a;" horiz-adv-x="754" 
d="M287 -270q106 18 121 96q-16 -21 -47 -21q-26 0 -40.5 16.5t-14.5 46.5q0 32 19 50.5t52 18.5q32 0 50.5 -22.5t18.5 -61.5q0 -61 -44.5 -98t-109.5 -45zM525 550h-22q-2 -76 -1.5 -201t2.5 -149q5 -69 68 -69h21q-2 -66 0 -133q-138 2 -216 2l-216 -2q2 67 0 133h21
q64 0 69 69q2 28 2 150t-1 200h-23q-34 0 -50 -23.5t-18 -69.5l-4 -75q-69 4 -137 0q6 147 -5 310q68 -4 214 -4h296q144 0 214 4q-11 -163 -5 -310q-68 4 -137 0l-4 75q-2 46 -18 69.5t-50 23.5z" />
    <glyph glyph-name="uni021B" unicode="&#x21b;" horiz-adv-x="383" 
d="M112 -260q106 18 121 96q-16 -21 -47 -21q-26 0 -40.5 16.5t-14.5 46.5q0 32 19 50.5t52 18.5q32 0 50.5 -22.5t18.5 -61.5q0 -61 -44.5 -98t-109.5 -45zM317 216l54 -1q12 -121 -25 -176.5t-143 -55.5q-79 0 -121.5 41t-42.5 117q0 26 3 106.5t3 126.5h-37q2 44 0 89
q75 -1 124 52t63 127q46 -4 91 0q-8 -67 -8 -163l95 3q-2 -55 0 -110l-95 1v-176q0 -38 2.5 -58.5t6.5 -26.5t11 -6q18 0 22 35t-3 75z" />
    <glyph glyph-name="uni0237" unicode="&#x237;" horiz-adv-x="327" 
d="M64 -83q0 -33 -25 -53.5t-64 -11.5q16 -13 43 -13q66 0 71 81q3 68 3 223.5t-2 184.5q-3 44 -38 44h-4q2 54 0 107q232 0 271 3q-3 -59 -3 -180v-275q0 -109 -59 -168t-171 -59q-78 0 -122 27t-44 77q0 79 77 79q32 0 49.5 -17t17.5 -49z" />
    <glyph glyph-name="circumflex" unicode="&#x2c6;" horiz-adv-x="532" 
d="M404 552l-9 -11q-75 8 -144 54q-65 -44 -138 -53l-9 11q26 83 107 152h88q63 -50 105 -153z" />
    <glyph glyph-name="caron" unicode="&#x2c7;" horiz-adv-x="532" 
d="M104 707l9 11q75 -8 144 -54q65 44 138 53l9 -11q-26 -83 -107 -152h-88q-63 50 -105 153z" />
    <glyph glyph-name="breve" unicode="&#x2d8;" horiz-adv-x="532" 
d="M257 554q-77 0 -111.5 40.5t-25.5 104.5l35 1q6 -44 102 -44t102 44l35 -1q9 -64 -25.5 -104.5t-111.5 -40.5z" />
    <glyph glyph-name="dotaccent" unicode="&#x2d9;" horiz-adv-x="532" 
d="M354 631q0 -36 -20 -56.5t-56 -20.5q-35 0 -55 20t-20 57q0 36 20 55.5t55 19.5q36 0 56 -19.5t20 -55.5z" />
    <glyph glyph-name="ring" unicode="&#x2da;" horiz-adv-x="532" 
d="M317 650q0 47 -45 47q-46 0 -46 -47q0 -49 46 -49q45 0 45 49zM368 650q0 -47 -25 -72t-71 -25t-71.5 25.5t-25.5 71.5t24.5 71t70.5 25q47 0 72.5 -25t25.5 -71z" />
    <glyph glyph-name="ogonek" unicode="&#x2db;" horiz-adv-x="532" 
d="M397 -54q6 -65 -21.5 -108.5t-102.5 -43.5q-56 0 -88 24t-32 73q1 62 54 96t124 21v-4q-82 -4 -82 -62q0 -43 48 -43q53 0 60 53z" />
    <glyph glyph-name="tilde" unicode="&#x2dc;" horiz-adv-x="532" 
d="M373 672l33 12q26 -65 -5 -105.5t-91 -40.5q-71 0 -112 65q-14 23 -33 23q-17 0 -24.5 -13.5t4.5 -50.5l-33 -11q-27 66 6 105.5t90 39.5q70 0 112 -65q15 -23 33 -23t25 14.5t-5 49.5z" />
    <glyph glyph-name="hungarumlaut" unicode="&#x2dd;" horiz-adv-x="532" 
d="M112 551l-11 9q9 38 30 79.5t48 66.5q33 31 65 26.5t36 -32t-24 -62.5q-27 -30 -68.5 -54t-75.5 -33zM276 551l-11 9q9 38 30 79.5t48 66.5q33 31 65 26.5t36 -32t-24 -62.5q-27 -30 -68.5 -54t-75.5 -33z" />
    <glyph glyph-name="Wgrave" unicode="&#x1e80;" horiz-adv-x="1181" 
d="M916 -6q-140 4 -279 0q-29 122 -66 266q-39 -144 -69 -266q-124 4 -249 0q-23 104 -69.5 282t-59.5 217q-11 34 -30 50t-57 16h-22q2 65 0 131q145 -2 227 -2q36 0 89 0.5t93 1t44 0.5q-2 -66 0 -131h-18q-27 0 -34 -15.5t-1 -50.5q8 -50 66 -257q56 207 64 257
q5 36 -3 51t-36 15h-14q2 65 0 131q115 -2 180 -2q39 0 109 1t71 1q-2 -66 0 -131h-19q-25 0 -32.5 -14t-0.5 -51q10 -55 67 -263q53 202 62 262q8 31 2.5 48.5t-36.5 17.5h-19q2 65 0 131q93 -2 145 -2q31 0 86 1t59 1q-2 -66 0 -131h-25q-41 0 -62.5 -13t-32.5 -53z
M710 751l-8 -13q-38 -3 -89.5 8.5t-90.5 33.5q-44 24 -47.5 57.5t27 45t77.5 -5.5q35 -17 72 -53.5t59 -72.5z" />
    <glyph glyph-name="wgrave" unicode="&#x1e81;" horiz-adv-x="890" 
d="M460 -7q-22 108 -52 238q-41 -148 -63 -238q-95 4 -191 0q-49 196 -73 281q-18 64 -29.5 81t-37.5 17h-6q2 55 0 110q105 -3 163 -3l162 3q-2 -55 0 -110h-5q-18 0 -23.5 -11t-1.5 -41q4 -32 38 -179q41 150 45 179q4 30 -2.5 41t-28.5 11h-5q2 55 0 110q93 -3 145 -3
l144 3q-2 -55 0 -110h-7q-31 0 -24 -49q3 -27 39 -187q31 134 40 184q5 25 0.5 38.5t-24.5 13.5h-7q2 55 0 110q72 -3 113 -3l113 3q-2 -55 0 -110h-12q-34 0 -48.5 -16.5t-35.5 -81.5l-89 -281q-119 4 -237 0zM555 541l-8 -13q-38 -3 -89.5 8.5t-90.5 33.5
q-44 24 -47.5 57.5t27 45t77.5 -5.5q35 -17 72 -53.5t59 -72.5z" />
    <glyph glyph-name="Wacute" unicode="&#x1e82;" horiz-adv-x="1181" 
d="M569 738l-7 13q21 36 59 72.5t74 54.5q28 12 51 12t35 -12.5t15 -28.5t-9.5 -35.5t-37.5 -33.5q-38 -21 -89.5 -32.5t-90.5 -9.5zM916 -6q-140 4 -279 0q-29 122 -66 266q-39 -144 -69 -266q-124 4 -249 0q-23 104 -69.5 282t-59.5 217q-11 34 -30 50t-57 16h-22
q2 65 0 131q145 -2 227 -2q36 0 89 0.5t93 1t44 0.5q-2 -66 0 -131h-18q-27 0 -34 -15.5t-1 -50.5q8 -50 66 -257q56 207 64 257q5 36 -3 51t-36 15h-14q2 65 0 131q115 -2 180 -2q39 0 109 1t71 1q-2 -66 0 -131h-19q-25 0 -32.5 -14t-0.5 -51q10 -55 67 -263
q53 202 62 262q8 31 2.5 48.5t-36.5 17.5h-19q2 65 0 131q93 -2 145 -2q31 0 86 1t59 1q-2 -66 0 -131h-25q-41 0 -62.5 -13t-32.5 -53z" />
    <glyph glyph-name="wacute" unicode="&#x1e83;" horiz-adv-x="890" 
d="M412 528l-7 13q21 36 59 72.5t74 54.5q28 12 51 12t35 -12.5t15 -28.5t-9.5 -35.5t-37.5 -33.5q-38 -21 -89.5 -32.5t-90.5 -9.5zM460 -7q-22 108 -52 238q-41 -148 -63 -238q-95 4 -191 0q-49 196 -73 281q-18 64 -29.5 81t-37.5 17h-6q2 55 0 110q105 -3 163 -3l162 3
q-2 -55 0 -110h-5q-18 0 -23.5 -11t-1.5 -41q4 -32 38 -179q41 150 45 179q4 30 -2.5 41t-28.5 11h-5q2 55 0 110q93 -3 145 -3l144 3q-2 -55 0 -110h-7q-31 0 -24 -49q3 -27 39 -187q31 134 40 184q5 25 0.5 38.5t-24.5 13.5h-7q2 55 0 110q72 -3 113 -3l113 3
q-2 -55 0 -110h-12q-34 0 -48.5 -16.5t-35.5 -81.5l-89 -281q-119 4 -237 0z" />
    <glyph glyph-name="Wdieresis" unicode="&#x1e84;" horiz-adv-x="1181" 
d="M646 811q0 -30 -18 -46.5t-46 -16.5q-27 0 -45 16.5t-18 46.5t18 47t45 17q28 0 46 -17t18 -47zM821 811q0 -30 -18 -46.5t-46 -16.5t-45.5 16.5t-17.5 46.5t18 47t45 17q28 0 46 -17t18 -47zM916 -6q-140 4 -279 0q-29 122 -66 266q-39 -144 -69 -266q-124 4 -249 0
q-23 104 -69.5 282t-59.5 217q-11 34 -30 50t-57 16h-22q2 65 0 131q145 -2 227 -2q36 0 89 0.5t93 1t44 0.5q-2 -66 0 -131h-18q-27 0 -34 -15.5t-1 -50.5q8 -50 66 -257q56 207 64 257q5 36 -3 51t-36 15h-14q2 65 0 131q115 -2 180 -2q39 0 109 1t71 1q-2 -66 0 -131h-19
q-25 0 -32.5 -14t-0.5 -51q10 -55 67 -263q53 202 62 262q8 31 2.5 48.5t-36.5 17.5h-19q2 65 0 131q93 -2 145 -2q31 0 86 1t59 1q-2 -66 0 -131h-25q-41 0 -62.5 -13t-32.5 -53z" />
    <glyph glyph-name="wdieresis" unicode="&#x1e85;" horiz-adv-x="890" 
d="M464 601q0 -30 -18 -46.5t-46 -16.5q-27 0 -45 16.5t-18 46.5t18 47t45 17q28 0 46 -17t18 -47zM639 601q0 -30 -18 -46.5t-46 -16.5t-45.5 16.5t-17.5 46.5t18 47t45 17q28 0 46 -17t18 -47zM460 -7q-22 108 -52 238q-41 -148 -63 -238q-95 4 -191 0q-49 196 -73 281
q-18 64 -29.5 81t-37.5 17h-6q2 55 0 110q105 -3 163 -3l162 3q-2 -55 0 -110h-5q-18 0 -23.5 -11t-1.5 -41q4 -32 38 -179q41 150 45 179q4 30 -2.5 41t-28.5 11h-5q2 55 0 110q93 -3 145 -3l144 3q-2 -55 0 -110h-7q-31 0 -24 -49q3 -27 39 -187q31 134 40 184
q5 25 0.5 38.5t-24.5 13.5h-7q2 55 0 110q72 -3 113 -3l113 3q-2 -55 0 -110h-12q-34 0 -48.5 -16.5t-35.5 -81.5l-89 -281q-119 4 -237 0z" />
    <glyph glyph-name="uni1E8A" unicode="&#x1e8a;" horiz-adv-x="831" 
d="M321 236l-19 36l-23 -36q-23 -37 -27.5 -62t3.5 -34t22 -9h12q-2 -67 0 -133q-88 2 -137 2l-137 -2q2 66 0 133h19q75 0 115 31.5t91 115.5l31 51q-19 36 -85 147q-30 49 -62.5 66t-81.5 17h-20q2 65 0 131q7 0 105 -1t152 -1l257 2q-2 -66 0 -131h-7q-51 0 -7 -96
q4 -9 27 -51l23 50q16 36 19 58.5t-4 30.5t-20 8h-8q2 65 0 131q80 -2 124 -2l123 2q-4 -66 0 -131h-14q-70 0 -103.5 -24.5t-59.5 -82.5l-46 -103q65 -114 87 -148q24 -38 50 -54t70 -16h26q-2 -66 0 -133q-161 2 -252 2l-252 -2q2 67 0 133h15q12 0 17.5 9.5t0.5 34
t-24 61.5zM511 811q0 -36 -20 -56.5t-56 -20.5q-35 0 -55 20t-20 57q0 36 20 55.5t55 19.5q36 0 56 -19.5t20 -55.5z" />
    <glyph glyph-name="uni1E8B" unicode="&#x1e8b;" horiz-adv-x="627" 
d="M237 165q-14 26 -21 37l-22 -37q-15 -26 -10.5 -41.5t26.5 -15.5h3q-2 -55 0 -110q-65 2 -102 2l-103 -2q2 55 0 110h22q49 0 75 16.5t58 69.5l29 47q-26 44 -48 76q-23 33 -41 44t-63 11h-22q2 55 0 110q131 -2 204 -2l203 2q-2 -55 0 -110h-4q-15 0 -20 -15t10 -44
q10 -21 24 -42l27 41q17 26 11 43t-28 17h-5q2 55 0 110q55 -2 85 -2l84 2q-2 -55 0 -110h-14q-31 0 -47 -12.5t-50 -63.5l-41 -62l45 -71q36 -55 106 -55h11q-2 -55 0 -110q-125 2 -196 2l-196 -2q2 55 0 110h7q33 0 3 57zM419 601q0 -36 -20 -56.5t-56 -20.5q-35 0 -55 20
t-20 57q0 36 20 55.5t55 19.5q36 0 56 -19.5t20 -55.5z" />
    <glyph glyph-name="Ygrave" unicode="&#x1ef2;" horiz-adv-x="879" 
d="M702 480q-31 -56 -119 -243v-47q0 -59 59 -59h27q2 -66 0 -133q-151 2 -236 2l-237 -2q2 67 0 133h30q32 0 41 14t9 45v48q-97 200 -129 259q-35 62 -115 62h-17v131q161 -2 252 -2l251 2v-131h-14q-28 0 -34 -24t15 -81q23 -57 43 -94q23 46 44 94q20 44 16.5 74.5
t-33.5 30.5h-14v131q104 -2 162 -2l161 2v-131h-13q-68 0 -97 -19t-52 -60zM550 751l-8 -13q-38 -3 -89.5 8.5t-90.5 33.5q-44 24 -47.5 57.5t27 45t77.5 -5.5q35 -17 72 -53.5t59 -72.5z" />
    <glyph glyph-name="ygrave" unicode="&#x1ef3;" horiz-adv-x="597" 
d="M398 320q12 52 -25 52h-10q2 55 0 110q72 -3 113 -3l113 3q-3 -37 0 -110h-14q-26 0 -40.5 -13t-24.5 -40q-29 -79 -84 -261q-25 -80 -53 -132t-60 -76.5t-61 -32.5t-69 -8q-64 0 -98.5 27.5t-34.5 79.5q0 41 26.5 68.5t75.5 27.5q42 0 64.5 -20.5t22.5 -58.5
q0 -34 -23 -54.5t-59 -20.5t-61 19q23 -29 66 -29q28 0 49 8.5t34 19t25 36t18.5 43.5t17.5 57q3 11 5 17q-69 1 -159 -1q-13 56 -41.5 157.5t-39.5 133.5q-1 2 -3.5 10t-3 10t-3 8t-4 7.5t-4.5 6t-5.5 5.5t-6.5 3t-9 2.5t-11 0.5h-13q2 55 0 110q108 -3 169 -3l169 3
q2 -55 0 -110h-8q-18 0 -26 -14t-3 -38q7 -40 41 -165q31 100 48 165zM419 541l-8 -13q-38 -3 -89.5 8.5t-90.5 33.5q-44 24 -47.5 57.5t27 45t77.5 -5.5q35 -17 72 -53.5t59 -72.5z" />
    <glyph glyph-name="uni2009" unicode="&#x2009;" horiz-adv-x="105" 
 />
    <glyph glyph-name="endash" unicode="&#x2013;" horiz-adv-x="500" 
d="M10 183q4 67 0 136q240 -4 480 0q-4 -68 0 -136q-240 4 -480 0z" />
    <glyph glyph-name="emdash" unicode="&#x2014;" horiz-adv-x="1000" 
d="M10 183q4 67 0 136q490 -4 980 0q-4 -68 0 -136q-490 4 -980 0z" />
    <glyph glyph-name="quoteleft" unicode="&#x2018;" horiz-adv-x="261" 
d="M206 678q-111 -26 -121 -130q17 33 62 33q33 0 53.5 -21t20.5 -57q0 -37 -23 -61t-67 -24q-42 0 -66.5 28t-24.5 77q0 69 41 117t116 63z" />
    <glyph glyph-name="quoteright" unicode="&#x2019;" horiz-adv-x="261" 
d="M55 440q111 26 121 130q-16 -33 -62 -33q-33 0 -53.5 21t-20.5 57q0 37 23 61t67 24q42 0 66.5 -28t24.5 -77q0 -69 -41 -117t-116 -63z" />
    <glyph glyph-name="quotesinglbase" unicode="&#x201a;" horiz-adv-x="261" 
d="M55 -60q111 26 121 130q-16 -33 -62 -33q-33 0 -53.5 21t-20.5 57q0 37 23 61t67 24q42 0 66.5 -28t24.5 -77q0 -69 -41 -117t-116 -63z" />
    <glyph glyph-name="quotedblleft" unicode="&#x201c;" horiz-adv-x="461" 
d="M206 678q-111 -26 -121 -130q17 33 62 33q33 0 53.5 -21t20.5 -57q0 -37 -23 -61t-67 -24q-42 0 -66.5 28t-24.5 77q0 69 41 117t116 63zM406 678q-111 -26 -121 -130q17 33 62 33q33 0 53.5 -21t20.5 -57q0 -37 -23 -61t-67 -24q-42 0 -66.5 28t-24.5 77q0 69 41 117
t116 63z" />
    <glyph glyph-name="quotedblright" unicode="&#x201d;" horiz-adv-x="463" 
d="M55 440q111 26 121 130q-16 -33 -62 -33q-33 0 -53.5 21t-20.5 57q0 37 23 61t67 24q42 0 66.5 -28t24.5 -77q0 -69 -41 -117t-116 -63zM257 440q111 26 121 130q-16 -33 -62 -33q-33 0 -53.5 21t-20.5 57q0 37 23 61t67 24q42 0 66.5 -28t24.5 -77q0 -69 -41 -117
t-116 -63z" />
    <glyph glyph-name="quotedblbase" unicode="&#x201e;" horiz-adv-x="461" 
d="M55 -60q111 26 121 130q-16 -33 -62 -33q-33 0 -53.5 21t-20.5 57q0 37 23 61t67 24q42 0 66.5 -28t24.5 -77q0 -69 -41 -117t-116 -63zM255 -60q111 26 121 130q-16 -33 -62 -33q-33 0 -53.5 21t-20.5 57q0 37 23 61t67 24q42 0 66.5 -28t24.5 -77q0 -69 -41 -117
t-116 -63z" />
    <glyph glyph-name="dagger" unicode="&#x2020;" 
d="M234 354q48 21 54 121q-17 5 -22 21q-29 -6 -63 -36q-42 -33 -77 -14.5t-35 62.5t35 62.5t77 -14.5q36 -31 63 -36q6 15 22 21q-4 56 -33 91q-36 40 -23 82.5t66 42.5t65.5 -42.5t-24.5 -82.5q-10 -12 -14.5 -19.5t-10 -26t-7.5 -45.5q16 -4 23 -21q11 2 21 7t14.5 8
t14 11.5t11.5 9.5q42 33 77 14.5t35 -62.5t-35 -62.5t-77 14.5l-11 10q-11 9 -14.5 11t-14 7.5t-21.5 7.5q-7 -16 -22 -21q6 -100 54 -121v-43q-28 -13 -40 -49t-12 -108q0 -38 5 -63.5t10.5 -35.5t15.5 -22q36 -41 23 -83t-66 -42t-65.5 42t24.5 83q15 18 22 41.5t7 79.5
q0 72 -12 108t-40 49v43z" />
    <glyph glyph-name="daggerdbl" unicode="&#x2021;" 
d="M234 311v43q48 21 54 121q-17 5 -22 21q-29 -6 -63 -36q-42 -33 -77 -14.5t-35 62.5t35 62.5t77 -14.5q36 -31 63 -36q6 15 22 21q-4 56 -33 91q-36 40 -23 82.5t66 42.5t65.5 -42.5t-24.5 -82.5q-10 -12 -14.5 -19.5t-10 -26t-7.5 -45.5q16 -4 23 -21q11 2 21 7t14.5 8
t14 11.5t11.5 9.5q42 33 77 14.5t35 -62.5t-35 -62.5t-77 14.5l-11 10q-11 9 -14.5 11t-14 7.5t-21.5 7.5q-7 -16 -22 -21q6 -100 54 -121v-43q-48 -21 -54 -121q15 -5 22 -21q11 2 21.5 7.5t14 7.5t14.5 12l11 9q42 33 77 14.5t35 -62.5t-35 -62.5t-77 14.5q-2 1 -11.5 9.5
t-14 11.5t-14.5 8t-21 7q-7 -17 -23 -21q2 -27 7.5 -45.5t10 -26t14.5 -19.5q37 -41 24.5 -83t-65.5 -42t-66 42t23 83q29 35 33 91q-16 6 -22 21q-27 -5 -63 -36q-42 -33 -77 -14.5t-35 62.5t35 62.5t77 -14.5q34 -30 63 -36q5 16 22 21q-6 100 -54 121z" />
    <glyph glyph-name="bullet" unicode="&#x2022;" horiz-adv-x="459" 
d="M419 240q0 -88 -49 -135t-141 -47q-91 0 -140 48.5t-49 137.5t49 137t140 48t140.5 -49t49.5 -140z" />
    <glyph glyph-name="ellipsis" unicode="&#x2026;" horiz-adv-x="984" 
d="M278 92q0 -50 -29.5 -78t-84.5 -28q-53 0 -83.5 27t-30.5 80q0 47 32 77t82 30q55 0 84.5 -30.5t29.5 -77.5zM606 92q0 -50 -29.5 -78t-84.5 -28q-53 0 -83.5 27t-30.5 80q0 47 32 77t82 30q55 0 84.5 -30.5t29.5 -77.5zM934 92q0 -50 -29.5 -78t-84.5 -28
q-53 0 -83.5 27t-30.5 80q0 47 32 77t82 30q55 0 84.5 -30.5t29.5 -77.5z" />
    <glyph glyph-name="perthousand" unicode="&#x2030;" horiz-adv-x="923" 
d="M89 85q0 10 10 10t10 -10t-10 -10t-10 10zM125 139q0 6 4.5 11t11.5 5t11.5 -5t4.5 -11q0 -7 -4.5 -12t-11.5 -5t-11.5 5t-4.5 12zM161 192q0 9 6.5 15.5t15.5 6.5t15.5 -6.5t6.5 -15.5t-6.5 -15.5t-15.5 -6.5t-15.5 6.5t-6.5 15.5zM199 246q0 10 7.5 17.5t18.5 7.5
t18.5 -7.5t7.5 -17.5q0 -11 -7.5 -18.5t-18.5 -7.5t-18.5 7.5t-7.5 18.5zM238 299q0 12 8.5 20.5t20.5 8.5t20.5 -8.5t8.5 -20.5t-8.5 -20.5t-20.5 -8.5t-20.5 8.5t-8.5 20.5zM279 353q0 12 9 20.5t21 8.5t21 -8.5t9 -20.5q0 -13 -9 -21.5t-21 -8.5t-21 8.5t-9 21.5z
M322 406q0 12 8.5 20.5t20.5 8.5t20.5 -8.5t8.5 -20.5t-8.5 -20.5t-20.5 -8.5t-20.5 8.5t-8.5 20.5zM367 460q0 10 7.5 17.5t18.5 7.5t18.5 -7.5t7.5 -17.5q0 -11 -7.5 -18.5t-18.5 -7.5t-18.5 7.5t-7.5 18.5zM413 513q0 9 6.5 15.5t15.5 6.5t15.5 -6.5t6.5 -15.5
t-6.5 -15.5t-15.5 -6.5t-15.5 6.5t-6.5 15.5zM461 567q0 6 4.5 11t11.5 5t11.5 -5t4.5 -11q0 -7 -4.5 -12t-11.5 -5t-11.5 5t-4.5 12zM509 620q0 10 10 10t10 -10t-10 -10t-10 10zM414 32q8 0 12.5 6t7.5 28.5t3 63.5t-3 63t-7.5 28t-12.5 6t-12.5 -6t-8 -28t-3.5 -63
q0 -42 3 -64t8 -28t13 -6zM414 -29q-71 0 -109.5 35.5t-38.5 123.5q0 86 42 123t106 37q71 0 109.5 -36t38.5 -124q0 -86 -41.5 -122.5t-106.5 -36.5zM737 32q8 0 12.5 6t7.5 28.5t3 63.5t-3 63t-7.5 28t-12.5 6t-12.5 -6t-8 -28t-3.5 -63q0 -42 3 -64t8 -28t13 -6zM737 -29
q-71 0 -109.5 35.5t-38.5 123.5q0 86 42 123t106 37q71 0 109.5 -36t38.5 -124q0 -86 -41.5 -122.5t-106.5 -36.5zM186 457q8 0 12.5 6t7.5 28.5t3 63.5t-3 63t-7.5 28t-12.5 6t-12.5 -6t-8 -28t-3.5 -63q0 -42 3 -64t8 -28t13 -6zM186 396q-71 0 -109.5 35.5t-38.5 123.5
q0 86 42 123t106 37q71 0 109.5 -36t38.5 -124q0 -86 -41.5 -122.5t-106.5 -36.5z" />
    <glyph glyph-name="guilsinglleft" unicode="&#x2039;" horiz-adv-x="296" 
d="M233 432l13 -11q-3 -37 -21 -86t-43 -87q52 -78 63 -165l-13 -11q-109 86 -182 138v86q69 54 183 136z" />
    <glyph glyph-name="guilsinglright" unicode="&#x203a;" horiz-adv-x="296" 
d="M50 421l13 11q114 -82 183 -136v-86q-73 -53 -182 -138l-13 11q11 87 63 165q-25 38 -43 87t-21 86z" />
    <glyph glyph-name="fraction" unicode="&#x2044;" horiz-adv-x="150" 
d="M-222 -32q0 11 11 11t11 -11t-11 -11t-11 11zM-183 24q0 16 16 16t16 -16t-16 -16t-16 16zM-144 80q0 9 6.5 15t14.5 6t14.5 -6t6.5 -15q0 -8 -6.5 -14.5t-14.5 -6.5t-14.5 6.5t-6.5 14.5zM-104 136q0 10 7 17.5t18 7.5t18 -7.5t7 -17.5t-7 -17.5t-18 -7.5t-18 7.5
t-7 17.5zM-63 192q0 12 8 20.5t20 8.5t20 -8.5t8 -20.5q0 -11 -8 -19.5t-20 -8.5t-20 8.5t-8 19.5zM-22 248q0 13 9 22t22 9t22 -9t9 -22t-9 -21.5t-22 -8.5t-22 8.5t-9 21.5zM21 304q0 14 9.5 23t22.5 9t22.5 -9t9.5 -23q0 -13 -9.5 -22.5t-22.5 -9.5t-22.5 9.5t-9.5 22.5z
M65 361q0 13 9.5 22.5t22.5 9.5t22.5 -9.5t9.5 -22.5t-9.5 -22.5t-22.5 -9.5t-22.5 9.5t-9.5 22.5zM110 417q0 13 9 21.5t22 8.5t22 -8.5t9 -21.5t-9 -22t-22 -9t-22 9t-9 22zM157 473q0 11 8 19.5t20 8.5t20 -8.5t8 -19.5q0 -12 -8 -20.5t-20 -8.5t-20 8.5t-8 20.5z
M204 529q0 11 7 18t18 7t18 -7t7 -18t-7 -18t-18 -7t-18 7t-7 18zM252 585q0 8 6.5 14.5t14.5 6.5t14.5 -6.5t6.5 -14.5q0 -9 -6.5 -15t-14.5 -6t-14.5 6t-6.5 15zM301 641q0 16 16 16t16 -16t-16 -16t-16 16zM350 697q0 11 11 11t11 -11t-11 -11t-11 11z" />
    <glyph glyph-name="Euro" unicode="&#x20ac;" horiz-adv-x="623" 
d="M20 458l33 -1q49 228 294 228q118 0 185 -46t67 -127q0 -46 -26.5 -72t-72.5 -26q-43 0 -67 20.5t-24 56.5t25.5 57t69.5 21l17 -1q-31 18 -70 18q-54 0 -83 -29t-44 -101l57 2q-6 -48 0 -97l-66 2v-37l66 2q-6 -48 0 -97l-61 2q10 -82 39.5 -112.5t82.5 -30.5
q51 0 79 16q-10 -1 -17 -1q-45 0 -70.5 22t-25.5 61q0 41 25.5 64.5t70.5 23.5q47 0 73 -30t26 -83q0 -86 -68 -134.5t-188 -48.5q-258 0 -298 252l-29 -1q2 49 0 97l22 -1v35l-22 -1q2 49 0 97z" />
    <glyph glyph-name="uni2116" unicode="&#x2116;" horiz-adv-x="1130" 
d="M1062 92q0 -50 -29.5 -78t-84.5 -28q-53 0 -83.5 27t-30.5 80q0 47 32 77t82 30q55 0 84.5 -30.5t29.5 -77.5zM948 279q42 0 62.5 27.5t20.5 90.5t-20.5 90t-62.5 27t-63 -27t-21 -90t20.5 -90.5t63.5 -27.5zM948 238q-71 0 -109.5 41t-38.5 118t38.5 118.5t109.5 41.5
t109.5 -41.5t38.5 -118.5t-38.5 -118t-109.5 -41zM365 690q104 -178 228 -362q0 132 -1 153q-4 78 -66 78h-38q2 65 0 131q104 -3 162 -3l162 3q-2 -66 0 -131h-19q-62 0 -66 -78q-2 -42 -2 -200t2 -282q-116 4 -233 0q-105 174 -256 409q-2 -152 1 -199q5 -78 68 -78h40
q-2 -67 0 -133q-106 2 -166 2l-166 -2q2 66 0 133h21q63 0 68 78q2 33 2 142.5t-2 138.5q-2 30 -20.5 49.5t-47.5 19.5h-20q2 65 0 131q175 -4 349 0z" />
    <glyph glyph-name="trademark" unicode="&#x2122;" horiz-adv-x="716" 
d="M701 624h-10q-21 0 -23 -26q-2 -32 0 -78q1 -18 5 -24t17 -6h11q-1 -10 -1 -33t1 -33q-59 1 -89 1l-87 -1v66h9q22 0 23 30v47q-9 -18 -31 -51t-29 -47h-23q-13 20 -64 96v-45q2 -30 27 -30h10q-1 -10 -1 -33t1 -33q-39 1 -61 1l-66 -1q1 10 1 33t-1 33h14q22 0 24 30
q2 40 0 77q-2 27 -25 27h-13q2 32 0 64q76 -2 153 0q19 -37 50 -78q19 27 46 78q65 -2 132 0q-2 -32 0 -64zM101 687h118q28 0 55.5 0.5t29.5 0.5q-5 -74 -1 -134q-30 2 -61 0l-1 26q-1 18 -5 24.5t-17 6.5h-7q-2 -76 1 -94q2 -27 27 -27h9v-66q-58 1 -89 1l-89 -1
q1 10 1 33t-1 33h10q24 0 27 27q2 24 0 94h-7q-14 0 -18 -6.5t-5 -24.5l-1 -26q-29 2 -60 0q2 70 -2 134q21 -1 86 -1z" />
    <glyph glyph-name="onethird" unicode="&#x2153;" horiz-adv-x="378" 
d="M6 344q0 25 26 25q10 0 17.5 -7.5t7.5 -17.5q0 -26 -25 -26q-26 0 -26 26zM72 344q0 22 23 22q22 0 22 -22q0 -23 -22 -23q-23 0 -23 23zM137 344q0 20 21 20q8 0 14 -6t6 -14q0 -21 -20 -21q-21 0 -21 21zM200 344q0 20 21 20q8 0 14 -6t6 -14q0 -21 -20 -21
q-21 0 -21 21zM261 344q0 22 23 22q22 0 22 -22q0 -23 -22 -23q-23 0 -23 23zM321 344q0 25 26 25q11 0 18 -7.5t7 -17.5q0 -26 -25 -26q-26 0 -26 26zM94 466q30 0 30 29v92l-53 -1q2 34 0 68h18q88 0 96 56q41 -4 81 0q-8 -84 -8 -143v-72q0 -29 31 -29h26q-2 -31 0 -63
q-80 2 -125 2l-126 -2q2 31 0 63h30zM324 204q0 -54 -70 -71q79 -13 79 -72q0 -49 -41 -70t-120 -21q-61 0 -93.5 22t-31.5 60q1 23 17.5 36.5t42.5 13.5q25 0 39 -10.5t14 -28.5t-16.5 -30t-45.5 -11q14 -7 34 -7q54 0 54 49q0 22 -14.5 34.5t-40.5 12.5h-7v35h8
q24 0 39 13t15 36q0 43 -49 43q-29 0 -42 -16q11 4 28 4q42 0 42 -33q0 -16 -13.5 -26.5t-37.5 -10.5q-26 0 -41.5 13t-15.5 38q0 41 37.5 62t97.5 21q61 0 96.5 -24t35.5 -62z" />
    <glyph glyph-name="twothirds" unicode="&#x2154;" horiz-adv-x="378" 
d="M6 344q0 25 26 25q10 0 17.5 -7.5t7.5 -17.5q0 -26 -25 -26q-26 0 -26 26zM72 344q0 22 23 22q22 0 22 -22q0 -23 -22 -23q-23 0 -23 23zM137 344q0 20 21 20q8 0 14 -6t6 -14q0 -21 -20 -21q-21 0 -21 21zM200 344q0 20 21 20q8 0 14 -6t6 -14q0 -21 -20 -21
q-21 0 -21 21zM261 344q0 22 23 22q22 0 22 -22q0 -23 -22 -23q-23 0 -23 23zM321 344q0 25 26 25q11 0 18 -7.5t7 -17.5q0 -26 -25 -26q-26 0 -26 26zM316 524q17 -20 19 -49.5t-20 -54.5t-67 -25q-44 0 -95 28q-45 25 -71 12q22 -2 22 -19q0 -21 -26 -21q-34 0 -34 44
q0 19 7.5 36t15 27t25.5 24t24 18t27 16q42 24 42 57q0 46 -50 46q-29 0 -43 -17q14 6 31 6q44 0 44 -35q0 -40 -55 -40q-26 0 -41 13.5t-15 37.5q0 44 37.5 65.5t94.5 21.5q69 0 102.5 -24.5t33.5 -64.5q0 -23 -8.5 -40t-18.5 -27t-31 -18t-32.5 -11t-36.5 -8
q-4 -1 -15.5 -3.5t-16.5 -3.5t-15 -3.5t-15.5 -4.5t-13 -5.5t-13 -7t-10.5 -8.5q37 26 106 10q41 -11 62 -6t17 29zM324 204q0 -54 -70 -71q79 -13 79 -72q0 -49 -41 -70t-120 -21q-61 0 -93.5 22t-31.5 60q1 23 17.5 36.5t42.5 13.5q25 0 39 -10.5t14 -28.5t-16.5 -30
t-45.5 -11q14 -7 34 -7q54 0 54 49q0 22 -14.5 34.5t-40.5 12.5h-7v35h8q24 0 39 13t15 36q0 43 -49 43q-29 0 -42 -16q11 4 28 4q42 0 42 -33q0 -16 -13.5 -26.5t-37.5 -10.5q-26 0 -41.5 13t-15.5 38q0 41 37.5 62t97.5 21q61 0 96.5 -24t35.5 -62z" />
    <glyph glyph-name="oneeighth" unicode="&#x215b;" horiz-adv-x="378" 
d="M6 344q0 25 26 25q10 0 17.5 -7.5t7.5 -17.5q0 -26 -25 -26q-26 0 -26 26zM72 344q0 22 23 22q22 0 22 -22q0 -23 -22 -23q-23 0 -23 23zM137 344q0 20 21 20q8 0 14 -6t6 -14q0 -21 -20 -21q-21 0 -21 21zM200 344q0 20 21 20q8 0 14 -6t6 -14q0 -21 -20 -21
q-21 0 -21 21zM261 344q0 22 23 22q22 0 22 -22q0 -23 -22 -23q-23 0 -23 23zM321 344q0 25 26 25q11 0 18 -7.5t7 -17.5q0 -26 -25 -26q-26 0 -26 26zM94 466q30 0 30 29v92l-53 -1q2 34 0 68h18q88 0 96 56q41 -4 81 0q-8 -84 -8 -143v-72q0 -29 31 -29h26q-2 -31 0 -63
q-80 2 -125 2l-126 -2q2 31 0 63h30zM318 222q0 -31 -31 -48q54 -25 54 -85q0 -57 -42 -87.5t-116 -30.5q-146 0 -146 69q0 38 52 51q-47 28 -47 85q0 53 38 83.5t111 30.5q61 0 94 -18.5t33 -49.5zM155 71l-28 5q-9 -10 -9 -27q0 -31 63 -31q68 0 68 23q0 11 -13.5 15.5
t-66.5 12.5q-9 1 -14 2zM189 247q-21 0 -36 -6.5t-15 -18.5t13.5 -16.5t68.5 -12.5l20 -4q5 10 5 22q0 36 -56 36z" />
    <glyph glyph-name="threeeighths" unicode="&#x215c;" horiz-adv-x="378" 
d="M6 344q0 25 26 25q10 0 17.5 -7.5t7.5 -17.5q0 -26 -25 -26q-26 0 -26 26zM72 344q0 22 23 22q22 0 22 -22q0 -23 -22 -23q-23 0 -23 23zM137 344q0 20 21 20q8 0 14 -6t6 -14q0 -21 -20 -21q-21 0 -21 21zM200 344q0 20 21 20q8 0 14 -6t6 -14q0 -21 -20 -21
q-21 0 -21 21zM261 344q0 22 23 22q22 0 22 -22q0 -23 -22 -23q-23 0 -23 23zM321 344q0 25 26 25q11 0 18 -7.5t7 -17.5q0 -26 -25 -26q-26 0 -26 26zM324 629q0 -55 -70 -72q79 -13 79 -71q0 -49 -41 -70t-120 -21q-61 0 -93.5 22t-31.5 60q1 23 16.5 36.5t41.5 13.5
q25 0 40 -11t15 -28q0 -42 -62 -41q14 -7 34 -7q54 0 54 49q0 22 -14.5 34.5t-40.5 12.5h-7v35h8q24 0 39 13t15 36q0 43 -49 43q-28 0 -42 -16q11 4 28 4q42 0 42 -33q0 -16 -13.5 -26.5t-37.5 -10.5q-26 0 -41.5 13t-15.5 38q0 41 37.5 62t97.5 21q61 0 96.5 -24t35.5 -62
zM318 222q0 -31 -31 -48q54 -25 54 -85q0 -57 -42 -87.5t-116 -30.5q-146 0 -146 69q0 38 52 51q-47 28 -47 85q0 53 38 83.5t111 30.5q61 0 94 -18.5t33 -49.5zM155 71l-28 5q-9 -10 -9 -27q0 -31 63 -31q68 0 68 23q0 11 -13.5 15.5t-66.5 12.5q-9 1 -14 2zM189 247
q-21 0 -36 -6.5t-15 -18.5t13.5 -16.5t68.5 -12.5l20 -4q5 10 5 22q0 36 -56 36z" />
    <glyph glyph-name="fiveeighths" unicode="&#x215d;" horiz-adv-x="378" 
d="M6 344q0 25 26 25q10 0 17.5 -7.5t7.5 -17.5q0 -26 -25 -26q-26 0 -26 26zM72 344q0 22 23 22q22 0 22 -22q0 -23 -22 -23q-23 0 -23 23zM137 344q0 20 21 20q8 0 14 -6t6 -14q0 -21 -20 -21q-21 0 -21 21zM200 344q0 20 21 20q8 0 14 -6t6 -14q0 -21 -20 -21
q-21 0 -21 21zM261 344q0 22 23 22q22 0 22 -22q0 -23 -22 -23q-23 0 -23 23zM321 344q0 25 26 25q11 0 18 -7.5t7 -17.5q0 -26 -25 -26q-26 0 -26 26zM118 542q-24 0 -42 -7l-14 14q37 57 31 164q21 -7 104 -7q89 0 122 12l4 -51q-31 -56 -116 -56q-51 0 -93 18
q-4 -31 -17 -53q40 19 109 19q129 0 129 -94q0 -50 -41 -77.5t-117 -27.5q-64 0 -98.5 20t-34.5 57q0 58 59 58q53 0 53 -40q0 -46 -61 -40q15 -10 33 -10q53 0 53 51q0 50 -63 50zM318 222q0 -31 -31 -48q54 -25 54 -85q0 -57 -42 -87.5t-116 -30.5q-146 0 -146 69
q0 38 52 51q-47 28 -47 85q0 53 38 83.5t111 30.5q61 0 94 -18.5t33 -49.5zM155 71l-28 5q-9 -10 -9 -27q0 -31 63 -31q68 0 68 23q0 11 -13.5 15.5t-66.5 12.5q-9 1 -14 2zM189 247q-21 0 -36 -6.5t-15 -18.5t13.5 -16.5t68.5 -12.5l20 -4q5 10 5 22q0 36 -56 36z" />
    <glyph glyph-name="seveneighths" unicode="&#x215e;" horiz-adv-x="378" 
d="M6 344q0 25 26 25q10 0 17.5 -7.5t7.5 -17.5q0 -26 -25 -26q-26 0 -26 26zM72 344q0 22 23 22q22 0 22 -22q0 -23 -22 -23q-23 0 -23 23zM137 344q0 20 21 20q8 0 14 -6t6 -14q0 -21 -20 -21q-21 0 -21 21zM200 344q0 20 21 20q8 0 14 -6t6 -14q0 -21 -20 -21
q-21 0 -21 21zM261 344q0 22 23 22q22 0 22 -22q0 -23 -22 -23q-23 0 -23 23zM321 344q0 25 26 25q11 0 18 -7.5t7 -17.5q0 -26 -25 -26q-26 0 -26 26zM90 719l9 -27q12 25 50 25q31 0 79 -38q42 -34 79 -13q-17 -3 -29 3.5t-12 21.5q0 29 33 29q38 0 38 -48t-40 -82
q-21 -17 -30 -36t-8.5 -39.5t0.5 -48.5q1 -38 -24.5 -54t-63.5 -16q-78 0 -78 62q0 51 36 77t115 54q-37 -10 -73 -3q-72 15 -70 -21q-5 1 -24.5 1t-24.5 -1q3 29 -1 154q5 -1 19.5 -1t19.5 1zM318 222q0 -31 -31 -48q54 -25 54 -85q0 -57 -42 -87.5t-116 -30.5
q-146 0 -146 69q0 38 52 51q-47 28 -47 85q0 53 38 83.5t111 30.5q61 0 94 -18.5t33 -49.5zM155 71l-28 5q-9 -10 -9 -27q0 -31 63 -31q68 0 68 23q0 11 -13.5 15.5t-66.5 12.5q-9 1 -14 2zM189 247q-21 0 -36 -6.5t-15 -18.5t13.5 -16.5t68.5 -12.5l20 -4q5 10 5 22
q0 36 -56 36z" />
    <glyph glyph-name="minus" unicode="&#x2212;" 
d="M80 193q4 57 0 116q220 -4 440 0q-4 -58 0 -116q-220 4 -440 0z" />
    <glyph glyph-name="notequal" unicode="&#x2260;" 
d="M80 283q3 50 0 101q126 -2 245 -2l34 108q14 -4 29 0l-36 -108q78 0 168 2q-3 -50 0 -101q-53 1 -199 1q-10 -27 -22 -67q105 0 221 2q-3 -50 0 -101q-65 1 -251 1l-37 -119q-14 4 -29 0q7 20 20 60t19 59q-119 0 -162 -1q3 50 0 101q102 -2 194 -2l21 67q-159 0 -215 -1
z" />
    <glyph glyph-name="lessequal" unicode="&#x2264;" 
d="M140 215v68q183 104 279 173l42 -89q-80 -34 -230 -118q161 -90 230 -118l-15 -31q52 0 74 1q-3 -50 0 -101q-220 4 -440 0q3 50 0 101q130 -2 253 -2q-106 67 -193 116z" />
    <glyph glyph-name="greaterequal" unicode="&#x2265;" 
d="M461 283v-68q-99 -55 -193 -116q122 0 252 2q-3 -50 0 -101q-220 4 -440 0q3 50 0 101q21 -1 74 -1l-14 31q69 28 230 118q-150 84 -230 118l42 89q96 -69 279 -173z" />
    <glyph glyph-name="space_uni0326" horiz-adv-x="210" 
d="M26 186q106 18 121 96q-16 -21 -47 -21q-26 0 -40.5 16.5t-14.5 46.5q0 32 19 50.5t52 18.5q32 0 50.5 -22.5t18.5 -61.5q0 -61 -44.5 -98t-109.5 -45z" />
    <glyph glyph-name="dotlessI" horiz-adv-x="428" 
d="M17 -3q2 67 0 134h21q27 0 36.5 14.5t12.5 44.5q2 26 2 153.5t-2 156.5q-2 30 -14 44.5t-38 14.5h-18q2 65 0 131q127 -2 198 -2l197 2q-2 -66 0 -131h-19q-26 0 -38 -14.5t-14 -44.5q-2 -29 -2 -156.5t2 -153.5q5 -59 49 -59h21q-2 -67 0 -134q-126 3 -197 3z" />
    <glyph glyph-name="Jacute" horiz-adv-x="593" 
d="M226 152q0 -38 -22 -63.5t-62 -31.5q12 -2 24 -2q47 0 70.5 27.5t26.5 108.5q2 56 2 168.5t-2 140.5q-2 30 -13.5 44.5t-38.5 14.5h-27q2 65 0 131q126 -2 197 -2l197 2q-2 -66 0 -131h-9q-26 0 -39 -12.5t-13 -46.5v-299q0 -104 -73 -160t-207 -56q-109 0 -168 40
t-59 115q0 52 30.5 82.5t84.5 30.5q47 0 74.5 -27t26.5 -74zM326 738l-7 13q21 36 59 72.5t74 54.5q28 12 51 12t35 -12.5t15 -28.5t-9.5 -35.5t-37.5 -33.5q-38 -21 -89.5 -32.5t-90.5 -9.5z" />
    <glyph glyph-name="idotaccent" horiz-adv-x="334" 
d="M282 618q0 -57 -30 -87.5t-86 -30.5t-85.5 30.5t-29.5 87.5q0 56 30 86t85 30q56 0 86 -30t30 -86zM280 481q-2 -52 -2.5 -178t1.5 -148q2 -25 11 -36t31 -11h5q-2 -55 0 -110q-102 2 -159 2l-159 -2q2 55 0 110h4q22 0 30.5 10.5t10.5 36.5t2 86t-1 87q-1 25 -10 34.5
t-28 9.5h-8q2 54 0 107q36 0 139.5 1t132.5 1z" />
    <glyph glyph-name="jacute" horiz-adv-x="328" 
d="M64 -83q0 -33 -25 -53.5t-64 -11.5q16 -13 43 -13q66 0 71 81q3 68 3 223.5t-2 184.5q-3 44 -38 44h-4q2 54 0 107q232 0 271 3q-3 -59 -3 -180v-275q0 -109 -59 -168t-171 -59q-78 0 -122 27t-44 77q0 79 77 79q32 0 49.5 -17t17.5 -49zM151 528l-7 13q21 36 59 72.5
t74 54.5q28 12 51 12t35 -12.5t15 -28.5t-9.5 -35.5t-37.5 -33.5q-38 -21 -89.5 -32.5t-90.5 -9.5z" />
    <glyph glyph-name="C.round" horiz-adv-x="724" 
d="M355 710q177 0 224 -88q15 30 21 68q54 -4 108 0q-11 -84 -20 -267q-31 1 -93 1t-93 -1q0 136 -87 136q-37 0 -57 -14.5t-32.5 -62t-12.5 -136.5q0 -68 7.5 -113t22.5 -66t31 -28.5t40 -7.5q42 0 67.5 34t21.5 105q32 -2 102.5 -2t102.5 2q4 -159 -73 -222t-280 -63
q-160 0 -245 83t-85 278q0 178 90 271t240 93z" />
    <glyph glyph-name="G.round" horiz-adv-x="772" 
d="M413 131q83 0 83 96q0 29 -9.5 42.5t-32.5 13.5h-29v94q116 -3 176 -3l166 3q-1 -47 0 -94h-17q-21 0 -28 -11.5t-7 -41.5q0 -126 18 -230q-71 4 -143 0q-8 28 -24 69q-27 -40 -82 -62t-127 -22q-76 0 -133.5 17t-104 56.5t-70.5 111.5t-24 176q0 179 88.5 271.5
t241.5 92.5q171 0 222 -95q11 25 22 75q63 -4 109 0q-11 -84 -20 -267q-109 5 -186 0q0 69 -20.5 102.5t-67.5 33.5q-36 0 -56.5 -14.5t-33 -63t-12.5 -139.5q0 -87 16 -136t36 -62t49 -13z" />
    <glyph glyph-name="S.round" horiz-adv-x="711" 
d="M357 577q-58 0 -84 -14t-26 -34q0 -23 25.5 -31t108.5 -11q320 -12 320 -243q0 -259 -310 -259q-158 0 -235 80q-14 -28 -25 -70q-15 1 -52 1t-52 -1q10 167 8 230q49 -4 98 0q51 -114 255 -114q111 0 111 48q0 21 -32.5 30t-123.5 14q-161 8 -232.5 70t-71.5 181
q0 120 80.5 185.5t207.5 65.5q144 0 213 -69q11 18 27 54q13 -2 47 -2t47 2q-6 -109 -3 -203q-17 1 -50 1t-49 -1q-46 90 -202 90z" />
    <glyph glyph-name="s.round" horiz-adv-x="525" 
d="M396 346q-21 27 -57 41.5t-70 14.5q-66 0 -66 -27q0 -15 21.5 -21t97.5 -12q194 -15 194 -182q0 -82 -54 -129.5t-163 -47.5q-128 0 -183 59q-10 -10 -30 -42q-36 4 -73 0q13 93 13 144q36 -4 73 0q25 -34 69 -55.5t96 -21.5q66 0 66 29q0 14 -17.5 20t-77.5 10
q-107 7 -160 54.5t-53 130.5q0 81 60.5 131.5t164.5 50.5q98 0 140 -53q22 26 29 42q35 -4 71 0q-9 -61 -13 -136q-39 4 -78 0z" />
    <glyph glyph-name="Cacute.round" horiz-adv-x="724" 
d="M316 738l-7 13q21 36 59 72.5t74 54.5q28 12 51 12t35 -12.5t15 -28.5t-9.5 -35.5t-37.5 -33.5q-38 -21 -89.5 -32.5t-90.5 -9.5zM355 710q177 0 224 -88q15 30 21 68q54 -4 108 0q-11 -84 -20 -267q-31 1 -93 1t-93 -1q0 136 -87 136q-37 0 -57 -14.5t-32.5 -62
t-12.5 -136.5q0 -68 7.5 -113t22.5 -66t31 -28.5t40 -7.5q42 0 67.5 34t21.5 105q32 -2 102.5 -2t102.5 2q4 -159 -73 -222t-280 -63q-160 0 -245 83t-85 278q0 178 90 271t240 93z" />
    <glyph glyph-name="Ccaron.round" horiz-adv-x="724" 
d="M226 897l9 11q75 -8 144 -54q65 44 138 53l9 -11q-26 -83 -107 -152h-88q-63 50 -105 153zM355 710q177 0 224 -88q15 30 21 68q54 -4 108 0q-11 -84 -20 -267q-31 1 -93 1t-93 -1q0 136 -87 136q-37 0 -57 -14.5t-32.5 -62t-12.5 -136.5q0 -68 7.5 -113t22.5 -66
t31 -28.5t40 -7.5q42 0 67.5 34t21.5 105q32 -2 102.5 -2t102.5 2q4 -159 -73 -222t-280 -63q-160 0 -245 83t-85 278q0 178 90 271t240 93z" />
    <glyph glyph-name="Ccedilla.round" horiz-adv-x="724" 
d="M355 710q177 0 224 -88q15 30 21 68q54 -4 108 0q-11 -84 -20 -267q-31 1 -93 1t-93 -1q0 136 -87 136q-37 0 -57 -14.5t-32.5 -62t-12.5 -136.5q0 -68 7.5 -113t22.5 -66t31 -28.5t40 -7.5q42 0 67.5 34t21.5 105q32 -2 102.5 -2t102.5 2q3 -151 -66 -215t-247 -69
q-2 -27 -19 -46q44 1 74.5 -20t30.5 -61q0 -42 -32.5 -67.5t-89.5 -25.5q-81 0 -124 56l25 26q29 -32 64 -32q50 0 50 46q0 25 -20 35t-55 -2l-12 28q53 15 66 62q-159 1 -243.5 83.5t-84.5 277.5q0 178 90 271t240 93z" />
    <glyph glyph-name="Ccircumflex.round" horiz-adv-x="724" 
d="M516 742l-9 -11q-75 8 -144 54q-65 -44 -138 -53l-9 11q26 83 107 152h88q63 -50 105 -153zM355 710q177 0 224 -88q15 30 21 68q54 -4 108 0q-11 -84 -20 -267q-31 1 -93 1t-93 -1q0 136 -87 136q-37 0 -57 -14.5t-32.5 -62t-12.5 -136.5q0 -68 7.5 -113t22.5 -66
t31 -28.5t40 -7.5q42 0 67.5 34t21.5 105q32 -2 102.5 -2t102.5 2q4 -159 -73 -222t-280 -63q-160 0 -245 83t-85 278q0 178 90 271t240 93z" />
    <glyph glyph-name="Cdotaccent.round" horiz-adv-x="724" 
d="M355 710q177 0 224 -88q15 30 21 68q54 -4 108 0q-11 -84 -20 -267q-31 1 -93 1t-93 -1q0 136 -87 136q-37 0 -57 -14.5t-32.5 -62t-12.5 -136.5q0 -68 7.5 -113t22.5 -66t31 -28.5t40 -7.5q42 0 67.5 34t21.5 105q32 -2 102.5 -2t102.5 2q4 -159 -73 -222t-280 -63
q-160 0 -245 83t-85 278q0 178 90 271t240 93zM452 821q0 -36 -20 -56.5t-56 -20.5q-35 0 -55 20t-20 57q0 36 20 55.5t55 19.5q36 0 56 -19.5t20 -55.5z" />
    <glyph glyph-name="Gbreve.round" horiz-adv-x="772" 
d="M413 131q83 0 83 96q0 29 -9.5 42.5t-32.5 13.5h-29v94q116 -3 176 -3l166 3q-1 -47 0 -94h-17q-21 0 -28 -11.5t-7 -41.5q0 -126 18 -230q-71 4 -143 0q-8 28 -24 69q-27 -40 -82 -62t-127 -22q-76 0 -133.5 17t-104 56.5t-70.5 111.5t-24 176q0 179 88.5 271.5
t241.5 92.5q171 0 222 -95q11 25 22 75q63 -4 109 0q-11 -84 -20 -267q-109 5 -186 0q0 69 -20.5 102.5t-67.5 33.5q-36 0 -56.5 -14.5t-33 -63t-12.5 -139.5q0 -87 16 -136t36 -62t49 -13zM366 739q-77 0 -111.5 40.5t-25.5 104.5l35 1q6 -44 102 -44t102 44l35 -1
q9 -64 -25.5 -104.5t-111.5 -40.5z" />
    <glyph glyph-name="Gcircumflex.round" horiz-adv-x="772" 
d="M526 742l-9 -11q-75 8 -144 54q-65 -44 -138 -53l-9 11q26 83 107 152h88q63 -50 105 -153zM413 131q83 0 83 96q0 29 -9.5 42.5t-32.5 13.5h-29v94q116 -3 176 -3l166 3q-1 -47 0 -94h-17q-21 0 -28 -11.5t-7 -41.5q0 -126 18 -230q-71 4 -143 0q-8 28 -24 69
q-27 -40 -82 -62t-127 -22q-76 0 -133.5 17t-104 56.5t-70.5 111.5t-24 176q0 179 88.5 271.5t241.5 92.5q171 0 222 -95q11 25 22 75q63 -4 109 0q-11 -84 -20 -267q-109 5 -186 0q0 69 -20.5 102.5t-67.5 33.5q-36 0 -56.5 -14.5t-33 -63t-12.5 -139.5q0 -87 16 -136
t36 -62t49 -13z" />
    <glyph glyph-name="Gcommaaccent.round" horiz-adv-x="772" 
d="M257 -260q106 18 121 96q-16 -21 -47 -21q-26 0 -40.5 16.5t-14.5 46.5q0 32 19 50.5t52 18.5q32 0 50.5 -22.5t18.5 -61.5q0 -61 -44.5 -98t-109.5 -45zM413 131q83 0 83 96q0 29 -9.5 42.5t-32.5 13.5h-29v94q116 -3 176 -3l166 3q-1 -47 0 -94h-17q-21 0 -28 -11.5
t-7 -41.5q0 -126 18 -230q-71 4 -143 0q-8 28 -24 69q-27 -40 -82 -62t-127 -22q-76 0 -133.5 17t-104 56.5t-70.5 111.5t-24 176q0 179 88.5 271.5t241.5 92.5q171 0 222 -95q11 25 22 75q63 -4 109 0q-11 -84 -20 -267q-109 5 -186 0q0 69 -20.5 102.5t-67.5 33.5
q-36 0 -56.5 -14.5t-33 -63t-12.5 -139.5q0 -87 16 -136t36 -62t49 -13z" />
    <glyph glyph-name="Gdotaccent.round" horiz-adv-x="772" 
d="M413 131q83 0 83 96q0 29 -9.5 42.5t-32.5 13.5h-29v94q116 -3 176 -3l166 3q-1 -47 0 -94h-17q-21 0 -28 -11.5t-7 -41.5q0 -126 18 -230q-71 4 -143 0q-8 28 -24 69q-27 -40 -82 -62t-127 -22q-76 0 -133.5 17t-104 56.5t-70.5 111.5t-24 176q0 179 88.5 271.5
t241.5 92.5q171 0 222 -95q11 25 22 75q63 -4 109 0q-11 -84 -20 -267q-109 5 -186 0q0 69 -20.5 102.5t-67.5 33.5q-36 0 -56.5 -14.5t-33 -63t-12.5 -139.5q0 -87 16 -136t36 -62t49 -13zM442 821q0 -36 -20 -56.5t-56 -20.5q-35 0 -55 20t-20 57q0 36 20 55.5t55 19.5
q36 0 56 -19.5t20 -55.5z" />
    <glyph glyph-name="Sacute.round" horiz-adv-x="711" 
d="M351 738l-7 13q21 36 59 72.5t74 54.5q28 12 51 12t35 -12.5t15 -28.5t-9.5 -35.5t-37.5 -33.5q-38 -21 -89.5 -32.5t-90.5 -9.5zM357 577q-58 0 -84 -14t-26 -34q0 -23 25.5 -31t108.5 -11q320 -12 320 -243q0 -259 -310 -259q-158 0 -235 80q-14 -28 -25 -70
q-15 1 -52 1t-52 -1q10 167 8 230q49 -4 98 0q51 -114 255 -114q111 0 111 48q0 21 -32.5 30t-123.5 14q-161 8 -232.5 70t-71.5 181q0 120 80.5 185.5t207.5 65.5q144 0 213 -69q11 18 27 54q13 -2 47 -2t47 2q-6 -109 -3 -203q-17 1 -50 1t-49 -1q-46 90 -202 90z" />
    <glyph glyph-name="Scaron.round" horiz-adv-x="711" 
d="M201 897l9 11q75 -8 144 -54q65 44 138 53l9 -11q-26 -83 -107 -152h-88q-63 50 -105 153zM357 577q-58 0 -84 -14t-26 -34q0 -23 25.5 -31t108.5 -11q320 -12 320 -243q0 -259 -310 -259q-158 0 -235 80q-14 -28 -25 -70q-15 1 -52 1t-52 -1q10 167 8 230q49 -4 98 0
q51 -114 255 -114q111 0 111 48q0 21 -32.5 30t-123.5 14q-161 8 -232.5 70t-71.5 181q0 120 80.5 185.5t207.5 65.5q144 0 213 -69q11 18 27 54q13 -2 47 -2t47 2q-6 -109 -3 -203q-17 1 -50 1t-49 -1q-46 90 -202 90z" />
    <glyph glyph-name="Scedilla.round" horiz-adv-x="711" 
d="M357 577q-58 0 -84 -14t-26 -34q0 -23 25.5 -31t108.5 -11q320 -12 320 -243q0 -251 -293 -259q-1 -24 -19 -45q44 1 74.5 -20t30.5 -61q0 -42 -32.5 -67.5t-89.5 -25.5q-81 0 -124 56l25 26q29 -32 64 -32q50 0 50 46q0 25 -20.5 35t-54.5 -2l-12 28q53 15 66 63
q-141 6 -210 79q-14 -28 -25 -70q-15 1 -52 1t-52 -1q10 167 8 230q49 -4 98 0q51 -114 255 -114q111 0 111 48q0 21 -32.5 30t-123.5 14q-161 8 -232.5 70t-71.5 181q0 120 80.5 185.5t207.5 65.5q144 0 213 -69q11 18 27 54q13 -2 47 -2t47 2q-6 -109 -3 -203q-17 1 -50 1
t-49 -1q-46 90 -202 90z" />
    <glyph glyph-name="Scircumflex.round" horiz-adv-x="711" 
d="M491 742l-9 -11q-75 8 -144 54q-65 -44 -138 -53l-9 11q26 83 107 152h88q63 -50 105 -153zM357 577q-58 0 -84 -14t-26 -34q0 -23 25.5 -31t108.5 -11q320 -12 320 -243q0 -259 -310 -259q-158 0 -235 80q-14 -28 -25 -70q-15 1 -52 1t-52 -1q10 167 8 230q49 -4 98 0
q51 -114 255 -114q111 0 111 48q0 21 -32.5 30t-123.5 14q-161 8 -232.5 70t-71.5 181q0 120 80.5 185.5t207.5 65.5q144 0 213 -69q11 18 27 54q13 -2 47 -2t47 2q-6 -109 -3 -203q-17 1 -50 1t-49 -1q-46 90 -202 90z" />
    <glyph glyph-name="Scommaaccent.round" horiz-adv-x="711" 
d="M282 -260q106 18 121 96q-16 -21 -47 -21q-26 0 -40.5 16.5t-14.5 46.5q0 32 19 50.5t52 18.5q32 0 50.5 -22.5t18.5 -61.5q0 -61 -44.5 -98t-109.5 -45zM357 577q-58 0 -84 -14t-26 -34q0 -23 25.5 -31t108.5 -11q320 -12 320 -243q0 -259 -310 -259q-158 0 -235 80
q-14 -28 -25 -70q-15 1 -52 1t-52 -1q10 167 8 230q49 -4 98 0q51 -114 255 -114q111 0 111 48q0 21 -32.5 30t-123.5 14q-161 8 -232.5 70t-71.5 181q0 120 80.5 185.5t207.5 65.5q144 0 213 -69q11 18 27 54q13 -2 47 -2t47 2q-6 -109 -3 -203q-17 1 -50 1t-49 -1
q-46 90 -202 90z" />
    <glyph glyph-name="sacute.round" horiz-adv-x="525" 
d="M214 528l-7 13q21 36 59 72.5t74 54.5q28 12 51 12t35 -12.5t15 -28.5t-9.5 -35.5t-37.5 -33.5q-38 -21 -89.5 -32.5t-90.5 -9.5zM396 346q-21 27 -57 41.5t-70 14.5q-66 0 -66 -27q0 -15 21.5 -21t97.5 -12q194 -15 194 -182q0 -82 -54 -129.5t-163 -47.5
q-128 0 -183 59q-10 -10 -30 -42q-36 4 -73 0q13 93 13 144q36 -4 73 0q25 -34 69 -55.5t96 -21.5q66 0 66 29q0 14 -17.5 20t-77.5 10q-107 7 -160 54.5t-53 130.5q0 81 60.5 131.5t164.5 50.5q98 0 140 -53q22 26 29 42q35 -4 71 0q-9 -61 -13 -136q-39 4 -78 0z" />
    <glyph glyph-name="scaron.round" horiz-adv-x="525" 
d="M124 687l9 11q75 -8 144 -54q65 44 138 53l9 -11q-26 -83 -107 -152h-88q-63 50 -105 153zM396 346q-21 27 -57 41.5t-70 14.5q-66 0 -66 -27q0 -15 21.5 -21t97.5 -12q194 -15 194 -182q0 -82 -54 -129.5t-163 -47.5q-128 0 -183 59q-10 -10 -30 -42q-36 4 -73 0
q13 93 13 144q36 -4 73 0q25 -34 69 -55.5t96 -21.5q66 0 66 29q0 14 -17.5 20t-77.5 10q-107 7 -160 54.5t-53 130.5q0 81 60.5 131.5t164.5 50.5q98 0 140 -53q22 26 29 42q35 -4 71 0q-9 -61 -13 -136q-39 4 -78 0z" />
    <glyph glyph-name="scedilla.round" horiz-adv-x="525" 
d="M203 -105l-12 28q53 15 66 62q-97 9 -141 57q-10 -10 -30 -42q-36 4 -73 0q13 93 13 144q36 -4 73 0q25 -34 69 -55.5t96 -21.5q66 0 66 29q0 14 -17.5 20t-77.5 10q-107 7 -160 54.5t-53 130.5q0 81 60.5 131.5t164.5 50.5q98 0 140 -53q22 26 29 42q35 -4 71 0
q-9 -61 -13 -136q-39 4 -78 0q-21 27 -57 41.5t-70 14.5q-66 0 -66 -27q0 -15 21.5 -21t97.5 -12q194 -15 194 -182q0 -82 -54 -129.5t-163 -47.5q-3 -26 -19 -43q44 1 74.5 -20t30.5 -61q0 -42 -32.5 -67.5t-89.5 -25.5q-81 0 -124 56l25 26q29 -32 64 -32q50 0 50 46
q0 25 -20 35t-55 -2z" />
    <glyph glyph-name="scircumflex.round" horiz-adv-x="525" 
d="M414 532l-9 -11q-75 8 -144 54q-65 -44 -138 -53l-9 11q26 83 107 152h88q63 -50 105 -153zM396 346q-21 27 -57 41.5t-70 14.5q-66 0 -66 -27q0 -15 21.5 -21t97.5 -12q194 -15 194 -182q0 -82 -54 -129.5t-163 -47.5q-128 0 -183 59q-10 -10 -30 -42q-36 4 -73 0
q13 93 13 144q36 -4 73 0q25 -34 69 -55.5t96 -21.5q66 0 66 29q0 14 -17.5 20t-77.5 10q-107 7 -160 54.5t-53 130.5q0 81 60.5 131.5t164.5 50.5q98 0 140 -53q22 26 29 42q35 -4 71 0q-9 -61 -13 -136q-39 4 -78 0z" />
    <glyph glyph-name="scommaaccent.round" horiz-adv-x="525" 
d="M185 -260q106 18 121 96q-16 -21 -47 -21q-26 0 -40.5 16.5t-14.5 46.5q0 32 19 50.5t52 18.5q32 0 50.5 -22.5t18.5 -61.5q0 -61 -44.5 -98t-109.5 -45zM396 346q-21 27 -57 41.5t-70 14.5q-66 0 -66 -27q0 -15 21.5 -21t97.5 -12q194 -15 194 -182q0 -82 -54 -129.5
t-163 -47.5q-128 0 -183 59q-10 -10 -30 -42q-36 4 -73 0q13 93 13 144q36 -4 73 0q25 -34 69 -55.5t96 -21.5q66 0 66 29q0 14 -17.5 20t-77.5 10q-107 7 -160 54.5t-53 130.5q0 81 60.5 131.5t164.5 50.5q98 0 140 -53q22 26 29 42q35 -4 71 0q-9 -61 -13 -136
q-39 4 -78 0z" />
    <glyph glyph-name="f.shy" horiz-adv-x="336" 
d="M8 479l45 -1q-1 25 -1 31q0 80 47 135.5t138 55.5q73 0 111 -31.5t39 -82.5q1 -80 -76 -80q-34 0 -53 18t-19 51q0 51 48 64q-52 -4 -66 -51.5t25 -110.5l72 2q-2 -54 0 -107l-42 1q-2 -194 2 -226q4 -39 34 -39h11q-2 -55 0 -110q-100 2 -157 2l-158 -2q2 55 0 110h10
q16 0 24 9t10 30q4 37 2 227l-46 -2q2 54 0 107z" />
    </font>
</defs>
</svg>
