<?xml version="1.0" standalone="no"?>
<!DOCTYPE svg PUBLIC "-//W3C//DTD SVG 1.1//EN" "http://www.w3.org/Graphics/SVG/1.1/DTD/svg11.dtd" >
<svg>
<metadata>
Created by FontForge 20110222 at Mon Apr 21 12:07:49 2014
 By Orthosie Webhosting
(C)2010 House Industries/Brand Design Co., Inc. All Rights Reserved.
</metadata>
<defs>
<font id="EamesCenturyModernBlackItalic" horiz-adv-x="600" >
  <font-face 
    font-family="EamesCenturyModernBlackItalic"
    font-weight="900"
    font-style="italic"
    font-stretch="normal"
    units-per-em="1000"
    panose-1="2 0 10 3 7 7 5 2 2 3"
    ascent="820"
    descent="-180"
    x-height="493"
    cap-height="689"
    bbox="-222 -280 1226 1105.14"
    underline-thickness="50"
    underline-position="-50"
    slope="-8"
    unicode-range="U+0020-FB04"
  />
<missing-glyph horiz-adv-x="500" 
 />
    <glyph glyph-name="f_f" unicode="ff" horiz-adv-x="705" 
d="M715 646q-39 0 -63.5 -39.5t-43.5 -139.5l101 3l-13 -57l-96 2l-6 -40q-79 -575 -350 -575q-58 0 -90 25.5t-26 64.5q-77 -90 -185 -90q-60 0 -92 27.5t-23 67.5q5 25 24 40t46 15q30 0 45 -19t7 -45q-6 -20 -25.5 -30.5t-42.5 -9.5q8 -3 18 -3q23 0 41 10t32.5 34.5
t25 52.5t21 78.5t18.5 96t19 121.5q14 95 40 178l-61 -2l11 58l70 -3q54 132 130 187.5t149 55.5q110 0 136 -69q76 69 165 69q78 0 113 -34t28 -86q-13 -86 -91 -86q-37 0 -56.5 20.5t-14.5 51.5q5 25 24.5 42.5t54.5 16.5q-20 11 -40 11zM293 375q-40 -291 -127 -431
q15 6 33 6q30 0 45 -19t7 -45q-6 -20 -25.5 -30.5t-42.5 -9.5q7 -3 18 -3q23 0 41 10t32.5 34.5t25 52.5t21 78.5t18.5 96t19 121.5q14 101 41 182h-100zM414 646q-39 0 -64 -40t-43 -141h109l18 39q-32 4 -48 24t-11 48q5 25 24.5 42.5t54.5 16.5q-20 11 -40 11z" />
    <glyph glyph-name="f_i" unicode="fi" horiz-adv-x="636" 
d="M424 646q-45 0 -71 -36.5t-46 -144.5q169 0 299 7q-26 -121 -66 -327q-10 -60 -5 -69q2 -4 7 -4q24 0 43 134h42q-11 -101 -56.5 -166t-122.5 -65q-81 0 -104.5 51.5t2.5 186.5l41 200l-88 2l-6 -40q-79 -575 -350 -575q-60 0 -92 27.5t-23 67.5q5 25 24 40t46 15
q30 0 45 -19t7 -45q-6 -20 -25.5 -30.5t-42.5 -9.5q8 -3 18 -3q23 0 41 10t32.5 34.5t25 52.5t21 78.5t18.5 96t19 121.5q14 95 40 178l-61 -2l11 58l70 -3q54 132 130 187.5t149 55.5q92 0 130 -33.5t31 -86.5q-13 -86 -91 -86q-37 0 -56.5 20.5t-14.5 51.5q5 25 24.5 42.5
t53.5 16.5q-22 11 -49 11z" />
    <glyph glyph-name="f_l" unicode="fl" horiz-adv-x="674" 
d="M424 646q-44 0 -70 -35.5t-47 -142.5l78 2l-13 -58l-73 2l-6 -39q-79 -575 -350 -575q-60 0 -92 27.5t-23 67.5q5 25 24 40t46 15q30 0 45 -19t7 -45q-6 -20 -25.5 -30.5t-42.5 -9.5q8 -3 18 -3q23 0 41 10t32.5 34.5t25 52.5t21 78.5t18.5 96t19 121.5q14 95 40 178
l-61 -2l11 58l70 -3q54 132 130 187.5t149 55.5q66 0 109 -20h172q0 -80 -18 -156q-52 -226 -84 -396q-6 -28 -6 -43t3 -19t9 -4q10 0 21 39t18 95h42q-11 -104 -57.5 -167.5t-136.5 -63.5q-80 0 -104.5 47.5t1.5 168.5q37 160 71 317q-23 7 -34.5 26t-6.5 42
q5 25 24.5 42.5t53.5 16.5q-22 11 -49 11z" />
    <glyph glyph-name="f_f_i" unicode="ffi" horiz-adv-x="937" 
d="M725 646q-45 0 -71 -36.5t-46 -144.5q169 0 299 7q-26 -121 -66 -327q-10 -60 -5 -69q2 -4 7 -4q24 0 43 134h42q-11 -101 -56.5 -166t-122.5 -65q-81 0 -104.5 51.5t2.5 186.5l41 200l-88 2l-6 -40q-79 -575 -350 -575q-58 0 -90 25.5t-26 64.5q-77 -90 -185 -90
q-60 0 -92 27.5t-23 67.5q5 25 24 40t46 15q30 0 45 -19t7 -45q-6 -20 -25.5 -30.5t-42.5 -9.5q8 -3 18 -3q23 0 41 10t32.5 34.5t25 52.5t21 78.5t18.5 96t19 121.5q14 95 40 178l-61 -2l11 58l69 -3q28 69 65 119.5t75.5 76t72.5 36.5t67 11q110 0 136 -69q76 69 165 69
q92 0 130 -33.5t31 -86.5q-13 -86 -91 -86q-37 0 -56.5 20.5t-14.5 51.5q5 25 24.5 42.5t53.5 16.5q-22 11 -49 11zM358 236q14 99 41 181h-100l-6 -42q-40 -291 -127 -431q15 6 33 6q30 0 45 -19t7 -45q-6 -20 -25.5 -30.5t-42.5 -9.5q7 -3 18 -3q23 0 41 10t32.5 34.5
t25 52.5t21 78.5t18.5 96t19 121.5zM414 646q-39 0 -64 -40t-43 -141h109l18 39q-32 4 -48 24t-11 48q5 25 24.5 42.5t54.5 16.5q-20 11 -40 11z" />
    <glyph glyph-name="f_f_l" unicode="ffl" horiz-adv-x="954" 
d="M36 412l11 58l70 -3q54 132 130 187.5t149 55.5q110 0 136 -69q76 69 165 69q66 0 109 -20h151q0 -80 -18 -156q-52 -226 -84 -396q-6 -28 -6.5 -43t2.5 -19t9 -4q10 0 21 39t18 95h42q-11 -104 -57.5 -167.5t-136.5 -63.5q-80 0 -104.5 47.5t2.5 168.5q6 24 73 327
q-28 20 -22 58q5 25 24.5 42.5t53.5 16.5q-22 11 -49 11q-44 0 -70 -36t-47 -143l72 3l-13 -57l-67 2l-6 -40q-79 -575 -350 -575q-58 0 -90 25.5t-26 64.5q-77 -90 -185 -90q-60 0 -92 27.5t-23 67.5q5 25 24 40t46 15q30 0 45 -19t7 -45q-6 -20 -25.5 -30.5t-42.5 -9.5
q8 -3 18 -3q23 0 41 10t32.5 34.5t25 52.5t21 78.5t18.5 96t19 121.5q14 95 40 178zM358 236q14 101 41 182h-100l-6 -43q-40 -291 -127 -431q15 6 33 6q30 0 45 -19t7 -45q-6 -20 -25.5 -30.5t-42.5 -9.5q7 -3 18 -3q23 0 41 10t32.5 34.5t25 52.5t21 78.5t18.5 96
t19 121.5zM414 646q-39 0 -64 -40t-43 -141h109l18 39q-32 4 -48 24t-11 48q5 25 24.5 42.5t54.5 16.5q-20 11 -40 11z" />
    <glyph glyph-name="f_j" unicode="fj" horiz-adv-x="603" 
d="M424 646q-45 0 -71 -36.5t-46 -144.5q169 0 299 7q-3 -11 -16 -78t-32 -164.5t-31 -156.5q-28 -137 -91.5 -187t-183.5 -50q-45 0 -77.5 16t-43.5 42q-79 -94 -188 -94q-60 0 -92 27.5t-23 67.5q5 25 24 40t46 15q30 0 45 -19t7 -45q-6 -20 -25.5 -30.5t-42.5 -9.5
q8 -3 18 -3q23 0 41 10t32.5 34.5t25 52.5t21 78.5t18.5 96t19 121.5q14 95 40 178l-61 -2l11 58l70 -3q54 132 130 187.5t149 55.5q92 0 130 -33.5t31 -86.5q-13 -86 -91 -86q-37 0 -56.5 20.5t-14.5 51.5q5 25 24.5 42.5t53.5 16.5q-22 11 -49 11zM200 -121q40 0 65 30
t33.5 61.5t23.5 109.5q5 26 8 40l57 293l-88 2l-6 -40q-35 -251 -103 -389h8q30 0 45 -19t7 -45q-6 -20 -26 -30.5t-42 -9.5q6 -3 18 -3z" />
    <glyph glyph-name="f_t" unicode="ft" horiz-adv-x="689" 
d="M36 412l11 58l70 -3q54 132 130 187.5t149 55.5q78 0 113 -34t28 -86q-13 -86 -91 -86q-37 0 -56.5 20.5t-14.5 51.5q5 25 24.5 42.5t54.5 16.5q-20 11 -40 11q-39 0 -63.5 -40t-43.5 -141l63 1q106 1 150.5 27.5t62.5 98.5h65l-24 -124l76 2l-10 -57l-76 1
q-28 -158 -36 -217q-11 -83 -11 -104t15 -21q9 0 21 38.5t19 95.5h42q-9 -103 -56.5 -167t-137.5 -64q-156 0 -129 168q5 32 24 133.5t25 136.5h-92l-5 -38q-79 -575 -350 -575q-60 0 -92 27.5t-23 67.5q5 25 24 40t46 15q30 0 45 -19t7 -45q-6 -20 -25.5 -30.5t-42.5 -9.5
q8 -3 18 -3q23 0 41 10t32.5 34.5t25 52.5t21 78.5t18.5 96t19 121.5q14 96 40 176h-61z" />
    <glyph glyph-name="t_t" unicode="tt" horiz-adv-x="740" 
d="M673 206h42q-9 -103 -56.5 -167t-137.5 -64q-156 0 -129 168q5 27 23.5 128.5t25.5 142.5h-121q-28 -158 -36 -217q-11 -83 -11 -104t15 -21q27 0 30 114h42q-4 -50 -13 -84t-28 -65t-55 -46.5t-88 -15.5q-156 0 -129 168q5 32 24.5 135t24.5 135h-27l7 57q68 0 110 20
t59.5 48t34.5 80h74l-25 -148h92q68 0 110 20t59.5 48t34.5 80h74l-25 -150l77 2l-10 -57h-76q-29 -160 -36 -216q-11 -83 -11 -104t15 -21q9 0 21 38.5t19 95.5z" />
    <glyph glyph-name=".notdef" horiz-adv-x="500" 
 />
    <glyph glyph-name=".null" horiz-adv-x="0" 
 />
    <glyph glyph-name="nonmarkingreturn" horiz-adv-x="333" 
 />
    <glyph glyph-name="space" unicode=" " horiz-adv-x="200" 
 />
    <glyph glyph-name="exclam" unicode="!" horiz-adv-x="432" 
d="M276 75q-3 -46 -32 -72t-82 -26q-49 0 -74.5 25.5t-21.5 75.5q3 45 33 73t78 28q53 0 77.5 -28.5t21.5 -75.5zM216 244q-4 -19 -8.5 -24.5t-14.5 -4.5q-11 2 -13.5 9.5t0.5 25.5q9 53 8.5 91t-5 55t-20 55.5t-23.5 62.5q-27 78 7 137t121 59q65 0 98 -39t27 -93.5
t-45 -100.5q-17 -19 -46.5 -49.5t-39 -44.5t-23.5 -49.5t-23 -89.5z" />
    <glyph glyph-name="quotedbl" unicode="&#x22;" horiz-adv-x="358" 
d="M112 401q-5 -18 -18 -18q-17 0 -11 18q40 115 33 181q-7 56 12 87.5t54 31.5q40 -1 39.5 -46t-39.5 -91q-37 -45 -70 -163zM262 401q-5 -18 -18 -18q-17 0 -11 18q40 115 33 181q-7 56 12 87.5t54 31.5q40 -1 39.5 -46t-39.5 -91q-37 -45 -70 -163z" />
    <glyph glyph-name="numbersign" unicode="#" horiz-adv-x="588" 
d="M128 0h-40q18 56 63 211q-25 0 -65.5 -0.5t-54.5 -0.5q2 5 8 27t6 23q62 -2 120 -2l45 160q-29 0 -75 -0.5t-61 -0.5q2 5 8 27t6 23q70 -2 135 -2q39 140 59 223h42q-29 -84 -71 -223h149q46 172 58 223h42q-32 -97 -70 -223q54 0 116 2l-13 -50q-14 0 -53.5 0.5
t-63.5 0.5l-46 -160q59 0 123 2l-13 -50q-14 0 -55.5 0.5t-67.5 0.5q-36 -133 -53 -211h-40q32 101 64 211h-150q-30 -111 -52 -211zM239 418q-11 -38 -46 -160h151l45 160h-150z" />
    <glyph glyph-name="dollar" unicode="$" 
d="M228 -99h-51l23 116q-99 11 -146.5 52.5t-38.5 95.5q13 56 77 56q34 0 51.5 -19t12.5 -47q-4 -19 -17 -33q31 -13 79 -19l23 113q-93 17 -140.5 81t-34.5 155q13 94 78 154.5t163 74.5l13 106h52l-20 -102q12 0 26 -0.5t18 -0.5l13 103h51l-20 -108q73 -11 110.5 -43.5
t30.5 -79.5q-5 -33 -26.5 -50t-52.5 -17q-35 0 -52.5 18t-11.5 50q3 15 13 29l-28 6l-21 -113q197 -26 171 -238q-27 -195 -240 -223l-16 -117h-53l22 113q-22 -2 -43 0zM341 483q20 0 29 -1l15 115q-31 2 -50 0l-21 -114h27zM255 101q22 -1 49 1l22 109q-9 1 -28 1t-28 1z
M222 538q-5 -22 10 -35t52 -17l12 106q-65 -15 -74 -54zM416 163q3 21 -9.5 31.5t-48.5 14.5l-13 -102q64 14 71 56z" />
    <glyph glyph-name="percent" unicode="%" 
d="M110 130q0 10 10 10t10 -10t-10 -10t-10 10zM146 179q0 16 16 16t16 -16t-16 -16t-16 16zM182 228q0 9 6.5 15.5t15.5 6.5t15.5 -6.5t6.5 -15.5t-6.5 -15.5t-15.5 -6.5t-15.5 6.5t-6.5 15.5zM220 277q0 11 8 18.5t18 7.5t18 -7.5t8 -18.5t-8 -18.5t-18 -7.5t-18 7.5
t-8 18.5zM259 326q0 12 8.5 20.5t20.5 8.5t20.5 -8.5t8.5 -20.5t-8.5 -20.5t-20.5 -8.5t-20.5 8.5t-8.5 20.5zM300 375q0 12 9 21t21 9t21 -9t9 -21t-9 -21t-21 -9t-21 9t-9 21zM343 424q0 12 8.5 20.5t20.5 8.5t20.5 -8.5t8.5 -20.5t-8.5 -20.5t-20.5 -8.5t-20.5 8.5
t-8.5 20.5zM388 473q0 11 8 18.5t18 7.5t18 -7.5t8 -18.5t-8 -18.5t-18 -7.5t-18 7.5t-8 18.5zM434 522q0 9 6.5 15.5t15.5 6.5t15.5 -6.5t6.5 -15.5t-6.5 -15.5t-15.5 -6.5t-15.5 6.5t-6.5 15.5zM482 571q0 16 16 16t16 -16t-16 -16t-16 16zM530 620q0 10 10 10t10 -10
t-10 -10t-10 10zM371 35q20 0 37 95q18 100 -1 100q-11 0 -20 -20.5t-20 -79.5q-18 -95 4 -95zM361 -29q-26 0 -48 6.5t-43 22.5t-29.5 49.5t-0.5 80.5q17 92 63 126t113 34q146 0 119 -160q-16 -92 -61.5 -125.5t-112.5 -33.5zM190 464q20 0 37 95q18 100 -1 100
q-11 0 -20 -20.5t-20 -79.5q-18 -95 4 -95zM180 400q-26 0 -48 6.5t-43 22.5t-29.5 49.5t-0.5 80.5q17 92 63 126t113 34q146 0 119 -160q-16 -92 -61.5 -125.5t-112.5 -33.5z" />
    <glyph glyph-name="ampersand" unicode="&#x26;" horiz-adv-x="840" 
d="M784 165q-22 -103 -76.5 -142.5t-158.5 -39.5q-62 0 -102.5 15.5t-75.5 54.5q-66 -70 -195 -70q-91 0 -136 53t-35 133q11 79 69 132t135 72q-19 72 -9 141q13 93 73.5 139.5t161.5 46.5q99 0 147 -47t37 -120q-9 -65 -49 -114.5t-95 -80.5q4 -9 22 -38l59 -97
q24 27 29 54q5 39 -28 39h-13q8 31 11 76q77 -2 120 -2l120 2q-8 -31 -11 -76h-29q-22 0 -36 -10t-31 -38q-41 -65 -88 -99q18 -14 48 -14q37 0 56 40zM433 530q-9 -55 9 -116q35 46 46 118q7 52 -21 52q-27 0 -34 -54zM232 244q-7 -47 20.5 -86t73.5 -44q-21 35 -38 69
q-23 42 -45 92q-8 -13 -11 -31z" />
    <glyph glyph-name="quotesingle" unicode="'" horiz-adv-x="208" 
d="M112 401q-5 -18 -18 -18q-17 0 -11 18q40 115 33 181q-7 56 12 87.5t54 31.5q40 -1 39.5 -46t-39.5 -91q-37 -45 -70 -163z" />
    <glyph glyph-name="parenleft" unicode="(" horiz-adv-x="370" 
d="M249 331q-29 -207 -25 -300t45 -156l-60 -44q-69 29 -107 82t-53 156.5t10 261.5q32 231 103 344t188 156l48 -44q-57 -61 -89.5 -162t-59.5 -294z" />
    <glyph glyph-name="parenright" unicode=")" horiz-adv-x="370" 
d="M119 331q27 188 23 291.5t-44 164.5l60 44q69 -29 107 -82t53.5 -156.5t-9.5 -261.5q-33 -231 -104 -344t-188 -156l-47 44q58 63 89 156.5t60 299.5z" />
    <glyph glyph-name="asterisk" unicode="*" horiz-adv-x="500" 
d="M328 582q-18 -17 -23 -45l11 -8q30 12 40 33q2 3 5.5 11t6.5 13.5t8 12t12.5 11.5t16.5 9q27 11 52.5 1.5t35.5 -35.5q11 -28 -2.5 -51t-39.5 -33q-21 -4 -30.5 -3.5t-27 7t-19.5 6.5q-22 7 -51 -3l-2 -12q26 -20 50 -19q3 0 12.5 1t15 1t14 -1t16.5 -4.5t16 -10.5
q23 -18 27.5 -44t-13.5 -49q-19 -23 -47 -23t-47 18q-9 7 -15 18t-8 19.5t-4 19.5t-3 14q-5 22 -27 43l-13 -6q-4 -31 10 -51l9 -13.5t9.5 -15.5t6.5 -18.5t0 -23.5q-5 -29 -25.5 -45.5t-48.5 -12.5q-29 4 -43 27t-9 51q2 11 8.5 22t12.5 16.5t16 13.5t11 9q16 14 23 44
l-11 9q-29 -12 -40 -33q-2 -3 -5.5 -11t-6.5 -13.5t-8 -12t-12.5 -11.5t-16.5 -9q-27 -11 -52.5 -1.5t-35.5 36.5q-11 28 2.5 50.5t39.5 32.5q21 4 30.5 3.5t27 -7t19.5 -6.5q22 -7 51 3l2 12q-26 19 -50 19q-3 0 -12.5 -1t-15 -1t-14 1t-16.5 4.5t-16 10.5q-23 18 -27.5 44
t13.5 49q19 23 47 23t47 -18q9 -7 15 -18t8 -19.5t4 -19.5t3 -14q4 -24 28 -44l11 5q4 33 -9 53l-9 13.5t-9.5 15.5t-6.5 18.5t0 23.5q5 29 25.5 45.5t48.5 12.5q29 -4 43 -27t9 -51q-2 -11 -8.5 -22t-12.5 -16.5t-16 -13.5t-11 -9z" />
    <glyph glyph-name="plus" unicode="+" 
d="M296 26h-115q20 100 47 181q-93 -14 -182 -14l20 115q89 0 176 -14q1 84 18 179h115q-16 -89 -45 -179q92 14 182 14l-20 -115q-91 0 -178 14q-3 -85 -18 -181z" />
    <glyph glyph-name="comma" unicode="," horiz-adv-x="282" 
d="M86 37q-32 0 -51 19.5t-16 51.5q4 44 31 68t68 24q42 0 64.5 -27t16.5 -73q-10 -78 -60.5 -123.5t-123.5 -51.5l-5 25q64 12 94 40t43 76q-20 -29 -61 -29z" />
    <glyph glyph-name="hyphen" unicode="-" horiz-adv-x="256" 
d="M0 176q11 72 19 136q118 -4 236 0q-8 -41 -19 -136q-118 4 -236 0z" />
    <glyph glyph-name="period" unicode="." horiz-adv-x="329" 
d="M249 92q-4 -50 -36 -78t-87 -28q-53 0 -80.5 27t-23.5 80q4 47 38.5 77t84.5 30q55 0 82 -30.5t22 -77.5z" />
    <glyph glyph-name="slash" unicode="/" horiz-adv-x="375" 
d="M379 690q-55 -155 -135.5 -431t-115.5 -432q-15 1 -74 1t-74 -1q55 155 135 431.5t115 431.5q61 -5 149 0z" />
    <glyph glyph-name="zero" unicode="0" horiz-adv-x="622" 
d="M273 106q50 0 89 213q14 93 12 125t-25 32q-26 0 -46 -43.5t-41 -157.5q-17 -97 -15.5 -133t26.5 -36zM265 -15q-138 0 -202 71t-47 225q12 109 63.5 182t122.5 103.5t160 30.5q137 0 198.5 -71.5t45.5 -223.5q-16 -155 -108.5 -236t-232.5 -81z" />
    <glyph glyph-name="one" unicode="1" horiz-adv-x="488" 
d="M125 175q12 58 30 197l-108 -2q15 65 18 112h66q69 0 106.5 24t57.5 88q72 -4 144 0q-24 -95 -36 -172l-38 -247q-10 -66 49 -66h34q-12 -45 -19 -111q-139 2 -217 2l-217 -2q12 45 19 111h42q32 0 47 16t22 50z" />
    <glyph glyph-name="two" unicode="2" horiz-adv-x="565" 
d="M518 263q13 -27 17.5 -62.5t-3 -73.5t-26.5 -69.5t-58.5 -52t-94.5 -20.5q-52 0 -89 17.5t-89 58.5q-35 26 -68 26q-25 0 -45 -14q5 1 11 1q27 0 38.5 -14.5t8.5 -35.5q-8 -41 -55 -41q-35 0 -49.5 29.5t-8.5 71.5q16 133 162 188q73 28 102 54t35 71q5 41 -14 65t-62 24
q-42 0 -77 -19h11q45 0 68.5 -25t16.5 -62q-6 -35 -33 -55t-67 -20q-49 0 -72.5 35.5t-8.5 94.5q17 71 93 116.5t171 45.5q117 0 169 -49t41 -125q-13 -83 -84 -132.5t-187 -58.5q-93 -8 -148 -44q35 16 85 16q39 0 88 -9q47 -9 79 -9q42 0 60.5 14.5t19.5 52.5z" />
    <glyph glyph-name="three" unicode="3" horiz-adv-x="592" 
d="M565 405q-18 -129 -158 -159q73 -15 106.5 -61t27.5 -107q-21 -209 -339 -206q-115 1 -171.5 51t-42.5 134q8 52 42.5 84t83.5 32q46 0 68 -25.5t18 -65.5q-4 -44 -33.5 -68t-72.5 -22l-14 2q30 -25 75 -25q53 0 84 27.5t38 90.5q6 55 -19.5 85t-72.5 30h-21l11 75h18
q45 0 80 23.5t43 75.5q7 47 -15 77.5t-69 30.5q-40 0 -76 -17q3 0 9 0.5t9 0.5q45 -1 65 -22.5t17 -57.5q-3 -35 -31 -59t-73 -24q-47 0 -71.5 28t-19.5 77q9 83 90.5 135t195.5 52q116 0 172.5 -51.5t45.5 -140.5z" />
    <glyph glyph-name="four" unicode="4" horiz-adv-x="586" 
d="M171 49l11 40q-143 0 -190 -1l10 57l313 450q115 -4 231 0q-42 -191 -84 -441l86 2q-11 -37 -13 -72l-85 2q-4 -27 -5 -36q-7 -50 29 -50h45q-10 -36 -21 -111q-150 2 -229 2l-220 -2q10 36 21 111h49q38 0 52 49zM198 150q35 136 56 241l-137 -241h81z" />
    <glyph glyph-name="five" unicode="5" horiz-adv-x="596" 
d="M168 212q-56 0 -100 -21l-23 30q113 163 118 379q49 -18 198 -18q62 0 134.5 9t102.5 20q-8 -66 -6 -108q-33 -56 -95 -92.5t-152 -36.5q-97 0 -160 36q-16 -65 -50 -121q87 36 198 36q116 0 173.5 -60.5t43.5 -154.5q-17 -112 -102.5 -175t-236.5 -63q-124 0 -180.5 50
t-44.5 135q8 54 41.5 85t84.5 31q45 0 68.5 -24.5t18.5 -66.5q-4 -44 -32 -67.5t-71 -23.5q-14 0 -21 1q26 -23 68 -23q55 0 87.5 32.5t40.5 90.5q18 120 -103 120z" />
    <glyph glyph-name="six" unicode="6" horiz-adv-x="618" 
d="M455 636q-64 0 -99 -57t-59 -201q50 60 144 60q88 0 129 -55t25 -166q-17 -112 -102.5 -172t-203.5 -60q-160 0 -213 81t-27 255q28 192 124.5 290t233.5 99q106 1 155 -36.5t45 -98.5q-3 -51 -34 -79t-86 -28q-48 0 -71.5 24t-19.5 58q7 69 83 84q-14 2 -24 2zM273 212
q-11 -66 -6 -98t32 -32q26 0 38.5 29.5t23.5 100.5q10 68 4.5 96.5t-28.5 28.5q-27 0 -40 -27t-24 -98z" />
    <glyph glyph-name="seven" unicode="7" horiz-adv-x="555" 
d="M150 582q0 -22 2 -54q27 65 114 65q35 0 61 -13t59 -46q55 -55 97 -55q23 0 35 12q-34 -3 -51.5 13t-17.5 40q0 27 16.5 44t44.5 17q40 0 59.5 -28t12.5 -71q-14 -88 -122 -174q-74 -60 -100.5 -132t-27.5 -184q-1 -82 -42 -121t-105 -39q-148 0 -132 164q12 107 89 180
t226 132q21 8 36 15q-35 -11 -68 -11q-39 0 -86 19q-38 17 -60 17q-25 0 -38.5 -14t-18.5 -46q-10 2 -51.5 2t-51.5 -2q11 45 25 130.5t18 139.5q8 -2 37 -2t40 2z" />
    <glyph glyph-name="eight" unicode="8" horiz-adv-x="601" 
d="M257 -13q-137 0 -201.5 44t-52.5 123q13 91 130 119q-94 65 -69 206q19 112 101 171t214 59q115 0 173 -44t47 -119q-11 -72 -80 -104q105 -67 76 -225q-20 -111 -106.5 -170.5t-231.5 -59.5zM242 231q-22 5 -38 10q-39 -30 -44 -75q-5 -36 21.5 -57t87.5 -23
q140 -5 150 54q5 32 -28 49t-149 42zM400 487q25 -5 40 -10q17 23 22 57q4 35 -18.5 58t-77.5 25q-47 2 -81.5 -15t-36.5 -45q-2 -27 23 -38.5t129 -31.5z" />
    <glyph glyph-name="nine" unicode="9" horiz-adv-x="592" 
d="M153 -61q72 0 111 57.5t64 212.5q-45 -70 -131 -70q-91 0 -135.5 50t-30.5 155q14 113 98 183t210 70q148 0 206.5 -87.5t31.5 -268.5q-55 -369 -384 -369q-66 0 -114.5 17t-73.5 55t-12 92q9 39 45 63.5t83 24.5q56 0 83.5 -28t18.5 -74q-13 -68 -103 -80q15 -3 33 -3z
M354 382q12 80 7 110.5t-30 30.5q-26 0 -39.5 -30t-25.5 -111q-9 -59 -9 -91.5t7 -44t23 -11.5q26 0 40 29.5t27 117.5z" />
    <glyph glyph-name="colon" unicode=":" horiz-adv-x="268" 
d="M247 374q-2 -37 -26.5 -59t-66.5 -22q-40 0 -61.5 21t-17.5 61q3 36 29 59t65 23q42 0 62 -23.5t16 -59.5zM199 117q-2 -37 -26.5 -59t-66.5 -22q-40 0 -61.5 21t-17.5 61q3 36 29 59t65 23q42 0 62 -23.5t16 -59.5z" />
    <glyph glyph-name="semicolon" unicode=";" horiz-adv-x="268" 
d="M85 58q-55 0 -50 68q3 34 25 54t61 20q80 0 72 -101q-6 -76 -65.5 -122.5t-140.5 -57.5l-5 26q154 26 166 150q-16 -37 -63 -37zM247 374q-2 -37 -26.5 -59t-66.5 -22q-40 0 -61.5 21t-17.5 61q3 36 29 59t65 23q42 0 62 -23.5t16 -59.5z" />
    <glyph glyph-name="less" unicode="&#x3c;" 
d="M104 228l12 55q252 135 318 173l18 -98q-89 -28 -253 -108q122 -77 211 -115l-49 -93q-19 18 -56 46t-68.5 49.5t-75.5 51.5t-57 39z" />
    <glyph glyph-name="equal" unicode="=" 
d="M56 118q11 45 18 101q220 -4 440 0q-12 -47 -18 -101q-220 4 -440 0zM85 283q11 45 18 101q220 -4 440 0q-12 -48 -18 -101q-220 4 -440 0z" />
    <glyph glyph-name="greater" unicode="&#x3e;" 
d="M493 270l-9 -55q-291 -156 -321 -173l-18 98q94 30 253 107q-126 80 -211 116l49 93q19 -18 56 -46t68.5 -49.5t75.5 -51.5t57 -39z" />
    <glyph glyph-name="question" unicode="?" horiz-adv-x="653" 
d="M436 289l7 -34q-81 -33 -155 -33q-45 0 -67.5 22.5t-17.5 55.5q7 40 73 82q77 45 89 107q21 107 -79 112q-47 0 -85 -19q22 3 38 3q41 -2 61.5 -26t11.5 -70q-8 -35 -36.5 -58t-78.5 -21q-40 2 -64.5 36t-14.5 89q13 76 84.5 125t186.5 49q137 0 193 -59t37 -150
q-31 -151 -252 -197q-31 -7 -40 -10.5t-10 -10.5q-1 -6 5 -9.5t18 -4.5q41 -2 96 21zM397 75q-3 -46 -32 -72t-82 -26q-49 0 -74.5 25.5t-21.5 75.5q3 45 33 73t78 28q53 0 77.5 -28.5t21.5 -75.5z" />
    <glyph glyph-name="at" unicode="@" horiz-adv-x="806" 
d="M662 434q-31 -121 -51 -255q-12 -80 25 -80q28 0 54.5 34t38.5 91q17 69 8 132.5t-36.5 112t-88 77t-147.5 28.5q-145 0 -241 -84t-120 -244q-25 -166 44 -255.5t208 -89.5q166 0 272 95l26 -26q-48 -54 -127.5 -84t-169.5 -31q-195 -1 -280.5 108.5t-58.5 286.5
q26 172 147 269.5t298 97.5q184 0 271 -113.5t47 -280.5q-21 -88 -75 -136.5t-135 -48.5q-56 0 -91 21t-40 63q-46 -84 -146 -84q-58 0 -88.5 42t-19.5 126q17 129 76 187.5t135 58.5q89 0 104 -68q47 26 58 50q51 -4 103 0zM385 122q36 0 66 157q18 96 -11 96
q-39 0 -70 -165q-17 -88 15 -88z" />
    <glyph glyph-name="A" unicode="A" horiz-adv-x="880" 
d="M452 211q-92 2 -190 0q-18 -46 -11 -63t38 -17h32q-12 -55 -20 -133q-103 2 -162 2l-163 -2q13 60 20 133h14q42 0 65.5 20t52.5 73q158 285 252 474q83 -2 129 -2l129 2q41 -201 110 -474q14 -55 33.5 -74t49.5 -19h16q-13 -60 -20 -133q-154 2 -240 2l-240 -2
q13 60 20 133h36q34 0 44.5 19t4.5 61zM290 270q106 0 151 1l-44 210q-76 -149 -107 -211z" />
    <glyph glyph-name="B" unicode="B" horiz-adv-x="754" 
d="M718 178q-15 -101 -91.5 -139.5t-235.5 -38.5h-211l-203 -2q16 102 19 133h17q28 0 36 10t17 47q11 41 31 168t19 157q-1 24 -10 35t-32 11h-19q14 55 19 130q150 -2 217 -2h194q149 0 206 -52t45 -142q-15 -107 -139 -146q139 -40 121 -169zM365 305h-30
q-15 -98 -15 -123q0 -51 42 -51h13q37 0 55 19t25 69q8 50 -15 68t-75 18zM372 510q-7 -21 -25 -130l28 1q52 0 72.5 16t29.5 74q13 88 -45 88h-9q-34 0 -51 -49z" />
    <glyph glyph-name="C" unicode="C" horiz-adv-x="690" 
d="M385 710q94 0 171 -44q26 -16 46.5 -7t27.5 41q16 -2 48.5 -2t48.5 2q-32 -65 -54 -278q-58 3 -81 3l-89 -3q11 70 -5 104t-67 34q-36 0 -56.5 -15t-37.5 -61.5t-31 -137.5q-10 -69 -10.5 -113t9.5 -66t24 -29.5t37 -7.5q54 0 81 32t35 107q58 -2 90 -2l90 2
q-19 -151 -99.5 -222.5t-234.5 -71.5q-177 0 -252 88.5t-47 282.5q28 180 120.5 272t235.5 92z" />
    <glyph glyph-name="D" unicode="D" horiz-adv-x="813" 
d="M500 688q159 0 232.5 -86.5t51.5 -252.5q-49 -349 -379 -349h-217l-211 -2q12 55 20 133h17q20 0 31.5 10.5t15.5 23.5t10 43q8 40 26 152.5t19 139.5q2 31 -6.5 45t-34.5 14h-20q11 49 19 131q162 -3 209 -3q53 0 128 0.5t89 0.5zM320 183q-2 -52 40 -52h12
q64 0 100.5 47t55.5 172q15 82 6 128.5t-30.5 63.5t-62.5 17h-13q-44 0 -56 -39q-6 -20 -28.5 -167t-23.5 -170z" />
    <glyph glyph-name="E" unicode="E" horiz-adv-x="723" 
d="M429 456l6 39h98q-16 -71 -28 -150q-11 -72 -17 -152h-96l5 36q6 43 -1 60t-40 17h-20q-13 -89 -14 -115q-3 -38 11.5 -49t48.5 -11h58q59 0 86 27.5t40 114.5l1 9q72 -4 144 0q-26 -106 -53 -286q-46 4 -224 4h-233l-224 -2q16 102 19 133h17q28 0 36 10t17 47
q10 37 29 158.5t21 151.5q3 61 -42 61h-19q14 55 19 130q138 -2 218 -2h222q207 2 255 8q-36 -146 -46 -268q-64 4 -137 -1l3 18q12 72 -12 93.5t-75 21.5h-56q-34 0 -51.5 -13.5t-25.5 -48.5q-7 -29 -21 -115h13q37 0 49.5 17t18.5 57z" />
    <glyph glyph-name="F" unicode="F" horiz-adv-x="723" 
d="M435 495h98q-10 -46 -27 -151q-11 -73 -19 -151h-95l6 37q6 44 -3 60t-45 16h-14q-13 -89 -14 -115q-3 -38 11.5 -49t48.5 -11h35q-11 -50 -19 -133q-138 2 -215 2l-207 -2q13 60 20 133h20q26 0 34 10.5t16 46.5q2 7 3 11q9 35 27 151.5t20 147.5q5 61 -43 61h-18
q13 57 20 131q141 -3 217 -3h232q181 0 244 8q-13 -59 -30 -159t-22 -154q-68 6 -135 0l9 59q2 28 3 47.5t-6.5 32.5t-13.5 20.5t-19.5 11.5t-24 5t-25.5 1h-57q-34 0 -52 -13.5t-26 -48.5q-7 -29 -21 -115h17q32 1 46 21t22 75z" />
    <glyph glyph-name="G" unicode="G" horiz-adv-x="785" 
d="M369 130q20 0 32.5 2.5t27.5 11.5t24 29.5t14 53.5q8 56 -44 56h-20l14 94q113 -2 177 -2l176 2l-14 -94h-18q-21 0 -29.5 -11.5t-12.5 -41.5q-19 -129 -17 -230q-81 6 -162 0q-9 33 -19 73q-77 -98 -223 -98q-47 0 -86.5 10.5t-76.5 36.5t-58 68.5t-30.5 106t6.5 149.5
q29 180 121 272t235 92q62 0 100 -9t71 -31q25 -17 46 -9.5t28 39.5q16 -2 48.5 -2t48.5 2q-32 -65 -54 -278q-51 2 -80 2l-90 -1q17 71 -4 104t-67 33q-36 0 -57 -15t-38 -61.5t-31 -137.5q-8 -71 -10 -113.5t9.5 -65.5t25.5 -30t37 -7z" />
    <glyph glyph-name="H" unicode="H" horiz-adv-x="848" 
d="M-23 -2q11 48 19 133h17q28 0 36 10t17 47q11 41 31 168t19 157q-1 24 -10 35t-32 11h-19q14 55 19 130q125 -2 195 -2q42 0 117.5 1t76.5 1q-16 -71 -18 -130h-9q-51 0 -68 -59q-8 -27 -24 -132q79 -2 167 0q11 71 18 132q5 59 -52 59h-8q16 71 18 130q126 -2 197 -2
q42 0 119 1t78 1q-14 -55 -19 -130h-18q-26 0 -39.5 -14t-22.5 -45q-8 -27 -27.5 -153t-21.5 -158q-2 -30 9.5 -44t42.5 -14h17q-16 -71 -18 -133q-126 2 -197 2l-198 -2q14 73 18 133h14q16 0 26 3.5t16.5 13t9.5 17.5t8 24q6 25 19 103q-88 2 -167 0q-11 -74 -13 -103
t8 -43.5t40 -14.5h15q-16 -71 -18 -133q-124 2 -194 2z" />
    <glyph glyph-name="I" unicode="I" horiz-adv-x="430" 
d="M-23 -2q11 48 19 133h17q28 0 36 10t17 47q8 32 28 157t22 155q2 31 -7 45t-35 14h-19q11 50 19 130q125 -2 195 -2q42 0 117.5 1t76.5 1q-14 -75 -18 -130h-9q-51 0 -68 -59q-8 -27 -27 -155t-21 -156q-2 -30 7 -44t41 -14h15q-15 -77 -18 -133q-124 2 -194 2z" />
    <glyph glyph-name="J" unicode="J" 
d="M206 145q-11 -77 -91 -94q10 -1 16 -1q46 0 74.5 30t43.5 107q50 262 51 313q1 31 -7.5 45t-35.5 14h-28q13 57 20 130q126 -2 197 -2q42 0 118.5 1t77.5 1q-11 -50 -19 -130h-10q-25 0 -39.5 -12.5t-20.5 -46.5q-9 -48 -50 -304q-35 -221 -312 -221q-107 0 -160.5 42
t-41.5 121q7 51 43 80.5t85 29.5q47 0 71.5 -28.5t17.5 -74.5z" />
    <glyph glyph-name="K" unicode="K" horiz-adv-x="824" 
d="M-23 -1q11 48 19 132h16q28 0 36.5 10.5t18.5 48.5q7 27 27.5 154.5t21.5 155.5q2 34 -8 46.5t-42 12.5h-11q11 50 19 130q125 -2 196 -2q42 0 118.5 1t77.5 1q-11 -50 -19 -130h-17q-26 0 -39.5 -14t-21.5 -45q-8 -29 -24 -135q58 40 158 113q32 24 27 52.5t-39 28.5
h-23q13 57 20 130q122 -2 190 -2q40 0 114 1t75 1q-13 -58 -20 -130h-25q-52 0 -93.5 -17t-98.5 -56l-29 -20q53 -137 122 -284q14 -30 26 -40.5t31 -10.5h14q-13 -60 -20 -133q-127 2 -199 2l-200 -2q12 55 20 133h9q53 0 18 98q-16 44 -37 88l-52 -36q-10 -72 -10 -91
q-2 -59 36 -59h14q-13 -56 -20 -132q-114 1 -186 1z" />
    <glyph glyph-name="L" unicode="L" horiz-adv-x="665" 
d="M483 689l-20 -130h-16q-67 0 -81 -68q-9 -44 -26 -151t-19 -144q-2 -39 13 -52t48 -13h16q48 0 78 29.5t43 115.5l7 44q63 -4 125 0q-26 -145 -49 -324q-47 4 -206 4h-301q-86 -1 -118 -2q11 48 19 133h20q13 0 22 4t14.5 14.5t8.5 20.5t7 29q1 6 2 9q9 38 26.5 146.5
t18.5 136.5q2 35 -5 51.5t-34 16.5h-21q11 50 19 130q131 -2 205 -2z" />
    <glyph glyph-name="M" unicode="M" horiz-adv-x="990" 
d="M370 59q-50 141 -130 336q-19 -110 -26 -187q-8 -77 57 -77h30q-11 -47 -19 -133q-100 2 -156 2l-157 -2q11 48 19 133h25q58 0 76 77q8 36 24.5 143.5t18.5 140.5q5 67 -54 67h-26q11 50 19 130q187 -4 375 0q48 -129 97 -242q86 133 153 242q167 -6 334 0
q-11 -50 -19 -130h-20q-51 0 -68 -68q-8 -30 -24.5 -137.5t-19.5 -147.5q-3 -43 6 -59t42 -16h20q-12 -55 -20 -133q-136 2 -213 2l-213 -2q12 55 20 133h23q30 0 46 18.5t25 57.5q12 53 30 192q-132 -198 -219 -340h-56z" />
    <glyph glyph-name="N" unicode="N" horiz-adv-x="829" 
d="M422 689q79 -184 176 -366q17 93 22 158q5 78 -55 78h-43q11 50 19 130q78 -2 162 -2l162 2q-11 -50 -19 -130h-19q-63 0 -78 -78q-17 -86 -40.5 -241t-31.5 -241q-119 4 -238 0q-84 186 -192 402q-19 -104 -27 -193q-7 -77 57 -77h40q-12 -55 -20 -133q-106 2 -165 2
l-163 -2q11 52 19 133h21q32 0 52.5 21.5t27.5 55.5q33 151 43 283q3 33 -10 50.5t-51 17.5h-19q11 50 19 130q176 -4 351 0z" />
    <glyph glyph-name="O" unicode="O" horiz-adv-x="806" 
d="M376 124q52 0 77 47t44 176q20 128 9.5 170.5t-60.5 42.5q-52 0 -77.5 -43t-44.5 -171q-18 -128 -7 -175t59 -47zM356 -25q-167 0 -256 95.5t-63 275.5q28 187 139.5 275.5t290.5 88.5q184 0 263.5 -93t53.5 -270q-15 -99 -54 -172t-96.5 -116t-126.5 -63.5t-151 -20.5z
" />
    <glyph glyph-name="P" unicode="P" horiz-adv-x="722" 
d="M401 213q-37 0 -77 4q-2 -22 -2 -26q-1 -32 10 -46t38 -14h49q-11 -47 -19 -133q-137 2 -215 2l-209 -2q13 60 20 133h18q26 0 34.5 11t18.5 49q10 39 29 165t20 154q1 27 -9 38t-32 11h-20q11 49 19 131q37 -3 211 -3h185q145 0 209 -54t52 -179q-12 -126 -94.5 -183.5
t-235.5 -57.5zM373 530q-13 -46 -36 -216h25q48 0 72.5 29.5t34.5 101.5q10 67 -3 90.5t-41 23.5h-12q-32 0 -40 -29z" />
    <glyph glyph-name="Q" unicode="Q" horiz-adv-x="806" 
d="M356 -25q-167 0 -256 95.5t-63 275.5q28 187 139.5 275.5t290.5 88.5q184 0 263.5 -93t53.5 -270q-36 -247 -222 -332q1 -62 9.5 -82.5t30.5 -20.5q25 0 38 24.5t21 71.5l40 -1q-10 -77 -54.5 -128t-130.5 -51q-167 0 -146 147h-14zM413 247q36 0 62 -14q11 43 22 114
q20 128 9.5 170.5t-60.5 42.5q-52 0 -77.5 -43t-44.5 -171q-14 -89 -11 -144q25 45 100 45zM376 124q25 0 44 10q7 36 -3 57t-35 21q-45 0 -52 -41q-4 -23 9 -38q15 -9 37 -9z" />
    <glyph glyph-name="R" unicode="R" horiz-adv-x="818" 
d="M681 176q1 -70 22 -70q15 0 18 33t-4 58l60 5q11 -96 -35.5 -162t-152.5 -66q-110 0 -147 45t-29 132q7 77 -11.5 106.5t-69.5 31.5q-12 -92 -12 -99q-1 -31 10.5 -45t38.5 -14h21q-12 -55 -20 -133q-129 2 -201 2l-192 -2q11 52 19 133h16q26 0 36 11t19 47
q8 32 28 157.5t21 153.5q2 31 -7 45t-35 14h-19q11 50 19 130q8 0 108.5 -1t110.5 -1h184q160 0 225 -46.5t58 -139.5q-11 -136 -173 -177q91 -26 94 -148zM371 518q-7 -21 -27 -148h42q48 0 71 24.5t30 74.5q14 90 -54 90h-11q-38 0 -51 -41z" />
    <glyph glyph-name="S" unicode="S" horiz-adv-x="707" 
d="M392 592q-124 0 -131 -53q-3 -26 22 -38t104 -13q165 -1 234.5 -81t47.5 -208q-17 -104 -102 -164t-215 -60q-115 0 -208 56q-44 26 -62 -31q-16 2 -52.5 2t-51.5 -2q38 76 47 224q16 -2 49.5 -2t50.5 2q20 -121 213 -121q128 0 132 54q2 26 -23.5 37.5t-104.5 12.5
q-147 1 -223.5 80.5t-55.5 202.5q20 115 103.5 167.5t208.5 52.5q90 0 177 -42q31 -14 46 -7t25 39q16 -2 48.5 -2t48.5 2q-36 -70 -46 -211q-45 4 -89 0q-19 41 -71 72t-122 31z" />
    <glyph glyph-name="T" unicode="T" horiz-adv-x="757" 
d="M560 541h-24q-40 -212 -50 -342q-5 -68 59 -68h21q-11 -48 -19 -133q-138 2 -216 2l-216 -2q12 55 20 133h20q64 0 79 68q27 126 53 342h-23q-34 0 -53 -23t-29 -70l-15 -66q-68 4 -136 0q24 149 41 310q85 -5 214 -5h296q71 0 139 2.5t75 2.5q-37 -200 -52 -310
q-68 4 -136 0l6 66q10 93 -54 93z" />
    <glyph glyph-name="U" unicode="U" horiz-adv-x="809" 
d="M80 257q34 211 36 243q2 30 -8 44.5t-36 14.5h-17q11 50 19 130q138 -2 213 -2q45 0 126.5 1t82.5 1q-13 -58 -20 -130h-32q-54 0 -68 -59q-7 -30 -34 -234q-10 -73 9 -104t70 -31q52 0 80.5 31t41.5 104q29 159 35 234q5 59 -49 59h-27q11 50 19 130q106 -2 165 -2
q35 0 98 1t66 1q-11 -50 -19 -130h-19q-26 0 -40 -14.5t-21 -44.5q-4 -17 -10.5 -61t-14 -100t-11.5 -82q-24 -151 -112.5 -216.5t-236.5 -65.5q-168 0 -240 62.5t-46 219.5z" />
    <glyph glyph-name="V" unicode="V" horiz-adv-x="846" 
d="M444 465q7 -79 34 -230q77 164 100 229q17 45 13.5 70t-32.5 25h-19q13 57 20 130q106 -2 166 -2q36 0 100 1t66 1q-13 -58 -20 -130h-26q-43 0 -68 -15.5t-50 -65.5q-44 -89 -113.5 -244t-104.5 -240q-140 4 -279 0q-38 316 -70 484q-8 45 -26 63t-59 18h-21
q13 57 20 130q146 -2 228 -2q36 0 89 0.5t93.5 1t45.5 0.5q-15 -65 -21 -130h-19q-29 0 -40.5 -21.5t-6.5 -72.5z" />
    <glyph glyph-name="W" unicode="W" horiz-adv-x="1180" 
d="M871 -6q-139 4 -279 0q-11 138 -26 270q-70 -167 -109 -270q-125 4 -249 0q-33 360 -54 500q-5 33 -22 49t-55 16h-22q13 57 20 130q145 -2 226 -2q36 0 89 0.5t93 1t44 0.5q-13 -58 -20 -130h-18q-27 0 -36.5 -15.5t-7.5 -49.5q3 -87 28 -258q79 185 102 258
q20 65 -29 65h-15q15 65 21 130q115 -2 180 -2q39 0 109 1t71 1q-15 -65 -21 -130h-19q-25 0 -34 -13.5t-8 -51.5q2 -75 28 -264q80 190 102 263q20 66 -25 66h-20q15 65 21 130q93 -2 145 -2q31 0 86 1t59 1q-15 -65 -21 -130h-25q-38 0 -61 -13t-43 -53q-47 -96 -205 -499
z" />
    <glyph glyph-name="X" unicode="X" horiz-adv-x="836" 
d="M315 236l-15 38l-32 -38q-30 -35 -38 -60.5t-0.5 -35t21.5 -9.5h12q-12 -55 -20 -133q-87 2 -136 2l-137 -2q12 55 20 133h8q77 0 127.5 33t109.5 113l42 56q-38 90 -63 143q-24 49 -52 66t-75 17h-33q11 50 19 130q166 -2 260 -2l260 1q-13 -58 -20 -129h-11
q-26 0 -32 -25.5t10 -70.5l20 -55l35 55q22 35 28 57.5t0 30.5t-19 8h-8q13 58 20 129q83 -1 129 -1l128 2q-11 -50 -19 -130h-15q-72 0 -114.5 -26.5t-74.5 -80.5l-64 -107q34 -85 64 -145q33 -69 119 -69h21q-12 -55 -20 -133q-160 2 -251 2l-252 -2q11 48 19 133h18
q13 0 21 9t6.5 33.5t-16.5 62.5z" />
    <glyph glyph-name="Y" unicode="Y" horiz-adv-x="868" 
d="M720 480q-78 -108 -156 -242l-6 -44q-9 -63 50 -63h27q-11 -48 -19 -133q-148 2 -231 2l-232 -2q11 47 19 133h21q34 0 49.5 14t19.5 45l7 51q-45 150 -90 257q-14 34 -36 47.5t-70 13.5h-17q14 55 19 130q157 -2 246 -2l246 1q-14 -55 -19 -129h-14q-60 0 -35 -104
q9 -40 30 -95q43 67 58 95q52 104 -1 104h-14q14 55 19 130q104 -2 162 -2l161 2q-14 -55 -19 -130h-14q-67 0 -99.5 -19t-61.5 -60z" />
    <glyph glyph-name="Z" unicode="Z" horiz-adv-x="689" 
d="M-22 0q14 70 18 121q202 222 391 438h-42q-84 0 -126 -31.5t-53 -104.5l-6 -39q-58 4 -115 0q27 156 46 309q164 -6 235 -6h400q-15 -71 -18 -119q-153 -170 -386 -437h45q75 0 129 38.5t67 125.5l5 33q58 -4 115 0q-28 -157 -50 -332q-64 4 -204 4h-451z" />
    <glyph glyph-name="bracketleft" unicode="[" horiz-adv-x="381" 
d="M21 70l65 472q8 54 14.5 118.5t9.5 101.5l3 38q137 -4 274 0q-8 -35 -13 -99h-17q-27 0 -39 -10.5t-20 -38.5q-7 -27 -52 -345t-46 -346q-1 -29 9 -39t43 -10h10q-13 -54 -16 -99q-136 4 -271 0q28 129 46 257z" />
    <glyph glyph-name="backslash" unicode="\" horiz-adv-x="375" 
d="M223 -173q-22 156 -76 430.5t-94 432.5q69 -4 139 0q22 -160 75.5 -434.5t93.5 -428.5q-12 1 -68.5 1t-69.5 -1z" />
    <glyph glyph-name="bracketright" unicode="]" horiz-adv-x="380" 
d="M337 542l-70 -472q-8 -63 -14.5 -127t-8.5 -97l-2 -33q-134 4 -267 0q11 49 16 109h10q33 0 45 10t20 39q7 27 54.5 339.5t49.5 341.5q2 28 -8 38.5t-37 10.5h-17q10 41 14 99q130 -4 260 0q-28 -144 -45 -258z" />
    <glyph glyph-name="asciicircum" unicode="^" 
d="M347 710h18q25 -26 78 -128t72 -151l-88 -40q-26 117 -81 256q-39 -51 -90 -134.5t-69 -121.5l-82 40q33 49 120 150.5t122 128.5z" />
    <glyph glyph-name="underscore" unicode="_" horiz-adv-x="500" 
d="M-9 -177q5 25 18 116q79 -1 249.5 -1t250.5 1q-6 -25 -19 -116q-79 1 -249.5 1t-249.5 -1z" />
    <glyph glyph-name="grave" unicode="`" horiz-adv-x="532" 
d="M397 561l-8 -13q-38 -3 -89.5 8.5t-90.5 33.5q-44 24 -47.5 57.5t27 45t77.5 -5.5q35 -17 72 -53.5t59 -72.5z" />
    <glyph glyph-name="a" unicode="a" horiz-adv-x="620" 
d="M612 206q-10 -103 -57.5 -167t-137.5 -64q-110 0 -114 95q-47 -95 -154 -95q-71 0 -104 51.5t-19 158.5q11 83 37.5 145t61.5 96t72 50.5t75 16.5q110 0 126 -86q48 33 61 63q65 -4 128 0q-50 -238 -60 -319q-11 -79 2 -79q22 0 41 134h42zM261 72q37 0 76 205
q14 70 14 94.5t-17 24.5q-37 0 -76 -206q-14 -75 -14 -94t17 -24z" />
    <glyph glyph-name="b" unicode="b" horiz-adv-x="583" 
d="M75 581h-14l7 108q128 -4 257 0q0 -75 -23 -190l-16 -80q49 74 143 74q70 0 103.5 -58t21.5 -152q-41 -308 -249 -308q-75 0 -102.5 34t-26.5 91q-59 -53 -84 -101q-48 4 -95 0q2 10 31 146.5t47 227t27 147.5q10 61 -27 61zM317 396q-37 0 -76 -205q-22 -119 2 -119
q37 0 76 206q22 118 -2 118z" />
    <glyph glyph-name="c" unicode="c" horiz-adv-x="509" 
d="M215 -25q-120 0 -164 61t-19 198q49 259 286 259q98 0 143 -37t40 -100q-9 -111 -108 -111q-39 0 -63.5 27t-12.5 74q14 55 77 57q-9 9 -25 9q-18 0 -30.5 -5t-27.5 -21.5t-28.5 -53t-27.5 -94.5q-17 -80 -12 -105t35 -25q24 0 37.5 19t23.5 63q69 -4 137 0
q-17 -103 -76 -159t-185 -56z" />
    <glyph glyph-name="d" unicode="d" horiz-adv-x="612" 
d="M594 533q-55 -252 -76 -382q-8 -47 -8 -63t10 -16q22 0 41 134h42q-10 -103 -57.5 -167t-136.5 -64q-96 0 -102 98q-47 -98 -155 -98q-72 0 -106 52t-20 158q11 83 38 145t62.5 96t73 50.5t75.5 16.5q79 0 94 -58l18 85q14 61 -27 61h-14q9 37 14 108q125 -4 250 0
q0 -81 -16 -156zM263 72q37 0 76 205q22 119 -2 119q-37 0 -76 -206q-22 -118 2 -118z" />
    <glyph glyph-name="e" unicode="e" horiz-adv-x="508" 
d="M338 190q68 -4 137 0q-17 -103 -76 -159t-185 -56q-120 0 -164 61t-19 198q49 259 286 259q104 0 150.5 -45.5t32.5 -121.5q-13 -73 -71.5 -98t-181.5 -20q-11 -61 -4 -80.5t34 -19.5q24 0 37.5 19t23.5 63zM316 410q-9 0 -15 -9t-17 -44t-28 -109q26 1 38.5 15t23.5 58
q22 89 -2 89z" />
    <glyph glyph-name="f" unicode="f" horiz-adv-x="404" 
d="M414 646q-39 0 -63.5 -39t-43.5 -139l78 2l-13 -58l-74 2l-5 -39q-79 -575 -350 -575q-60 0 -92 27.5t-23 67.5q5 25 24 40t46 15q30 0 45 -19t7 -45q-6 -20 -25.5 -30.5t-42.5 -9.5q8 -3 18 -3q23 0 41 10t32.5 34.5t25 52.5t21 78.5t18.5 96t19 121.5q14 95 40 178
l-61 -2l11 58l70 -3q54 132 130 187.5t149 55.5q78 0 113 -34t28 -86q-13 -86 -91 -86q-37 0 -56.5 20.5t-14.5 51.5q5 25 24.5 42.5t54.5 16.5q-20 11 -40 11z" />
    <glyph glyph-name="g" unicode="g" horiz-adv-x="575" 
d="M158 -166q21 0 37.5 5.5t28 12t21 21.5t15 26t11 33.5t7.5 35t6.5 41t6.5 41.5q-47 -75 -142 -75q-71 0 -104 51.5t-19 158.5q11 83 37.5 145t61.5 96t72 50.5t75 16.5q72 0 100 -26t30 -76q41 35 72 79q17 -2 53 -2t53 2q-43 -181 -87 -437q-12 -67 -41 -114t-71.5 -72
t-90.5 -36t-107 -11q-100 0 -141 32t-30 77q13 56 72 56q31 0 48 -18.5t12 -43.5q-4 -21 -20.5 -36t-40.5 -16q32 -17 75 -17zM261 72q37 0 76 205q14 70 14 94.5t-17 24.5q-37 0 -76 -206q-14 -75 -14 -94t17 -24z" />
    <glyph glyph-name="h" unicode="h" horiz-adv-x="610" 
d="M555 206h43q-31 -231 -197 -231q-169 0 -108 214l28 102q10 38 13.5 62t1 33.5t-8.5 9.5q-45 0 -89 -228l-33 -168q-66 3 -103 3l-104 -3q91 421 106 520q10 61 -28 61h-14q7 45 7 108q129 -4 258 0q0 -76 -23 -191l-16 -80q55 75 149 75q56 0 85.5 -28.5t31 -73.5
t-9.5 -101l-33 -139q-1 -4 -3 -13q-5 -17 -6.5 -25.5t-3 -20t1.5 -16t10 -4.5q18 0 45 134z" />
    <glyph glyph-name="i" unicode="i" horiz-adv-x="385" 
d="M365 630q-7 -47 -42 -79.5t-94 -32.5q-50 0 -76.5 31.5t-21.5 80.5q6 47 40.5 80.5t92.5 33.5q52 0 79.5 -33t21.5 -81zM318 285l-35 -143q-16 -70 3 -70q22 0 41 134h42q-10 -102 -56.5 -166.5t-132.5 -64.5q-88 0 -114.5 52.5t5.5 166.5l39 138q8 26 9 44t-8 20
q-17 0 -30.5 -38.5t-18.5 -96.5h-41q12 102 57 167t122 65q81 0 111.5 -55t6.5 -153z" />
    <glyph glyph-name="j" unicode="j" horiz-adv-x="333" 
d="M356 630q-7 -47 -41.5 -79.5t-93.5 -32.5q-57 0 -80.5 32t-17.5 80q5 47 40 80.5t92 33.5q59 0 83.5 -33.5t17.5 -80.5zM300 285l-48 -248q-26 -133 -96.5 -185t-199.5 -52q-81 0 -121.5 30.5t-26.5 82.5q16 56 80 56q38 0 53 -22t5 -53q-7 -25 -34 -35t-54 -4
q19 -17 49 -17q28 0 49.5 11.5t35.5 29t26 51.5t19.5 66.5t17.5 87.5l40 217q14 82 11 91q-2 4 -5 4q-16 0 -30 -39t-19 -96h-41q13 103 58.5 167.5t122.5 64.5q53 0 82 -30t32 -76t-6 -102z" />
    <glyph glyph-name="k" unicode="k" horiz-adv-x="613" 
d="M550 206h43q-10 -104 -55.5 -167.5t-134.5 -63.5q-72 0 -106.5 39t-18.5 108q12 56 6.5 72t-34.5 18l-6 -27l-37 -188q-66 3 -103 3q-43 0 -106 -3q98 423 108 523q1 16 1 29.5t-7 22.5t-22 9h-14q7 45 7 108q134 -4 268 0q-6 -63 -33 -191l-16 -81q48 76 139 76
q42 0 71 -13.5t40 -33.5t15 -44t-3 -46q-21 -90 -139 -114q87 -12 87 -114q0 -33 2 -44t10 -11q24 0 38 133zM329 400q-18 0 -33.5 -32.5t-36.5 -117.5q30 6 50.5 34.5t28.5 62.5q5 22 3 37.5t-12 15.5z" />
    <glyph glyph-name="l" unicode="l" horiz-adv-x="331" 
d="M312 533q-71 -342 -80 -395q-5 -29 -6 -43.5t1 -18.5t8 -4q10 0 22 38.5t19 95.5h42q-10 -101 -57 -166t-128 -65q-76 0 -98 47.5t3 168.5q49 229 67 329q14 61 -27 61h-14q9 37 14 108q124 -4 250 0q0 -72 -16 -156z" />
    <glyph glyph-name="m" unicode="m" horiz-adv-x="923" 
d="M53 261h-41q12 102 57 167t121 65q106 0 114 -108q55 108 168 108q105 0 117 -93q54 93 161 93q153 0 106 -203l-34 -148q-16 -70 2 -70q24 0 41 134h42q-9 -103 -56.5 -167t-137.5 -64q-166 0 -107 214l28 102q12 43 15 67.5t0.5 31t-9.5 6.5q-15 0 -27 -19t-30 -78.5
t-42 -170.5l-28 -128q-71 3 -111 3l-112 -3q31 109 73 292q13 61 13 82t-13 22q-43 0 -96 -266l-26 -130q-67 3 -104 3l-103 -3q29 127 67 332q1 6 3 17q10 47 -2 47q-16 0 -29.5 -38.5t-19.5 -96.5z" />
    <glyph glyph-name="n" unicode="n" horiz-adv-x="648" 
d="M52 261h-41q12 102 58.5 167t126.5 65q98 0 107 -108q56 108 169 108q83 0 108.5 -57t2.5 -146l-38 -148q-19 -70 3 -70q21 0 40 134h42q-10 -103 -57.5 -167t-136.5 -64q-58 0 -90 31t-33.5 78.5t13.5 104.5l31 102q8 26 12 45.5t5 30.5t-1 18t-4.5 9t-6.5 2
q-23 0 -44 -55.5t-52 -210.5l-26 -130q-66 3 -103 3l-104 -3q51 225 68 332q11 64 0 64q-16 0 -29.5 -38.5t-19.5 -96.5z" />
    <glyph glyph-name="o" unicode="o" horiz-adv-x="562" 
d="M245 72q36 0 77 219q16 84 12 95q-2 10 -15 10q-40 0 -76 -192q-7 -39 -10.5 -60.5t-4 -39.5t3.5 -25t13 -7zM238 -25q-114 0 -170.5 63t-43.5 178q8 76 36 131.5t70.5 86.5t91 45t104.5 14q232 0 213 -237q-10 -133 -91.5 -207t-209.5 -74z" />
    <glyph glyph-name="p" unicode="p" horiz-adv-x="620" 
d="M195 493q103 0 109 -116q47 116 167 116q71 0 103 -57.5t18 -152.5q-25 -172 -89.5 -240t-158.5 -68q-70 0 -101 33l-7 -33q-7 -40 26 -40h31q-14 -53 -23 -110q-100 2 -156 2l-156 -2q8 26 21 110h10q32 0 41 40q57 260 72 357q8 55 5 61q-2 3 -6 3q-16 0 -29.5 -38.5
t-18.5 -96.5h-42q13 101 58 166.5t126 65.5zM356 396q-38 0 -77 -205q-13 -74 -13 -96.5t16 -22.5q38 0 77 206q14 70 14 94t-17 24z" />
    <glyph glyph-name="q" unicode="q" horiz-adv-x="617" 
d="M582 471q-59 -252 -98 -497q-6 -39 24 -39h15l-23 -110q-99 2 -155 2l-156 -2q14 46 24 110h17q40 0 51 49l13 66q-49 -75 -142 -75q-72 0 -106 52t-20 158q11 83 38 145t62.5 96t73 50.5t75.5 16.5q119 0 128 -102q56 45 76 80q17 -1 51.5 -1t51.5 1zM263 72
q37 0 76 205q22 119 -2 119q-37 0 -76 -206q-22 -118 2 -118z" />
    <glyph glyph-name="r" unicode="r" horiz-adv-x="508" 
d="M340 341q15 62 80 62q-9 9 -26 9q-37 0 -62 -35t-42 -122q-4 -19 -15.5 -75.5t-21.5 -105.5t-14 -76q-66 2 -103 2l-104 -2q7 30 64 316q13 70 9 78q-2 4 -6 4q-15 0 -28.5 -38.5t-19.5 -96.5h-41q12 102 58.5 167t126.5 65q94 0 107 -102q21 54 55 78t72 24
q57 0 82.5 -35.5t15.5 -101.5q-17 -111 -109 -111q-39 0 -63.5 26.5t-14.5 69.5z" />
    <glyph glyph-name="s" unicode="s" horiz-adv-x="470" 
d="M333 444q-78 0 -89 -36q-8 -24 8 -42t71 -38q59 -22 90 -58.5t32 -79.5t-17 -92q-49 -123 -235 -123q-108 0 -158.5 33t-37.5 85q6 24 25 38t47 14q34 0 50.5 -21t6.5 -51q-11 -31 -48 -40q30 -9 65 -9q82 0 92 46q5 24 -9.5 43t-61.5 38q-55 22 -83.5 56.5t-29.5 74
t15 85.5q21 53 79 89.5t145 36.5q98 0 147.5 -33t35.5 -85q-13 -44 -68 -44q-35 0 -51.5 20.5t-5.5 50.5q10 26 33 36q-24 6 -48 6z" />
    <glyph glyph-name="t" unicode="t" horiz-adv-x="395" 
d="M328 206h42q-9 -103 -56.5 -167t-137.5 -64q-156 0 -129 168q5 27 23.5 128.5t25.5 142.5l-27 -1l7 57q68 0 110 20t59.5 48t34.5 80h74l-25 -150l77 2l-10 -57l-76 1q-28 -158 -36 -217q-11 -83 -11 -104t15 -21q9 0 21 38.5t19 95.5z" />
    <glyph glyph-name="u" unicode="u" horiz-adv-x="647" 
d="M595 206h42q-11 -101 -56.5 -166t-122.5 -65q-58 0 -86 25.5t-30 84.5q-51 -110 -162 -110q-85 0 -109.5 56.5t-2.5 146.5l35 139q17 68 10 77q-2 2 -6 2q-17 0 -30 -38t-18 -97h-41q13 103 58.5 167.5t126.5 64.5q62 0 92.5 -29.5t30.5 -77t-12 -107.5l-24 -102
q-6 -27 -9.5 -45t-4.5 -32.5t2.5 -21t10.5 -6.5q38 0 93 268l27 132q67 -2 104 -2l103 2q-26 -121 -66 -327q-10 -60 -5 -69q2 -4 7 -4q24 0 43 134z" />
    <glyph glyph-name="v" unicode="v" horiz-adv-x="514" 
d="M58 261h-42q13 103 59 167.5t127 64.5q91 0 120.5 -60.5t3.5 -153.5l-28 -102q-29 -105 17 -105q38 0 66.5 63t40.5 150q3 29 3 51q-29 2 -46 24.5t-13 57.5q4 37 25.5 56.5t48.5 18.5q86 -3 56 -175q-63 -343 -298 -343q-180 0 -129 206l34 136q16 67 11 76q-3 3 -7 3
q-17 0 -30 -38t-19 -97z" />
    <glyph glyph-name="w" unicode="w" horiz-adv-x="772" 
d="M177 -25q-155 0 -108 203l35 152q15 66 -2 66q-14 0 -28.5 -39.5t-20.5 -95.5h-42q13 102 59.5 167t126.5 65q91 0 122 -60t6 -154l-27 -102q-10 -35 -13 -59t-0.5 -35t10.5 -11q28 0 67 180l48 220q70 -2 109 -2l109 2q-19 -64 -74 -295q-8 -35 -9.5 -57.5t5 -35
t23.5 -12.5q39 0 71 64t43 149q5 35 2 68q-25 2 -40 22t-11 51q4 33 23 50.5t43 16.5q80 -3 50 -175q-12 -63 -31.5 -119t-51.5 -108.5t-80.5 -84t-107.5 -31.5q-132 0 -145 110q-28 -52 -70 -81t-91 -29z" />
    <glyph glyph-name="x" unicode="x" horiz-adv-x="633" 
d="M559 206q12 -231 -194 -231q-75 0 -115.5 22.5t-55.5 73.5q-37 -86 -120 -86q-45 0 -66.5 27.5t-13.5 80.5q7 44 31.5 68t57.5 24q34 0 47 -20.5t6 -52.5q-6 -26 -22 -41t-33.5 -15.5t-33.5 5.5q6 -24 36 -24q36 0 60 37t52 144q11 41 17 70.5t8 55.5t-3.5 39.5
t-19.5 13.5q-46 0 -57 -136h-40q1 112 51 172t140 60q107 0 134 -94q21 47 53 70.5t65 23.5q99 0 88 -118q-4 -50 -26.5 -76t-58.5 -26q-33 0 -50 23.5t-8 63.5q8 36 32 49t48 4q-8 21 -35 21q-36 0 -61.5 -40.5t-50.5 -138.5q-20 -82 -22 -126.5t9 -58t36 -13.5
q38 0 57 39.5t14 109.5h44z" />
    <glyph glyph-name="y" unicode="y" horiz-adv-x="606" 
d="M59 261h-41q12 103 57.5 167.5t126.5 64.5q165 0 112 -214l-25 -102q-25 -105 0 -105q10 0 22.5 20.5t28 69t29.5 118.5l40 192q40 -2 102 -2l100 2q-59 -269 -88 -439q-12 -67 -41 -114t-71.5 -72t-90.5 -36t-107 -11q-89 0 -131 25.5t-42 64.5q0 36 21.5 55.5
t52.5 19.5q26 0 43.5 -14t17.5 -37q0 -28 -17.5 -45t-44.5 -18q32 -17 75 -17q20 0 36.5 5t28 12t21 22t15 25.5t11 33t8 35t7 40.5t6.5 41q-52 -73 -141 -73q-47 0 -76.5 19t-38.5 50.5t-8 64t11 69.5l35 139q17 67 11 76q-2 3 -7 3q-34 0 -48 -135z" />
    <glyph glyph-name="z" unicode="z" horiz-adv-x="519" 
d="M154 248h-33q-33 124 -1.5 188t119.5 64q45 0 83.5 -17.5t92.5 -54.5q41 -28 76 -28q-38 15 -38 51q0 24 13 39t37 15q26 0 40 -21.5t9 -52.5q-6 -44 -50.5 -78.5t-144.5 -90.5l-104 -57q28 5 69 -4q36 -8 56 -8q26 0 49 14t23 38h31q21 -46 23.5 -94.5t-12.5 -87
t-52 -63.5t-89 -25q-59 0 -102 16.5t-85 54.5q-46 40 -81 38q33 -14 33 -56q0 -22 -12.5 -37.5t-37.5 -15.5q-22 0 -36 16t-14 45q0 45 41 84.5t145 91.5l126 63q-22 -1 -65 14q-29 11 -50 11q-53 0 -59 -52z" />
    <glyph glyph-name="braceleft" unicode="{" horiz-adv-x="345" 
d="M24 312l7 49h15q16 0 28.5 4t20 14t13 19t7 26t2.5 28.5t-1.5 33t-4 32.5t-4.5 34q-1 5 -1 7q-21 132 52.5 191.5t219.5 59.5l-8 -82q-25 0 -38.5 -4t-27.5 -19.5t-19.5 -50t-6.5 -91.5q0 -115 -34 -167.5t-129 -58.5q62 -7 89.5 -32.5t26 -69.5t-18.5 -107
q-33 -125 -30 -155q13 -35 55 -38l-12 -82q-47 0 -83.5 4.5t-73 20.5t-54 43.5t-15.5 76.5t31 116q49 108 54 127q19 63 -29 70q-7 1 -16 1h-15z" />
    <glyph glyph-name="bar" unicode="|" horiz-adv-x="300" 
d="M71 -85q0 5 3.5 8.5t8.5 3.5t8.5 -3.5t3.5 -8.5t-3.5 -8.5t-8.5 -3.5t-8.5 3.5t-3.5 8.5zM77 -8q0 8 5.5 13t12.5 5t12.5 -5t5.5 -13t-5.5 -13t-12.5 -5t-12.5 5t-5.5 13zM83 68q0 10 7 17t17 7t17 -7t7 -17t-7 -17t-17 -7t-17 7t-7 17zM90 145q0 12 8.5 20.5t20.5 8.5
t20.5 -8.5t8.5 -20.5t-8.5 -20.5t-20.5 -8.5t-20.5 8.5t-8.5 20.5zM99 222q0 14 9.5 23t22.5 9q14 0 23.5 -9.5t9.5 -22.5q0 -14 -10 -23.5t-23 -9.5t-22.5 9.5t-9.5 23.5zM109 298q0 14 10 24.5t24 10.5t24.5 -10.5t10.5 -24.5t-10.5 -24t-24.5 -10t-24 10t-10 24zM121 375
q0 14 10.5 24t24.5 10t24 -10t10 -24t-10 -24.5t-24 -10.5t-24.5 10.5t-10.5 24.5zM135 451q0 13 9.5 23t23.5 10q13 0 22.5 -9.5t9.5 -23.5q0 -13 -9 -22.5t-23 -9.5t-23.5 9.5t-9.5 22.5zM151 528q0 12 8.5 20.5t20.5 8.5t20.5 -8.5t8.5 -20.5t-8.5 -20.5t-20.5 -8.5
t-20.5 8.5t-8.5 20.5zM168 605q0 10 7 17t17 7t17 -7t7 -17t-7 -17t-17 -7t-17 7t-7 17zM186 681q0 7 5 12.5t13 5.5t13 -5.5t5 -12.5t-5 -12.5t-13 -5.5t-13 5.5t-5 12.5zM204 758q0 4 4 8t8 4t8 -4t4 -8t-4 -8t-8 -4t-8 4t-4 8z" />
    <glyph glyph-name="braceright" unicode="}" horiz-adv-x="335" 
d="M310 361l-7 -49h-15q-21 0 -35.5 -6t-22 -17.5t-11 -26.5t-3 -35.5t3 -42t5.5 -48.5q2 -15 3 -22q9 -67 -3 -116t-36 -76.5t-63.5 -43.5t-75.5 -20.5t-83 -4.5l8 82q53 0 69 38.5t21 154.5q5 103 38 151t127 58q-39 3 -64 13.5t-38 28t-15 45.5t4 60.5t20 78.5
q23 77 25 115.5t-10.5 49t-44.5 10.5l12 82q94 0 148.5 -26.5t68 -84.5t-31.5 -150q-50 -105 -56 -140q-10 -58 47 -58h15z" />
    <glyph glyph-name="asciitilde" unicode="~" horiz-adv-x="532" 
d="M455 675h41q13 -150 -134 -150q-48 0 -75.5 19t-54.5 63q-12 19 -20.5 24.5t-22.5 5.5q-17 0 -27 -20.5t-6 -60.5h-42q-12 154 134 154q47 0 75.5 -19.5t55.5 -62.5q18 -31 41 -31q43 0 35 78z" />
    <glyph glyph-name="exclamdown" unicode="&#xa1;" horiz-adv-x="432" 
d="M132 395q3 46 32 72t82 26q49 0 74.5 -25.5t21.5 -75.5q-3 -45 -33 -73t-78 -28q-53 0 -77.5 28.5t-21.5 75.5zM201 226q3 18 7 23.5t15 5.5q19 0 15 -35q-6 -43 -6.5 -73t5 -54.5t11.5 -39.5t19 -44.5t22 -52.5q30 -78 -1.5 -137t-118.5 -59q-65 0 -99.5 39t-31 93.5
t40.5 100.5q16 20 44 50t37.5 44t21.5 49.5t19 89.5z" />
    <glyph glyph-name="cent" unicode="&#xa2;" 
d="M350 336l-28 -146q4 -1 14 -1q34 0 63 13q-40 12 -34 60q3 30 26 49t59 19q43 0 62.5 -24.5t11.5 -64.5q-12 -64 -73 -104.5t-148 -48.5l-19 -105h-53l27 104q-120 3 -175 67.5t-29 183.5q27 126 108.5 192.5t210.5 66.5l20 103h53l-28 -106q76 -9 114 -47.5t31 -86.5
q-11 -78 -93 -78q-35 0 -51.5 16.5t-11.5 44.5q7 33 35 51q-22 5 -49 5zM266 344q-25 -112 23 -143l36 135l29 155q-61 -24 -88 -147z" />
    <glyph glyph-name="sterling" unicode="&#xa3;" 
d="M109 229l11 75q24 -2 44 -2q-10 32 -15 49.5t-10.5 46t-4 54.5t8.5 53q22 83 97.5 139t187.5 56q99 0 145 -49t32 -127q-9 -49 -43.5 -76.5t-83.5 -27.5q-38 0 -58 22t-12 56q7 32 32 49.5t61 17.5q5 0 15 -2q-13 24 -53 24q-50 0 -77.5 -29.5t-38.5 -93.5
q-5 -27 -13.5 -82.5t-11.5 -73.5q91 6 107 9l-11 -75h-107q-7 -43 -13 -64q52 -13 95 -13q64 0 91 31l64 -11q-10 -96 -63 -150.5t-134 -54.5q-76 0 -144 41q-49 -37 -116 -37q-60 0 -86 29.5t-13 84.5q10 44 54 73.5t110 29.5q23 0 34 -1q-4 27 -7 37zM83 29q47 0 71 31
q-37 28 -63 28q-44 0 -47 -29q-2 -13 8 -21.5t31 -8.5z" />
    <glyph glyph-name="yen" unicode="&#xa5;" 
d="M70 459l53 -1q-2 6 -2 10q-18 91 -60 91h-15q13 67 17 130q113 -2 177 -2l170 2q-13 -67 -17 -130h-10q-19 0 -31.5 -16.5t-7.5 -52.5q11 -75 26 -127q49 80 64 129q20 67 -18 67h-7q13 67 17 130q80 -2 116 -2l99 2q-13 -67 -17 -130h-6q-28 0 -50.5 -16.5t-53.5 -72.5
q-4 -7 -7 -13l59 2q-11 -49 -13 -92l-87 4l-18 -37l100 2q-10 -43 -12 -92l-127 4l-10 -25l-5 -35q-8 -57 51 -57h17q-11 -52 -19 -133q-109 2 -194 2l-202 -2q11 52 19 133h20q32 0 43 13.5t15 43.5l2 15l-3 45l-104 -4q11 48 13 92l86 -3l-4 37l-77 -3q11 49 13 92z" />
    <glyph glyph-name="brokenbar" unicode="&#xa6;" horiz-adv-x="300" 
d="M71 -85q0 5 3.5 8.5t8.5 3.5t8.5 -3.5t3.5 -8.5t-3.5 -8.5t-8.5 -3.5t-8.5 3.5t-3.5 8.5zM77 -8q0 8 5.5 13t12.5 5t12.5 -5t5.5 -13t-5.5 -13t-12.5 -5t-12.5 5t-5.5 13zM83 68q0 10 7 17t17 7t17 -7t7 -17t-7 -17t-17 -7t-17 7t-7 17zM90 145q0 12 8.5 20.5t20.5 8.5
t20.5 -8.5t8.5 -20.5t-8.5 -20.5t-20.5 -8.5t-20.5 8.5t-8.5 20.5zM99 222q0 14 9.5 23t22.5 9q14 0 23.5 -9.5t9.5 -22.5q0 -14 -10 -23.5t-23 -9.5t-22.5 9.5t-9.5 23.5zM135 451q0 13 9.5 23t23.5 10q13 0 22.5 -9.5t9.5 -23.5q0 -13 -9 -22.5t-23 -9.5t-23.5 9.5
t-9.5 22.5zM151 528q0 12 8.5 20.5t20.5 8.5t20.5 -8.5t8.5 -20.5t-8.5 -20.5t-20.5 -8.5t-20.5 8.5t-8.5 20.5zM168 605q0 10 7 17t17 7t17 -7t7 -17t-7 -17t-17 -7t-17 7t-7 17zM186 681q0 7 5 12.5t13 5.5t13 -5.5t5 -12.5t-5 -12.5t-13 -5.5t-13 5.5t-5 12.5zM204 758
q0 4 4 8t8 4t8 -4t4 -8t-4 -8t-8 -4t-8 4t-4 8z" />
    <glyph glyph-name="section" unicode="&#xa7;" horiz-adv-x="800" 
d="M255 -153l-2 13q57 51 88 140.5t65 319.5q15 104 41 179t53.5 115t64.5 62.5t64.5 28t63.5 5.5q72 0 106 -34t28 -86q-5 -41 -30 -63.5t-61 -22.5q-80 0 -71 72q3 25 23.5 42.5t55.5 16.5q-19 11 -40 11q-40 0 -60 -22.5t-38 -98.5t-40 -245q-12 -92 -39 -165.5
t-58.5 -119t-72 -78t-73.5 -47.5t-68 -23zM503 663l2 -13q-57 -51 -88 -140.5t-65 -319.5q-15 -103 -41 -177.5t-53.5 -114.5t-63.5 -63t-63.5 -29t-62.5 -6q-68 0 -106 32.5t-31 87.5q5 40 30 63t63 23q78 0 69 -72q-3 -25 -23 -42.5t-55 -16.5q20 -11 44 -11q39 0 58 23.5
t36 97.5t39 245q12 92 39 165.5t58.5 119t72 78t73.5 47.5t68 23z" />
    <glyph glyph-name="dieresis" unicode="&#xa8;" horiz-adv-x="534" 
d="M236 621q-3 -30 -22.5 -46.5t-47.5 -16.5q-27 0 -43.5 16.5t-13.5 46.5q4 30 23.5 47t46.5 17q28 0 44.5 -17t12.5 -47zM421 621q-3 -30 -22.5 -46.5t-47.5 -16.5t-44 16.5t-13 46.5q4 30 23.5 47t46.5 17q28 0 44.5 -17t12.5 -47z" />
    <glyph glyph-name="copyright" unicode="&#xa9;" horiz-adv-x="842" 
d="M385 45q149 0 230.5 82t97.5 217q8 66 -0.5 118.5t-36.5 94t-83 64.5t-135 23q-144 0 -228 -83.5t-101 -216.5q-36 -299 256 -299zM377 -16q-177 0 -260 97.5t-63 262.5q20 161 134.5 261t277.5 100q170 0 256.5 -99t65.5 -262q-20 -165 -127 -262.5t-284 -97.5zM436 557
q59 0 101 -31q8 -7 17.5 -2.5t14.5 19.5q56 -3 73 0q-28 -74 -37 -154q-31 2 -48 2l-54 -1q5 37 -2 54.5t-33 17.5q-24 0 -39 -22t-25 -90q-9 -48 -6.5 -72.5t9.5 -31.5t22 -7q25 0 36.5 15t14.5 54q36 -1 59 -1l54 1q-10 -84 -54 -123.5t-131 -39.5q-103 0 -147.5 48
t-27.5 157q16 100 67 153.5t136 53.5z" />
    <glyph glyph-name="ordfeminine" unicode="&#xaa;" horiz-adv-x="538" 
d="M39 193q13 54 21 116q198 -3 400 0q-14 -57 -21 -116q-198 3 -400 0zM492 494q-7 -72 -40 -117.5t-95 -45.5q-76 0 -79 65q-34 -65 -108 -65q-49 0 -72 36.5t-13 111.5q15 112 64 163.5t107 51.5q76 0 87 -60q34 22 44 44q43 -2 87 0q-30 -134 -43 -223q-7 -55 2 -55
q16 0 30 94h29zM247 400q27 0 55 143q10 49 9.5 66t-13.5 17q-29 0 -55 -144q-10 -49 -9.5 -65.5t13.5 -16.5z" />
    <glyph glyph-name="guillemotleft" unicode="&#xab;" horiz-adv-x="476" 
d="M264 432l11 -11q-10 -38 -37.5 -86.5t-62.5 -83.5q43 -90 40 -168l-15 -11q-78 74 -158 138q13 38 15 86q89 63 207 136zM444 432l11 -11q-10 -38 -37.5 -86.5t-62.5 -83.5q43 -90 40 -168l-15 -11q-78 74 -158 138q13 38 15 86q89 63 207 136z" />
    <glyph glyph-name="registered" unicode="&#xae;" horiz-adv-x="842" 
d="M385 45q149 0 230.5 82t97.5 217q8 66 -0.5 118.5t-36.5 94t-83 64.5t-135 23q-144 0 -228 -83.5t-101 -216.5q-36 -299 256 -299zM377 -16q-177 0 -260 97.5t-63 262.5q20 161 134.5 261t277.5 100q170 0 256.5 -99t65.5 -262q-20 -165 -127 -262.5t-284 -97.5zM602 255
q0 -32 9 -32q8 0 8.5 16.5t-3.5 27.5l35 3q7 -53 -20.5 -89.5t-90.5 -36.5t-85.5 24.5t-17.5 71.5q4 40 -4 58t-31 22q-1 -10 -2.5 -22t-2.5 -18.5t-1 -7.5q-4 -34 24 -34h7q-7 -31 -12 -80q-73 1 -114 1l-116 -1l12 80h10q23 0 32 34q4 16 13 76.5t11 79.5q0 18 -4 25.5
t-19 7.5h-9q7 35 12 79q58 -2 119 -2h118q97 0 133.5 -23.5t31.5 -78.5q-8 -74 -97 -98q52 -14 54 -83zM421 440q-3 -8 -14 -85h16q43 0 50 53q9 53 -23 53h-4q-20 0 -25 -21z" />
    <glyph glyph-name="macron" unicode="&#xaf;" horiz-adv-x="532" 
d="M109 548q15 43 21 106q46 -2 148 -2t148 2q-14 -52 -21 -106q-46 2 -148 2t-148 -2z" />
    <glyph glyph-name="degree" unicode="&#xb0;" horiz-adv-x="364" 
d="M201 417q42 0 67 27.5t36 90.5q12 63 -4 90t-58 27t-67.5 -27t-37.5 -90q-11 -63 5 -90.5t59 -27.5zM193 376q-66 0 -99.5 42t-20.5 117q15 79 57.5 119.5t119.5 40.5q66 0 99.5 -42.5t19.5 -117.5q-28 -159 -176 -159z" />
    <glyph glyph-name="plusminus" unicode="&#xb1;" 
d="M22 0q11 45 18 101q84 -2 157 -2q17 66 31 108q-93 -14 -182 -14l20 115q89 0 176 -14q1 84 18 179h115q-16 -89 -45 -179q92 14 182 14l-20 -115q-91 0 -178 14q-1 -40 -9 -108q81 0 175 2q-12 -47 -18 -101q-220 4 -440 0z" />
    <glyph glyph-name="acute" unicode="&#xb4;" horiz-adv-x="532" 
d="M157 548l-8 13q22 36 59 72.5t72 53.5q47 17 77.5 5.5t27 -45t-47.5 -57.5q-39 -22 -90.5 -33.5t-89.5 -8.5z" />
    <glyph glyph-name="paragraph" unicode="&#xb6;" horiz-adv-x="593" 
d="M85 -166q50 0 81.5 44t54.5 148l32 147q-114 0 -168.5 65t-29.5 193q27 140 121.5 199t249.5 59h192q-13 -58 -21 -107h-12q-48 0 -58 -49l-94 -487q-26 -135 -92 -192.5t-207 -57.5q-78 0 -116.5 27t-33.5 71q4 40 27.5 56.5t51.5 16.5q32 0 48 -16.5t16 -42.5
q0 -34 -26.5 -49.5t-60.5 -6.5q15 -18 45 -18z" />
    <glyph glyph-name="periodcentered" unicode="&#xb7;" horiz-adv-x="328" 
d="M270 245q-4 -50 -36 -78t-87 -28q-53 0 -80.5 27t-23.5 80q4 47 38.5 77t84.5 30q55 0 82 -30.5t22 -77.5z" />
    <glyph glyph-name="cedilla" unicode="&#xb8;" horiz-adv-x="532" 
d="M213 -105l-12 28q64 18 69 84l39 -7q3 -37 -20 -60q44 1 75 -20t31 -61q0 -43 -34 -68t-91 -25q-76 0 -121 56l25 26q30 -32 65 -32q49 0 49 43q0 30 -23 39t-52 -3z" />
    <glyph glyph-name="ordmasculine" unicode="&#xba;" horiz-adv-x="493" 
d="M43 193q13 54 21 116q178 -3 360 0q-14 -57 -21 -116q-178 3 -360 0zM253 400q27 0 56 153q11 62 6 69q-3 4 -10 4q-31 0 -55 -133q-10 -49 -9.5 -71t12.5 -22zM248 331q-78 0 -117.5 44.5t-30.5 124.5q21 194 210 194q160 0 147 -166q-7 -94 -63 -145.5t-146 -51.5z" />
    <glyph glyph-name="guillemotright" unicode="&#xbb;" horiz-adv-x="476" 
d="M79 421l15 11q101 -81 159 -136q-13 -38 -15 -86q-118 -75 -206 -138l-11 11q11 38 38.5 89.5t56.5 85.5q-43 90 -37 163zM259 421l15 11q101 -81 159 -136q-13 -38 -15 -86q-118 -75 -206 -138l-11 11q11 38 38.5 89.5t56.5 85.5q-43 90 -37 163z" />
    <glyph glyph-name="onequarter" unicode="&#xbc;" horiz-adv-x="378" 
d="M6 343q0 26 25 26q11 0 18.5 -7.5t7.5 -18.5q0 -25 -26 -25q-25 0 -25 25zM72 343q0 23 22 23q23 0 23 -23q0 -22 -23 -22q-22 0 -22 22zM137 343q0 21 20 21q9 0 15 -6t6 -15q0 -20 -21 -20q-20 0 -20 20zM200 343q0 21 20 21q9 0 15 -6t6 -15q0 -20 -21 -20
q-20 0 -20 20zM261 343q0 23 22 23q23 0 23 -23q0 -22 -23 -22q-22 0 -22 22zM321 343q0 26 25 26q11 0 18.5 -7.5t7.5 -18.5q0 -25 -26 -25q-25 0 -25 25zM131 470q31 0 35 29l15 91h-53q10 41 12 68h19q86 0 104 56q41 -4 82 0q-24 -84 -33 -143l-11 -72q-4 -29 25 -29h26
q-10 -39 -12 -63q-80 1 -125 1l-126 -1q9 34 11 63h31zM82 41q21 0 24 22l1 5h-103l5 25l153 193q65 -4 131 0l-31 -188l39 1l-6 -33l-38 1v-3q-2 -10 2 -16.5t15 -6.5h20q-12 -39 -12 -63q-78 2 -120 2l-118 -2q10 33 10 63h28zM63 97h49l15 93z" />
    <glyph glyph-name="onehalf" unicode="&#xbd;" horiz-adv-x="378" 
d="M6 343q0 26 25 26q11 0 18.5 -7.5t7.5 -18.5q0 -25 -26 -25q-25 0 -25 25zM72 343q0 23 22 23q23 0 23 -23q0 -22 -23 -22q-22 0 -22 22zM137 343q0 21 20 21q9 0 15 -6t6 -15q0 -20 -21 -20q-20 0 -20 20zM200 343q0 21 20 21q9 0 15 -6t6 -15q0 -20 -21 -20
q-20 0 -20 20zM261 343q0 23 22 23q23 0 23 -23q0 -22 -23 -22q-22 0 -22 22zM321 343q0 26 25 26q11 0 18.5 -7.5t7.5 -18.5q0 -25 -26 -25q-25 0 -25 25zM280 106q10 -15 11 -37t-6.5 -44t-32.5 -37.5t-62 -15.5q-41 0 -93 33q-20 13 -38 13q-11 0 -12 -3l4 -3
q10 -4 14 -14t-1.5 -18.5t-19.5 -8.5q-17 0 -26 13t-8 33q3 62 98 103q57 24 64 72q3 19 -7 32.5t-35 13.5q-12 0 -25 -5q27 2 37.5 -9t8.5 -26q-2 -16 -17 -26.5t-39 -10.5q-25 0 -38.5 12t-9.5 34q7 38 49 60.5t97 22.5q70 0 95.5 -26t20.5 -62q-12 -92 -172 -107
q-43 -4 -64 -25q29 11 67 6q35 -7 70.5 -2.5t35.5 28.5zM131 470q31 0 35 29l15 91h-53q10 41 12 68h19q86 0 104 56q41 -4 82 0q-24 -84 -33 -143l-11 -72q-4 -29 25 -29h26q-10 -39 -12 -63q-80 1 -125 1l-126 -1q9 34 11 63h31z" />
    <glyph glyph-name="threequarters" unicode="&#xbe;" horiz-adv-x="378" 
d="M6 343q0 26 25 26q11 0 18.5 -7.5t7.5 -18.5q0 -25 -26 -25q-25 0 -25 25zM72 343q0 23 22 23q23 0 23 -23q0 -22 -23 -22q-22 0 -22 22zM137 343q0 21 20 21q9 0 15 -6t6 -15q0 -20 -21 -20q-20 0 -20 20zM200 343q0 21 20 21q9 0 15 -6t6 -15q0 -20 -21 -20
q-20 0 -20 20zM261 343q0 23 22 23q23 0 23 -23q0 -22 -23 -22q-22 0 -22 22zM321 343q0 26 25 26q11 0 18.5 -7.5t7.5 -18.5q0 -25 -26 -25q-25 0 -25 25zM369 646q0 -60 -68 -83q52 -16 54 -58q3 -105 -170 -105q-57 0 -88.5 17.5t-31.5 50.5q0 28 19 46t48 18
q48 0 48 -35q0 -22 -17 -35t-40 -11q11 -6 27 -6q63 0 63 60q0 19 -12.5 29t-31.5 10h-15l7 35h8q23 0 42 12t19 40q0 36 -43 36q-9 0 -21 -2q39 -5 39 -33q0 -18 -14 -29.5t-39 -11.5q-50 0 -50 39q0 40 43.5 64.5t107.5 24.5q56 0 86 -19.5t30 -53.5zM82 41q21 0 24 22
l1 5h-103l5 25l153 193q65 -4 131 0l-31 -188l39 1l-6 -33l-38 1v-3q-2 -10 2 -16.5t15 -6.5h20q-12 -39 -12 -63q-78 2 -120 2l-118 -2q10 33 10 63h28zM63 97h49l15 93z" />
    <glyph glyph-name="questiondown" unicode="&#xbf;" horiz-adv-x="653" 
d="M229 181l-7 34q81 33 155 33q45 0 67.5 -22.5t17.5 -55.5q-7 -42 -73 -82q-77 -48 -89 -107q-11 -55 11 -83.5t68 -28.5t84 19q-21 -3 -37 -3q-41 2 -61.5 26t-11.5 70q8 35 36.5 58t78.5 21q41 -2 66.5 -36.5t12.5 -88.5q-21 -88 -94 -131t-177 -43q-137 0 -193 59
t-37 150q31 151 252 197q31 7 39.5 10.5t10.5 10.5q2 12 -23 14q-41 2 -96 -21zM268 395q3 46 32 72t82 26q49 0 74.5 -25.5t21.5 -75.5q-3 -45 -33 -73t-78 -28q-53 0 -77.5 28.5t-21.5 75.5z" />
    <glyph glyph-name="Agrave" unicode="&#xc0;" horiz-adv-x="880" 
d="M452 211q-92 2 -190 0q-18 -46 -11 -63t38 -17h32q-12 -55 -20 -133q-103 2 -162 2l-163 -2q13 60 20 133h14q42 0 65.5 20t52.5 73q158 285 252 474q83 -2 129 -2l129 2q41 -201 110 -474q14 -55 33.5 -74t49.5 -19h16q-13 -60 -20 -133q-154 2 -240 2l-240 -2
q13 60 20 133h36q34 0 44.5 19t4.5 61zM290 270q106 0 151 1l-44 210q-76 -149 -107 -211zM606 751l-8 -13q-38 -3 -89.5 8.5t-90.5 33.5q-44 24 -47.5 57.5t27 45t77.5 -5.5q35 -17 72 -53.5t59 -72.5z" />
    <glyph glyph-name="Aacute" unicode="&#xc1;" horiz-adv-x="880" 
d="M452 211q-92 2 -190 0q-18 -46 -11 -63t38 -17h32q-12 -55 -20 -133q-103 2 -162 2l-163 -2q13 60 20 133h14q42 0 65.5 20t52.5 73q158 285 252 474q83 -2 129 -2l129 2q41 -201 110 -474q14 -55 33.5 -74t49.5 -19h16q-13 -60 -20 -133q-154 2 -240 2l-240 -2
q13 60 20 133h36q34 0 44.5 19t4.5 61zM290 270q106 0 151 1l-44 210q-76 -149 -107 -211zM461 738l-8 13q22 36 59 72.5t72 53.5q47 17 77.5 5.5t27 -45t-47.5 -57.5q-39 -22 -90.5 -33.5t-89.5 -8.5z" />
    <glyph glyph-name="Acircumflex" unicode="&#xc2;" horiz-adv-x="880" 
d="M452 211q-92 2 -190 0q-18 -46 -11 -63t38 -17h32q-12 -55 -20 -133q-103 2 -162 2l-163 -2q13 60 20 133h14q42 0 65.5 20t52.5 73q158 285 252 474q83 -2 129 -2l129 2q41 -201 110 -474q14 -55 33.5 -74t49.5 -19h16q-13 -60 -20 -133q-154 2 -240 2l-240 -2
q13 60 20 133h36q34 0 44.5 19t4.5 61zM290 270q106 0 151 1l-44 210q-76 -149 -107 -211zM662 748l-14 -11q-72 22 -129 73q-31 -24 -74.5 -46t-71.5 -26l-11 11q39 92 132 152h88q60 -62 80 -153z" />
    <glyph glyph-name="Atilde" unicode="&#xc3;" horiz-adv-x="880" 
d="M452 211q-92 2 -190 0q-18 -46 -11 -63t38 -17h32q-12 -55 -20 -133q-103 2 -162 2l-163 -2q13 60 20 133h14q42 0 65.5 20t52.5 73q158 285 252 474q83 -2 129 -2l129 2q41 -201 110 -474q14 -55 33.5 -74t49.5 -19h16q-13 -60 -20 -133q-154 2 -240 2l-240 -2
q13 60 20 133h36q34 0 44.5 19t4.5 61zM290 270q106 0 151 1l-44 210q-76 -149 -107 -211zM640 859h35q10 -127 -113 -127q-41 0 -64 16t-46 53q-10 17 -17 21.5t-19 4.5q-14 0 -22.5 -17.5t-5.5 -51.5h-35q-6 71 24 100.5t89 29.5q39 0 63 -16.5t47 -52.5q10 -16 17 -21
t18 -5q36 0 29 66z" />
    <glyph glyph-name="Adieresis" unicode="&#xc4;" horiz-adv-x="880" 
d="M452 211q-92 2 -190 0q-18 -46 -11 -63t38 -17h32q-12 -55 -20 -133q-103 2 -162 2l-163 -2q13 60 20 133h14q42 0 65.5 20t52.5 73q158 285 252 474q83 -2 129 -2l129 2q41 -201 110 -474q14 -55 33.5 -74t49.5 -19h16q-13 -60 -20 -133q-154 2 -240 2l-240 -2
q13 60 20 133h36q34 0 44.5 19t4.5 61zM290 270q106 0 151 1l-44 210q-76 -149 -107 -211zM496 811q-3 -30 -22.5 -46.5t-47.5 -16.5q-27 0 -43.5 16.5t-13.5 46.5q4 30 23.5 47t46.5 17q28 0 44.5 -17t12.5 -47zM681 811q-3 -30 -22.5 -46.5t-47.5 -16.5t-44 16.5t-13 46.5
q4 30 23.5 47t46.5 17q28 0 44.5 -17t12.5 -47z" />
    <glyph glyph-name="Aring" unicode="&#xc5;" horiz-adv-x="880" 
d="M452 211q-92 2 -190 0q-18 -46 -11 -63t38 -17h32q-12 -55 -20 -133q-103 2 -162 2l-163 -2q13 60 20 133h14q42 0 65.5 20t52.5 73q158 285 252 474q83 -2 129 -2l129 2q41 -201 110 -474q14 -55 33.5 -74t49.5 -19h16q-13 -60 -20 -133q-154 2 -240 2l-240 -2
q13 60 20 133h36q34 0 44.5 19t4.5 61zM290 270q106 0 151 1l-44 210q-76 -149 -107 -211zM475 834q-2 -23 9 -35t32 -12q45 0 50 47q3 23 -8 36t-32 13q-20 0 -34 -13t-17 -36zM424 834q5 44 33 70.5t74 26.5q43 0 67 -27t19 -70q-5 -44 -32.5 -70t-72.5 -26
q-43 0 -67.5 26.5t-20.5 69.5z" />
    <glyph glyph-name="AE" unicode="&#xc6;" horiz-adv-x="1104" 
d="M1093 282q-31 -126 -53 -286q-46 4 -227 4q-199 2 -272 2l-192 -2q13 52 21 131h10q34 0 49.5 16t23.5 53q3 13 6 31h-159q0 -1 -1 -2.5t-2 -2.5t-1 -2q-18 -29 -23 -50t3 -32t28 -11h26q-19 -84 -22 -131q-108 3 -168 3l-165 -3q17 65 21 131h15q41 0 72.5 21.5
t72.5 71.5q128 153 220 275q18 20 12.5 39.5t-38.5 19.5h-13q15 69 22 136q54 -6 307 -6q33 0 94.5 0.5t138.5 0.5q204 0 252 6q-36 -146 -46 -268q-61 3 -137 -1l3 17q12 69 -12.5 92t-73.5 23h-55q-67 0 -79 -65q-8 -37 -20 -111h12q36 0 49 17t19 57l6 39h98
q-16 -67 -30 -151q-12 -79 -16 -151h-96l6 36q7 44 -2 60.5t-46 16.5h-12q-13 -81 -15 -106q-4 -40 9.5 -54.5t48.5 -14.5h58q60 0 89 28t38 114l1 9q72 -4 145 0zM344 296q88 0 127 1q22 130 25 200q-74 -90 -152 -201z" />
    <glyph glyph-name="Ccedilla" unicode="&#xc7;" horiz-adv-x="690" 
d="M231 -105l-12 28q49 15 63 54q-152 11 -216 100t-37 269t119.5 272t236.5 92q94 0 171 -44q26 -16 46.5 -7t27.5 41q16 -2 48.5 -2t48.5 2q-32 -65 -54 -278q-58 3 -81 3l-89 -3q11 70 -5 104t-67 34q-36 0 -56.5 -15t-37.5 -61.5t-31 -137.5q-10 -69 -10.5 -113t9.5 -66
t24 -29.5t37 -7.5q54 0 81 32t35 107q58 -2 90 -2l90 2q-19 -151 -99.5 -222.5t-234.5 -71.5h-2q-5 -21 -19 -35q44 1 75 -20t31 -61q0 -43 -34 -68t-91 -25q-76 0 -121 56l25 26q30 -32 65 -32q49 0 49 43q0 30 -23 39t-52 -3z" />
    <glyph glyph-name="Egrave" unicode="&#xc8;" horiz-adv-x="723" 
d="M429 456l6 39h98q-16 -71 -28 -150q-11 -72 -17 -152h-96l5 36q6 43 -1 59.5t-40 17.5h-20q-13 -89 -14 -115q-3 -38 11.5 -49t48.5 -11h58q59 0 86 27.5t40 114.5l1 9q72 -4 144 0q-26 -106 -53 -286q-46 4 -224 4h-233l-224 -2q16 102 19 133h17q28 0 36 10t17 47
q10 37 29 158.5t21 151.5q3 61 -42 61h-19q14 55 19 130q138 -2 218 -2h222q207 2 255 8q-36 -146 -46 -268q-64 4 -137 -1l3 18q12 72 -12 93.5t-75 21.5h-56q-34 0 -51.5 -13.5t-25.5 -48.5q-7 -29 -21 -115h13q37 0 49.5 17t18.5 57zM482 751l-8 -13q-38 -3 -89.5 8.5
t-90.5 33.5q-44 24 -47.5 57.5t27 45t77.5 -5.5q35 -17 72 -53.5t59 -72.5z" />
    <glyph glyph-name="Eacute" unicode="&#xc9;" horiz-adv-x="723" 
d="M378 738l-8 13q22 36 59 72.5t72 53.5q47 17 77.5 5.5t27 -45t-47.5 -57.5q-39 -22 -90.5 -33.5t-89.5 -8.5zM429 456l6 39h98q-16 -71 -28 -150q-11 -72 -17 -152h-96l5 36q6 43 -1 59.5t-40 17.5h-20q-13 -89 -14 -115q-3 -38 11.5 -49t48.5 -11h58q59 0 86 27.5
t40 114.5l1 9q72 -4 144 0q-26 -106 -53 -286q-46 4 -224 4h-233l-224 -2q16 102 19 133h17q28 0 36 10t17 47q10 37 29 158.5t21 151.5q3 61 -42 61h-19q14 55 19 130q138 -2 218 -2h222q207 2 255 8q-36 -146 -46 -268q-64 4 -137 -1l3 18q12 72 -12 93.5t-75 21.5h-56
q-34 0 -51.5 -13.5t-25.5 -48.5q-7 -29 -21 -115h13q37 0 49.5 17t18.5 57z" />
    <glyph glyph-name="Ecircumflex" unicode="&#xca;" horiz-adv-x="723" 
d="M601 748l-14 -11q-72 22 -129 73q-31 -24 -74.5 -46t-71.5 -26l-11 11q39 92 132 152h88q60 -62 80 -153zM429 456l6 39h98q-16 -71 -28 -150q-11 -72 -17 -152h-96l5 36q6 43 -1 59.5t-40 17.5h-20q-13 -89 -14 -115q-3 -38 11.5 -49t48.5 -11h58q59 0 86 27.5t40 114.5
l1 9q72 -4 144 0q-26 -106 -53 -286q-46 4 -224 4h-233l-224 -2q16 102 19 133h17q28 0 36 10t17 47q10 37 29 158.5t21 151.5q3 61 -42 61h-19q14 55 19 130q138 -2 218 -2h222q207 2 255 8q-36 -146 -46 -268q-64 4 -137 -1l3 18q12 72 -12 93.5t-75 21.5h-56
q-34 0 -51.5 -13.5t-25.5 -48.5q-7 -29 -21 -115h13q37 0 49.5 17t18.5 57z" />
    <glyph glyph-name="Edieresis" unicode="&#xcb;" horiz-adv-x="723" 
d="M415 811q-3 -30 -22.5 -46.5t-47.5 -16.5q-27 0 -43.5 16.5t-13.5 46.5q4 30 23.5 47t46.5 17q28 0 44.5 -17t12.5 -47zM600 811q-3 -30 -22.5 -46.5t-47.5 -16.5t-44 16.5t-13 46.5q4 30 23.5 47t46.5 17q28 0 44.5 -17t12.5 -47zM429 456l6 39h98q-16 -71 -28 -150
q-11 -72 -17 -152h-96l5 36q6 43 -1 59.5t-40 17.5h-20q-13 -89 -14 -115q-3 -38 11.5 -49t48.5 -11h58q59 0 86 27.5t40 114.5l1 9q72 -4 144 0q-26 -106 -53 -286q-46 4 -224 4h-233l-224 -2q16 102 19 133h17q28 0 36 10t17 47q10 37 29 158.5t21 151.5q3 61 -42 61h-19
q14 55 19 130q138 -2 218 -2h222q207 2 255 8q-36 -146 -46 -268q-64 4 -137 -1l3 18q12 72 -12 93.5t-75 21.5h-56q-34 0 -51.5 -13.5t-25.5 -48.5q-7 -29 -21 -115h13q37 0 49.5 17t18.5 57z" />
    <glyph glyph-name="Igrave" unicode="&#xcc;" horiz-adv-x="430" 
d="M-23 -2q11 48 19 133h17q28 0 36 10t17 47q8 32 28 157t22 155q2 31 -7 45t-35 14h-19q11 50 19 130q125 -2 195 -2q42 0 117.5 1t76.5 1q-14 -75 -18 -130h-9q-51 0 -68 -59q-8 -27 -27 -155t-21 -156q-2 -30 7 -44t41 -14h15q-15 -77 -18 -133q-124 2 -194 2zM368 751
l-8 -13q-38 -3 -89.5 8.5t-90.5 33.5q-44 24 -47.5 57.5t27 45t77.5 -5.5q35 -17 72 -53.5t59 -72.5z" />
    <glyph glyph-name="Iacute" unicode="&#xcd;" horiz-adv-x="430" 
d="M-23 -2q11 48 19 133h17q28 0 36 10t17 47q8 32 28 157t22 155q2 31 -7 45t-35 14h-19q11 50 19 130q125 -2 195 -2q42 0 117.5 1t76.5 1q-14 -75 -18 -130h-9q-51 0 -68 -59q-8 -27 -27 -155t-21 -156q-2 -30 7 -44t41 -14h15q-15 -77 -18 -133q-124 2 -194 2zM226 738
l-8 13q22 36 59 72.5t72 53.5q47 17 77.5 5.5t27 -45t-47.5 -57.5q-39 -22 -90.5 -33.5t-89.5 -8.5z" />
    <glyph glyph-name="Icircumflex" unicode="&#xce;" horiz-adv-x="430" 
d="M-23 -2q11 48 19 133h17q28 0 36 10t17 47q8 32 28 157t22 155q2 31 -7 45t-35 14h-19q11 50 19 130q125 -2 195 -2q42 0 117.5 1t76.5 1q-14 -75 -18 -130h-9q-51 0 -68 -59q-8 -27 -27 -155t-21 -156q-2 -30 7 -44t41 -14h15q-15 -77 -18 -133q-124 2 -194 2zM424 748
l-14 -11q-72 22 -129 73q-31 -24 -74.5 -46t-71.5 -26l-11 11q39 92 132 152h88q60 -62 80 -153z" />
    <glyph glyph-name="Idieresis" unicode="&#xcf;" horiz-adv-x="430" 
d="M-23 -2q11 48 19 133h17q28 0 36 10t17 47q8 32 28 157t22 155q2 31 -7 45t-35 14h-19q11 50 19 130q125 -2 195 -2q42 0 117.5 1t76.5 1q-14 -75 -18 -130h-9q-51 0 -68 -59q-8 -27 -27 -155t-21 -156q-2 -30 7 -44t41 -14h15q-15 -77 -18 -133q-124 2 -194 2zM258 811
q-3 -30 -22.5 -46.5t-47.5 -16.5q-27 0 -43.5 16.5t-13.5 46.5q4 30 23.5 47t46.5 17q28 0 44.5 -17t12.5 -47zM443 811q-3 -30 -22.5 -46.5t-47.5 -16.5t-44 16.5t-13 46.5q4 30 23.5 47t46.5 17q28 0 44.5 -17t12.5 -47z" />
    <glyph glyph-name="Eth" unicode="&#xd0;" horiz-adv-x="813" 
d="M500 688q159 0 232.5 -86.5t51.5 -252.5q-49 -349 -379 -349h-217l-211 -2q12 55 20 133h17q20 0 31.5 10.5t15.5 23.5t10 43l14 80q-10 0 -25 -0.5t-19 -0.5q15 43 21 106q9 -1 40 -1q13 90 14 108q2 31 -6.5 45t-34.5 14h-20q11 49 19 131q162 -3 209 -3q53 0 128 0.5
t89 0.5zM320 183q-2 -52 40 -52h12q64 0 100.5 47t55.5 172q15 82 6 128.5t-30.5 63.5t-62.5 17h-13q-44 0 -56 -39q-4 -12 -23 -129q61 0 99 2q-14 -52 -21 -106q-6 0 -38 0.5t-56 0.5q-13 -95 -13 -105z" />
    <glyph glyph-name="Ntilde" unicode="&#xd1;" horiz-adv-x="829" 
d="M422 689q79 -184 176 -366q17 93 22 158q5 78 -55 78h-43q11 50 19 130q78 -2 162 -2l162 2q-11 -50 -19 -130h-19q-63 0 -78 -78q-17 -86 -40.5 -241t-31.5 -241q-119 4 -238 0q-84 186 -192 402q-19 -104 -27 -193q-7 -77 57 -77h40q-12 -55 -20 -133q-106 2 -165 2
l-163 -2q11 52 19 133h21q32 0 52.5 21.5t27.5 55.5q33 151 43 283q3 33 -10 50.5t-51 17.5h-19q11 50 19 130q176 -4 351 0zM616 859h35q10 -127 -113 -127q-41 0 -64 16t-46 53q-10 17 -17 21.5t-19 4.5q-14 0 -22.5 -17.5t-5.5 -51.5h-35q-6 71 24 100.5t89 29.5
q39 0 63 -16.5t47 -52.5q10 -16 17 -21t18 -5q36 0 29 66z" />
    <glyph glyph-name="Ograve" unicode="&#xd2;" horiz-adv-x="806" 
d="M376 124q52 0 77 47t44 176q20 128 9.5 170.5t-60.5 42.5q-52 0 -77.5 -43t-44.5 -171q-18 -128 -7 -175t59 -47zM356 -25q-167 0 -256 95.5t-63 275.5q28 187 139.5 275.5t290.5 88.5q184 0 263.5 -93t53.5 -270q-15 -99 -54 -172t-96.5 -116t-126.5 -63.5t-151 -20.5z
M555 751l-8 -13q-38 -3 -89.5 8.5t-90.5 33.5q-44 24 -47.5 57.5t27 45t77.5 -5.5q35 -17 72 -53.5t59 -72.5z" />
    <glyph glyph-name="Oacute" unicode="&#xd3;" horiz-adv-x="806" 
d="M426 738l-8 13q22 36 59 72.5t72 53.5q47 17 77.5 5.5t27 -45t-47.5 -57.5q-39 -22 -90.5 -33.5t-89.5 -8.5zM376 124q52 0 77 47t44 176q20 128 9.5 170.5t-60.5 42.5q-52 0 -77.5 -43t-44.5 -171q-18 -128 -7 -175t59 -47zM356 -25q-167 0 -256 95.5t-63 275.5
q28 187 139.5 275.5t290.5 88.5q184 0 263.5 -93t53.5 -270q-15 -99 -54 -172t-96.5 -116t-126.5 -63.5t-151 -20.5z" />
    <glyph glyph-name="Ocircumflex" unicode="&#xd4;" horiz-adv-x="806" 
d="M625 748l-14 -11q-72 22 -129 73q-31 -24 -74.5 -46t-71.5 -26l-11 11q39 92 132 152h88q60 -62 80 -153zM376 124q52 0 77 47t44 176q20 128 9.5 170.5t-60.5 42.5q-52 0 -77.5 -43t-44.5 -171q-18 -128 -7 -175t59 -47zM356 -25q-167 0 -256 95.5t-63 275.5
q28 187 139.5 275.5t290.5 88.5q184 0 263.5 -93t53.5 -270q-15 -99 -54 -172t-96.5 -116t-126.5 -63.5t-151 -20.5z" />
    <glyph glyph-name="Otilde" unicode="&#xd5;" horiz-adv-x="806" 
d="M376 124q52 0 77 47t44 176q20 128 9.5 170.5t-60.5 42.5q-52 0 -77.5 -43t-44.5 -171q-18 -128 -7 -175t59 -47zM356 -25q-167 0 -256 95.5t-63 275.5q28 187 139.5 275.5t290.5 88.5q184 0 263.5 -93t53.5 -270q-15 -99 -54 -172t-96.5 -116t-126.5 -63.5t-151 -20.5z
M610 859h35q10 -127 -113 -127q-41 0 -64 16t-46 53q-10 17 -17 21.5t-19 4.5q-14 0 -22.5 -17.5t-5.5 -51.5h-35q-6 71 24 100.5t89 29.5q39 0 63 -16.5t47 -52.5q10 -16 17 -21t18 -5q36 0 29 66z" />
    <glyph glyph-name="Odieresis" unicode="&#xd6;" horiz-adv-x="806" 
d="M454 811q-3 -30 -22.5 -46.5t-47.5 -16.5q-27 0 -43.5 16.5t-13.5 46.5q4 30 23.5 47t46.5 17q28 0 44.5 -17t12.5 -47zM639 811q-3 -30 -22.5 -46.5t-47.5 -16.5t-44 16.5t-13 46.5q4 30 23.5 47t46.5 17q28 0 44.5 -17t12.5 -47zM376 124q52 0 77 47t44 176
q20 128 9.5 170.5t-60.5 42.5q-52 0 -77.5 -43t-44.5 -171q-18 -128 -7 -175t59 -47zM356 -25q-167 0 -256 95.5t-63 275.5q28 187 139.5 275.5t290.5 88.5q184 0 263.5 -93t53.5 -270q-15 -99 -54 -172t-96.5 -116t-126.5 -63.5t-151 -20.5z" />
    <glyph glyph-name="multiply" unicode="&#xd7;" 
d="M475 132l-97 -82q-60 81 -91 138q-58 -60 -135 -126l-65 81q61 52 149 107q-63 53 -113 117l97 81q49 -62 90 -136q52 57 135 130l66 -82q-65 -55 -151 -111q53 -47 115 -117z" />
    <glyph glyph-name="Oslash" unicode="&#xd8;" horiz-adv-x="806" 
d="M356 -25q-111 0 -190 44l-61 -59l-23 18l44 68q-119 100 -89 300q28 187 139.5 275.5t290.5 88.5q106 0 179 -32l64 61l22 -17l-44 -68q128 -88 96 -307q-15 -99 -54 -172t-96.5 -116t-126.5 -63.5t-151 -20.5zM376 124q52 0 77 47t44 176q9 58 12 96l-84 -96l-112 -145
q2 -43 17 -60.5t46 -17.5zM314 268l91 103l103 134q-4 31 -18.5 43t-43.5 12q-52 0 -77.5 -43t-44.5 -171q-6 -38 -10 -78z" />
    <glyph glyph-name="Ugrave" unicode="&#xd9;" horiz-adv-x="809" 
d="M80 257q34 211 36 243q2 30 -8 44.5t-36 14.5h-17q11 50 19 130q138 -2 213 -2q45 0 126.5 1t82.5 1q-13 -58 -20 -130h-32q-54 0 -68 -59q-7 -30 -34 -234q-10 -73 9 -104t70 -31q52 0 80.5 31t41.5 104q29 159 35 234q5 59 -49 59h-27q11 50 19 130q106 -2 165 -2
q35 0 98 1t66 1q-11 -50 -19 -130h-19q-26 0 -40 -14.5t-21 -44.5q-4 -17 -10.5 -61t-14 -100t-11.5 -82q-24 -151 -112.5 -216.5t-236.5 -65.5q-168 0 -240 62.5t-46 219.5zM550 751l-8 -13q-38 -3 -89.5 8.5t-90.5 33.5q-44 24 -47.5 57.5t27 45t77.5 -5.5
q35 -17 72 -53.5t59 -72.5z" />
    <glyph glyph-name="Uacute" unicode="&#xda;" horiz-adv-x="809" 
d="M469 738l-8 13q22 36 59 72.5t72 53.5q47 17 77.5 5.5t27 -45t-47.5 -57.5q-39 -22 -90.5 -33.5t-89.5 -8.5zM80 257q34 211 36 243q2 30 -8 44.5t-36 14.5h-17q11 50 19 130q138 -2 213 -2q45 0 126.5 1t82.5 1q-13 -58 -20 -130h-32q-54 0 -68 -59q-7 -30 -34 -234
q-10 -73 9 -104t70 -31q52 0 80.5 31t41.5 104q29 159 35 234q5 59 -49 59h-27q11 50 19 130q106 -2 165 -2q35 0 98 1t66 1q-11 -50 -19 -130h-19q-26 0 -40 -14.5t-21 -44.5q-4 -17 -10.5 -61t-14 -100t-11.5 -82q-24 -151 -112.5 -216.5t-236.5 -65.5q-168 0 -240 62.5
t-46 219.5z" />
    <glyph glyph-name="Ucircumflex" unicode="&#xdb;" horiz-adv-x="809" 
d="M664 748l-14 -11q-72 22 -129 73q-31 -24 -74.5 -46t-71.5 -26l-11 11q39 92 132 152h88q60 -62 80 -153zM80 257q34 211 36 243q2 30 -8 44.5t-36 14.5h-17q11 50 19 130q138 -2 213 -2q45 0 126.5 1t82.5 1q-13 -58 -20 -130h-32q-54 0 -68 -59q-7 -30 -34 -234
q-10 -73 9 -104t70 -31q52 0 80.5 31t41.5 104q29 159 35 234q5 59 -49 59h-27q11 50 19 130q106 -2 165 -2q35 0 98 1t66 1q-11 -50 -19 -130h-19q-26 0 -40 -14.5t-21 -44.5q-4 -17 -10.5 -61t-14 -100t-11.5 -82q-24 -151 -112.5 -216.5t-236.5 -65.5q-168 0 -240 62.5
t-46 219.5z" />
    <glyph glyph-name="Udieresis" unicode="&#xdc;" horiz-adv-x="809" 
d="M489 811q-3 -30 -22.5 -46.5t-47.5 -16.5q-27 0 -43.5 16.5t-13.5 46.5q4 30 23.5 47t46.5 17q28 0 44.5 -17t12.5 -47zM674 811q-3 -30 -22.5 -46.5t-47.5 -16.5t-44 16.5t-13 46.5q4 30 23.5 47t46.5 17q28 0 44.5 -17t12.5 -47zM80 257q34 211 36 243q2 30 -8 44.5
t-36 14.5h-17q11 50 19 130q138 -2 213 -2q45 0 126.5 1t82.5 1q-13 -58 -20 -130h-32q-54 0 -68 -59q-7 -30 -34 -234q-10 -73 9 -104t70 -31q52 0 80.5 31t41.5 104q29 159 35 234q5 59 -49 59h-27q11 50 19 130q106 -2 165 -2q35 0 98 1t66 1q-11 -50 -19 -130h-19
q-26 0 -40 -14.5t-21 -44.5q-4 -17 -10.5 -61t-14 -100t-11.5 -82q-24 -151 -112.5 -216.5t-236.5 -65.5q-168 0 -240 62.5t-46 219.5z" />
    <glyph glyph-name="Yacute" unicode="&#xdd;" horiz-adv-x="868" 
d="M720 480q-78 -108 -156 -242l-6 -44q-9 -63 50 -63h27q-11 -48 -19 -133q-148 2 -231 2l-232 -2q11 47 19 133h21q34 0 49.5 14t19.5 45l7 51q-45 150 -90 257q-14 34 -36 47.5t-70 13.5h-17q14 55 19 130q157 -2 246 -2l246 1q-14 -55 -19 -129h-14q-60 0 -35 -104
q9 -40 30 -95q43 67 58 95q52 104 -1 104h-14q14 55 19 130q104 -2 162 -2l161 2q-14 -55 -19 -130h-14q-67 0 -99.5 -19t-61.5 -60zM542 738l-8 13q22 36 59 72.5t72 53.5q47 17 77.5 5.5t27 -45t-47.5 -57.5q-39 -22 -90.5 -33.5t-89.5 -8.5z" />
    <glyph glyph-name="Thorn" unicode="&#xde;" horiz-adv-x="700" 
d="M-22 -2q11 48 19 133h17q28 0 36 10t17 47q8 32 28 157t22 155q2 31 -7 45t-35 14h-19q11 50 19 130q125 -2 195 -2q42 0 117.5 1t76.5 1q-14 -75 -18 -130h-9q-38 0 -56 -29q78 3 79 3q135 0 204.5 -52t48.5 -149q-21 -96 -101 -133.5t-242 -37.5q-34 0 -49 1
q5 -31 48 -31h15q-15 -77 -18 -133q-124 2 -194 2zM364 424h-10q-8 -47 -24 -159q47 1 69 17t30 60q7 41 -6.5 61.5t-58.5 20.5z" />
    <glyph glyph-name="germandbls" unicode="&#xdf;" horiz-adv-x="641" 
d="M36 412l11 58l67 -2q97 242 311 242q77 0 123 -32.5t58.5 -78t3.5 -99.5q-18 -108 -113 -135q78 -15 109 -75t12 -144q-37 -163 -217 -163q-94 0 -123.5 52.5t19.5 149.5l36 -8q-20 -39 -24.5 -64.5t1.5 -34.5t17 -9q20 0 34.5 26.5t28.5 91.5q18 82 -3 117.5t-70 31.5
q10 38 12 52q15 0 23 2t19.5 11t20.5 31t18 60q34 142 -13 142q-16 0 -26.5 -7t-24.5 -32t-27.5 -83.5t-27.5 -151.5q-43 -291 -128 -425.5t-220 -134.5q-60 0 -92 27.5t-23 67.5q5 25 24 40t46 15q30 0 45 -19t7 -45q-6 -20 -25.5 -30.5t-42.5 -9.5q8 -3 18 -3q28 0 49 17
t35.5 44.5t28 81t23 108t21.5 143.5q13 97 38 177z" />
    <glyph glyph-name="agrave" unicode="&#xe0;" horiz-adv-x="620" 
d="M612 206q-10 -103 -57.5 -167t-137.5 -64q-110 0 -114 95q-47 -95 -154 -95q-71 0 -104 51.5t-19 158.5q22 159 92.5 233.5t153.5 74.5q110 0 126 -86q48 33 61 63q65 -4 128 0q-46 -222 -60 -319q-10 -79 2 -79q22 0 41 134h42zM261 72q37 0 76 205q14 70 14 94.5
t-17 24.5q-39 0 -76 -206q-14 -74 -14 -96t17 -22zM464 541l-8 -13q-38 -3 -89.5 8.5t-90.5 33.5q-44 24 -47.5 57.5t27 45t77.5 -5.5q35 -17 72 -53.5t59 -72.5z" />
    <glyph glyph-name="aacute" unicode="&#xe1;" horiz-adv-x="620" 
d="M612 206q-10 -103 -57.5 -167t-137.5 -64q-110 0 -114 95q-47 -95 -154 -95q-71 0 -104 51.5t-19 158.5q22 159 92.5 233.5t153.5 74.5q110 0 126 -86q48 33 61 63q65 -4 128 0q-46 -222 -60 -319q-10 -79 2 -79q22 0 41 134h42zM261 72q37 0 76 205q14 70 14 94.5
t-17 24.5q-39 0 -76 -206q-14 -74 -14 -96t17 -22zM361 528l-8 13q22 36 59 72.5t72 53.5q47 17 77.5 5.5t27 -45t-47.5 -57.5q-39 -22 -90.5 -33.5t-89.5 -8.5z" />
    <glyph glyph-name="acircumflex" unicode="&#xe2;" horiz-adv-x="620" 
d="M612 206q-10 -103 -57.5 -167t-137.5 -64q-110 0 -114 95q-47 -95 -154 -95q-71 0 -104 51.5t-19 158.5q11 83 37.5 145t61.5 96t72 50.5t75 16.5q110 0 126 -86q48 33 61 63q65 -4 128 0q-50 -238 -60 -319q-11 -79 2 -79q22 0 41 134h42zM261 72q37 0 76 205
q14 70 14 94.5t-17 24.5q-37 0 -76 -206q-14 -75 -14 -94t17 -24zM540 538l-14 -11q-72 22 -129 73q-31 -24 -74.5 -46t-71.5 -26l-11 11q39 92 132 152h88q60 -62 80 -153z" />
    <glyph glyph-name="atilde" unicode="&#xe3;" horiz-adv-x="620" 
d="M612 206q-10 -103 -57.5 -167t-137.5 -64q-110 0 -114 95q-47 -95 -154 -95q-71 0 -104 51.5t-19 158.5q11 83 37.5 145t61.5 96t72 50.5t75 16.5q110 0 126 -86q48 33 61 63q65 -4 128 0q-46 -222 -60 -319q-10 -79 2 -79q22 0 41 134h42zM261 72q37 0 76 205
q14 70 14 94.5t-17 24.5q-37 0 -76 -206q-14 -75 -14 -94t17 -24zM513 649h35q10 -127 -113 -127q-41 0 -64 16t-46 53q-10 17 -17 21.5t-19 4.5q-14 0 -22.5 -17.5t-5.5 -51.5h-35q-6 71 24 100.5t89 29.5q39 0 63 -16.5t47 -52.5q10 -16 17 -21t18 -5q36 0 29 66z" />
    <glyph glyph-name="adieresis" unicode="&#xe4;" horiz-adv-x="620" 
d="M612 206q-10 -103 -57.5 -167t-137.5 -64q-110 0 -114 95q-47 -95 -154 -95q-71 0 -104 51.5t-19 158.5q11 83 37.5 145t61.5 96t72 50.5t75 16.5q110 0 126 -86q48 33 61 63q65 -4 128 0q-50 -238 -60 -319q-11 -79 2 -79q22 0 41 134h42zM261 72q37 0 76 205
q14 70 14 94.5t-17 24.5q-37 0 -76 -206q-14 -75 -14 -94t17 -24zM369 591q-3 -30 -22.5 -46.5t-47.5 -16.5q-27 0 -43.5 16.5t-13.5 46.5q4 30 23.5 47t46.5 17q28 0 44.5 -17t12.5 -47zM554 591q-3 -30 -22.5 -46.5t-47.5 -16.5t-44 16.5t-13 46.5q4 30 23.5 47t46.5 17
q28 0 44.5 -17t12.5 -47z" />
    <glyph glyph-name="aring" unicode="&#xe5;" horiz-adv-x="620" 
d="M612 206q-10 -103 -57.5 -167t-137.5 -64q-110 0 -114 95q-47 -95 -154 -95q-71 0 -104 51.5t-19 158.5q11 83 37.5 145t61.5 96t72 50.5t75 16.5q110 0 126 -86q48 33 61 63q65 -4 128 0q-50 -238 -60 -319q-11 -79 2 -79q22 0 41 134h42zM261 72q37 0 76 205
q14 70 14 94.5t-17 24.5q-37 0 -76 -206q-14 -75 -14 -94t17 -24zM339 624q-2 -23 9 -35t32 -12q45 0 50 47q3 23 -8 36t-32 13q-20 0 -34 -13t-17 -36zM288 624q5 44 33 70.5t74 26.5q43 0 67 -27t19 -70q-5 -44 -32.5 -70t-72.5 -26q-43 0 -67.5 26.5t-20.5 69.5z" />
    <glyph glyph-name="ae" unicode="&#xe6;" horiz-adv-x="810" 
d="M640 190q67 -4 137 0q-17 -103 -76 -159t-185 -56q-85 0 -131 29.5t-57 93.5q-23 -61 -71.5 -92t-109.5 -31q-71 0 -104 51.5t-19 158.5q11 83 37.5 145t61.5 96t72 50.5t75 16.5q122 0 128 -100q76 100 221 100q104 0 150.5 -45.5t32.5 -121.5q-13 -73 -71.5 -98
t-181.5 -20q-11 -61 -4 -80.5t34 -19.5q24 0 37.5 19t23.5 63zM259 72q37 0 76 205q14 70 14 94.5t-17 24.5q-33 0 -76 -206q-15 -70 -14.5 -94t17.5 -24zM618 410q-9 0 -15 -9t-17 -44t-28 -109q26 1 38.5 15t23.5 58q22 89 -2 89z" />
    <glyph glyph-name="ccedilla" unicode="&#xe7;" horiz-adv-x="509" 
d="M138 -105l-12 28q48 15 62 53q-105 7 -142.5 67.5t-13.5 190.5q49 259 286 259q98 0 143 -37t40 -100q-9 -111 -108 -111q-39 0 -63.5 27t-12.5 74q14 55 77 57q-9 9 -25 9q-18 0 -30.5 -5t-27.5 -21.5t-28.5 -53t-27.5 -94.5q-17 -80 -12 -105t35 -25q24 0 37.5 19
t23.5 63q69 -4 137 0q-17 -99 -71.5 -155t-171.5 -60q-5 -21 -19 -35q44 1 75 -20t31 -61q0 -43 -34 -68t-91 -25q-76 0 -121 56l25 26q30 -32 65 -32q49 0 49 43q0 30 -23 39t-52 -3z" />
    <glyph glyph-name="egrave" unicode="&#xe8;" horiz-adv-x="508" 
d="M338 190q68 -4 137 0q-17 -103 -76 -159t-185 -56q-120 0 -164 61t-19 198q49 259 286 259q104 0 150.5 -45.5t32.5 -121.5q-13 -73 -71.5 -98t-181.5 -20q-11 -61 -4 -80.5t34 -19.5q24 0 37.5 19t23.5 63zM316 410q-9 0 -15 -9t-17 -44t-28 -109q26 1 38.5 15t23.5 58
q22 89 -2 89zM429 541l-8 -13q-38 -3 -89.5 8.5t-90.5 33.5q-44 24 -47.5 57.5t27 45t77.5 -5.5q35 -17 72 -53.5t59 -72.5z" />
    <glyph glyph-name="eacute" unicode="&#xe9;" horiz-adv-x="508" 
d="M271 528l-8 13q22 36 59 72.5t72 53.5q47 17 77.5 5.5t27 -45t-47.5 -57.5q-39 -22 -90.5 -33.5t-89.5 -8.5zM338 190q68 -4 137 0q-17 -103 -76 -159t-185 -56q-120 0 -164 61t-19 198q49 259 286 259q104 0 150.5 -45.5t32.5 -121.5q-13 -73 -71.5 -98t-181.5 -20
q-11 -61 -4 -80.5t34 -19.5q24 0 37.5 19t23.5 63zM316 410q-9 0 -15 -9t-17 -44t-28 -109q26 1 38.5 15t23.5 58q22 89 -2 89z" />
    <glyph glyph-name="ecircumflex" unicode="&#xea;" horiz-adv-x="508" 
d="M470 538l-14 -11q-72 22 -129 73q-31 -24 -74.5 -46t-71.5 -26l-11 11q39 92 132 152h88q60 -62 80 -153zM338 190q68 -4 137 0q-17 -103 -76 -159t-185 -56q-120 0 -164 61t-19 198q49 259 286 259q104 0 150.5 -45.5t32.5 -121.5q-13 -73 -71.5 -98t-181.5 -20
q-11 -61 -4 -80.5t34 -19.5q24 0 37.5 19t23.5 63zM316 410q-9 0 -15 -9t-17 -44t-28 -109q26 1 38.5 15t23.5 58q22 89 -2 89z" />
    <glyph glyph-name="edieresis" unicode="&#xeb;" horiz-adv-x="508" 
d="M295 601q-3 -30 -22.5 -46.5t-47.5 -16.5q-27 0 -43.5 16.5t-13.5 46.5q4 30 23.5 47t46.5 17q28 0 44.5 -17t12.5 -47zM480 601q-3 -30 -22.5 -46.5t-47.5 -16.5t-44 16.5t-13 46.5q4 30 23.5 47t46.5 17q28 0 44.5 -17t12.5 -47zM338 190q68 -4 137 0
q-17 -103 -76 -159t-185 -56q-120 0 -164 61t-19 198q49 259 286 259q104 0 150.5 -45.5t32.5 -121.5q-13 -73 -71.5 -98t-181.5 -20q-11 -61 -4 -80.5t34 -19.5q24 0 37.5 19t23.5 63zM316 410q-9 0 -15 -9t-17 -44t-28 -109q26 1 38.5 15t23.5 58q22 89 -2 89z" />
    <glyph glyph-name="igrave" unicode="&#xec;" horiz-adv-x="385" 
d="M318 285l-35 -143q-16 -70 3 -70q22 0 41 134h42q-10 -102 -56.5 -166.5t-132.5 -64.5q-88 0 -114.5 52.5t5.5 166.5l39 138q8 26 9 44t-8 20q-17 0 -30.5 -38.5t-18.5 -96.5h-41q12 102 57 167t122 65q81 0 111.5 -55t6.5 -153zM312 541l-8 -13q-38 -3 -89.5 8.5
t-90.5 33.5q-44 24 -47.5 57.5t27 45t77.5 -5.5q35 -17 72 -53.5t59 -72.5z" />
    <glyph glyph-name="iacute" unicode="&#xed;" horiz-adv-x="385" 
d="M200 528l-8 13q22 36 59 72.5t72 53.5q47 17 77.5 5.5t27 -45t-47.5 -57.5q-39 -22 -90.5 -33.5t-89.5 -8.5zM318 285l-35 -143q-16 -70 3 -70q22 0 41 134h42q-10 -102 -56.5 -166.5t-132.5 -64.5q-88 0 -114.5 52.5t5.5 166.5l39 138q8 26 9 44t-8 20
q-17 0 -30.5 -38.5t-18.5 -96.5h-41q12 102 57 167t122 65q81 0 111.5 -55t6.5 -153z" />
    <glyph glyph-name="icircumflex" unicode="&#xee;" horiz-adv-x="385" 
d="M379 538l-14 -11q-72 22 -129 73q-31 -24 -74.5 -46t-71.5 -26l-11 11q39 92 132 152h88q60 -62 80 -153zM318 285l-35 -143q-16 -70 3 -70q22 0 41 134h42q-10 -102 -56.5 -166.5t-132.5 -64.5q-88 0 -114.5 52.5t5.5 166.5l39 138q8 26 9 44t-8 20q-17 0 -30.5 -38.5
t-18.5 -96.5h-41q12 102 57 167t122 65q81 0 111.5 -55t6.5 -153z" />
    <glyph glyph-name="idieresis" unicode="&#xef;" horiz-adv-x="385" 
d="M204 601q-3 -30 -22.5 -46.5t-47.5 -16.5q-27 0 -43.5 16.5t-13.5 46.5q4 30 23.5 47t46.5 17q28 0 44.5 -17t12.5 -47zM389 601q-3 -30 -22.5 -46.5t-47.5 -16.5t-44 16.5t-13 46.5q4 30 23.5 47t46.5 17q28 0 44.5 -17t12.5 -47zM318 285l-35 -143q-16 -70 3 -70
q22 0 41 134h42q-10 -102 -56.5 -166.5t-132.5 -64.5q-88 0 -114.5 52.5t5.5 166.5l39 138q8 26 9 44t-8 20q-17 0 -30.5 -38.5t-18.5 -96.5h-41q12 102 57 167t122 65q81 0 111.5 -55t6.5 -153z" />
    <glyph glyph-name="eth" unicode="&#xf0;" horiz-adv-x="569" 
d="M287 520l-20 27l36 24q-38 14 -112 11l14 107q128 9 211 -32q17 16 39 33l19 -26l-31 -22q147 -97 104 -375q-23 -150 -102 -221t-201 -71q-114 0 -176 62.5t-41 197.5q10 67 34 116t55.5 74.5t63 37t64.5 11.5q82 0 108 -34q17 81 -22 115zM250 233q-10 -48 -14 -72.5
t-6 -48t2 -32t14 -8.5q30 0 65 161q29 131 23 151q-3 12 -14 12q-37 0 -70 -163z" />
    <glyph glyph-name="ntilde" unicode="&#xf1;" horiz-adv-x="648" 
d="M52 261h-41q12 102 58.5 167t126.5 65q98 0 107 -108q56 108 169 108q83 0 108.5 -57t2.5 -146l-38 -148q-19 -70 3 -70q21 0 40 134h42q-10 -103 -57.5 -167t-136.5 -64q-58 0 -90 31t-33.5 78.5t13.5 104.5l31 102q8 26 12 45.5t5 30.5t-1 18t-4.5 9t-6.5 2
q-23 0 -44 -55.5t-52 -210.5l-26 -130q-66 3 -103 3l-104 -3q51 225 68 332q11 64 0 64q-16 0 -29.5 -38.5t-19.5 -96.5zM516 649h35q10 -127 -113 -127q-41 0 -64 16t-46 53q-10 17 -17 21.5t-19 4.5q-14 0 -22.5 -17.5t-5.5 -51.5h-35q-6 71 24 100.5t89 29.5
q39 0 63 -16.5t47 -52.5q10 -16 17 -21t18 -5q36 0 29 66z" />
    <glyph glyph-name="ograve" unicode="&#xf2;" horiz-adv-x="562" 
d="M245 72q36 0 77 219q16 84 12 95q-2 10 -15 10q-40 0 -76 -192q-7 -39 -10.5 -60.5t-4 -39.5t3.5 -25t13 -7zM238 -25q-114 0 -170.5 63t-43.5 178q8 76 36 131.5t70.5 86.5t91 45t104.5 14q232 0 213 -237q-10 -133 -91.5 -207t-209.5 -74zM426 541l-8 -13
q-38 -3 -89.5 8.5t-90.5 33.5q-44 24 -47.5 57.5t27 45t77.5 -5.5q35 -17 72 -53.5t59 -72.5z" />
    <glyph glyph-name="oacute" unicode="&#xf3;" horiz-adv-x="562" 
d="M306 528l-8 13q22 36 59 72.5t72 53.5q47 17 77.5 5.5t27 -45t-47.5 -57.5q-39 -22 -90.5 -33.5t-89.5 -8.5zM245 72q36 0 77 219q16 84 12 95q-2 10 -15 10q-40 0 -76 -192q-7 -39 -10.5 -60.5t-4 -39.5t3.5 -25t13 -7zM238 -25q-114 0 -170.5 63t-43.5 178
q8 76 36 131.5t70.5 86.5t91 45t104.5 14q232 0 213 -237q-10 -133 -91.5 -207t-209.5 -74z" />
    <glyph glyph-name="ocircumflex" unicode="&#xf4;" horiz-adv-x="562" 
d="M495 538l-14 -11q-72 22 -129 73q-31 -24 -74.5 -46t-71.5 -26l-11 11q39 92 132 152h88q60 -62 80 -153zM245 72q36 0 77 219q16 84 12 95q-2 10 -15 10q-40 0 -76 -192q-7 -39 -10.5 -60.5t-4 -39.5t3.5 -25t13 -7zM238 -25q-114 0 -170.5 63t-43.5 178q8 76 36 131.5
t70.5 86.5t91 45t104.5 14q232 0 213 -237q-10 -133 -91.5 -207t-209.5 -74z" />
    <glyph glyph-name="otilde" unicode="&#xf5;" horiz-adv-x="562" 
d="M245 72q36 0 77 219q16 84 12 95q-2 10 -15 10q-40 0 -76 -192q-7 -39 -10.5 -60.5t-4 -39.5t3.5 -25t13 -7zM238 -25q-114 0 -170.5 63t-43.5 178q8 76 36 131.5t70.5 86.5t91 45t104.5 14q232 0 213 -237q-10 -133 -91.5 -207t-209.5 -74zM484 649h35
q10 -127 -113 -127q-41 0 -64 16t-46 53q-10 17 -17 21.5t-19 4.5q-14 0 -22.5 -17.5t-5.5 -51.5h-35q-6 71 24 100.5t89 29.5q39 0 63 -16.5t47 -52.5q10 -16 17 -21t18 -5q36 0 29 66z" />
    <glyph glyph-name="odieresis" unicode="&#xf6;" horiz-adv-x="562" 
d="M319 601q-3 -30 -22.5 -46.5t-47.5 -16.5q-27 0 -43.5 16.5t-13.5 46.5q4 30 23.5 47t46.5 17q28 0 44.5 -17t12.5 -47zM504 601q-3 -30 -22.5 -46.5t-47.5 -16.5t-44 16.5t-13 46.5q4 30 23.5 47t46.5 17q28 0 44.5 -17t12.5 -47zM245 72q36 0 77 219q16 84 12 95
q-2 10 -15 10q-40 0 -76 -192q-7 -39 -10.5 -60.5t-4 -39.5t3.5 -25t13 -7zM238 -25q-114 0 -170.5 63t-43.5 178q8 76 36 131.5t70.5 86.5t91 45t104.5 14q232 0 213 -237q-10 -133 -91.5 -207t-209.5 -74z" />
    <glyph glyph-name="divide" unicode="&#xf7;" 
d="M344 101q0 -31 -19 -49t-55 -18q-74 0 -74 68q0 30 21 50t53 20q35 0 54.5 -20.5t19.5 -50.5zM66 193l21 115q47 0 116.5 -6.5t102.5 -16.5q36 10 108 16.5t119 6.5l-21 -115q-47 0 -116.5 6.5t-102.5 16.5q-36 -10 -108 -16.5t-119 -6.5zM404 397q0 -31 -19 -49t-55 -18
q-74 0 -74 68q0 30 21 50t53 20q35 0 54.5 -20.5t19.5 -50.5z" />
    <glyph glyph-name="oslash" unicode="&#xf8;" horiz-adv-x="562" 
d="M238 -25q-69 0 -119 25l-43 -43l-17 14l30 47q-80 62 -65 198q8 76 36 131.5t70.5 86.5t91 45t104.5 14q73 0 122 -25l63 67l16 -13l-47 -75q70 -59 59 -191q-10 -133 -91.5 -207t-209.5 -74zM243 204l-1 -2v-2l46 53l36 49q14 76 10 86q-4 8 -15 8q-40 0 -76 -192z
M245 72q32 0 69 178l-12 -13l-70 -94q-6 -37 -3 -54t16 -17z" />
    <glyph glyph-name="ugrave" unicode="&#xf9;" horiz-adv-x="647" 
d="M595 206h42q-11 -101 -56.5 -166t-122.5 -65q-58 0 -86 25.5t-30 84.5q-51 -110 -162 -110q-85 0 -109.5 56.5t-2.5 146.5l35 139q17 68 10 77q-2 2 -6 2q-17 0 -30 -38t-18 -97h-41q13 103 58.5 167.5t126.5 64.5q62 0 92.5 -29.5t30.5 -77t-12 -107.5l-24 -102
q-6 -27 -9.5 -45t-4.5 -32.5t2.5 -21t10.5 -6.5q38 0 93 268l27 132q67 -2 104 -2l103 2q-26 -121 -66 -327q-10 -60 -5 -69q2 -4 7 -4q24 0 43 134zM424 541l-8 -13q-38 -3 -89.5 8.5t-90.5 33.5q-44 24 -47.5 57.5t27 45t77.5 -5.5q35 -17 72 -53.5t59 -72.5z" />
    <glyph glyph-name="uacute" unicode="&#xfa;" horiz-adv-x="647" 
d="M318 528l-8 13q22 36 59 72.5t72 53.5q47 17 77.5 5.5t27 -45t-47.5 -57.5q-39 -22 -90.5 -33.5t-89.5 -8.5zM595 206h42q-11 -101 -56.5 -166t-122.5 -65q-58 0 -86 25.5t-30 84.5q-51 -110 -162 -110q-85 0 -109.5 56.5t-2.5 146.5l35 139q17 68 10 77q-2 2 -6 2
q-17 0 -30 -38t-18 -97h-41q13 103 58.5 167.5t126.5 64.5q62 0 92.5 -29.5t30.5 -77t-12 -107.5l-24 -102q-6 -27 -9.5 -45t-4.5 -32.5t2.5 -21t10.5 -6.5q38 0 93 268l27 132q67 -2 104 -2l103 2q-26 -121 -66 -327q-10 -60 -5 -69q2 -4 7 -4q24 0 43 134z" />
    <glyph glyph-name="ucircumflex" unicode="&#xfb;" horiz-adv-x="647" 
d="M517 538l-14 -11q-72 22 -129 73q-31 -24 -74.5 -46t-71.5 -26l-11 11q39 92 132 152h88q60 -62 80 -153zM595 206h42q-11 -101 -56.5 -166t-122.5 -65q-58 0 -86 25.5t-30 84.5q-51 -110 -162 -110q-85 0 -109.5 56.5t-2.5 146.5l35 139q17 68 10 77q-2 2 -6 2
q-17 0 -30 -38t-18 -97h-41q13 103 58.5 167.5t126.5 64.5q62 0 92.5 -29.5t30.5 -77t-12 -107.5l-24 -102q-6 -27 -9.5 -45t-4.5 -32.5t2.5 -21t10.5 -6.5q38 0 93 268l27 132q67 -2 104 -2l103 2q-26 -121 -66 -327q-10 -60 -5 -69q2 -4 7 -4q24 0 43 134z" />
    <glyph glyph-name="udieresis" unicode="&#xfc;" horiz-adv-x="647" 
d="M356 601q-3 -30 -22.5 -46.5t-47.5 -16.5q-27 0 -43.5 16.5t-13.5 46.5q4 30 23.5 47t46.5 17q28 0 44.5 -17t12.5 -47zM541 601q-3 -30 -22.5 -46.5t-47.5 -16.5t-44 16.5t-13 46.5q4 30 23.5 47t46.5 17q28 0 44.5 -17t12.5 -47zM595 206h42q-11 -101 -56.5 -166
t-122.5 -65q-58 0 -86 25.5t-30 84.5q-51 -110 -162 -110q-85 0 -109.5 56.5t-2.5 146.5l35 139q17 68 10 77q-2 2 -6 2q-17 0 -30 -38t-18 -97h-41q13 103 58.5 167.5t126.5 64.5q62 0 92.5 -29.5t30.5 -77t-12 -107.5l-24 -102q-6 -27 -9.5 -45t-4.5 -32.5t2.5 -21
t10.5 -6.5q38 0 93 268l27 132q67 -2 104 -2l103 2q-26 -121 -66 -327q-10 -60 -5 -69q2 -4 7 -4q24 0 43 134z" />
    <glyph glyph-name="yacute" unicode="&#xfd;" horiz-adv-x="606" 
d="M59 261h-41q12 103 57.5 167.5t126.5 64.5q165 0 112 -214l-25 -102q-25 -105 0 -105q10 0 22.5 20.5t28 69t29.5 118.5l40 192q40 -2 102 -2l100 2q-59 -269 -88 -439q-12 -67 -41 -114t-71.5 -72t-90.5 -36t-107 -11q-89 0 -131 25.5t-42 64.5q0 36 21.5 55.5
t52.5 19.5q26 0 43.5 -14t17.5 -37q0 -28 -17.5 -45t-44.5 -18q32 -17 75 -17q20 0 36.5 5t28 12t21 22t15 25.5t11 33t8 35t7 40.5t6.5 41q-52 -73 -141 -73q-47 0 -76.5 19t-38.5 50.5t-8 64t11 69.5l35 139q17 67 11 76q-2 3 -7 3q-34 0 -48 -135zM338 528l-8 13
q22 36 59 72.5t72 53.5q47 17 77.5 5.5t27 -45t-47.5 -57.5q-39 -22 -90.5 -33.5t-89.5 -8.5z" />
    <glyph glyph-name="thorn" unicode="&#xfe;" horiz-adv-x="584" 
d="M303 498l-16 -79q49 74 143 74q70 0 103.5 -58t21.5 -152q-41 -308 -249 -308q-71 0 -103 35l-7 -35q-7 -40 26 -40h31q-14 -53 -23 -110q-100 2 -156 2l-156 -2q8 26 21 110h10q34 0 41 40q7 34 34.5 158.5t49 227.5t29.5 159q10 61 -27 61h-14l7 108q129 -4 257 0
q0 -76 -23 -191zM318 396q-37 0 -76 -205q-22 -119 2 -119q37 0 76 206q22 118 -2 118z" />
    <glyph glyph-name="ydieresis" unicode="&#xff;" horiz-adv-x="606" 
d="M59 261h-41q12 103 57.5 167.5t126.5 64.5q165 0 112 -214l-25 -102q-25 -105 0 -105q10 0 22.5 20.5t28 69t29.5 118.5l40 192q40 -2 102 -2l100 2q-59 -269 -88 -439q-12 -67 -41 -114t-71.5 -72t-90.5 -36t-107 -11q-89 0 -131 25.5t-42 64.5q0 36 21.5 55.5
t52.5 19.5q26 0 43.5 -14t17.5 -37q0 -28 -17.5 -45t-44.5 -18q32 -17 75 -17q20 0 36.5 5t28 12t21 22t15 25.5t11 33t8 35t7 40.5t6.5 41q-52 -73 -141 -73q-47 0 -76.5 19t-38.5 50.5t-8 64t11 69.5l35 139q17 67 11 76q-2 3 -7 3q-34 0 -48 -135zM354 601
q-3 -30 -22.5 -46.5t-47.5 -16.5q-27 0 -43.5 16.5t-13.5 46.5q4 30 23.5 47t46.5 17q28 0 44.5 -17t12.5 -47zM539 601q-3 -30 -22.5 -46.5t-47.5 -16.5t-44 16.5t-13 46.5q4 30 23.5 47t46.5 17q28 0 44.5 -17t12.5 -47z" />
    <glyph glyph-name="Amacron" unicode="&#x100;" horiz-adv-x="880" 
d="M452 211q-92 2 -190 0q-18 -46 -11 -63t38 -17h32q-12 -55 -20 -133q-103 2 -162 2l-163 -2q13 60 20 133h14q42 0 65.5 20t52.5 73q158 285 252 474q83 -2 129 -2l129 2q41 -201 110 -474q14 -55 33.5 -74t49.5 -19h16q-13 -60 -20 -133q-154 2 -240 2l-240 -2
q13 60 20 133h36q34 0 44.5 19t4.5 61zM290 270q106 0 151 1l-44 210q-76 -149 -107 -211zM362 758q15 43 21 106q46 -2 148 -2t148 2q-14 -52 -21 -106q-46 2 -148 2t-148 -2z" />
    <glyph glyph-name="amacron" unicode="&#x101;" horiz-adv-x="620" 
d="M612 206q-10 -103 -57.5 -167t-137.5 -64q-110 0 -114 95q-47 -95 -154 -95q-71 0 -104 51.5t-19 158.5q11 83 37.5 145t61.5 96t72 50.5t75 16.5q110 0 126 -86q48 33 61 63q65 -4 128 0q-50 -238 -60 -319q-11 -79 2 -79q22 0 41 134h42zM261 72q37 0 76 205
q14 70 14 94.5t-17 24.5q-37 0 -76 -206q-14 -75 -14 -94t17 -24zM235 538q15 43 21 106q46 -2 148 -2t148 2q-14 -52 -21 -106q-46 2 -148 2t-148 -2z" />
    <glyph glyph-name="Abreve" unicode="&#x102;" horiz-adv-x="880" 
d="M452 211q-92 2 -190 0q-18 -46 -11 -63t38 -17h32q-12 -55 -20 -133q-103 2 -162 2l-163 -2q13 60 20 133h14q42 0 65.5 20t52.5 73q158 285 252 474q83 -2 129 -2l129 2q41 -201 110 -474q14 -55 33.5 -74t49.5 -19h16q-13 -60 -20 -133q-154 2 -240 2l-240 -2
q13 60 20 133h36q34 0 44.5 19t4.5 61zM290 270q106 0 151 1l-44 210q-76 -149 -107 -211zM491 744q-76 0 -98.5 40t-2.5 105l35 1q-2 -22 18 -33t66 -11q84 0 100 44l35 -1q-2 -65 -39.5 -105t-113.5 -40z" />
    <glyph glyph-name="abreve" unicode="&#x103;" horiz-adv-x="620" 
d="M612 206q-10 -103 -57.5 -167t-137.5 -64q-110 0 -114 95q-47 -95 -154 -95q-71 0 -104 51.5t-19 158.5q11 83 37.5 145t61.5 96t72 50.5t75 16.5q110 0 126 -86q48 33 61 63q65 -4 128 0q-50 -238 -60 -319q-11 -79 2 -79q22 0 41 134h42zM261 72q37 0 76 205
q14 70 14 94.5t-17 24.5q-37 0 -76 -206q-14 -75 -14 -94t17 -24zM370 534q-76 0 -98.5 40t-2.5 105l35 1q-2 -22 18 -33t66 -11q84 0 100 44l35 -1q-2 -65 -39.5 -105t-113.5 -40z" />
    <glyph glyph-name="Aogonek" unicode="&#x104;" horiz-adv-x="880" 
d="M730 -54q-4 -152 -142 -152q-49 0 -80.5 22.5t-27.5 69.5q3 39 28.5 69t65.5 45l-227 -2q13 60 20 133h36q34 0 44.5 19t4.5 61q-92 2 -190 0q-18 -46 -11 -63t38 -17h32q-12 -55 -20 -133q-103 2 -162 2l-163 -2q13 60 20 133h14q42 0 65.5 20t52.5 73q158 285 252 474
q83 -2 129 -2l129 2q41 -201 110 -474q14 -55 33.5 -74t49.5 -19h16q-13 -60 -20 -133q-100 2 -184 2q-31 -7 -47.5 -24t-16.5 -39q0 -38 45 -38q52 0 66 53zM290 270q106 0 151 1l-44 210q-76 -149 -107 -211z" />
    <glyph glyph-name="aogonek" unicode="&#x105;" horiz-adv-x="620" 
d="M632 -54q-4 -152 -142 -152q-49 0 -80.5 22.5t-27.5 69.5q3 55 59 91q-16 -2 -24 -2q-110 0 -114 95q-47 -95 -154 -95q-71 0 -104 51.5t-19 158.5q11 83 37.5 145t61.5 96t72 50.5t75 16.5q110 0 126 -86q48 33 61 63q65 -4 128 0q-46 -222 -60 -319q-10 -79 2 -79
q22 0 41 134h42q-11 -124 -75 -184q-29 -27 -40.5 -45.5t-11.5 -39.5q0 -38 41 -38q52 0 66 53zM261 72q37 0 76 205q14 70 14 94.5t-17 24.5q-39 0 -76 -206q-14 -74 -14 -96t17 -22z" />
    <glyph glyph-name="Cacute" unicode="&#x106;" horiz-adv-x="690" 
d="M388 738l-8 13q22 36 59 72.5t72 53.5q47 17 77.5 5.5t27 -45t-47.5 -57.5q-39 -22 -90.5 -33.5t-89.5 -8.5zM385 710q94 0 171 -44q26 -16 46.5 -7t27.5 41q16 -2 48.5 -2t48.5 2q-32 -65 -54 -278q-58 3 -81 3l-89 -3q11 70 -5 104t-67 34q-36 0 -56.5 -15t-37.5 -61.5
t-31 -137.5q-10 -69 -10.5 -113t9.5 -66t24 -29.5t37 -7.5q54 0 81 32t35 107q58 -2 90 -2l90 2q-19 -151 -99.5 -222.5t-234.5 -71.5q-177 0 -252 88.5t-47 282.5q28 180 120.5 272t235.5 92z" />
    <glyph glyph-name="cacute" unicode="&#x107;" horiz-adv-x="509" 
d="M295 528l-8 13q22 36 59 72.5t72 53.5q47 17 77.5 5.5t27 -45t-47.5 -57.5q-39 -22 -90.5 -33.5t-89.5 -8.5zM215 -25q-120 0 -164 61t-19 198q49 259 286 259q98 0 143 -37t40 -100q-9 -111 -108 -111q-39 0 -63.5 27t-12.5 74q14 55 77 57q-9 9 -25 9q-18 0 -30.5 -5
t-27.5 -21.5t-28.5 -53t-27.5 -94.5q-17 -80 -12 -105t35 -25q24 0 37.5 19t23.5 63q69 -4 137 0q-17 -103 -76 -159t-185 -56z" />
    <glyph glyph-name="Ccircumflex" unicode="&#x108;" horiz-adv-x="690" 
d="M560 748l-14 -11q-72 22 -129 73q-31 -24 -74.5 -46t-71.5 -26l-11 11q39 92 132 152h88q60 -62 80 -153zM385 710q94 0 171 -44q26 -16 46.5 -7t27.5 41q16 -2 48.5 -2t48.5 2q-32 -65 -54 -278q-58 3 -81 3l-89 -3q11 70 -5 104t-67 34q-36 0 -56.5 -15t-37.5 -61.5
t-31 -137.5q-10 -69 -10.5 -113t9.5 -66t24 -29.5t37 -7.5q54 0 81 32t35 107q58 -2 90 -2l90 2q-19 -151 -99.5 -222.5t-234.5 -71.5q-177 0 -252 88.5t-47 282.5q28 180 120.5 272t235.5 92z" />
    <glyph glyph-name="ccircumflex" unicode="&#x109;" horiz-adv-x="509" 
d="M481 538l-14 -11q-72 22 -129 73q-31 -24 -74.5 -46t-71.5 -26l-11 11q39 92 132 152h88q60 -62 80 -153zM215 -25q-120 0 -164 61t-19 198q49 259 286 259q98 0 143 -37t40 -100q-9 -111 -108 -111q-39 0 -63.5 27t-12.5 74q14 55 77 57q-9 9 -25 9q-18 0 -30.5 -5
t-27.5 -21.5t-28.5 -53t-27.5 -94.5q-17 -80 -12 -105t35 -25q24 0 37.5 19t23.5 63q69 -4 137 0q-17 -103 -76 -159t-185 -56z" />
    <glyph glyph-name="Cdotaccent" unicode="&#x10a;" horiz-adv-x="690" 
d="M385 710q94 0 171 -44q26 -16 46.5 -7t27.5 41q16 -2 48.5 -2t48.5 2q-32 -65 -54 -278q-58 3 -81 3l-89 -3q11 70 -5 104t-67 34q-36 0 -56.5 -15t-37.5 -61.5t-31 -137.5q-10 -69 -10.5 -113t9.5 -66t24 -29.5t37 -7.5q54 0 81 32t35 107q58 -2 90 -2l90 2
q-19 -151 -99.5 -222.5t-234.5 -71.5q-177 0 -252 88.5t-47 282.5q28 180 120.5 272t235.5 92zM498 815q-3 -32 -25 -54.5t-58 -22.5t-53.5 22t-14.5 55q3 34 25.5 54.5t55.5 20.5q35 0 54 -20t16 -55z" />
    <glyph glyph-name="cdotaccent" unicode="&#x10b;" horiz-adv-x="509" 
d="M215 -25q-120 0 -164 61t-19 198q49 259 286 259q98 0 143 -37t40 -100q-9 -111 -108 -111q-39 0 -63.5 27t-12.5 74q14 55 77 57q-9 9 -25 9q-18 0 -30.5 -5t-27.5 -21.5t-28.5 -53t-27.5 -94.5q-17 -80 -12 -105t35 -25q24 0 37.5 19t23.5 63q69 -4 137 0
q-17 -103 -76 -159t-185 -56zM404 605q-3 -32 -25 -54.5t-58 -22.5t-53.5 22t-14.5 55q3 34 25.5 54.5t55.5 20.5q35 0 54 -20t16 -55z" />
    <glyph glyph-name="Ccaron" unicode="&#x10c;" horiz-adv-x="690" 
d="M299 891l14 11q57 -18 119 -73q29 23 77.5 45.5t78.5 26.5l11 -11q-40 -95 -129 -152h-88q-64 66 -83 153zM385 710q94 0 171 -44q26 -16 46.5 -7t27.5 41q16 -2 48.5 -2t48.5 2q-32 -65 -54 -278q-58 3 -81 3l-89 -3q11 70 -5 104t-67 34q-36 0 -56.5 -15t-37.5 -61.5
t-31 -137.5q-10 -69 -10.5 -113t9.5 -66t24 -29.5t37 -7.5q54 0 81 32t35 107q58 -2 90 -2l90 2q-19 -151 -99.5 -222.5t-234.5 -71.5q-177 0 -252 88.5t-47 282.5q28 180 120.5 272t235.5 92z" />
    <glyph glyph-name="ccaron" unicode="&#x10d;" horiz-adv-x="509" 
d="M199 681l14 11q57 -18 119 -73q29 23 77.5 45.5t78.5 26.5l11 -11q-40 -95 -129 -152h-88q-64 66 -83 153zM215 -25q-120 0 -164 61t-19 198q49 259 286 259q98 0 143 -37t40 -100q-9 -111 -108 -111q-39 0 -63.5 27t-12.5 74q14 55 77 57q-9 9 -25 9q-18 0 -30.5 -5
t-27.5 -21.5t-28.5 -53t-27.5 -94.5q-17 -80 -12 -105t35 -25q24 0 37.5 19t23.5 63q69 -4 137 0q-17 -103 -76 -159t-185 -56z" />
    <glyph glyph-name="Dcaron" unicode="&#x10e;" horiz-adv-x="813" 
d="M301 891l14 11q57 -18 119 -73q29 23 77.5 45.5t78.5 26.5l11 -11q-40 -95 -129 -152h-88q-64 66 -83 153zM500 688q159 0 232.5 -86.5t51.5 -252.5q-49 -349 -379 -349h-217l-211 -2q12 55 20 133h17q20 0 31.5 10.5t15.5 23.5t10 43q8 40 26 152.5t19 139.5
q2 31 -6.5 45t-34.5 14h-20q11 49 19 131q162 -3 209 -3q53 0 128 0.5t89 0.5zM320 183q-2 -52 40 -52h12q64 0 100.5 47t55.5 172q15 82 6 128.5t-30.5 63.5t-62.5 17h-13q-44 0 -56 -39q-6 -20 -28.5 -167t-23.5 -170z" />
    <glyph glyph-name="dcaron" unicode="&#x10f;" horiz-adv-x="770" 
d="M694 560q-50 0 -47 63q2 32 21.5 50.5t53.5 18.5t50.5 -22.5t13.5 -61.5q-4 -61 -51 -98t-113 -45l-4 20q107 18 127 96q-14 -21 -51 -21zM594 533q-55 -252 -76 -382q-8 -47 -8 -63t10 -16q22 0 41 134h42q-10 -103 -57.5 -167t-136.5 -64q-96 0 -102 98
q-47 -98 -155 -98q-72 0 -106 52t-20 158q11 83 38 145t62.5 96t73 50.5t75.5 16.5q79 0 94 -58l18 85q14 61 -27 61h-14q9 37 14 108q125 -4 250 0q0 -81 -16 -156zM263 72q37 0 76 205q22 119 -2 119q-37 0 -76 -206q-22 -118 2 -118z" />
    <glyph glyph-name="Dcroat" unicode="&#x110;" horiz-adv-x="813" 
d="M500 688q159 0 232.5 -86.5t51.5 -252.5q-49 -349 -379 -349h-217l-211 -2q12 55 20 133h17q28 0 39 18t18 59l14 80q-10 0 -25 -0.5t-19 -0.5q15 43 21 106q9 -1 40 -1q13 90 14 108q2 31 -6.5 45t-34.5 14h-20q11 49 19 131q162 -3 209 -3q53 0 128 0.5t89 0.5z
M320 183q-2 -52 40 -52h12q64 0 100.5 47t55.5 172q15 82 6 128.5t-30.5 63.5t-62.5 17h-13q-44 0 -56 -39q-4 -12 -23 -129q61 0 99 2q-14 -52 -21 -106q-6 0 -38 0.5t-56 0.5q-13 -95 -13 -105z" />
    <glyph glyph-name="dcroat" unicode="&#x111;" horiz-adv-x="612" 
d="M335 498q8 35 9 48q11 -1 46 -1q0 36 -30 36h-14q9 37 14 108q125 -4 250 0q0 -74 -14 -144q33 0 44 1l-12 -48q-5 0 -19 0.5t-23 0.5q-54 -260 -68 -348q-8 -47 -8 -63t10 -16q22 0 41 134h42q-10 -103 -57.5 -167t-136.5 -64q-96 0 -102 98q-47 -98 -155 -98
q-72 0 -106 52t-20 158q11 83 38 145t62.5 96t73 50.5t75.5 16.5q79 0 94 -58l13 64q-10 0 -26 -0.5t-21 -0.5zM263 72q37 0 76 205q22 119 -2 119q-37 0 -76 -206q-22 -118 2 -118z" />
    <glyph glyph-name="Emacron" unicode="&#x112;" horiz-adv-x="723" 
d="M429 456l6 39h98q-16 -71 -28 -150q-11 -72 -17 -152h-96l5 36q6 43 -1 59.5t-40 17.5h-20q-13 -89 -14 -115q-3 -38 11.5 -49t48.5 -11h58q59 0 86 27.5t40 114.5l1 9q72 -4 144 0q-26 -106 -53 -286q-46 4 -224 4h-233l-224 -2q16 102 19 133h17q28 0 36 10t17 47
q10 37 29 158.5t21 151.5q3 61 -42 61h-19q14 55 19 130q138 -2 218 -2h222q207 2 255 8q-36 -146 -46 -268q-64 4 -137 -1l3 18q12 72 -12 93.5t-75 21.5h-56q-34 0 -51.5 -13.5t-25.5 -48.5q-7 -29 -21 -115h13q37 0 49.5 17t18.5 57zM303 758q15 43 21 106q46 -2 148 -2
t148 2q-14 -52 -21 -106q-46 2 -148 2t-148 -2z" />
    <glyph glyph-name="emacron" unicode="&#x113;" horiz-adv-x="508" 
d="M338 190q68 -4 137 0q-17 -103 -76 -159t-185 -56q-120 0 -164 61t-19 198q49 259 286 259q104 0 150.5 -45.5t32.5 -121.5q-13 -73 -71.5 -98t-181.5 -20q-11 -61 -4 -80.5t34 -19.5q24 0 37.5 19t23.5 63zM316 410q-9 0 -15 -9t-17 -44t-28 -109q26 1 38.5 15t23.5 58
q22 89 -2 89zM170 538q15 43 21 106q46 -2 148 -2t148 2q-14 -52 -21 -106q-46 2 -148 2t-148 -2z" />
    <glyph glyph-name="Ebreve" unicode="&#x114;" horiz-adv-x="723" 
d="M429 456l6 39h98q-16 -71 -28 -150q-11 -72 -17 -152h-96l5 36q6 43 -1 60t-40 17h-20q-13 -89 -14 -115q-3 -38 11.5 -49t48.5 -11h58q59 0 86 27.5t40 114.5l1 9q72 -4 144 0q-26 -106 -53 -286q-46 4 -224 4h-233l-224 -2q16 102 19 133h17q28 0 36 10t17 47
q10 37 29 158.5t21 151.5q3 61 -42 61h-19q14 55 19 130q138 -2 218 -2h222q207 2 255 8q-36 -146 -46 -268q-64 4 -137 -1l3 18q12 72 -12 93.5t-75 21.5h-56q-34 0 -51.5 -13.5t-25.5 -48.5q-7 -29 -21 -115h13q37 0 49.5 17t18.5 57zM437 744q-76 0 -98.5 40t-2.5 105
l35 1q-2 -22 18 -33t66 -11q84 0 100 44l35 -1q-2 -65 -39.5 -105t-113.5 -40z" />
    <glyph glyph-name="ebreve" unicode="&#x115;" horiz-adv-x="508" 
d="M338 190q68 -4 137 0q-17 -103 -76 -159t-185 -56q-120 0 -164 61t-19 198q49 259 286 259q104 0 150.5 -45.5t32.5 -121.5q-13 -73 -71.5 -98t-181.5 -20q-11 -61 -4 -80.5t34 -19.5q24 0 37.5 19t23.5 63zM316 410q-9 0 -15 -9t-17 -44t-28 -109q26 1 38.5 15t23.5 58
q22 89 -2 89zM332 534q-76 0 -98.5 40t-2.5 105l35 1q-2 -22 18 -33t66 -11q84 0 100 44l35 -1q-2 -65 -39.5 -105t-113.5 -40z" />
    <glyph glyph-name="Edotaccent" unicode="&#x116;" horiz-adv-x="723" 
d="M429 456l6 39h98q-16 -71 -28 -150q-11 -72 -17 -152h-96l5 36q6 43 -1 59.5t-40 17.5h-20q-13 -89 -14 -115q-3 -38 11.5 -49t48.5 -11h58q59 0 86 27.5t40 114.5l1 9q72 -4 144 0q-26 -106 -53 -286q-46 4 -224 4h-233l-224 -2q16 102 19 133h17q28 0 36 10t17 47
q10 37 29 158.5t21 151.5q3 61 -42 61h-19q14 55 19 130q138 -2 218 -2h222q207 2 255 8q-36 -146 -46 -268q-64 4 -137 -1l3 18q12 72 -12 93.5t-75 21.5h-56q-34 0 -51.5 -13.5t-25.5 -48.5q-7 -29 -21 -115h13q37 0 49.5 17t18.5 57zM499 815q-3 -32 -25 -54.5t-58 -22.5
t-53.5 22t-14.5 55q3 34 25.5 54.5t55.5 20.5q35 0 54 -20t16 -55z" />
    <glyph glyph-name="edotaccent" unicode="&#x117;" horiz-adv-x="508" 
d="M338 190q68 -4 137 0q-17 -103 -76 -159t-185 -56q-120 0 -164 61t-19 198q49 259 286 259q104 0 150.5 -45.5t32.5 -121.5q-13 -73 -71.5 -98t-181.5 -20q-11 -61 -4 -80.5t34 -19.5q24 0 37.5 19t23.5 63zM316 410q-9 0 -15 -9t-17 -44t-28 -109q26 1 38.5 15t23.5 58
q22 89 -2 89zM405 605q-3 -32 -25 -54.5t-58 -22.5t-53.5 22t-14.5 55q3 34 25.5 54.5t55.5 20.5q35 0 54 -20t16 -55z" />
    <glyph glyph-name="Eogonek" unicode="&#x118;" horiz-adv-x="723" 
d="M429 456l6 39h98q-16 -71 -28 -150q-11 -72 -17 -152h-96l5 36q6 43 -1 60t-40 17h-20q-13 -89 -14 -115q-3 -38 11.5 -49t48.5 -11h58q59 0 86 27.5t40 114.5l1 9q72 -4 144 0q-26 -106 -53 -286q-21 2 -93 4q-30 -7 -46 -24.5t-16 -38.5q0 -38 45 -38q52 0 66 53l40 -6
q-4 -152 -142 -152q-49 0 -80.5 22.5t-27.5 69.5q3 39 28.5 69t65.5 45h-297l-224 -2q16 102 19 133h17q28 0 36 10t17 47q10 37 29 158.5t21 151.5q3 61 -42 61h-19q14 55 19 130q138 -2 218 -2h222q207 2 255 8q-36 -146 -46 -268q-64 4 -137 -1l3 18q12 72 -12 93.5
t-75 21.5h-56q-34 0 -51.5 -13.5t-25.5 -48.5q-7 -29 -21 -115h13q37 0 49.5 17t18.5 57z" />
    <glyph glyph-name="eogonek" unicode="&#x119;" horiz-adv-x="508" 
d="M471 -54q-4 -152 -142 -152q-49 0 -80.5 22.5t-27.5 69.5q4 60 68 96q-37 -7 -75 -7q-120 0 -164 61t-19 198q51 259 286 259q104 0 150 -45.5t33 -121.5q-14 -73 -72 -98t-181 -20q-11 -61 -4 -80.5t34 -19.5q24 0 37.5 19t23.5 63q68 -4 137 0q-10 -64 -31 -101
t-67 -73q-53 -42 -53 -79q0 -38 41 -38q52 0 66 53zM316 410q-9 0 -15 -9t-17 -44t-28 -109q26 1 38.5 15t23.5 58q22 89 -2 89z" />
    <glyph glyph-name="Ecaron" unicode="&#x11a;" horiz-adv-x="723" 
d="M280 891l14 11q57 -18 119 -73q29 23 77.5 45.5t78.5 26.5l11 -11q-40 -95 -129 -152h-88q-64 66 -83 153zM429 456l6 39h98q-16 -71 -28 -150q-11 -72 -17 -152h-96l5 36q6 43 -1 59.5t-40 17.5h-20q-13 -89 -14 -115q-3 -38 11.5 -49t48.5 -11h58q59 0 86 27.5
t40 114.5l1 9q72 -4 144 0q-26 -106 -53 -286q-46 4 -224 4h-233l-224 -2q16 102 19 133h17q28 0 36 10t17 47q10 37 29 158.5t21 151.5q3 61 -42 61h-19q14 55 19 130q138 -2 218 -2h222q207 2 255 8q-36 -146 -46 -268q-64 4 -137 -1l3 18q12 72 -12 93.5t-75 21.5h-56
q-34 0 -51.5 -13.5t-25.5 -48.5q-7 -29 -21 -115h13q37 0 49.5 17t18.5 57z" />
    <glyph glyph-name="ecaron" unicode="&#x11b;" horiz-adv-x="508" 
d="M186 681l14 11q57 -18 119 -73q29 23 77.5 45.5t78.5 26.5l11 -11q-40 -95 -129 -152h-88q-64 66 -83 153zM338 190q68 -4 137 0q-17 -103 -76 -159t-185 -56q-120 0 -164 61t-19 198q49 259 286 259q104 0 150.5 -45.5t32.5 -121.5q-13 -73 -71.5 -98t-181.5 -20
q-11 -61 -4 -80.5t34 -19.5q24 0 37.5 19t23.5 63zM316 410q-9 0 -15 -9t-17 -44t-28 -109q26 1 38.5 15t23.5 58q22 89 -2 89z" />
    <glyph glyph-name="Gcircumflex" unicode="&#x11c;" horiz-adv-x="785" 
d="M559 748l-14 -11q-72 22 -129 73q-31 -24 -74.5 -46t-71.5 -26l-11 11q39 92 132 152h88q60 -62 80 -153zM369 130q20 0 32.5 2.5t27.5 11.5t24 29.5t14 53.5q8 56 -44 56h-20l14 94q113 -2 177 -2l176 2l-14 -94h-18q-21 0 -29.5 -11.5t-12.5 -41.5q-19 -129 -17 -230
q-81 6 -162 0q-9 33 -19 73q-77 -98 -223 -98q-47 0 -86.5 10.5t-76.5 36.5t-58 68.5t-30.5 106t6.5 149.5q29 180 121 272t235 92q62 0 100 -9t71 -31q25 -17 46 -9.5t28 39.5q16 -2 48.5 -2t48.5 2q-32 -65 -54 -278q-51 2 -80 2l-90 -1q17 71 -4 104t-67 33
q-36 0 -57 -15t-38 -61.5t-31 -137.5q-8 -71 -10 -113.5t9.5 -65.5t25.5 -30t37 -7z" />
    <glyph glyph-name="gcircumflex" unicode="&#x11d;" horiz-adv-x="575" 
d="M506 538l-14 -11q-72 22 -129 73q-31 -24 -74.5 -46t-71.5 -26l-11 11q39 92 132 152h88q60 -62 80 -153zM158 -166q21 0 37.5 5.5t28 12t21 21.5t15 26t11 33.5t7.5 35t6.5 41t6.5 41.5q-47 -75 -142 -75q-71 0 -104 51.5t-19 158.5q11 83 37.5 145t61.5 96t72 50.5
t75 16.5q72 0 100 -26t30 -76q41 35 72 79q17 -2 53 -2t53 2q-43 -181 -87 -437q-12 -67 -41 -114t-71.5 -72t-90.5 -36t-107 -11q-100 0 -141 32t-30 77q13 56 72 56q31 0 48 -18.5t12 -43.5q-4 -21 -20.5 -36t-40.5 -16q32 -17 75 -17zM261 72q37 0 76 205q14 70 14 94.5
t-17 24.5q-37 0 -76 -206q-14 -75 -14 -94t17 -24z" />
    <glyph glyph-name="Gbreve" unicode="&#x11e;" horiz-adv-x="785" 
d="M369 130q20 0 32.5 2.5t27.5 11.5t24 29.5t14 53.5q8 56 -44 56h-20l14 94q113 -2 177 -2l176 2l-14 -94h-18q-21 0 -29.5 -11.5t-12.5 -41.5q-19 -129 -17 -230q-81 6 -162 0q-9 33 -19 73q-77 -98 -223 -98q-47 0 -86.5 10.5t-76.5 36.5t-58 68.5t-30.5 106t6.5 149.5
q29 180 121 272t235 92q62 0 100 -9t71 -31q25 -17 46 -9.5t28 39.5q16 -2 48.5 -2t48.5 2q-32 -65 -54 -278q-51 2 -80 2l-90 -1q17 71 -4 104t-67 33q-36 0 -57 -15t-38 -61.5t-31 -137.5q-8 -71 -10 -113.5t9.5 -65.5t25.5 -30t37 -7zM400 744q-76 0 -98.5 40t-2.5 105
l35 1q-2 -22 18 -33t66 -11q84 0 100 44l35 -1q-2 -65 -39.5 -105t-113.5 -40z" />
    <glyph glyph-name="gbreve" unicode="&#x11f;" horiz-adv-x="575" 
d="M158 -166q21 0 37.5 5.5t28 12t21 21.5t15 26t11 33.5t7.5 35t6.5 41t6.5 41.5q-47 -75 -142 -75q-71 0 -104 51.5t-19 158.5q11 83 37.5 145t61.5 96t72 50.5t75 16.5q72 0 100 -26t30 -76q41 35 72 79q17 -2 53 -2t53 2q-43 -181 -87 -437q-12 -67 -41 -114t-71.5 -72
t-90.5 -36t-107 -11q-100 0 -141 32t-30 77q13 56 72 56q31 0 48 -18.5t12 -43.5q-4 -21 -20.5 -36t-40.5 -16q32 -17 75 -17zM261 72q37 0 76 205q14 70 14 94.5t-17 24.5q-37 0 -76 -206q-14 -75 -14 -94t17 -24zM372 534q-76 0 -98.5 40t-2.5 105l35 1q-2 -22 18 -33
t66 -11q84 0 100 44l35 -1q-2 -65 -39.5 -105t-113.5 -40z" />
    <glyph glyph-name="Gdotaccent" unicode="&#x120;" horiz-adv-x="785" 
d="M369 130q20 0 32.5 2.5t27.5 11.5t24 29.5t14 53.5q8 56 -44 56h-20l14 94q113 -2 177 -2l176 2l-14 -94h-18q-21 0 -29.5 -11.5t-12.5 -41.5q-19 -129 -17 -230q-81 6 -162 0q-9 33 -19 73q-77 -98 -223 -98q-47 0 -86.5 10.5t-76.5 36.5t-58 68.5t-30.5 106t6.5 149.5
q29 180 121 272t235 92q62 0 100 -9t71 -31q25 -17 46 -9.5t28 39.5q16 -2 48.5 -2t48.5 2q-32 -65 -54 -278q-51 2 -80 2l-90 -1q17 71 -4 104t-67 33q-36 0 -57 -15t-38 -61.5t-31 -137.5q-8 -71 -10 -113.5t9.5 -65.5t25.5 -30t37 -7zM496 815q-3 -32 -25 -54.5
t-58 -22.5t-53.5 22t-14.5 55q3 34 25.5 54.5t55.5 20.5q35 0 54 -20t16 -55z" />
    <glyph glyph-name="gdotaccent" unicode="&#x121;" horiz-adv-x="575" 
d="M158 -166q21 0 37.5 5.5t28 12t21 21.5t15 26t11 33.5t7.5 35t6.5 41t6.5 41.5q-47 -75 -142 -75q-71 0 -104 51.5t-19 158.5q11 83 37.5 145t61.5 96t72 50.5t75 16.5q72 0 100 -26t30 -76q41 35 72 79q17 -2 53 -2t53 2q-43 -181 -87 -437q-12 -67 -41 -114t-71.5 -72
t-90.5 -36t-107 -11q-100 0 -141 32t-30 77q13 56 72 56q31 0 48 -18.5t12 -43.5q-4 -21 -20.5 -36t-40.5 -16q32 -17 75 -17zM261 72q37 0 76 205q14 70 14 94.5t-17 24.5q-37 0 -76 -206q-14 -75 -14 -94t17 -24zM413 605q-3 -32 -25 -54.5t-58 -22.5t-53.5 22t-14.5 55
q3 34 25.5 54.5t55.5 20.5q35 0 54 -20t16 -55z" />
    <glyph glyph-name="Gcommaaccent" unicode="&#x122;" horiz-adv-x="785" 
d="M308 -185q-50 0 -47 63q2 32 21.5 50.5t53.5 18.5t50 -22.5t14 -61.5q-5 -61 -52 -98t-112 -45l-4 20q107 18 127 96q-14 -21 -51 -21zM369 130q20 0 32.5 2.5t27.5 11.5t24 29.5t14 53.5q8 56 -44 56h-20l14 94q113 -2 177 -2l176 2l-14 -94h-18q-21 0 -29.5 -11.5
t-12.5 -41.5q-19 -129 -17 -230q-81 6 -162 0q-9 33 -19 73q-77 -98 -223 -98q-47 0 -86.5 10.5t-76.5 36.5t-58 68.5t-30.5 106t6.5 149.5q29 180 121 272t235 92q62 0 100 -9t71 -31q25 -17 46 -9.5t28 39.5q16 -2 48.5 -2t48.5 2q-32 -65 -54 -278q-51 2 -80 2l-90 -1
q17 71 -4 104t-67 33q-36 0 -57 -15t-38 -61.5t-31 -137.5q-8 -71 -10 -113.5t9.5 -65.5t25.5 -30t37 -7z" />
    <glyph glyph-name="gcommaaccent" unicode="&#x123;" horiz-adv-x="575" 
d="M394 659q50 0 47 -63q-2 -32 -21.5 -50.5t-53.5 -18.5t-50.5 22.5t-13.5 61.5q4 61 51 98t113 45l4 -20q-107 -18 -127 -96q14 21 51 21zM158 -166q21 0 37.5 5.5t28 12t21 21.5t15 26t11 33.5t7.5 35t6.5 41t6.5 41.5q-47 -75 -142 -75q-71 0 -104 51.5t-19 158.5
q11 83 37.5 145t61.5 96t72 50.5t75 16.5q72 0 100 -26t30 -76q41 35 72 79q17 -2 53 -2t53 2q-43 -181 -87 -437q-12 -67 -41 -114t-71.5 -72t-90.5 -36t-107 -11q-100 0 -141 32t-30 77q13 56 72 56q31 0 48 -18.5t12 -43.5q-4 -21 -20.5 -36t-40.5 -16q32 -17 75 -17z
M261 72q37 0 76 205q14 70 14 94.5t-17 24.5q-37 0 -76 -206q-14 -75 -14 -94t17 -24z" />
    <glyph glyph-name="Hcircumflex" unicode="&#x124;" horiz-adv-x="848" 
d="M633 748l-14 -11q-72 22 -129 73q-31 -24 -74.5 -46t-71.5 -26l-11 11q39 92 132 152h88q60 -62 80 -153zM-23 -2q11 48 19 133h17q28 0 36 10t17 47q11 41 31 168t19 157q-1 24 -10 35t-32 11h-19q14 55 19 130q125 -2 195 -2q42 0 117.5 1t76.5 1q-16 -71 -18 -130h-9
q-51 0 -68 -59q-8 -27 -24 -132q79 -2 167 0q11 71 18 132q5 59 -52 59h-8q16 71 18 130q126 -2 197 -2q42 0 119 1t78 1q-14 -55 -19 -130h-18q-26 0 -39.5 -14t-22.5 -45q-8 -27 -27.5 -153t-21.5 -158q-2 -30 9.5 -44t42.5 -14h17q-16 -71 -18 -133q-126 2 -197 2
l-198 -2q14 73 18 133h14q16 0 26 3.5t16.5 13t9.5 17.5t8 24q6 25 19 103q-88 2 -167 0q-11 -74 -13 -103t8 -43.5t40 -14.5h15q-16 -71 -18 -133q-124 2 -194 2z" />
    <glyph glyph-name="hcircumflex" unicode="&#x125;" horiz-adv-x="610" 
d="M355 730l-14 -11q-72 22 -129 73q-31 -24 -74.5 -46t-71.5 -26l-11 11q39 92 132 152h88q60 -62 80 -153zM555 206h43q-31 -231 -197 -231q-169 0 -108 214l28 102q10 38 13.5 62t1 33.5t-8.5 9.5q-45 0 -89 -228l-33 -168q-66 3 -103 3l-104 -3q91 421 106 520
q10 61 -28 61h-14q7 45 7 108q129 -4 258 0q0 -76 -23 -191l-16 -80q55 75 149 75q56 0 85.5 -28.5t31 -73.5t-9.5 -101l-33 -139q-1 -4 -3 -13q-5 -17 -6.5 -25.5t-3 -20t1.5 -16t10 -4.5q18 0 45 134z" />
    <glyph glyph-name="Hbar" unicode="&#x126;" horiz-adv-x="848" 
d="M-23 -2q11 48 19 133h17q28 0 36 10t17 47q17 72 40 232h-49q10 27 16 74q1 0 16 -0.5t26 -0.5q0 5 0.5 12t0.5 8q-1 24 -10 35t-32 11h-19q14 55 19 130q125 -2 195 -2q42 0 117.5 1t76.5 1q-16 -71 -18 -130h-9q-51 0 -68 -59l-2 -7h162q1 3 1 7q5 59 -52 59h-8
q16 71 18 130q126 -2 197 -2q42 0 119 1t78 1q-14 -55 -19 -130h-18q-26 0 -39.5 -14t-22.5 -45q-2 -4 -2 -7q13 0 33.5 0.5t22.5 0.5q-5 -13 -16 -74h-54q-29 -172 -33 -231q-2 -30 9.5 -44t42.5 -14h17q-16 -71 -18 -133q-126 2 -197 2l-198 -2q14 73 18 133h14
q16 0 26 3.5t16.5 13t9.5 17.5t8 24q6 25 19 103q-88 2 -167 0q-11 -74 -13 -103t8 -43.5t40 -14.5h15q-16 -71 -18 -133q-124 2 -194 2zM518 421h-166l-8 -53q79 -2 167 0q3 16 7 53z" />
    <glyph glyph-name="hbar" unicode="&#x127;" horiz-adv-x="610" 
d="M57 498q8 35 9 48q10 -1 40 -1q-2 36 -30 36h-14q7 45 7 108q129 -4 258 0q0 -64 -14 -144q37 0 49 1l-12 -48q-5 0 -20.5 0.5t-25.5 0.5v-1l-16 -80q55 75 149 75q56 0 85.5 -28.5t31 -73.5t-9.5 -101l-33 -139q-1 -4 -3 -13q-5 -17 -6.5 -25.5t-3 -20t1.5 -16t10 -4.5
q18 0 45 134h43q-31 -231 -197 -231q-169 0 -108 214l28 102q10 38 13.5 62t1 33.5t-8.5 9.5q-45 0 -89 -228l-33 -168q-66 3 -103 3l-104 -3q93 439 103 499q-10 0 -24.5 -0.5t-19.5 -0.5z" />
    <glyph glyph-name="Itilde" unicode="&#x128;" horiz-adv-x="430" 
d="M-23 -2q11 48 19 133h17q28 0 36 10t17 47q8 32 28 157t22 155q2 31 -7 45t-35 14h-19q11 50 19 130q125 -2 195 -2q42 0 117.5 1t76.5 1q-14 -75 -18 -130h-9q-51 0 -68 -59q-8 -27 -27 -155t-21 -156q-2 -30 7 -44t41 -14h15q-15 -77 -18 -133q-124 2 -194 2zM408 859
h35q10 -127 -113 -127q-41 0 -64 16t-46 53q-10 17 -17 21.5t-19 4.5q-14 0 -22.5 -17.5t-5.5 -51.5h-35q-6 71 24 100.5t89 29.5q39 0 63 -16.5t47 -52.5q10 -16 17 -21t18 -5q36 0 29 66z" />
    <glyph glyph-name="itilde" unicode="&#x129;" horiz-adv-x="385" 
d="M318 285l-35 -143q-16 -70 3 -70q22 0 41 134h42q-10 -102 -56.5 -166.5t-132.5 -64.5q-88 0 -114.5 52.5t5.5 166.5l39 138q8 26 9 44t-8 20q-17 0 -30.5 -38.5t-18.5 -96.5h-41q12 102 57 167t122 65q81 0 111.5 -55t6.5 -153zM361 649h35q10 -127 -113 -127
q-41 0 -64 16t-46 53q-10 17 -17 21.5t-19 4.5q-14 0 -22.5 -17.5t-5.5 -51.5h-35q-6 71 24 100.5t89 29.5q39 0 63 -16.5t47 -52.5q10 -16 17 -21t18 -5q36 0 29 66z" />
    <glyph glyph-name="Imacron" unicode="&#x12a;" horiz-adv-x="430" 
d="M-23 -2q11 48 19 133h17q28 0 36 10t17 47q8 32 28 157t22 155q2 31 -7 45t-35 14h-19q11 50 19 130q125 -2 195 -2q42 0 117.5 1t76.5 1q-14 -75 -18 -130h-9q-51 0 -68 -59q-8 -27 -27 -155t-21 -156q-2 -30 7 -44t41 -14h15q-15 -77 -18 -133q-124 2 -194 2zM126 758
q15 43 21 106q46 -2 148 -2t148 2q-14 -52 -21 -106q-46 2 -148 2t-148 -2z" />
    <glyph glyph-name="imacron" unicode="&#x12b;" horiz-adv-x="385" 
d="M318 285l-35 -143q-16 -70 3 -70q22 0 41 134h42q-10 -102 -56.5 -166.5t-132.5 -64.5q-88 0 -114.5 52.5t5.5 166.5l39 138q8 26 9 44t-8 20q-17 0 -30.5 -38.5t-18.5 -96.5h-41q12 102 57 167t122 65q81 0 111.5 -55t6.5 -153zM83 538q15 43 21 106q46 -2 148 -2t148 2
q-14 -52 -21 -106q-46 2 -148 2t-148 -2z" />
    <glyph glyph-name="Ibreve" unicode="&#x12c;" horiz-adv-x="430" 
d="M-23 -2q11 48 19 133h17q28 0 36 10t17 47q8 32 28 157t22 155q2 31 -7 45t-35 14h-19q11 50 19 130q125 -2 195 -2q42 0 117.5 1t76.5 1q-14 -75 -18 -130h-9q-51 0 -68 -59q-8 -27 -27 -155t-21 -156q-2 -30 7 -44t41 -14h15q-15 -77 -18 -133q-124 2 -194 2zM275 744
q-76 0 -98.5 40t-2.5 105l35 1q-2 -22 18 -33t66 -11q84 0 100 44l35 -1q-2 -65 -39.5 -105t-113.5 -40z" />
    <glyph glyph-name="ibreve" unicode="&#x12d;" horiz-adv-x="385" 
d="M318 285l-35 -143q-16 -70 3 -70q22 0 41 134h42q-10 -102 -56.5 -166.5t-132.5 -64.5q-88 0 -114.5 52.5t5.5 166.5l39 138q8 26 9 44t-8 20q-17 0 -30.5 -38.5t-18.5 -96.5h-41q12 102 57 167t122 65q81 0 111.5 -55t6.5 -153zM249 534q-76 0 -98.5 40t-2.5 105l35 1
q-2 -22 18 -33t66 -11q84 0 100 44l35 -1q-2 -65 -39.5 -105t-113.5 -40z" />
    <glyph glyph-name="Iogonek" unicode="&#x12e;" horiz-adv-x="430" 
d="M327 -54q-4 -152 -142 -152q-49 0 -80.5 22.5t-27.5 69.5q3 39 28.5 69t65.5 45l-194 -2q11 48 19 133h17q28 0 36 10t17 47q8 32 28 157t22 155q2 31 -7 45t-35 14h-19q11 50 19 130q125 -2 195 -2q42 0 117.5 1t76.5 1q-14 -75 -18 -130h-9q-51 0 -68 -59
q-8 -27 -27 -155t-21 -156q-2 -30 7 -44t41 -14h15q-15 -77 -18 -133q-65 2 -126 2q-31 -7 -47 -24t-16 -39q0 -38 45 -38q52 0 66 53z" />
    <glyph glyph-name="iogonek" unicode="&#x12f;" horiz-adv-x="385" 
d="M389 -54q-4 -152 -142 -152q-49 0 -80.5 22.5t-27.5 69.5q3 55 59 91q-16 -2 -24 -2q-85 0 -110.5 52.5t7.5 166.5l39 138q8 26 9 44t-8 20q-17 0 -30.5 -38.5t-18.5 -96.5h-41q12 102 57 167t122 65q80 0 110.5 -55t7.5 -153l-35 -143q-17 -70 3 -70q22 0 41 134h42
q-11 -124 -75 -184q-29 -27 -40.5 -45.5t-11.5 -39.5q0 -38 41 -38q52 0 66 53zM365 630q-7 -47 -42 -79.5t-94 -32.5q-50 0 -76.5 31.5t-21.5 80.5q6 47 40.5 80.5t92.5 33.5q52 0 79.5 -33t21.5 -81z" />
    <glyph glyph-name="Idotaccent" unicode="&#x130;" horiz-adv-x="430" 
d="M-23 -2q11 48 19 133h17q28 0 36 10t17 47q8 32 28 157t22 155q2 31 -7 45t-35 14h-19q11 50 19 130q125 -2 195 -2q42 0 117.5 1t76.5 1q-14 -75 -18 -130h-9q-51 0 -68 -59q-8 -27 -27 -155t-21 -156q-2 -30 7 -44t41 -14h15q-15 -77 -18 -133q-124 2 -194 2zM355 815
q-3 -32 -25 -54.5t-58 -22.5t-53.5 22t-14.5 55q3 34 25.5 54.5t55.5 20.5q35 0 54 -20t16 -55z" />
    <glyph glyph-name="dotlessi" unicode="&#x131;" horiz-adv-x="385" 
d="M318 285l-35 -143q-16 -70 3 -70q22 0 41 134h42q-10 -102 -56.5 -166.5t-132.5 -64.5q-88 0 -114.5 52.5t5.5 166.5l39 138q8 26 9 44t-8 20q-17 0 -30.5 -38.5t-18.5 -96.5h-41q12 102 57 167t122 65q81 0 111.5 -55t6.5 -153z" />
    <glyph glyph-name="IJ" unicode="&#x132;" horiz-adv-x="1020" 
d="M-23 -2q11 48 19 133h17q28 0 36 10t17 47q8 32 28 157t22 155q2 31 -7 45t-35 14h-19q11 50 19 130q125 -2 195 -2q42 0 117.5 1t76.5 1q-14 -75 -18 -130h-9q-51 0 -68 -59q-8 -27 -27 -155t-21 -156q-2 -30 7 -44t41 -14h15q-15 -77 -18 -133q-124 2 -194 2zM626 145
q-11 -77 -91 -94q10 -1 16 -1q46 0 74.5 30t43.5 107q50 262 51 313q1 31 -7.5 45t-35.5 14h-28q13 58 20 130q126 -2 197 -2q42 0 118.5 1t77.5 1q-11 -50 -19 -130h-10q-25 0 -39.5 -12.5t-20.5 -46.5q-9 -48 -50 -304q-35 -221 -312 -221q-107 0 -160.5 42t-41.5 121
q7 51 43 80.5t85 29.5q47 0 71.5 -28.5t17.5 -74.5z" />
    <glyph glyph-name="ij" unicode="&#x133;" horiz-adv-x="630" 
d="M366 620q-6 -44 -37.5 -74.5t-84.5 -30.5q-45 0 -69 29.5t-19 75.5q5 44 36.5 75.5t82.5 31.5q47 0 72 -31.5t19 -75.5zM600 620q-6 -44 -37.5 -74.5t-84.5 -30.5q-45 0 -69 29.5t-19 75.5q5 44 36.5 75.5t82.5 31.5q47 0 72 -31.5t19 -75.5zM59 261h-41
q12 103 57.5 167.5t126.5 64.5q165 0 112 -214l-25 -102q-25 -105 0 -105q10 0 22.5 20.5t28 69t29.5 118.5l40 192q40 -2 102 -2l100 2q-59 -269 -88 -439q-12 -67 -41 -114t-71.5 -72t-90.5 -36t-107 -11q-89 0 -131 25.5t-42 64.5q0 36 21.5 55.5t52.5 19.5
q26 0 43.5 -14t17.5 -37q0 -28 -17.5 -45t-44.5 -18q32 -17 75 -17q20 0 36.5 5t28 12t21 22t15 25.5t11 33t8 35t7 40.5t6.5 41q-52 -73 -141 -73q-47 0 -76.5 19t-38.5 50.5t-8 64t11 69.5l35 139q17 67 11 76q-2 3 -7 3q-34 0 -48 -135z" />
    <glyph glyph-name="Jcircumflex" unicode="&#x134;" 
d="M600 748l-14 -11q-72 22 -129 73q-31 -24 -74.5 -46t-71.5 -26l-11 11q39 92 132 152h88q60 -62 80 -153zM206 145q-11 -77 -91 -94q10 -1 16 -1q46 0 74.5 30t43.5 107q50 262 51 313q1 31 -7.5 45t-35.5 14h-28q13 57 20 130q126 -2 197 -2q42 0 118.5 1t77.5 1
q-11 -50 -19 -130h-10q-25 0 -39.5 -12.5t-20.5 -46.5q-9 -48 -50 -304q-35 -221 -312 -221q-107 0 -160.5 42t-41.5 121q7 51 43 80.5t85 29.5q47 0 71.5 -28.5t17.5 -74.5z" />
    <glyph glyph-name="jcircumflex" unicode="&#x135;" horiz-adv-x="333" 
d="M300 285l-48 -248q-26 -133 -96.5 -185t-199.5 -52q-81 0 -121.5 30.5t-26.5 82.5q16 56 80 56q38 0 53 -22t5 -53q-7 -25 -34 -35t-54 -4q19 -17 49 -17q28 0 49.5 11.5t35.5 29t26 51.5t19.5 66.5t17.5 87.5l40 217q14 82 11 91q-2 4 -5 4q-16 0 -30 -39t-19 -96h-41
q13 103 58.5 167.5t122.5 64.5q53 0 82 -30t32 -76t-6 -102zM360 538l-14 -11q-72 22 -129 73q-31 -24 -74.5 -46t-71.5 -26l-11 11q39 92 132 152h88q60 -62 80 -153z" />
    <glyph glyph-name="Kcommaaccent" unicode="&#x136;" horiz-adv-x="824" 
d="M320 -185q-50 0 -47 63q2 32 21.5 50.5t53.5 18.5t50.5 -22.5t13.5 -61.5q-4 -61 -51 -98t-113 -45l-4 20q107 18 127 96q-14 -21 -51 -21zM-23 -1q11 48 19 132h16q28 0 36.5 10.5t18.5 48.5q7 27 27.5 154.5t21.5 155.5q2 34 -8 46.5t-42 12.5h-11q11 50 19 130
q125 -2 196 -2q42 0 118.5 1t77.5 1q-11 -50 -19 -130h-17q-26 0 -39.5 -14t-21.5 -45q-8 -29 -24 -135q58 40 158 113q32 24 27 52.5t-39 28.5h-23q13 57 20 130q122 -2 190 -2q40 0 114 1t75 1q-13 -58 -20 -130h-25q-52 0 -93.5 -17t-98.5 -56l-29 -20q53 -137 122 -284
q14 -30 26 -40.5t31 -10.5h14q-13 -60 -20 -133q-127 2 -199 2l-200 -2q12 55 20 133h9q53 0 18 98q-16 44 -37 88l-52 -36q-10 -72 -10 -91q-2 -59 36 -59h14q-13 -56 -20 -132q-114 1 -186 1z" />
    <glyph glyph-name="kcommaaccent" unicode="&#x137;" horiz-adv-x="613" 
d="M231 -185q-50 0 -47 63q2 32 21.5 50.5t53.5 18.5t50.5 -22.5t13.5 -61.5q-4 -61 -51 -98t-113 -45l-4 20q107 18 127 96q-14 -21 -51 -21zM550 206h43q-10 -104 -55.5 -167.5t-134.5 -63.5q-72 0 -106.5 39t-18.5 108q12 56 6.5 72t-34.5 18l-6 -27l-37 -188
q-66 3 -103 3q-43 0 -106 -3q98 423 108 523q1 16 1 29.5t-7 22.5t-22 9h-14q7 45 7 108q134 -4 268 0q-6 -63 -33 -191l-16 -81q48 76 139 76q42 0 71 -13.5t40 -33.5t15 -44t-3 -46q-21 -90 -139 -114q87 -12 87 -114q0 -33 2 -44t10 -11q24 0 38 133zM329 400
q-18 0 -33.5 -32.5t-36.5 -117.5q30 6 50.5 34.5t28.5 62.5q5 22 3 37.5t-12 15.5z" />
    <glyph glyph-name="kgreenlandic" unicode="&#x138;" horiz-adv-x="646" 
d="M52 261h-41q12 102 58.5 167t126.5 65q101 0 108 -113q46 113 158 113q42 0 71 -13.5t40 -33.5t15 -44t-3 -46q-21 -90 -139 -114q87 -12 87 -114q0 -33 2 -44t10 -11q24 0 38 133h43q-10 -104 -55.5 -167.5t-134.5 -63.5q-72 0 -106.5 39t-18.5 108q12 56 6.5 72
t-34.5 18l-8 -34l-35 -178q-66 3 -103 3l-104 -3q51 225 68 332q11 64 0 64q-16 0 -29.5 -38.5t-19.5 -96.5zM362 400q-18 0 -33.5 -32.5t-36.5 -117.5q30 6 50.5 34.5t28.5 62.5q5 22 3 37.5t-12 15.5z" />
    <glyph glyph-name="Lacute" unicode="&#x139;" horiz-adv-x="665" 
d="M226 738l-8 13q22 36 59 72.5t72 53.5q47 17 77.5 5.5t27 -45t-47.5 -57.5q-39 -22 -90.5 -33.5t-89.5 -8.5zM483 689l-20 -130h-16q-67 0 -81 -68q-9 -44 -26 -151t-19 -144q-2 -39 13 -52t48 -13h16q48 0 78 29.5t43 115.5l7 44q63 -4 125 0q-26 -145 -49 -324
q-47 4 -206 4h-301q-86 -1 -118 -2q11 48 19 133h20q13 0 22 4t14.5 14.5t8.5 20.5t7 29q1 6 2 9q9 38 26.5 146.5t18.5 136.5q2 35 -5 51.5t-34 16.5h-21q11 50 19 130q131 -2 205 -2z" />
    <glyph glyph-name="lacute" unicode="&#x13a;" horiz-adv-x="331" 
d="M171 720l-8 13q22 36 59 72.5t72 53.5q47 17 77.5 5.5t27 -45t-47.5 -57.5q-39 -22 -90.5 -33.5t-89.5 -8.5zM312 533q-71 -342 -80 -395q-5 -29 -6 -43.5t1 -18.5t8 -4q10 0 22 38.5t19 95.5h42q-10 -101 -57 -166t-128 -65q-76 0 -98 47.5t3 168.5q49 229 67 329
q14 61 -27 61h-14q9 37 14 108q124 -4 250 0q0 -72 -16 -156z" />
    <glyph glyph-name="Lcommaaccent" unicode="&#x13b;" horiz-adv-x="665" 
d="M222 -185q-50 0 -47 63q2 32 21.5 50.5t53.5 18.5t50.5 -22.5t13.5 -61.5q-4 -61 -51 -98t-113 -45l-4 20q107 18 127 96q-14 -21 -51 -21zM483 689l-20 -130h-16q-67 0 -81 -68q-9 -44 -26 -151t-19 -144q-2 -39 13 -52t48 -13h16q48 0 78 29.5t43 115.5l7 44
q63 -4 125 0q-26 -145 -49 -324q-47 4 -206 4h-301q-86 -1 -118 -2q11 48 19 133h20q13 0 22 4t14.5 14.5t8.5 20.5t7 29q1 6 2 9q9 38 26.5 146.5t18.5 136.5q2 35 -5 51.5t-34 16.5h-21q11 50 19 130q131 -2 205 -2z" />
    <glyph glyph-name="lcommaaccent" unicode="&#x13c;" horiz-adv-x="331" 
d="M94 -185q-50 0 -47 63q2 32 21.5 50.5t53.5 18.5t50.5 -22.5t13.5 -61.5q-4 -61 -51 -98t-113 -45l-4 20q107 18 127 96q-14 -21 -51 -21zM312 533q-71 -342 -80 -395q-5 -29 -6 -43.5t1 -18.5t8 -4q10 0 22 38.5t19 95.5h42q-10 -101 -57 -166t-128 -65q-76 0 -98 47.5
t3 168.5q49 229 67 329q14 61 -27 61h-14q9 37 14 108q124 -4 250 0q0 -72 -16 -156z" />
    <glyph glyph-name="Lcaron" unicode="&#x13d;" horiz-adv-x="665" 
d="M588 560q-50 0 -47 63q2 32 21.5 50.5t53.5 18.5t50.5 -22.5t13.5 -61.5q-4 -61 -51 -98t-113 -45l-4 20q107 18 127 96q-14 -21 -51 -21zM483 689l-20 -130h-16q-67 0 -81 -68q-9 -44 -26 -151t-19 -144q-2 -39 13 -52t48 -13h16q48 0 78 29.5t43 115.5l7 44
q63 -4 125 0q-26 -145 -49 -324q-47 4 -206 4h-301q-86 -1 -118 -2q11 48 19 133h20q13 0 22 4t14.5 14.5t8.5 20.5t7 29q1 6 2 9q9 38 26.5 146.5t18.5 136.5q2 35 -5 51.5t-34 16.5h-21q11 50 19 130q131 -2 205 -2z" />
    <glyph glyph-name="lcaron" unicode="&#x13e;" horiz-adv-x="489" 
d="M413 560q-50 0 -47 63q2 32 21.5 50.5t53.5 18.5t50.5 -22.5t13.5 -61.5q-4 -61 -51 -98t-113 -45l-4 20q107 18 127 96q-14 -21 -51 -21zM312 533q-71 -342 -80 -395q-5 -29 -6 -43.5t1 -18.5t8 -4q10 0 22 38.5t19 95.5h42q-10 -101 -57 -166t-128 -65q-76 0 -98 47.5
t3 168.5q49 229 67 329q14 61 -27 61h-14q9 37 14 108q124 -4 250 0q0 -72 -16 -156z" />
    <glyph glyph-name="Ldot" unicode="&#x13f;" horiz-adv-x="665" 
d="M483 689l-20 -130h-16q-67 0 -81 -68q-9 -44 -26 -151t-19 -144q-2 -39 13 -52t48 -13h16q48 0 78 29.5t43 115.5l7 44q63 -4 125 0q-26 -145 -49 -324q-47 4 -206 4h-301q-86 -1 -118 -2q11 48 19 133h20q13 0 22 4t14.5 14.5t8.5 20.5t7 29q1 6 2 9q9 38 26.5 146.5
t18.5 136.5q2 35 -5 51.5t-34 16.5h-21q11 50 19 130q131 -2 205 -2zM558 420q-3 -32 -25 -54.5t-58 -22.5t-53.5 22t-14.5 55q3 34 25.5 54.5t55.5 20.5q35 0 54 -20t16 -55z" />
    <glyph glyph-name="ldot" unicode="&#x140;" horiz-adv-x="458" 
d="M312 533q-71 -342 -80 -395q-5 -29 -6 -43.5t1 -18.5t8 -4q10 0 22 38.5t19 95.5h42q-10 -101 -57 -166t-128 -65q-76 0 -98 47.5t3 168.5q49 229 67 329q14 61 -27 61h-14q9 37 14 108q124 -4 250 0q0 -72 -16 -156zM467 348q-3 -32 -25 -54.5t-58 -22.5t-53.5 22
t-14.5 55q3 34 25.5 54.5t55.5 20.5q35 0 54 -20t16 -55z" />
    <glyph glyph-name="Lslash" unicode="&#x141;" horiz-adv-x="665" 
d="M483 689l-20 -130h-16q-67 0 -81 -68q-6 -29 -13 -71q26 8 47 17l16 -64l-75 -24q-19 -116 -20 -153q-2 -39 13 -52t48 -13h16q48 0 78 29.5t43 115.5l7 44q63 -4 125 0q-26 -145 -49 -324q-47 4 -206 4h-301q-86 -1 -118 -2q11 48 19 133h20q13 0 22 4t14.5 14.5
t8.5 20.5t7 29q1 6 2 9l10 51q-5 -2 -13.5 -5t-11.5 -4l-16 64l53 17q22 132 23 160q2 35 -5 51.5t-34 16.5h-21q11 50 19 130q131 -2 205 -2z" />
    <glyph glyph-name="lslash" unicode="&#x142;" horiz-adv-x="331" 
d="M312 533l-24 -112q15 5 36 13l16 -64q-9 -3 -31.5 -9.5t-34.5 -10.5q-25 -118 -42 -212q-5 -29 -6 -43.5t1 -18.5t8 -4q10 0 22 38.5t19 95.5h42q-10 -101 -57 -166t-128 -65q-76 0 -98 47.5t3 168.5q12 57 19 91q-4 -1 -12 -4.5t-12 -4.5l-16 64q24 5 55 14l33 169
q12 61 -27 61h-14q9 37 14 108q124 -4 250 0q0 -72 -16 -156z" />
    <glyph glyph-name="Nacute" unicode="&#x143;" horiz-adv-x="829" 
d="M437 738l-8 13q22 36 59 72.5t72 53.5q47 17 77.5 5.5t27 -45t-47.5 -57.5q-39 -22 -90.5 -33.5t-89.5 -8.5zM422 689q79 -184 176 -366q17 93 22 158q5 78 -55 78h-43q11 50 19 130q78 -2 162 -2l162 2q-11 -50 -19 -130h-19q-63 0 -78 -78q-17 -86 -40.5 -241
t-31.5 -241q-119 4 -238 0q-84 186 -192 402q-19 -104 -27 -193q-7 -77 57 -77h40q-12 -55 -20 -133q-106 2 -165 2l-163 -2q11 52 19 133h21q32 0 52.5 21.5t27.5 55.5q33 151 43 283q3 33 -10 50.5t-51 17.5h-19q11 50 19 130q176 -4 351 0z" />
    <glyph glyph-name="nacute" unicode="&#x144;" horiz-adv-x="648" 
d="M324 528l-8 13q22 36 59 72.5t72 53.5q47 17 77.5 5.5t27 -45t-47.5 -57.5q-39 -22 -90.5 -33.5t-89.5 -8.5zM52 261h-41q12 102 58.5 167t126.5 65q98 0 107 -108q56 108 169 108q83 0 108.5 -57t2.5 -146l-38 -148q-19 -70 3 -70q21 0 40 134h42q-10 -103 -57.5 -167
t-136.5 -64q-58 0 -90 31t-33.5 78.5t13.5 104.5l31 102q8 26 12 45.5t5 30.5t-1 18t-4.5 9t-6.5 2q-23 0 -44 -55.5t-52 -210.5l-26 -130q-66 3 -103 3l-104 -3q51 225 68 332q11 64 0 64q-16 0 -29.5 -38.5t-19.5 -96.5z" />
    <glyph glyph-name="Ncommaaccent" unicode="&#x145;" horiz-adv-x="829" 
d="M329 -185q-50 0 -47 63q2 32 21.5 50.5t53.5 18.5t50.5 -22.5t13.5 -61.5q-4 -61 -51 -98t-113 -45l-4 20q107 18 127 96q-14 -21 -51 -21zM422 689q79 -184 176 -366q17 93 22 158q5 78 -55 78h-43q11 50 19 130q78 -2 162 -2l162 2q-11 -50 -19 -130h-19q-63 0 -78 -78
q-17 -86 -40.5 -241t-31.5 -241q-119 4 -238 0q-84 186 -192 402q-19 -104 -27 -193q-7 -77 57 -77h40q-12 -55 -20 -133q-106 2 -165 2l-163 -2q11 52 19 133h21q32 0 52.5 21.5t27.5 55.5q33 151 43 283q3 33 -10 50.5t-51 17.5h-19q11 50 19 130q176 -4 351 0z" />
    <glyph glyph-name="ncommaaccent" unicode="&#x146;" horiz-adv-x="648" 
d="M252 -185q-50 0 -47 63q2 32 21.5 50.5t53.5 18.5t50.5 -22.5t13.5 -61.5q-4 -61 -51 -98t-113 -45l-4 20q107 18 127 96q-14 -21 -51 -21zM52 261h-41q12 102 58.5 167t126.5 65q98 0 107 -108q56 108 169 108q83 0 108.5 -57t2.5 -146l-38 -148q-19 -70 3 -70
q21 0 40 134h42q-10 -103 -57.5 -167t-136.5 -64q-58 0 -90 31t-33.5 78.5t13.5 104.5l31 102q8 26 12 45.5t5 30.5t-1 18t-4.5 9t-6.5 2q-23 0 -44 -55.5t-52 -210.5l-26 -130q-66 3 -103 3l-104 -3q51 225 68 332q11 64 0 64q-16 0 -29.5 -38.5t-19.5 -96.5z" />
    <glyph glyph-name="Ncaron" unicode="&#x147;" horiz-adv-x="829" 
d="M348 891l14 11q57 -18 119 -73q29 23 77.5 45.5t78.5 26.5l11 -11q-40 -95 -129 -152h-88q-64 66 -83 153zM422 689q79 -184 176 -366q17 93 22 158q5 78 -55 78h-43q11 50 19 130q78 -2 162 -2l162 2q-11 -50 -19 -130h-19q-63 0 -78 -78q-17 -86 -40.5 -241t-31.5 -241
q-119 4 -238 0q-84 186 -192 402q-19 -104 -27 -193q-7 -77 57 -77h40q-12 -55 -20 -133q-106 2 -165 2l-163 -2q11 52 19 133h21q32 0 52.5 21.5t27.5 55.5q33 151 43 283q3 33 -10 50.5t-51 17.5h-19q11 50 19 130q176 -4 351 0z" />
    <glyph glyph-name="ncaron" unicode="&#x148;" horiz-adv-x="648" 
d="M224 681l14 11q57 -18 119 -73q29 23 77.5 45.5t78.5 26.5l11 -11q-40 -95 -129 -152h-88q-64 66 -83 153zM52 261h-41q12 102 58.5 167t126.5 65q98 0 107 -108q56 108 169 108q83 0 108.5 -57t2.5 -146l-38 -148q-19 -70 3 -70q21 0 40 134h42q-10 -103 -57.5 -167
t-136.5 -64q-58 0 -90 31t-33.5 78.5t13.5 104.5l31 102q8 26 12 45.5t5 30.5t-1 18t-4.5 9t-6.5 2q-23 0 -44 -55.5t-52 -210.5l-26 -130q-66 3 -103 3l-104 -3q51 225 68 332q11 64 0 64q-16 0 -29.5 -38.5t-19.5 -96.5z" />
    <glyph glyph-name="napostrophe" unicode="&#x149;" horiz-adv-x="648" 
d="M160 595q-50 0 -47 63q2 32 21.5 50.5t53.5 18.5t50.5 -22.5t13.5 -61.5q-4 -61 -51 -98t-113 -45l-4 20q107 18 127 96q-14 -21 -51 -21zM52 261h-41q12 102 58.5 167t126.5 65q98 0 107 -108q56 108 169 108q83 0 108.5 -57t2.5 -146l-38 -148q-19 -70 3 -70
q21 0 40 134h42q-10 -103 -57.5 -167t-136.5 -64q-58 0 -90 31t-33.5 78.5t13.5 104.5l31 102q8 26 12 45.5t5 30.5t-1 18t-4.5 9t-6.5 2q-23 0 -44 -55.5t-52 -210.5l-26 -130q-66 3 -103 3l-104 -3q51 225 68 332q11 64 0 64q-16 0 -29.5 -38.5t-19.5 -96.5z" />
    <glyph glyph-name="Eng" unicode="&#x14a;" horiz-adv-x="829" 
d="M422 689q79 -184 176 -366q17 93 22 158q5 78 -55 78h-43q11 50 19 130q78 -2 162 -2l162 2q-11 -50 -19 -130h-19q-63 0 -78 -78q-17 -86 -40.5 -241t-31.5 -240q-23 -200 -277 -200q-86 0 -128.5 31t-26.5 82q17 56 81 56q38 0 53 -22t5 -53q-7 -22 -29.5 -32t-48.5 -8
q30 -16 75 -16q29 0 52 6t45.5 22t36.5 50t17 84q-70 0 -93 -1q-84 186 -192 402q-19 -104 -27 -193q-7 -77 57 -77h40q-12 -55 -20 -133q-106 2 -165 2l-163 -2q11 52 19 133h21q32 0 52.5 21.5t27.5 55.5q33 151 43 283q3 33 -10 50.5t-51 17.5h-19q11 50 19 130
q176 -4 351 0z" />
    <glyph glyph-name="eng" unicode="&#x14b;" horiz-adv-x="608" 
d="M52 261h-41q12 102 58.5 167t126.5 65q98 0 107 -108q56 108 169 108q77 0 103.5 -55.5t3.5 -152.5l-67 -280q-26 -109 -98.5 -157t-192.5 -48q-81 0 -121.5 30.5t-26.5 82.5q16 56 80 56q38 0 53 -22t5 -53q-8 -25 -34.5 -35t-53.5 -4q19 -17 49 -17q50 0 76.5 43
t45.5 123l64 272q11 46 14 73t0.5 37t-10.5 10q-45 0 -97 -268l-25 -128q-66 3 -103 3l-104 -3q51 225 68 332q11 64 0 64q-16 0 -29.5 -38.5t-19.5 -96.5z" />
    <glyph glyph-name="Omacron" unicode="&#x14c;" horiz-adv-x="806" 
d="M325 758q15 43 21 106q46 -2 148 -2t148 2q-14 -52 -21 -106q-46 2 -148 2t-148 -2zM376 124q52 0 77 47t44 176q20 128 9.5 170.5t-60.5 42.5q-52 0 -77.5 -43t-44.5 -171q-18 -128 -7 -175t59 -47zM356 -25q-167 0 -256 95.5t-63 275.5q28 187 139.5 275.5t290.5 88.5
q184 0 263.5 -93t53.5 -270q-15 -99 -54 -172t-96.5 -116t-126.5 -63.5t-151 -20.5z" />
    <glyph glyph-name="omacron" unicode="&#x14d;" horiz-adv-x="562" 
d="M196 538q15 43 21 106q46 -2 148 -2t148 2q-14 -52 -21 -106q-46 2 -148 2t-148 -2zM245 72q36 0 77 219q16 84 12 95q-2 10 -15 10q-40 0 -76 -192q-7 -39 -10.5 -60.5t-4 -39.5t3.5 -25t13 -7zM238 -25q-114 0 -170.5 63t-43.5 178q8 76 36 131.5t70.5 86.5t91 45
t104.5 14q232 0 213 -237q-10 -133 -91.5 -207t-209.5 -74z" />
    <glyph glyph-name="Obreve" unicode="&#x14e;" horiz-adv-x="806" 
d="M376 124q52 0 77 47t44 176q20 128 9.5 170.5t-60.5 42.5q-52 0 -77.5 -43t-44.5 -171q-18 -128 -7 -175t59 -47zM356 -25q-167 0 -256 95.5t-63 275.5q28 187 139.5 275.5t290.5 88.5q184 0 263.5 -93t53.5 -270q-15 -99 -54 -172t-96.5 -116t-126.5 -63.5t-151 -20.5z
M474 744q-76 0 -98.5 40t-2.5 105l35 1q-2 -22 18 -33t66 -11q84 0 100 44l35 -1q-2 -65 -39.5 -105t-113.5 -40z" />
    <glyph glyph-name="obreve" unicode="&#x14f;" horiz-adv-x="562" 
d="M245 72q36 0 77 219q16 84 12 95q-2 10 -15 10q-40 0 -76 -192q-7 -39 -10.5 -60.5t-4 -39.5t3.5 -25t13 -7zM238 -25q-114 0 -170.5 63t-43.5 178q8 76 36 131.5t70.5 86.5t91 45t104.5 14q232 0 213 -237q-10 -133 -91.5 -207t-209.5 -74zM347 534q-76 0 -98.5 40
t-2.5 105l35 1q-2 -22 18 -33t66 -11q84 0 100 44l35 -1q-2 -65 -39.5 -105t-113.5 -40z" />
    <glyph glyph-name="Ohungarumlaut" unicode="&#x150;" horiz-adv-x="806" 
d="M361 741l-11 9q9 38 30 79.5t48 66.5q33 31 65 26.5t36 -32t-24 -62.5q-27 -30 -68.5 -54t-75.5 -33zM525 741l-11 9q9 38 30 79.5t48 66.5q33 31 65 26.5t36 -32t-24 -62.5q-27 -30 -68.5 -54t-75.5 -33zM376 124q52 0 77 47t44 176q20 128 9.5 170.5t-60.5 42.5
q-52 0 -77.5 -43t-44.5 -171q-18 -128 -7 -175t59 -47zM356 -25q-167 0 -256 95.5t-63 275.5q28 187 139.5 275.5t290.5 88.5q184 0 263.5 -93t53.5 -270q-15 -99 -54 -172t-96.5 -116t-126.5 -63.5t-151 -20.5z" />
    <glyph glyph-name="ohungarumlaut" unicode="&#x151;" horiz-adv-x="562" 
d="M242 531l-11 9q9 38 30 79.5t48 66.5q33 31 65 26.5t36 -32t-24 -62.5q-27 -30 -68.5 -54t-75.5 -33zM406 531l-11 9q9 38 30 79.5t48 66.5q33 31 65 26.5t36 -32t-24 -62.5q-27 -30 -68.5 -54t-75.5 -33zM245 72q36 0 77 219q16 84 12 95q-2 10 -15 10q-40 0 -76 -192
q-7 -39 -10.5 -60.5t-4 -39.5t3.5 -25t13 -7zM238 -25q-114 0 -170.5 63t-43.5 178q8 76 36 131.5t70.5 86.5t91 45t104.5 14q232 0 213 -237q-10 -133 -91.5 -207t-209.5 -74z" />
    <glyph glyph-name="OE" unicode="&#x152;" horiz-adv-x="1124" 
d="M830 456l6 39h98q-25 -134 -28 -151q-11 -73 -17 -151h-96l5 36q7 38 0 56.5t-37 20.5h-23q-14 -100 -15 -115q-3 -38 11.5 -49t48.5 -11h58q59 0 86 27.5t40 114.5l1 9q72 -4 144 0q-26 -106 -53 -286q-46 4 -224 4h-313q-75 -25 -166 -25q-167 0 -256 95.5t-63 275.5
q28 187 139.5 275.5t290.5 88.5q89 0 155 -23h293q207 2 255 8q-36 -146 -46 -268q-64 4 -137 -1l3 18q12 71 -12.5 93t-74.5 22h-56q-34 0 -51.5 -13.5t-25.5 -48.5q-7 -29 -21 -115h13q37 0 49.5 17t18.5 57zM464 148q7 33 31 185.5t29 191.5q-5 14 -25 25t-48 11
q-56 0 -82 -43t-45 -172q-19 -128 -6.5 -175t64.5 -47q21 0 47 8t35 16z" />
    <glyph glyph-name="oe" unicode="&#x153;" horiz-adv-x="791" 
d="M497 -25q-72 0 -126 36q-58 -36 -133 -36q-114 0 -170.5 63t-43.5 178q8 76 36 131.5t70.5 86.5t91 45t104.5 14q82 0 142 -39q60 39 132 39q104 0 150.5 -45.5t32.5 -121.5q-13 -73 -71.5 -98t-181.5 -20q-11 -61 -4 -80.5t34 -19.5q24 0 37.5 19t23.5 63q67 -4 137 0
q-17 -103 -76 -159t-185 -56zM245 72q36 0 77 219q16 84 12 95q-2 10 -15 10q-40 0 -76 -192q-7 -39 -10.5 -60.5t-4 -39.5t3.5 -25t13 -7zM599 410q-9 0 -15 -9t-17 -44t-28 -109q26 1 38.5 15t23.5 58q22 89 -2 89z" />
    <glyph glyph-name="Racute" unicode="&#x154;" horiz-adv-x="818" 
d="M386 738l-8 13q22 36 59 72.5t72 53.5q47 17 77.5 5.5t27 -45t-47.5 -57.5q-39 -22 -90.5 -33.5t-89.5 -8.5zM681 176q1 -70 22 -70q15 0 18 33t-4 58l60 5q11 -96 -35.5 -162t-152.5 -66q-110 0 -147 45t-29 132q7 77 -11.5 106.5t-69.5 31.5q-12 -92 -12 -99
q-1 -31 10.5 -45t38.5 -14h21q-12 -55 -20 -133q-129 2 -201 2l-192 -2q11 52 19 133h16q26 0 36 11t19 47q8 32 28 157.5t21 153.5q2 31 -7 45t-35 14h-19q11 50 19 130q8 0 108.5 -1t110.5 -1h184q160 0 225 -46.5t58 -139.5q-11 -136 -173 -177q91 -26 94 -148zM371 518
q-7 -21 -27 -148h42q48 0 71 24.5t30 74.5q14 90 -54 90h-11q-38 0 -51 -41z" />
    <glyph glyph-name="racute" unicode="&#x155;" horiz-adv-x="508" 
d="M295 528l-8 13q22 36 59 72.5t72 53.5q47 17 77.5 5.5t27 -45t-47.5 -57.5q-39 -22 -90.5 -33.5t-89.5 -8.5zM340 341q15 62 80 62q-9 9 -26 9q-37 0 -62 -35t-42 -122q-4 -19 -15.5 -75.5t-21.5 -105.5t-14 -76q-66 2 -103 2l-104 -2q7 30 64 316q13 70 9 78q-2 4 -6 4
q-15 0 -28.5 -38.5t-19.5 -96.5h-41q12 102 58.5 167t126.5 65q94 0 107 -102q21 54 55 78t72 24q57 0 82.5 -35.5t15.5 -101.5q-17 -111 -109 -111q-39 0 -63.5 26.5t-14.5 69.5z" />
    <glyph glyph-name="Rcommaaccent" unicode="&#x156;" horiz-adv-x="818" 
d="M288 -185q-50 0 -47 63q2 32 21.5 50.5t53.5 18.5t50.5 -22.5t13.5 -61.5q-4 -61 -51 -98t-113 -45l-4 20q107 18 127 96q-14 -21 -51 -21zM681 176q1 -70 22 -70q15 0 18 33t-4 58l60 5q11 -96 -35.5 -162t-152.5 -66q-110 0 -147 45t-29 132q7 77 -11.5 106.5
t-69.5 31.5q-12 -92 -12 -99q-1 -31 10.5 -45t38.5 -14h21q-12 -55 -20 -133q-129 2 -201 2l-192 -2q11 52 19 133h16q26 0 36 11t19 47q8 32 28 157.5t21 153.5q2 31 -7 45t-35 14h-19q11 50 19 130q8 0 108.5 -1t110.5 -1h184q160 0 225 -46.5t58 -139.5
q-11 -136 -173 -177q91 -26 94 -148zM371 518q-7 -21 -27 -148h42q48 0 71 24.5t30 74.5q14 90 -54 90h-11q-38 0 -51 -41z" />
    <glyph glyph-name="rcommaaccent" unicode="&#x157;" horiz-adv-x="508" 
d="M90 -185q-50 0 -47 63q2 32 21.5 50.5t53.5 18.5t50.5 -22.5t13.5 -61.5q-4 -61 -51 -98t-113 -45l-4 20q107 18 127 96q-14 -21 -51 -21zM340 341q15 62 80 62q-9 9 -26 9q-37 0 -62 -35t-42 -122q-4 -19 -15.5 -75.5t-21.5 -105.5t-14 -76q-66 2 -103 2l-104 -2
q7 30 64 316q13 70 9 78q-2 4 -6 4q-15 0 -28.5 -38.5t-19.5 -96.5h-41q12 102 58.5 167t126.5 65q94 0 107 -102q21 54 55 78t72 24q57 0 82.5 -35.5t15.5 -101.5q-17 -111 -109 -111q-39 0 -63.5 26.5t-14.5 69.5z" />
    <glyph glyph-name="Rcaron" unicode="&#x158;" horiz-adv-x="818" 
d="M307 891l14 11q57 -18 119 -73q29 23 77.5 45.5t78.5 26.5l11 -11q-40 -95 -129 -152h-88q-64 66 -83 153zM681 176q1 -70 22 -70q15 0 18 33t-4 58l60 5q11 -96 -35.5 -162t-152.5 -66q-110 0 -147 45t-29 132q7 77 -11.5 106.5t-69.5 31.5q-12 -92 -12 -99
q-1 -31 10.5 -45t38.5 -14h21q-12 -55 -20 -133q-129 2 -201 2l-192 -2q11 52 19 133h16q26 0 36 11t19 47q8 32 28 157.5t21 153.5q2 31 -7 45t-35 14h-19q11 50 19 130q8 0 108.5 -1t110.5 -1h184q160 0 225 -46.5t58 -139.5q-11 -136 -173 -177q91 -26 94 -148zM371 518
q-7 -21 -27 -148h42q48 0 71 24.5t30 74.5q14 90 -54 90h-11q-38 0 -51 -41z" />
    <glyph glyph-name="rcaron" unicode="&#x159;" horiz-adv-x="508" 
d="M175 681l14 11q57 -18 119 -73q29 23 77.5 45.5t78.5 26.5l11 -11q-40 -95 -129 -152h-88q-64 66 -83 153zM340 341q15 62 80 62q-9 9 -26 9q-37 0 -62 -35t-42 -122q-4 -19 -15.5 -75.5t-21.5 -105.5t-14 -76q-66 2 -103 2l-104 -2q7 30 64 316q13 70 9 78q-2 4 -6 4
q-15 0 -28.5 -38.5t-19.5 -96.5h-41q12 102 58.5 167t126.5 65q94 0 107 -102q21 54 55 78t72 24q57 0 82.5 -35.5t15.5 -101.5q-17 -111 -109 -111q-39 0 -63.5 26.5t-14.5 69.5z" />
    <glyph glyph-name="Sacute" unicode="&#x15a;" horiz-adv-x="707" 
d="M364 738l-8 13q22 36 59 72.5t72 53.5q47 17 77.5 5.5t27 -45t-47.5 -57.5q-39 -22 -90.5 -33.5t-89.5 -8.5zM392 592q-124 0 -131 -53q-3 -26 22 -38t104 -13q165 -1 234.5 -81t47.5 -208q-17 -104 -102 -164t-215 -60q-115 0 -208 56q-44 26 -62 -31q-16 2 -52.5 2
t-51.5 -2q38 76 47 224q16 -2 49.5 -2t50.5 2q20 -121 213 -121q128 0 132 54q2 26 -23.5 37.5t-104.5 12.5q-147 1 -223.5 80.5t-55.5 202.5q20 115 103.5 167.5t208.5 52.5q90 0 177 -42q31 -14 46 -7t25 39q16 -2 48.5 -2t48.5 2q-36 -70 -46 -211q-45 4 -89 0
q-19 41 -71 72t-122 31z" />
    <glyph glyph-name="sacute" unicode="&#x15b;" horiz-adv-x="470" 
d="M254 528l-8 13q22 36 59 72.5t72 53.5q47 17 77.5 5.5t27 -45t-47.5 -57.5q-39 -22 -90.5 -33.5t-89.5 -8.5zM333 444q-78 0 -89 -36q-8 -24 8 -42t71 -38q59 -22 90 -58.5t32 -79.5t-17 -92q-49 -123 -235 -123q-108 0 -158.5 33t-37.5 85q6 24 25 38t47 14
q34 0 50.5 -21t6.5 -51q-11 -31 -48 -40q30 -9 65 -9q82 0 92 46q5 24 -9.5 43t-61.5 38q-55 22 -83.5 56.5t-29.5 74t15 85.5q21 53 79 89.5t145 36.5q98 0 147.5 -33t35.5 -85q-13 -44 -68 -44q-35 0 -51.5 20.5t-5.5 50.5q10 26 33 36q-24 6 -48 6z" />
    <glyph glyph-name="Scircumflex" unicode="&#x15c;" horiz-adv-x="707" 
d="M537 748l-14 -11q-72 22 -129 73q-31 -24 -74.5 -46t-71.5 -26l-11 11q39 92 132 152h88q60 -62 80 -153zM392 592q-124 0 -131 -53q-3 -26 22 -38t104 -13q165 -1 234.5 -81t47.5 -208q-17 -104 -102 -164t-215 -60q-115 0 -208 56q-44 26 -62 -31q-16 2 -52.5 2
t-51.5 -2q38 76 47 224q16 -2 49.5 -2t50.5 2q20 -121 213 -121q128 0 132 54q2 26 -23.5 37.5t-104.5 12.5q-147 1 -223.5 80.5t-55.5 202.5q20 115 103.5 167.5t208.5 52.5q90 0 177 -42q31 -14 46 -7t25 39q16 -2 48.5 -2t48.5 2q-36 -70 -46 -211q-45 4 -89 0
q-19 41 -71 72t-122 31z" />
    <glyph glyph-name="scircumflex" unicode="&#x15d;" horiz-adv-x="470" 
d="M456 538l-14 -11q-72 22 -129 73q-31 -24 -74.5 -46t-71.5 -26l-11 11q39 92 132 152h88q60 -62 80 -153zM333 444q-78 0 -89 -36q-8 -24 8 -42t71 -38q59 -22 90 -58.5t32 -79.5t-17 -92q-49 -123 -235 -123q-108 0 -158.5 33t-37.5 85q6 24 25 38t47 14q34 0 50.5 -21
t6.5 -51q-11 -31 -48 -40q30 -9 65 -9q82 0 92 46q5 24 -9.5 43t-61.5 38q-55 22 -83.5 56.5t-29.5 74t15 85.5q21 53 79 89.5t145 36.5q98 0 147.5 -33t35.5 -85q-13 -44 -68 -44q-35 0 -51.5 20.5t-5.5 50.5q10 26 33 36q-24 6 -48 6z" />
    <glyph glyph-name="Scedilla" unicode="&#x15e;" horiz-adv-x="707" 
d="M274 -105l-12 28q48 15 62 53q-100 7 -180 55q-44 26 -62 -31q-16 2 -52.5 2t-51.5 -2q38 76 47 224q16 -2 49.5 -2t50.5 2q20 -121 213 -121q128 0 132 54q2 26 -23.5 37.5t-104.5 12.5q-147 1 -223.5 80.5t-55.5 202.5q20 115 103.5 167.5t208.5 52.5q90 0 177 -42
q31 -14 46 -7t25 39q16 -2 48.5 -2t48.5 2q-36 -70 -46 -211q-45 4 -89 0q-19 41 -71 72t-122 31q-124 0 -131 -53q-3 -26 22 -38t104 -13q165 -1 234.5 -81t47.5 -208q-16 -101 -96 -160t-204 -64q-5 -21 -19 -35q44 1 75 -20t31 -61q0 -43 -34 -68t-91 -25q-76 0 -121 56
l25 26q30 -32 65 -32q49 0 49 43q0 30 -23 39t-52 -3z" />
    <glyph glyph-name="scedilla" unicode="&#x15f;" horiz-adv-x="470" 
d="M122 -105l-12 28q48 15 62 53q-98 3 -142.5 35t-32.5 82q6 24 25 38t47 14q34 0 50.5 -21t6.5 -51q-11 -31 -48 -40q30 -9 65 -9q82 0 92 46q5 24 -9.5 43t-61.5 38q-55 22 -83.5 56.5t-29.5 74t15 85.5q21 53 79 89.5t145 36.5q98 0 147.5 -33t35.5 -85q-13 -44 -68 -44
q-35 0 -51.5 20.5t-5.5 50.5q10 26 33 36q-24 6 -48 6q-78 0 -89 -36q-8 -24 8 -42t71 -38q59 -22 90 -58.5t32 -79.5t-17 -92q-46 -114 -211 -122q-5 -22 -19 -36q44 1 75 -20t31 -61q0 -43 -34 -68t-91 -25q-76 0 -121 56l25 26q30 -32 65 -32q49 0 49 43q0 30 -23 39
t-52 -3z" />
    <glyph glyph-name="Scaron" unicode="&#x160;" horiz-adv-x="707" 
d="M286 891l14 11q57 -18 119 -73q29 23 77.5 45.5t78.5 26.5l11 -11q-40 -95 -129 -152h-88q-64 66 -83 153zM392 592q-124 0 -131 -53q-3 -26 22 -38t104 -13q165 -1 234.5 -81t47.5 -208q-17 -104 -102 -164t-215 -60q-115 0 -208 56q-44 26 -62 -31q-16 2 -52.5 2
t-51.5 -2q38 76 47 224q16 -2 49.5 -2t50.5 2q20 -121 213 -121q128 0 132 54q2 26 -23.5 37.5t-104.5 12.5q-147 1 -223.5 80.5t-55.5 202.5q20 115 103.5 167.5t208.5 52.5q90 0 177 -42q31 -14 46 -7t25 39q16 -2 48.5 -2t48.5 2q-36 -70 -46 -211q-45 4 -89 0
q-19 41 -71 72t-122 31z" />
    <glyph glyph-name="scaron" unicode="&#x161;" horiz-adv-x="470" 
d="M176 681l14 11q57 -18 119 -73q29 23 77.5 45.5t78.5 26.5l11 -11q-40 -95 -129 -152h-88q-64 66 -83 153zM333 444q-78 0 -89 -36q-8 -24 8 -42t71 -38q59 -22 90 -58.5t32 -79.5t-17 -92q-49 -123 -235 -123q-108 0 -158.5 33t-37.5 85q6 24 25 38t47 14q34 0 50.5 -21
t6.5 -51q-11 -31 -48 -40q30 -9 65 -9q82 0 92 46q5 24 -9.5 43t-61.5 38q-55 22 -83.5 56.5t-29.5 74t15 85.5q21 53 79 89.5t145 36.5q98 0 147.5 -33t35.5 -85q-13 -44 -68 -44q-35 0 -51.5 20.5t-5.5 50.5q10 26 33 36q-24 6 -48 6z" />
    <glyph glyph-name="Tcommaaccent" unicode="&#x162;" horiz-adv-x="757" 
d="M266 -105l-12 28q62 17 68 77l-207 -2q12 55 20 133h20q64 0 79 68q27 126 53 342h-23q-34 0 -53 -23t-29 -70l-15 -66q-68 4 -136 0q24 149 41 310q85 -5 214 -5h296q71 0 139 2.5t75 2.5q-37 -200 -52 -310q-68 4 -136 0l6 66q10 93 -54 93h-24q-40 -212 -50 -342
q-5 -68 59 -68h21q-11 -48 -19 -133q-106 2 -185 2q3 -37 -20 -60q44 1 75 -20t31 -61q0 -43 -34 -68t-91 -25q-76 0 -121 56l25 26q30 -32 65 -32q49 0 49 43q0 30 -23 39t-52 -3z" />
    <glyph glyph-name="tcommaaccent" unicode="&#x163;" horiz-adv-x="395" 
d="M93 -105l-12 28q49 15 63 54q-122 17 -97 166q5 27 23.5 128.5t25.5 142.5l-27 -1l7 57q68 0 110 20t59.5 48t34.5 80h74l-25 -150l77 2l-10 -57l-76 1q-28 -158 -36 -217q-11 -83 -11 -104t15 -21q9 0 21 38.5t19 95.5h42q-9 -99 -53.5 -162.5t-128.5 -67.5
q-5 -22 -19 -36q44 1 75 -20t31 -61q0 -43 -34 -68t-91 -25q-76 0 -121 56l25 26q30 -32 65 -32q49 0 49 43q0 30 -23 39t-52 -3z" />
    <glyph glyph-name="Tcaron" unicode="&#x164;" horiz-adv-x="757" 
d="M302 891l14 11q57 -18 119 -73q29 23 77.5 45.5t78.5 26.5l11 -11q-40 -95 -129 -152h-88q-64 66 -83 153zM560 541h-24q-40 -212 -50 -342q-5 -68 59 -68h21q-11 -48 -19 -133q-138 2 -216 2l-216 -2q12 55 20 133h20q64 0 79 68q27 126 53 342h-23q-34 0 -53 -23
t-29 -70l-15 -66q-68 4 -136 0q24 149 41 310q85 -5 214 -5h296q71 0 139 2.5t75 2.5q-37 -200 -52 -310q-68 4 -136 0l6 66q10 93 -54 93z" />
    <glyph glyph-name="tcaron" unicode="&#x165;" horiz-adv-x="527" 
d="M473 588q-50 0 -47 63q2 32 21.5 50.5t53.5 18.5t50.5 -22.5t13.5 -61.5q-4 -61 -51 -98t-113 -45l-4 20q107 18 127 96q-14 -21 -51 -21zM328 206h42q-9 -103 -56.5 -167t-137.5 -64q-156 0 -129 168q5 27 23.5 128.5t25.5 142.5l-27 -1l7 57q68 0 110 20t59.5 48
t34.5 80h74l-25 -150l77 2l-10 -57l-76 1q-28 -158 -36 -217q-11 -83 -11 -104t15 -21q9 0 21 38.5t19 95.5z" />
    <glyph glyph-name="Tbar" unicode="&#x166;" horiz-adv-x="757" 
d="M560 541h-24q-20 -104 -36 -219l85 4l-10 -62q-28 0 -82 3q-6 -55 -7 -68q-5 -68 59 -68h21q-11 -48 -19 -133q-138 2 -216 2l-216 -2q12 55 20 133h20q64 0 79 68q9 45 13 69q-51 -4 -86 -4l10 62q9 0 85 -4q12 73 31 219h-23q-34 0 -53 -23t-29 -70l-15 -66
q-68 4 -136 0q24 149 41 310q85 -5 214 -5h296q71 0 139 2.5t75 2.5q-37 -200 -52 -310q-68 4 -136 0l6 66q10 93 -54 93z" />
    <glyph glyph-name="tbar" unicode="&#x167;" horiz-adv-x="400" 
d="M333 206h42q-9 -103 -56.5 -167t-137.5 -64q-156 0 -129 168q10 57 24 131q-13 -1 -34 -1l7 50q3 0 35 -2l17 93l-27 -1l7 57q68 0 110 20t59.5 48t34.5 80h74l-25 -150l77 2l-10 -57l-76 1l-17 -97q59 5 74 6l-10 -50q-7 0 -71 4q-8 -44 -12 -80q-11 -83 -11 -104
t15 -21q9 0 21 38.5t19 95.5z" />
    <glyph glyph-name="Utilde" unicode="&#x168;" horiz-adv-x="809" 
d="M80 257q34 211 36 243q2 30 -8 44.5t-36 14.5h-17q11 50 19 130q138 -2 213 -2q45 0 126.5 1t82.5 1q-13 -58 -20 -130h-32q-54 0 -68 -59q-7 -30 -34 -234q-10 -73 9 -104t70 -31q52 0 80.5 31t41.5 104q29 159 35 234q5 59 -49 59h-27q11 50 19 130q106 -2 165 -2
q35 0 98 1t66 1q-11 -50 -19 -130h-19q-26 0 -40 -14.5t-21 -44.5q-4 -17 -10.5 -61t-14 -100t-11.5 -82q-24 -151 -112.5 -216.5t-236.5 -65.5q-168 0 -240 62.5t-46 219.5zM631 859h35q10 -127 -113 -127q-41 0 -64 16t-46 53q-10 17 -17 21.5t-19 4.5q-14 0 -22.5 -17.5
t-5.5 -51.5h-35q-6 71 24 100.5t89 29.5q39 0 63 -16.5t47 -52.5q10 -16 17 -21t18 -5q36 0 29 66z" />
    <glyph glyph-name="utilde" unicode="&#x169;" horiz-adv-x="647" 
d="M595 206h42q-11 -101 -56.5 -166t-122.5 -65q-58 0 -86 25.5t-30 84.5q-51 -110 -162 -110q-85 0 -109.5 56.5t-2.5 146.5l35 139q17 68 10 77q-2 2 -6 2q-17 0 -30 -38t-18 -97h-41q13 103 58.5 167.5t126.5 64.5q62 0 92.5 -29.5t30.5 -77t-12 -107.5l-24 -102
q-6 -27 -9.5 -45t-4.5 -32.5t2.5 -21t10.5 -6.5q38 0 93 268l27 132q67 -2 104 -2l103 2q-26 -121 -66 -327q-10 -60 -5 -69q2 -4 7 -4q24 0 43 134zM500 649h35q10 -127 -113 -127q-41 0 -64 16t-46 53q-10 17 -17 21.5t-19 4.5q-14 0 -22.5 -17.5t-5.5 -51.5h-35
q-6 71 24 100.5t89 29.5q39 0 63 -16.5t47 -52.5q10 -16 17 -21t18 -5q36 0 29 66z" />
    <glyph glyph-name="Umacron" unicode="&#x16a;" horiz-adv-x="809" 
d="M80 257q34 211 36 243q2 30 -8 44.5t-36 14.5h-17q11 50 19 130q138 -2 213 -2q45 0 126.5 1t82.5 1q-13 -58 -20 -130h-32q-54 0 -68 -59q-7 -30 -34 -234q-10 -73 9 -104t70 -31q52 0 80.5 31t41.5 104q29 159 35 234q5 59 -49 59h-27q11 50 19 130q106 -2 165 -2
q35 0 98 1t66 1q-11 -50 -19 -130h-19q-26 0 -40 -14.5t-21 -44.5q-4 -17 -10.5 -61t-14 -100t-11.5 -82q-24 -151 -112.5 -216.5t-236.5 -65.5q-168 0 -240 62.5t-46 219.5zM366 758q15 43 21 106q46 -2 148 -2t148 2q-14 -52 -21 -106q-46 2 -148 2t-148 -2z" />
    <glyph glyph-name="umacron" unicode="&#x16b;" horiz-adv-x="647" 
d="M595 206h42q-11 -101 -56.5 -166t-122.5 -65q-58 0 -86 25.5t-30 84.5q-51 -110 -162 -110q-85 0 -109.5 56.5t-2.5 146.5l35 139q17 68 10 77q-2 2 -6 2q-17 0 -30 -38t-18 -97h-41q13 103 58.5 167.5t126.5 64.5q62 0 92.5 -29.5t30.5 -77t-12 -107.5l-24 -102
q-6 -27 -9.5 -45t-4.5 -32.5t2.5 -21t10.5 -6.5q38 0 93 268l27 132q67 -2 104 -2l103 2q-26 -121 -66 -327q-10 -60 -5 -69q2 -4 7 -4q24 0 43 134zM225 538q15 43 21 106q46 -2 148 -2t148 2q-14 -52 -21 -106q-46 2 -148 2t-148 -2z" />
    <glyph glyph-name="Ubreve" unicode="&#x16c;" horiz-adv-x="809" 
d="M80 257q34 211 36 243q2 30 -8 44.5t-36 14.5h-17q11 50 19 130q138 -2 213 -2q45 0 126.5 1t82.5 1q-13 -58 -20 -130h-32q-54 0 -68 -59q-7 -30 -34 -234q-10 -73 9 -104t70 -31q52 0 80.5 31t41.5 104q29 159 35 234q5 59 -49 59h-27q11 50 19 130q106 -2 165 -2
q35 0 98 1t66 1q-11 -50 -19 -130h-19q-26 0 -40 -14.5t-21 -44.5q-4 -17 -10.5 -61t-14 -100t-11.5 -82q-24 -151 -112.5 -216.5t-236.5 -65.5q-168 0 -240 62.5t-46 219.5zM496 744q-76 0 -98.5 40t-2.5 105l35 1q-2 -22 18 -33t66 -11q84 0 100 44l35 -1
q-2 -65 -39.5 -105t-113.5 -40z" />
    <glyph glyph-name="ubreve" unicode="&#x16d;" horiz-adv-x="647" 
d="M595 206h42q-11 -101 -56.5 -166t-122.5 -65q-58 0 -86 25.5t-30 84.5q-51 -110 -162 -110q-85 0 -109.5 56.5t-2.5 146.5l35 139q17 68 10 77q-2 2 -6 2q-17 0 -30 -38t-18 -97h-41q13 103 58.5 167.5t126.5 64.5q62 0 92.5 -29.5t30.5 -77t-12 -107.5l-24 -102
q-6 -27 -9.5 -45t-4.5 -32.5t2.5 -21t10.5 -6.5q38 0 93 268l27 132q67 -2 104 -2l103 2q-26 -121 -66 -327q-10 -60 -5 -69q2 -4 7 -4q24 0 43 134zM360 534q-76 0 -98.5 40t-2.5 105l35 1q-2 -22 18 -33t66 -11q84 0 100 44l35 -1q-2 -65 -39.5 -105t-113.5 -40z" />
    <glyph glyph-name="Uring" unicode="&#x16e;" horiz-adv-x="809" 
d="M477 834q-2 -23 9 -35t32 -12q45 0 50 47q3 23 -8 36t-32 13q-20 0 -34 -13t-17 -36zM426 834q5 44 33 70.5t74 26.5q43 0 67 -27t19 -70q-5 -44 -32.5 -70t-72.5 -26q-43 0 -67.5 26.5t-20.5 69.5zM80 257q34 211 36 243q2 30 -8 44.5t-36 14.5h-17q11 50 19 130
q138 -2 213 -2q45 0 126.5 1t82.5 1q-13 -58 -20 -130h-32q-54 0 -68 -59q-7 -30 -34 -234q-10 -73 9 -104t70 -31q52 0 80.5 31t41.5 104q29 159 35 234q5 59 -49 59h-27q11 50 19 130q106 -2 165 -2q35 0 98 1t66 1q-11 -50 -19 -130h-19q-26 0 -40 -14.5t-21 -44.5
q-4 -17 -10.5 -61t-14 -100t-11.5 -82q-24 -151 -112.5 -216.5t-236.5 -65.5q-168 0 -240 62.5t-46 219.5z" />
    <glyph glyph-name="uring" unicode="&#x16f;" horiz-adv-x="647" 
d="M334 624q-2 -23 9 -35t32 -12q45 0 50 47q3 23 -8 36t-32 13q-20 0 -34 -13t-17 -36zM283 624q5 44 33 70.5t74 26.5q43 0 67 -27t19 -70q-5 -44 -32.5 -70t-72.5 -26q-43 0 -67.5 26.5t-20.5 69.5zM595 206h42q-11 -101 -56.5 -166t-122.5 -65q-58 0 -86 25.5t-30 84.5
q-51 -110 -162 -110q-85 0 -109.5 56.5t-2.5 146.5l35 139q17 68 10 77q-2 2 -6 2q-17 0 -30 -38t-18 -97h-41q13 103 58.5 167.5t126.5 64.5q62 0 92.5 -29.5t30.5 -77t-12 -107.5l-24 -102q-6 -27 -9.5 -45t-4.5 -32.5t2.5 -21t10.5 -6.5q38 0 93 268l27 132q67 -2 104 -2
l103 2q-26 -121 -66 -327q-10 -60 -5 -69q2 -4 7 -4q24 0 43 134z" />
    <glyph glyph-name="Uhungarumlaut" unicode="&#x170;" horiz-adv-x="809" 
d="M80 257q34 211 36 243q2 30 -8 44.5t-36 14.5h-17q11 50 19 130q138 -2 213 -2q45 0 126.5 1t82.5 1q-13 -58 -20 -130h-32q-54 0 -68 -59q-7 -30 -34 -234q-10 -73 9 -104t70 -31q52 0 80.5 31t41.5 104q29 159 35 234q5 59 -49 59h-27q11 50 19 130q106 -2 165 -2
q35 0 98 1t66 1q-11 -50 -19 -130h-19q-26 0 -40 -14.5t-21 -44.5q-4 -17 -10.5 -61t-14 -100t-11.5 -82q-24 -151 -112.5 -216.5t-236.5 -65.5q-168 0 -240 62.5t-46 219.5zM417 741l-11 9q9 38 30 79.5t48 66.5q33 31 65 26.5t36 -32t-24 -62.5q-27 -30 -68.5 -54
t-75.5 -33zM581 741l-11 9q9 38 30 79.5t48 66.5q33 31 65 26.5t36 -32t-24 -62.5q-27 -30 -68.5 -54t-75.5 -33z" />
    <glyph glyph-name="uhungarumlaut" unicode="&#x171;" horiz-adv-x="647" 
d="M595 206h42q-11 -101 -56.5 -166t-122.5 -65q-58 0 -86 25.5t-30 84.5q-51 -110 -162 -110q-85 0 -109.5 56.5t-2.5 146.5l35 139q17 68 10 77q-2 2 -6 2q-17 0 -30 -38t-18 -97h-41q13 103 58.5 167.5t126.5 64.5q62 0 92.5 -29.5t30.5 -77t-12 -107.5l-24 -102
q-6 -27 -9.5 -45t-4.5 -32.5t2.5 -21t10.5 -6.5q38 0 93 268l27 132q67 -2 104 -2l103 2q-26 -121 -66 -327q-10 -60 -5 -69q2 -4 7 -4q24 0 43 134zM271 531l-11 9q9 38 30 79.5t48 66.5q33 31 65 26.5t36 -32t-24 -62.5q-27 -30 -68.5 -54t-75.5 -33zM435 531l-11 9
q9 38 30 79.5t48 66.5q33 31 65 26.5t36 -32t-24 -62.5q-27 -30 -68.5 -54t-75.5 -33z" />
    <glyph glyph-name="Uogonek" unicode="&#x172;" horiz-adv-x="809" 
d="M80 257q34 211 36 243q2 30 -8 44.5t-36 14.5h-17q11 50 19 130q138 -2 213 -2q45 0 126.5 1t82.5 1q-13 -58 -20 -130h-32q-54 0 -68 -59q-7 -30 -34 -234q-10 -73 9 -104t70 -31q52 0 80.5 31t41.5 104q29 159 35 234q5 59 -49 59h-27q11 50 19 130q106 -2 165 -2
q35 0 98 1t66 1q-11 -50 -19 -130h-19q-26 0 -40 -14.5t-21 -44.5q-4 -17 -10.5 -61t-14 -100t-11.5 -82q-22 -143 -102.5 -209t-214.5 -72q-12 -19 -12 -39q0 -38 41 -38q52 0 66 53l40 -6q-4 -152 -142 -152q-49 0 -80.5 22.5t-27.5 69.5q3 53 57 90q-154 4 -219.5 67
t-40.5 214z" />
    <glyph glyph-name="uogonek" unicode="&#x173;" horiz-adv-x="647" 
d="M657 -54q-4 -152 -142 -152q-49 0 -80.5 22.5t-27.5 69.5q3 52 61 90q-7 -1 -24 -1q-96 0 -101 112q-51 -112 -163 -112q-157 0 -112 203l35 139q17 68 10 77q-2 2 -6 2q-17 0 -30 -38t-18 -97h-41q13 103 58.5 167.5t126.5 64.5q62 0 92.5 -29.5t30.5 -77t-12 -107.5
l-24 -102q-6 -27 -9.5 -45t-4.5 -32.5t2.5 -21t10.5 -6.5q38 0 93 268l27 132q67 -2 104 -2l103 2q-26 -121 -66 -327q-10 -60 -5 -69q2 -4 7 -4q24 0 43 134h42q-11 -124 -75 -184q-29 -27 -40.5 -45.5t-11.5 -39.5q0 -38 41 -38q52 0 66 53z" />
    <glyph glyph-name="Wcircumflex" unicode="&#x174;" horiz-adv-x="1180" 
d="M890 748l-14 -11q-72 22 -129 73q-31 -24 -74.5 -46t-71.5 -26l-11 11q39 92 132 152h88q60 -62 80 -153zM871 -6q-139 4 -279 0q-11 138 -26 270q-70 -167 -109 -270q-125 4 -249 0q-33 360 -54 500q-5 33 -22 49t-55 16h-22q13 57 20 130q145 -2 226 -2q36 0 89 0.5
t93 1t44 0.5q-13 -58 -20 -130h-18q-27 0 -36.5 -15.5t-7.5 -49.5q3 -87 28 -258q79 185 102 258q20 65 -29 65h-15q15 65 21 130q115 -2 180 -2q39 0 109 1t71 1q-15 -65 -21 -130h-19q-25 0 -34 -13.5t-8 -51.5q2 -75 28 -264q80 190 102 263q20 66 -25 66h-20
q15 65 21 130q93 -2 145 -2q31 0 86 1t59 1q-15 -65 -21 -130h-25q-38 0 -61 -13t-43 -53q-47 -96 -205 -499z" />
    <glyph glyph-name="wcircumflex" unicode="&#x175;" horiz-adv-x="772" 
d="M666 538l-14 -11q-72 22 -129 73q-31 -24 -74.5 -46t-71.5 -26l-11 11q39 92 132 152h88q60 -62 80 -153zM177 -25q-155 0 -108 203l35 152q15 66 -2 66q-14 0 -28.5 -39.5t-20.5 -95.5h-42q13 102 59.5 167t126.5 65q91 0 122 -60t6 -154l-27 -102q-10 -35 -13 -59
t-0.5 -35t10.5 -11q28 0 67 180l48 220q70 -2 109 -2l109 2q-19 -64 -74 -295q-8 -35 -9.5 -57.5t5 -35t23.5 -12.5q39 0 71 64t43 149q5 35 2 68q-25 2 -40 22t-11 51q4 33 23 50.5t43 16.5q80 -3 50 -175q-12 -63 -31.5 -119t-51.5 -108.5t-80.5 -84t-107.5 -31.5
q-132 0 -145 110q-28 -52 -70 -81t-91 -29z" />
    <glyph glyph-name="Ycircumflex" unicode="&#x176;" horiz-adv-x="868" 
d="M720 480q-78 -108 -156 -242l-6 -44q-9 -63 50 -63h27q-11 -48 -19 -133q-148 2 -231 2l-232 -2q11 47 19 133h21q34 0 49.5 14t19.5 45l7 51q-45 150 -90 257q-14 34 -36 47.5t-70 13.5h-17q14 55 19 130q157 -2 246 -2l246 1q-14 -55 -19 -129h-14q-60 0 -35 -104
q9 -40 30 -95q43 67 58 95q52 104 -1 104h-14q14 55 19 130q104 -2 162 -2l161 2q-14 -55 -19 -130h-14q-67 0 -99.5 -19t-61.5 -60zM725 748l-14 -11q-72 22 -129 73q-31 -24 -74.5 -46t-71.5 -26l-11 11q39 92 132 152h88q60 -62 80 -153z" />
    <glyph glyph-name="ycircumflex" unicode="&#x177;" horiz-adv-x="606" 
d="M59 261h-41q12 103 57.5 167.5t126.5 64.5q165 0 112 -214l-25 -102q-25 -105 0 -105q10 0 22.5 20.5t28 69t29.5 118.5l40 192q40 -2 102 -2l100 2q-59 -269 -88 -439q-12 -67 -41 -114t-71.5 -72t-90.5 -36t-107 -11q-89 0 -131 25.5t-42 64.5q0 36 21.5 55.5
t52.5 19.5q26 0 43.5 -14t17.5 -37q0 -28 -17.5 -45t-44.5 -18q32 -17 75 -17q20 0 36.5 5t28 12t21 22t15 25.5t11 33t8 35t7 40.5t6.5 41q-52 -73 -141 -73q-47 0 -76.5 19t-38.5 50.5t-8 64t11 69.5l35 139q17 67 11 76q-2 3 -7 3q-34 0 -48 -135zM513 538l-14 -11
q-72 22 -129 73q-31 -24 -74.5 -46t-71.5 -26l-11 11q39 92 132 152h88q60 -62 80 -153z" />
    <glyph glyph-name="Ydieresis" unicode="&#x178;" horiz-adv-x="868" 
d="M720 480q-78 -108 -156 -242l-6 -44q-9 -63 50 -63h27q-11 -48 -19 -133q-148 2 -231 2l-232 -2q11 47 19 133h21q34 0 49.5 14t19.5 45l7 51q-45 150 -90 257q-14 34 -36 47.5t-70 13.5h-17q14 55 19 130q157 -2 246 -2l246 1q-14 -55 -19 -129h-14q-60 0 -35 -104
q9 -40 30 -95q43 67 58 95q52 104 -1 104h-14q14 55 19 130q104 -2 162 -2l161 2q-14 -55 -19 -130h-14q-67 0 -99.5 -19t-61.5 -60zM563 811q-3 -30 -22.5 -46.5t-47.5 -16.5q-27 0 -43.5 16.5t-13.5 46.5q4 30 23.5 47t46.5 17q28 0 44.5 -17t12.5 -47zM748 811
q-3 -30 -22.5 -46.5t-47.5 -16.5t-44 16.5t-13 46.5q4 30 23.5 47t46.5 17q28 0 44.5 -17t12.5 -47z" />
    <glyph glyph-name="Zacute" unicode="&#x179;" horiz-adv-x="689" 
d="M353 738l-8 13q22 36 59 72.5t72 53.5q47 17 77.5 5.5t27 -45t-47.5 -57.5q-39 -22 -90.5 -33.5t-89.5 -8.5zM-22 0q14 70 18 121q202 222 391 438h-42q-84 0 -126 -31.5t-53 -104.5l-6 -39q-58 4 -115 0q27 156 46 309q164 -6 235 -6h400q-15 -71 -18 -119
q-153 -170 -386 -437h45q75 0 129 38.5t67 125.5l5 33q58 -4 115 0q-28 -157 -50 -332q-64 4 -204 4h-451z" />
    <glyph glyph-name="zacute" unicode="&#x17a;" horiz-adv-x="519" 
d="M290 528l-8 13q22 36 59 72.5t72 53.5q47 17 77.5 5.5t27 -45t-47.5 -57.5q-39 -22 -90.5 -33.5t-89.5 -8.5zM154 248h-33q-33 124 -1.5 188t119.5 64q45 0 83.5 -17.5t92.5 -54.5q41 -28 76 -28q-38 15 -38 51q0 24 13 39t37 15q26 0 40 -21.5t9 -52.5
q-6 -44 -50.5 -78.5t-144.5 -90.5l-104 -57q28 5 69 -4q36 -8 56 -8q26 0 49 14t23 38h31q21 -46 23.5 -94.5t-12.5 -87t-52 -63.5t-89 -25q-59 0 -102 16.5t-85 54.5q-46 40 -81 38q33 -14 33 -56q0 -22 -12.5 -37.5t-37.5 -15.5q-22 0 -36 16t-14 45q0 45 41 84.5
t145 91.5l126 63q-22 -1 -65 14q-29 11 -50 11q-53 0 -59 -52z" />
    <glyph glyph-name="Zdotaccent" unicode="&#x17b;" horiz-adv-x="689" 
d="M-22 0q14 70 18 121q202 222 391 438h-42q-84 0 -126 -31.5t-53 -104.5l-6 -39q-58 4 -115 0q27 156 46 309q164 -6 235 -6h400q-15 -71 -18 -119q-153 -170 -386 -437h45q75 0 129 38.5t67 125.5l5 33q58 -4 115 0q-28 -157 -50 -332q-64 4 -204 4h-451zM483 815
q-3 -32 -25 -54.5t-58 -22.5t-53.5 22t-14.5 55q3 34 25.5 54.5t55.5 20.5q35 0 54 -20t16 -55z" />
    <glyph glyph-name="zdotaccent" unicode="&#x17c;" horiz-adv-x="519" 
d="M154 248h-33q-33 124 -1.5 188t119.5 64q45 0 83.5 -17.5t92.5 -54.5q41 -28 76 -28q-38 15 -38 51q0 24 13 39t37 15q26 0 40 -21.5t9 -52.5q-6 -44 -50.5 -78.5t-144.5 -90.5l-104 -57q28 5 69 -4q36 -8 56 -8q26 0 49 14t23 38h31q21 -46 23.5 -94.5t-12.5 -87
t-52 -63.5t-89 -25q-59 0 -102 16.5t-85 54.5q-46 40 -81 38q33 -14 33 -56q0 -22 -12.5 -37.5t-37.5 -15.5q-22 0 -36 16t-14 45q0 45 41 84.5t145 91.5l126 63q-22 -1 -65 14q-29 11 -50 11q-53 0 -59 -52zM410 605q-3 -32 -25 -54.5t-58 -22.5t-53.5 22t-14.5 55
q3 34 25.5 54.5t55.5 20.5q35 0 54 -20t16 -55z" />
    <glyph glyph-name="Zcaron" unicode="&#x17d;" horiz-adv-x="689" 
d="M289 891l14 11q57 -18 119 -73q29 23 77.5 45.5t78.5 26.5l11 -11q-40 -95 -129 -152h-88q-64 66 -83 153zM-22 0q14 70 18 121q202 222 391 438h-42q-84 0 -126 -31.5t-53 -104.5l-6 -39q-58 4 -115 0q27 156 46 309q164 -6 235 -6h400q-15 -71 -18 -119
q-153 -170 -386 -437h45q75 0 129 38.5t67 125.5l5 33q58 -4 115 0q-28 -157 -50 -332q-64 4 -204 4h-451z" />
    <glyph glyph-name="zcaron" unicode="&#x17e;" horiz-adv-x="519" 
d="M206 681l14 11q57 -18 119 -73q29 23 77.5 45.5t78.5 26.5l11 -11q-40 -95 -129 -152h-88q-64 66 -83 153zM154 248h-33q-33 124 -1.5 188t119.5 64q45 0 83.5 -17.5t92.5 -54.5q41 -28 76 -28q-38 15 -38 51q0 24 13 39t37 15q26 0 40 -21.5t9 -52.5q-6 -44 -50.5 -78.5
t-144.5 -90.5l-104 -57q28 5 69 -4q36 -8 56 -8q26 0 49 14t23 38h31q21 -46 23.5 -94.5t-12.5 -87t-52 -63.5t-89 -25q-59 0 -102 16.5t-85 54.5q-46 40 -81 38q33 -14 33 -56q0 -22 -12.5 -37.5t-37.5 -15.5q-22 0 -36 16t-14 45q0 45 41 84.5t145 91.5l126 63
q-22 -1 -65 14q-29 11 -50 11q-53 0 -59 -52z" />
    <glyph glyph-name="longs" unicode="&#x17f;" horiz-adv-x="404" 
d="M414 646q-47 0 -73.5 -57.5t-47.5 -213.5q-79 -575 -350 -575q-60 0 -92 27.5t-23 67.5q5 25 24 40t46 15q30 0 45 -19t7 -45q-6 -20 -25.5 -30.5t-42.5 -9.5q8 -3 18 -3q23 0 41 10t32.5 34.5t25 52.5t21 78.5t18.5 96t19 121.5q17 112 48 199t66 137.5t77.5 83
t77.5 43.5t70 11q78 0 113 -34t28 -86q-13 -86 -91 -86q-37 0 -56.5 20.5t-14.5 51.5q5 25 24.5 42.5t54.5 16.5q-20 11 -40 11z" />
    <glyph glyph-name="florin" unicode="&#x192;" 
d="M121 319l13 80l63 -2q3 80 28.5 142t65 98t85 54.5t93.5 18.5q95 0 129.5 -36t26.5 -89q-14 -84 -94 -84q-36 0 -53.5 14.5t-14.5 42.5q4 29 26.5 45t53.5 16q3 0 9 -0.5t9 -0.5q-19 15 -47 15q-22 0 -37 -4t-31 -18.5t-25.5 -39.5t-15.5 -69t-5 -105l90 2l-13 -80l-76 2
q-3 -106 -28.5 -184.5t-67.5 -121.5t-89 -63.5t-100 -20.5q-76 0 -111 30t-27 82q5 37 30 59t65 22q33 0 50.5 -16.5t13.5 -40.5q-10 -57 -81 -57q-9 0 -13 1q17 -14 45 -14t46.5 11t35 43t23.5 99t5 171z" />
    <glyph glyph-name="uni01B5" unicode="&#x1b5;" horiz-adv-x="689" 
d="M-22 0q14 70 18 121l135 149q-17 -1 -39 -1v57q6 0 86 -4q125 141 209 237h-42q-84 0 -126 -31.5t-53 -104.5l-6 -39q-58 4 -115 0q27 156 46 309q164 -6 235 -6h400q-15 -71 -18 -119q-92 -102 -217 -244q34 2 40 2v-57q-8 0 -20.5 1t-31.5 2t-32 2l-125 -143h45
q75 0 129 38.5t67 125.5l5 33q58 -4 115 0q-28 -157 -50 -332q-64 4 -204 4h-451z" />
    <glyph glyph-name="uni01B6" unicode="&#x1b6;" horiz-adv-x="519" 
d="M154 248h-33q-33 124 -1.5 188t119.5 64q45 0 83.5 -17.5t92.5 -54.5q41 -28 76 -28q-38 15 -38 51q0 24 13 39t37 15q26 0 40 -21.5t9 -52.5q-6 -44 -50.5 -78.5t-144.5 -90.5l-33 -18l94 16l3 -30q-94 -9 -142 -11l-26 -14q28 5 69 -4q36 -8 56 -8q26 0 49 14t23 38h31
q21 -46 23.5 -94.5t-12.5 -87t-52 -63.5t-89 -25q-59 0 -102 16.5t-85 54.5q-46 40 -81 38q33 -14 33 -56q0 -22 -12.5 -37.5t-37.5 -15.5q-22 0 -36 16t-14 45q0 43 36.5 80.5t126.5 83.5l-76 -13l-2 31l136 11l91 46q-22 -1 -65 14q-29 11 -50 11q-53 0 -59 -52z" />
    <glyph glyph-name="uni01FA" unicode="&#x1fa;" horiz-adv-x="880" 
d="M452 211q-92 2 -190 0q-18 -46 -11 -63t38 -17h32q-12 -55 -20 -133q-103 2 -162 2l-163 -2q13 60 20 133h14q42 0 65.5 20t52.5 73q158 285 252 474q83 -2 129 -2l129 2q41 -201 110 -474q14 -55 33.5 -74t49.5 -19h16q-13 -60 -20 -133q-154 2 -240 2l-240 -2
q13 60 20 133h36q34 0 44.5 19t4.5 61zM290 270q106 0 151 1l-44 210q-76 -149 -107 -211zM460 956l-8 13q22 36 59 72.5t72 53.5q47 17 77.5 5.5t27 -45t-47.5 -57.5q-39 -22 -90.5 -33.5t-89.5 -8.5zM464 834q-2 -23 9 -35t32 -12q45 0 50 47q3 23 -8 36t-32 13
q-20 0 -34 -13t-17 -36zM413 834q5 44 33 70.5t74 26.5q43 0 67 -27t19 -70q-5 -44 -32.5 -70t-72.5 -26q-43 0 -67.5 26.5t-20.5 69.5z" />
    <glyph glyph-name="aringacute" unicode="&#x1fb;" horiz-adv-x="620" 
d="M612 206q-10 -103 -57.5 -167t-137.5 -64q-110 0 -114 95q-47 -95 -154 -95q-71 0 -104 51.5t-19 158.5q11 83 37.5 145t61.5 96t72 50.5t75 16.5q110 0 126 -86q48 33 61 63q65 -4 128 0q-50 -238 -60 -319q-11 -79 2 -79q22 0 41 134h42zM261 72q37 0 76 205
q14 70 14 94.5t-17 24.5q-37 0 -76 -206q-14 -75 -14 -94t17 -24zM348 750l-8 13q22 36 59 72.5t72 53.5q47 17 77.5 5.5t27 -45t-47.5 -57.5q-39 -22 -90.5 -33.5t-89.5 -8.5zM344 624q-2 -23 9 -35t32 -12q45 0 50 47q3 23 -8 36t-32 13q-20 0 -34 -13t-17 -36zM293 624
q5 44 33 70.5t74 26.5q43 0 67 -27t19 -70q-5 -44 -32.5 -70t-72.5 -26q-43 0 -67.5 26.5t-20.5 69.5z" />
    <glyph glyph-name="AEacute" unicode="&#x1fc;" horiz-adv-x="1104" 
d="M687 738l-8 13q22 36 59 72.5t72 53.5q47 17 77.5 5.5t27 -45t-47.5 -57.5q-39 -22 -90.5 -33.5t-89.5 -8.5zM1093 282q-31 -126 -53 -286q-46 4 -227 4q-199 2 -272 2l-192 -2q13 52 21 131h10q34 0 49.5 16t23.5 53q3 13 6 31h-159q0 -1 -1 -2.5t-2 -2.5t-1 -2
q-18 -29 -23 -50t3 -32t28 -11h26q-19 -84 -22 -131q-108 3 -168 3l-165 -3q17 65 21 131h15q41 0 72.5 21.5t72.5 71.5q128 153 220 275q18 20 12.5 39.5t-38.5 19.5h-13q15 69 22 136q54 -6 307 -6q33 0 94.5 0.5t138.5 0.5q204 0 252 6q-36 -146 -46 -268q-61 3 -137 -1
l3 17q12 69 -12.5 92t-73.5 23h-55q-67 0 -79 -65q-8 -37 -20 -111h12q36 0 49 17t19 57l6 39h98q-16 -67 -30 -151q-12 -79 -16 -151h-96l6 36q7 44 -2 60.5t-46 16.5h-12q-13 -81 -15 -106q-4 -40 9.5 -54.5t48.5 -14.5h58q60 0 89 28t38 114l1 9q72 -4 145 0zM344 296
q88 0 127 1q22 130 25 200q-74 -90 -152 -201z" />
    <glyph glyph-name="aeacute" unicode="&#x1fd;" horiz-adv-x="810" 
d="M414 528l-8 13q22 36 59 72.5t72 53.5q47 17 77.5 5.5t27 -45t-47.5 -57.5q-39 -22 -90.5 -33.5t-89.5 -8.5zM640 190q67 -4 137 0q-17 -103 -76 -159t-185 -56q-85 0 -131 29.5t-57 93.5q-23 -61 -71.5 -92t-109.5 -31q-71 0 -104 51.5t-19 158.5q11 83 37.5 145
t61.5 96t72 50.5t75 16.5q122 0 128 -100q76 100 221 100q104 0 150.5 -45.5t32.5 -121.5q-13 -73 -71.5 -98t-181.5 -20q-11 -61 -4 -80.5t34 -19.5q24 0 37.5 19t23.5 63zM259 72q37 0 76 205q14 70 14 94.5t-17 24.5q-33 0 -76 -206q-15 -70 -14.5 -94t17.5 -24zM618 410
q-9 0 -15 -9t-17 -44t-28 -109q26 1 38.5 15t23.5 58q22 89 -2 89z" />
    <glyph glyph-name="Oslashacute" unicode="&#x1fe;" horiz-adv-x="806" 
d="M356 -25q-111 0 -190 44l-61 -59l-23 18l44 68q-119 100 -89 300q28 187 139.5 275.5t290.5 88.5q106 0 179 -32l64 61l22 -17l-44 -68q128 -88 96 -307q-15 -99 -54 -172t-96.5 -116t-126.5 -63.5t-151 -20.5zM376 124q52 0 77 47t44 176q9 58 12 96l-84 -96l-112 -145
q2 -43 17 -60.5t46 -17.5zM314 268l91 103l103 134q-4 31 -18.5 43t-43.5 12q-52 0 -77.5 -43t-44.5 -171q-6 -38 -10 -78zM428 738l-8 13q22 36 59 72.5t72 53.5q47 17 77.5 5.5t27 -45t-47.5 -57.5q-39 -22 -90.5 -33.5t-89.5 -8.5z" />
    <glyph glyph-name="oslashacute" unicode="&#x1ff;" horiz-adv-x="562" 
d="M238 -25q-69 0 -119 25l-43 -43l-17 14l30 47q-80 62 -65 198q8 76 36 131.5t70.5 86.5t91 45t104.5 14q73 0 122 -25l63 67l16 -13l-47 -75q70 -59 59 -191q-10 -133 -91.5 -207t-209.5 -74zM277 528l-8 13q22 36 59 72.5t72 53.5q47 17 77.5 5.5t27 -45t-47.5 -57.5
q-39 -22 -90.5 -33.5t-89.5 -8.5zM243 204l-1 -2v-2l46 53l36 49q14 76 10 86q-4 8 -15 8q-40 0 -76 -192zM245 72q32 0 69 178l-12 -13l-70 -94q-6 -37 -3 -54t16 -17z" />
    <glyph glyph-name="Scommaaccent" unicode="&#x218;" horiz-adv-x="707" 
d="M276 -185q-50 0 -47 63q2 32 21.5 50.5t53.5 18.5t50.5 -22.5t13.5 -61.5q-4 -61 -51 -98t-113 -45l-4 20q107 18 127 96q-14 -21 -51 -21zM392 592q-124 0 -131 -53q-3 -26 22 -38t104 -13q165 -1 234.5 -81t47.5 -208q-17 -104 -102 -164t-215 -60q-115 0 -208 56
q-44 26 -62 -31q-16 2 -52.5 2t-51.5 -2q38 76 47 224q16 -2 49.5 -2t50.5 2q20 -121 213 -121q128 0 132 54q2 26 -23.5 37.5t-104.5 12.5q-147 1 -223.5 80.5t-55.5 202.5q20 115 103.5 167.5t208.5 52.5q90 0 177 -42q31 -14 46 -7t25 39q16 -2 48.5 -2t48.5 2
q-36 -70 -46 -211q-45 4 -89 0q-19 41 -71 72t-122 31z" />
    <glyph glyph-name="scommaaccent" unicode="&#x219;" horiz-adv-x="470" 
d="M172 -185q-50 0 -47 63q2 32 21.5 50.5t53.5 18.5t50.5 -22.5t13.5 -61.5q-4 -61 -51 -98t-113 -45l-4 20q107 18 127 96q-14 -21 -51 -21zM333 444q-78 0 -89 -36q-8 -24 8 -42t71 -38q59 -22 90 -58.5t32 -79.5t-17 -92q-49 -123 -235 -123q-108 0 -158.5 33t-37.5 85
q6 24 25 38t47 14q34 0 50.5 -21t6.5 -51q-11 -31 -48 -40q30 -9 65 -9q82 0 92 46q5 24 -9.5 43t-61.5 38q-55 22 -83.5 56.5t-29.5 74t15 85.5q21 53 79 89.5t145 36.5q98 0 147.5 -33t35.5 -85q-13 -44 -68 -44q-35 0 -51.5 20.5t-5.5 50.5q10 26 33 36q-24 6 -48 6z" />
    <glyph glyph-name="uni021A" unicode="&#x21a;" horiz-adv-x="757" 
d="M284 -185q-50 0 -47 63q2 32 21.5 50.5t53.5 18.5t50.5 -22.5t13.5 -61.5q-4 -61 -51 -98t-113 -45l-4 20q107 18 127 96q-14 -21 -51 -21zM560 541h-24q-40 -212 -50 -342q-5 -68 59 -68h21q-11 -48 -19 -133q-138 2 -216 2l-216 -2q12 55 20 133h20q64 0 79 68
q27 126 53 342h-23q-34 0 -53 -23t-29 -70l-15 -66q-68 4 -136 0q24 149 41 310q85 -5 214 -5h296q71 0 139 2.5t75 2.5q-37 -200 -52 -310q-68 4 -136 0l6 66q10 93 -54 93z" />
    <glyph glyph-name="uni021B" unicode="&#x21b;" horiz-adv-x="395" 
d="M146 -185q-50 0 -47 63q2 32 21.5 50.5t53.5 18.5t50.5 -22.5t13.5 -61.5q-4 -61 -51 -98t-113 -45l-4 20q107 18 127 96q-14 -21 -51 -21zM328 206h42q-9 -103 -56.5 -167t-137.5 -64q-156 0 -129 168q5 27 23.5 128.5t25.5 142.5l-27 -1l7 57q68 0 110 20t59.5 48
t34.5 80h74l-25 -150l77 2l-10 -57l-76 1q-28 -158 -36 -217q-11 -83 -11 -104t15 -21q9 0 21 38.5t19 95.5z" />
    <glyph glyph-name="uni0237" unicode="&#x237;" horiz-adv-x="333" 
d="M300 285l-48 -248q-26 -133 -96.5 -185t-199.5 -52q-81 0 -121.5 30.5t-26.5 82.5q16 56 80 56q38 0 53 -22t5 -53q-7 -25 -34 -35t-54 -4q19 -17 49 -17q28 0 49.5 11.5t35.5 29t26 51.5t19.5 66.5t17.5 87.5l40 217q14 82 11 91q-2 4 -5 4q-16 0 -30 -39t-19 -96h-41
q13 103 58.5 167.5t122.5 64.5q53 0 82 -30t32 -76t-6 -102z" />
    <glyph glyph-name="circumflex" unicode="&#x2c6;" horiz-adv-x="532" 
d="M416 558l-14 -11q-72 22 -129 73q-31 -24 -74.5 -46t-71.5 -26l-11 11q39 92 132 152h88q60 -62 80 -153z" />
    <glyph glyph-name="caron" unicode="&#x2c7;" horiz-adv-x="532" 
d="M116 701l14 11q57 -18 119 -73q29 23 77.5 45.5t78.5 26.5l11 -11q-40 -95 -129 -152h-88q-64 66 -83 153z" />
    <glyph glyph-name="breve" unicode="&#x2d8;" horiz-adv-x="532" 
d="M243 554q-76 0 -98.5 40t-2.5 105l35 1q-2 -22 18 -33t66 -11q84 0 100 44l35 -1q-2 -65 -39.5 -105t-113.5 -40z" />
    <glyph glyph-name="dotaccent" unicode="&#x2d9;" horiz-adv-x="532" 
d="M354 625q-3 -32 -25 -54.5t-58 -22.5t-53.5 22t-14.5 55q3 34 25.5 54.5t55.5 20.5q35 0 54 -20t16 -55z" />
    <glyph glyph-name="ring" unicode="&#x2da;" horiz-adv-x="532" 
d="M225 644q-2 -23 9 -35t32 -12q45 0 50 47q3 23 -8 36t-32 13q-20 0 -34 -13t-17 -36zM174 644q5 44 33 70.5t74 26.5q43 0 67 -27t19 -70q-5 -44 -32.5 -70t-72.5 -26q-43 0 -67.5 26.5t-20.5 69.5z" />
    <glyph glyph-name="ogonek" unicode="&#x2db;" horiz-adv-x="532" 
d="M413 -54q-4 -152 -142 -152q-49 0 -80.5 22.5t-27.5 69.5q5 61 61.5 98t128.5 24v-4q-43 -3 -67 -22t-24 -45q0 -38 45 -38q52 0 66 53z" />
    <glyph glyph-name="tilde" unicode="&#x2dc;" horiz-adv-x="532" 
d="M385 669h35q10 -127 -113 -127q-41 0 -64 16t-46 53q-10 17 -17 21.5t-19 4.5q-14 0 -22.5 -17.5t-5.5 -51.5h-35q-6 71 24 100.5t89 29.5q39 0 63 -16.5t47 -52.5q10 -16 17 -21t18 -5q36 0 29 66z" />
    <glyph glyph-name="hungarumlaut" unicode="&#x2dd;" horiz-adv-x="532" 
d="M112 551l-11 9q9 38 30 79.5t48 66.5q33 31 65 26.5t36 -32t-24 -62.5q-27 -30 -68.5 -54t-75.5 -33zM276 551l-11 9q9 38 30 79.5t48 66.5q33 31 65 26.5t36 -32t-24 -62.5q-27 -30 -68.5 -54t-75.5 -33z" />
    <glyph glyph-name="Wgrave" unicode="&#x1e80;" horiz-adv-x="1180" 
d="M871 -6q-139 4 -279 0q-11 138 -26 270q-70 -167 -109 -270q-125 4 -249 0q-33 360 -54 500q-5 33 -22 49t-55 16h-22q13 57 20 130q145 -2 226 -2q36 0 89 0.5t93 1t44 0.5q-13 -58 -20 -130h-18q-27 0 -36.5 -15.5t-7.5 -49.5q3 -87 28 -258q79 185 102 258
q20 65 -29 65h-15q15 65 21 130q115 -2 180 -2q39 0 109 1t71 1q-15 -65 -21 -130h-19q-25 0 -34 -13.5t-8 -51.5q2 -75 28 -264q80 190 102 263q20 66 -25 66h-20q15 65 21 130q93 -2 145 -2q31 0 86 1t59 1q-15 -65 -21 -130h-25q-38 0 -61 -13t-43 -53q-47 -96 -205 -499
zM750 751l-8 -13q-38 -3 -89.5 8.5t-90.5 33.5q-44 24 -47.5 57.5t27 45t77.5 -5.5q35 -17 72 -53.5t59 -72.5z" />
    <glyph glyph-name="wgrave" unicode="&#x1e81;" horiz-adv-x="772" 
d="M177 -25q-155 0 -108 203l35 152q15 66 -2 66q-14 0 -28.5 -39.5t-20.5 -95.5h-42q13 102 59.5 167t126.5 65q91 0 122 -60t6 -154l-27 -102q-10 -35 -13 -59t-0.5 -35t10.5 -11q28 0 67 180l48 220q70 -2 109 -2l109 2q-19 -64 -74 -295q-8 -35 -9.5 -57.5t5 -35
t23.5 -12.5q39 0 71 64t43 149q5 35 2 68q-25 2 -40 22t-11 51q4 33 23 50.5t43 16.5q80 -3 50 -175q-12 -63 -31.5 -119t-51.5 -108.5t-80.5 -84t-107.5 -31.5q-132 0 -145 110q-28 -52 -70 -81t-91 -29zM526 541l-8 -13q-38 -3 -89.5 8.5t-90.5 33.5q-44 24 -47.5 57.5
t27 45t77.5 -5.5q35 -17 72 -53.5t59 -72.5z" />
    <glyph glyph-name="Wacute" unicode="&#x1e82;" horiz-adv-x="1180" 
d="M657 738l-8 13q22 36 59 72.5t72 53.5q47 17 77.5 5.5t27 -45t-47.5 -57.5q-39 -22 -90.5 -33.5t-89.5 -8.5zM871 -6q-139 4 -279 0q-11 138 -26 270q-70 -167 -109 -270q-125 4 -249 0q-33 360 -54 500q-5 33 -22 49t-55 16h-22q13 57 20 130q145 -2 226 -2q36 0 89 0.5
t93 1t44 0.5q-13 -58 -20 -130h-18q-27 0 -36.5 -15.5t-7.5 -49.5q3 -87 28 -258q79 185 102 258q20 65 -29 65h-15q15 65 21 130q115 -2 180 -2q39 0 109 1t71 1q-15 -65 -21 -130h-19q-25 0 -34 -13.5t-8 -51.5q2 -75 28 -264q80 190 102 263q20 66 -25 66h-20
q15 65 21 130q93 -2 145 -2q31 0 86 1t59 1q-15 -65 -21 -130h-25q-38 0 -61 -13t-43 -53q-47 -96 -205 -499z" />
    <glyph glyph-name="wacute" unicode="&#x1e83;" horiz-adv-x="772" 
d="M453 528l-8 13q22 36 59 72.5t72 53.5q47 17 77.5 5.5t27 -45t-47.5 -57.5q-39 -22 -90.5 -33.5t-89.5 -8.5zM177 -25q-155 0 -108 203l35 152q15 66 -2 66q-14 0 -28.5 -39.5t-20.5 -95.5h-42q13 102 59.5 167t126.5 65q91 0 122 -60t6 -154l-27 -102q-10 -35 -13 -59
t-0.5 -35t10.5 -11q28 0 67 180l48 220q70 -2 109 -2l109 2q-19 -64 -74 -295q-8 -35 -9.5 -57.5t5 -35t23.5 -12.5q39 0 71 64t43 149q5 35 2 68q-25 2 -40 22t-11 51q4 33 23 50.5t43 16.5q80 -3 50 -175q-12 -63 -31.5 -119t-51.5 -108.5t-80.5 -84t-107.5 -31.5
q-132 0 -145 110q-28 -52 -70 -81t-91 -29z" />
    <glyph glyph-name="Wdieresis" unicode="&#x1e84;" horiz-adv-x="1180" 
d="M705 811q-3 -30 -22.5 -46.5t-47.5 -16.5q-27 0 -43.5 16.5t-13.5 46.5q4 30 23.5 47t46.5 17q28 0 44.5 -17t12.5 -47zM890 811q-3 -30 -22.5 -46.5t-47.5 -16.5t-44 16.5t-13 46.5q4 30 23.5 47t46.5 17q28 0 44.5 -17t12.5 -47zM871 -6q-139 4 -279 0q-11 138 -26 270
q-70 -167 -109 -270q-125 4 -249 0q-33 360 -54 500q-5 33 -22 49t-55 16h-22q13 57 20 130q145 -2 226 -2q36 0 89 0.5t93 1t44 0.5q-13 -58 -20 -130h-18q-27 0 -36.5 -15.5t-7.5 -49.5q3 -87 28 -258q79 185 102 258q20 65 -29 65h-15q15 65 21 130q115 -2 180 -2
q39 0 109 1t71 1q-15 -65 -21 -130h-19q-25 0 -34 -13.5t-8 -51.5q2 -75 28 -264q80 190 102 263q20 66 -25 66h-20q15 65 21 130q93 -2 145 -2q31 0 86 1t59 1q-15 -65 -21 -130h-25q-38 0 -61 -13t-43 -53q-47 -96 -205 -499z" />
    <glyph glyph-name="wdieresis" unicode="&#x1e85;" horiz-adv-x="772" 
d="M506 601q-3 -30 -22.5 -46.5t-47.5 -16.5q-27 0 -43.5 16.5t-13.5 46.5q4 30 23.5 47t46.5 17q28 0 44.5 -17t12.5 -47zM691 601q-3 -30 -22.5 -46.5t-47.5 -16.5t-44 16.5t-13 46.5q4 30 23.5 47t46.5 17q28 0 44.5 -17t12.5 -47zM177 -25q-155 0 -108 203l35 152
q15 66 -2 66q-14 0 -28.5 -39.5t-20.5 -95.5h-42q13 102 59.5 167t126.5 65q91 0 122 -60t6 -154l-27 -102q-10 -35 -13 -59t-0.5 -35t10.5 -11q28 0 67 180l48 220q70 -2 109 -2l109 2q-19 -64 -74 -295q-8 -35 -9.5 -57.5t5 -35t23.5 -12.5q39 0 71 64t43 149q5 35 2 68
q-25 2 -40 22t-11 51q4 33 23 50.5t43 16.5q80 -3 50 -175q-12 -63 -31.5 -119t-51.5 -108.5t-80.5 -84t-107.5 -31.5q-132 0 -145 110q-28 -52 -70 -81t-91 -29z" />
    <glyph glyph-name="uni1E8A" unicode="&#x1e8a;" horiz-adv-x="836" 
d="M315 236l-15 38l-32 -38q-30 -35 -38 -60.5t-0.5 -35t21.5 -9.5h12q-12 -55 -20 -133q-87 2 -136 2l-137 -2q12 55 20 133h8q77 0 127.5 33t109.5 113l42 56q-38 90 -63 143q-24 49 -52 66t-75 17h-33q11 50 19 130q166 -2 260 -2l260 1q-13 -58 -20 -129h-11
q-26 0 -32 -25.5t10 -70.5l20 -55l35 55q22 35 28 57.5t0 30.5t-19 8h-8q13 58 20 129q83 -1 129 -1l128 2q-11 -50 -19 -130h-15q-72 0 -114.5 -26.5t-74.5 -80.5l-64 -107q34 -85 64 -145q33 -69 119 -69h21q-12 -55 -20 -133q-160 2 -251 2l-252 -2q11 48 19 133h18
q13 0 21 9t6.5 33.5t-16.5 62.5zM583 815q-3 -32 -25 -54.5t-58 -22.5t-53.5 22t-14.5 55q3 34 25.5 54.5t55.5 20.5q35 0 54 -20t16 -55z" />
    <glyph glyph-name="uni1E8B" unicode="&#x1e8b;" horiz-adv-x="633" 
d="M559 206q12 -231 -194 -231q-75 0 -115.5 22.5t-55.5 73.5q-37 -86 -120 -86q-45 0 -66.5 27.5t-13.5 80.5q7 44 31.5 68t57.5 24q34 0 47 -20.5t6 -52.5q-6 -26 -22 -41t-33.5 -15.5t-33.5 5.5q6 -24 36 -24q36 0 60 37t52 144q11 41 17 70.5t8 55.5t-3.5 39.5
t-19.5 13.5q-46 0 -57 -136h-40q1 112 51 172t140 60q107 0 134 -94q21 47 53 70.5t65 23.5q99 0 88 -118q-4 -50 -26.5 -76t-58.5 -26q-33 0 -50 23.5t-8 63.5q8 36 32 49t48 4q-8 21 -35 21q-36 0 -61.5 -40.5t-50.5 -138.5q-20 -82 -22 -126.5t9 -58t36 -13.5
q38 0 57 39.5t14 109.5h44zM482 605q-3 -32 -25 -54.5t-58 -22.5t-53.5 22t-14.5 55q3 34 25.5 54.5t55.5 20.5q35 0 54 -20t16 -55z" />
    <glyph glyph-name="Ygrave" unicode="&#x1ef2;" horiz-adv-x="868" 
d="M720 480q-78 -108 -156 -242l-6 -44q-9 -63 50 -63h27q-11 -48 -19 -133q-148 2 -231 2l-232 -2q11 47 19 133h21q34 0 49.5 14t19.5 45l7 51q-45 150 -90 257q-14 34 -36 47.5t-70 13.5h-17q14 55 19 130q157 -2 246 -2l246 1q-14 -55 -19 -129h-14q-60 0 -35 -104
q9 -40 30 -95q43 67 58 95q52 104 -1 104h-14q14 55 19 130q104 -2 162 -2l161 2q-14 -55 -19 -130h-14q-67 0 -99.5 -19t-61.5 -60zM554 751l-8 -13q-38 -3 -89.5 8.5t-90.5 33.5q-44 24 -47.5 57.5t27 45t77.5 -5.5q35 -17 72 -53.5t59 -72.5z" />
    <glyph glyph-name="ygrave" unicode="&#x1ef3;" horiz-adv-x="606" 
d="M59 261h-41q12 103 57.5 167.5t126.5 64.5q165 0 112 -214l-25 -102q-25 -105 0 -105q10 0 22.5 20.5t28 69t29.5 118.5l40 192q40 -2 102 -2l100 2q-59 -269 -88 -439q-12 -67 -41 -114t-71.5 -72t-90.5 -36t-107 -11q-89 0 -131 25.5t-42 64.5q0 36 21.5 55.5
t52.5 19.5q26 0 43.5 -14t17.5 -37q0 -28 -17.5 -45t-44.5 -18q32 -17 75 -17q20 0 36.5 5t28 12t21 22t15 25.5t11 33t8 35t7 40.5t6.5 41q-52 -73 -141 -73q-47 0 -76.5 19t-38.5 50.5t-8 64t11 69.5l35 139q17 67 11 76q-2 3 -7 3q-34 0 -48 -135zM423 541l-8 -13
q-38 -3 -89.5 8.5t-90.5 33.5q-44 24 -47.5 57.5t27 45t77.5 -5.5q35 -17 72 -53.5t59 -72.5z" />
    <glyph glyph-name="uni2009" unicode="&#x2009;" horiz-adv-x="100" 
 />
    <glyph glyph-name="endash" unicode="&#x2013;" horiz-adv-x="500" 
d="M20 176q11 72 19 136q220 -4 440 0q-8 -42 -19 -136q-220 4 -440 0z" />
    <glyph glyph-name="emdash" unicode="&#x2014;" horiz-adv-x="1000" 
d="M31 176l18 136q460 -4 920 0q-8 -41 -19 -136q-533 7 -919 0z" />
    <glyph glyph-name="quoteleft" unicode="&#x2018;" horiz-adv-x="272" 
d="M193 582q32 0 50 -19.5t17 -51.5q-2 -44 -30 -68t-69 -24t-63 27t-18 73q8 77 59.5 123t124.5 52l5 -25q-66 -12 -97 -42t-42 -77q21 32 63 32z" />
    <glyph glyph-name="quoteright" unicode="&#x2019;" horiz-adv-x="272" 
d="M166 537q-32 0 -50 19.5t-17 51.5q2 44 30 68t69 24t63 -27t18 -73q-8 -77 -59.5 -123t-124.5 -52l-5 25q64 12 94 40t43 76q-20 -29 -61 -29z" />
    <glyph glyph-name="quotesinglbase" unicode="&#x201a;" horiz-adv-x="272" 
d="M86 37q-32 0 -50 19.5t-17 51.5q2 44 30 68t69 24t63 -27t18 -73q-8 -77 -59.5 -123t-124.5 -52l-5 25q64 12 94 40t43 76q-20 -29 -61 -29z" />
    <glyph glyph-name="quotedblleft" unicode="&#x201c;" horiz-adv-x="462" 
d="M183 582q32 0 50 -19.5t17 -51.5q-2 -44 -30 -68t-69 -24t-63 27t-18 73q8 77 59.5 123t124.5 52l5 -25q-66 -12 -97 -42t-42 -77q21 32 63 32zM383 582q32 0 50 -19.5t17 -51.5q-2 -44 -30 -68t-69 -24t-63 27t-18 73q8 77 59.5 123t124.5 52l5 -25q-66 -12 -97 -42
t-42 -77q21 32 63 32z" />
    <glyph glyph-name="quotedblright" unicode="&#x201d;" horiz-adv-x="462" 
d="M158 537q-32 0 -50 19.5t-17 51.5q2 44 30 68t69 24t63 -27t18 -73q-8 -77 -59.5 -123t-124.5 -52l-5 25q64 12 94 40t43 76q-20 -29 -61 -29zM358 537q-32 0 -50 19.5t-17 51.5q2 44 30 68t69 24t63 -27t18 -73q-8 -77 -59.5 -123t-124.5 -52l-5 25q64 12 94 40t43 76
q-20 -29 -61 -29z" />
    <glyph glyph-name="quotedblbase" unicode="&#x201e;" horiz-adv-x="472" 
d="M85 37q-32 0 -50 19.5t-17 51.5q2 44 30 68t69 24t63 -27t18 -73q-8 -77 -59.5 -123t-124.5 -52l-5 25q64 12 94 40t43 76q-20 -29 -61 -29zM286 37q-32 0 -50 19.5t-17 51.5q2 44 30 68t69 24t63 -27t18 -73q-8 -77 -59.5 -123t-124.5 -52l-5 25q64 12 94 40t43 76
q-20 -29 -61 -29z" />
    <glyph glyph-name="dagger" unicode="&#x2020;" 
d="M234 467q-44 -30 -75 -9.5t-29 64.5q3 44 40 60t77 -20q27 -29 57 -37q8 13 25 17q12 60 -10 107q-20 45 -2.5 77t57.5 32q38 0 55 -21.5t9 -53.5t-38 -60q-32 -31 -47 -87q9 -6 13 -16q8 0 16 2t13 3.5t12 5.5t9.5 5.5t9.5 6.5t8 6q44 30 76 9.5t30 -64.5
q-3 -44 -41 -60t-78 20q-30 30 -58 37q-8 -14 -23 -17q-17 -100 26 -120l-9 -43q-31 -13 -50.5 -49t-34.5 -108q-7 -34 -9.5 -48.5t0 -39.5t13.5 -50q20 -42 0 -74.5t-55 -34.5q-57 -3 -63.5 45.5t37.5 89.5q36 34 53 112q15 72 10.5 108t-29.5 49l9 43q28 11 46 40t32 85
q-11 6 -14 17q-34 -3 -68 -29z" />
    <glyph glyph-name="daggerdbl" unicode="&#x2021;" 
d="M234 467q-44 -30 -75 -9.5t-29 64.5q3 44 40.5 60.5t76.5 -20.5q27 -29 57 -37q9 16 25 17q12 60 -10 107q-20 45 -2.5 77t57.5 32q38 0 55 -21.5t9 -53.5t-38 -60q-30 -29 -47 -88q7 -6 12 -15q7 0 13.5 1t13 3.5t10 3.5t9.5 5l7.5 5t8 5.5t7.5 5.5q44 30 76 9.5
t30 -64.5q-3 -44 -41 -60t-78 20q-29 29 -59 37q-7 -14 -22 -17q-17 -100 26 -120l-9 -43q-30 -12 -49 -44.5t-33 -97.5q20 0 37.5 5.5t23 9.5t20.5 15q44 30 77 9.5t31 -64.5q-3 -44 -39 -60t-76 20q-12 12 -18.5 17.5t-23 13t-37.5 10.5q-9 -43 -9.5 -63.5t15.5 -65.5
q20 -42 0 -74.5t-55 -34.5q-57 -3 -63.5 45.5t37.5 89.5q35 33 51 104q-43 1 -84 -29q-44 -30 -77 -9.5t-31 64.5q3 44 39 60t76 -20q13 -13 19 -18t23.5 -13t39.5 -11q12 64 7 96.5t-29 44.5l9 43q28 11 46 40t32 84q-10 6 -15 18q-32 -3 -67 -29z" />
    <glyph glyph-name="bullet" unicode="&#x2022;" horiz-adv-x="459" 
d="M408 240q0 -85 -51.5 -133.5t-138.5 -48.5q-84 0 -136.5 48.5t-52.5 137.5q0 84 53.5 134.5t135.5 50.5q86 0 138 -52t52 -137z" />
    <glyph glyph-name="ellipsis" unicode="&#x2026;" horiz-adv-x="987" 
d="M249 92q-4 -50 -36 -78t-87 -28q-53 0 -80.5 27t-23.5 80q4 47 38.5 77t84.5 30q55 0 82 -30.5t22 -77.5zM578 92q-4 -50 -36 -78t-87 -28q-53 0 -80.5 27t-23.5 80q4 47 38.5 77t84.5 30q55 0 82 -30.5t22 -77.5zM907 92q-4 -50 -36 -78t-87 -28q-53 0 -80.5 27
t-23.5 80q4 47 38.5 77t84.5 30q55 0 82 -30.5t22 -77.5z" />
    <glyph glyph-name="perthousand" unicode="&#x2030;" horiz-adv-x="920" 
d="M110 130q0 10 10 10t10 -10t-10 -10t-10 10zM146 179q0 16 16 16t16 -16t-16 -16t-16 16zM182 228q0 9 6.5 15.5t15.5 6.5t15.5 -6.5t6.5 -15.5t-6.5 -15.5t-15.5 -6.5t-15.5 6.5t-6.5 15.5zM220 277q0 11 8 18.5t18 7.5t18 -7.5t8 -18.5t-8 -18.5t-18 -7.5t-18 7.5
t-8 18.5zM259 326q0 12 8.5 20.5t20.5 8.5t20.5 -8.5t8.5 -20.5t-8.5 -20.5t-20.5 -8.5t-20.5 8.5t-8.5 20.5zM300 375q0 12 9 21t21 9t21 -9t9 -21t-9 -21t-21 -9t-21 9t-9 21zM343 424q0 12 8.5 20.5t20.5 8.5t20.5 -8.5t8.5 -20.5t-8.5 -20.5t-20.5 -8.5t-20.5 8.5
t-8.5 20.5zM388 473q0 11 8 18.5t18 7.5t18 -7.5t8 -18.5t-8 -18.5t-18 -7.5t-18 7.5t-8 18.5zM434 522q0 9 6.5 15.5t15.5 6.5t15.5 -6.5t6.5 -15.5t-6.5 -15.5t-15.5 -6.5t-15.5 6.5t-6.5 15.5zM482 571q0 16 16 16t16 -16t-16 -16t-16 16zM530 620q0 10 10 10t10 -10
t-10 -10t-10 10zM371 35q20 0 37 95q18 100 -1 100q-11 0 -20 -20.5t-20 -79.5q-18 -95 4 -95zM361 -29q-26 0 -48 6.5t-43 22.5t-29.5 49.5t-0.5 80.5q17 92 63 126t113 34q146 0 119 -160q-16 -92 -61.5 -125.5t-112.5 -33.5zM691 35q20 0 37 95q18 100 -1 100
q-11 0 -20 -20.5t-20 -79.5q-18 -95 4 -95zM681 -29q-26 0 -48 6.5t-43 22.5t-29.5 49.5t-0.5 80.5q17 92 63 126t113 34q146 0 119 -160q-16 -92 -61.5 -125.5t-112.5 -33.5zM190 464q20 0 37 95q18 100 -1 100q-11 0 -20 -20.5t-20 -79.5q-18 -95 4 -95zM180 400
q-26 0 -48 6.5t-43 22.5t-29.5 49.5t-0.5 80.5q17 92 63 126t113 34q146 0 119 -160q-16 -92 -61.5 -125.5t-112.5 -33.5z" />
    <glyph glyph-name="guilsinglleft" unicode="&#x2039;" horiz-adv-x="296" 
d="M253 432l11 -11q-10 -38 -37.5 -86.5t-62.5 -83.5q43 -90 40 -168l-15 -11q-78 74 -158 138q13 38 15 86q89 63 207 136z" />
    <glyph glyph-name="guilsinglright" unicode="&#x203a;" horiz-adv-x="296" 
d="M78 421l15 11q101 -81 159 -136q-13 -38 -15 -86q-118 -75 -206 -138l-11 11q11 38 38.5 89.5t56.5 85.5q-43 90 -37 163z" />
    <glyph glyph-name="fraction" unicode="&#x2044;" horiz-adv-x="150" 
d="M-222 -32q0 11 11 11t11 -11t-11 -11t-11 11zM-183 24q0 16 16 16t16 -16t-16 -16t-16 16zM-144 80q0 9 6.5 15t14.5 6t14.5 -6t6.5 -15q0 -8 -6.5 -14.5t-14.5 -6.5t-14.5 6.5t-6.5 14.5zM-104 136q0 10 7 17.5t18 7.5t18 -7.5t7 -17.5t-7 -17.5t-18 -7.5t-18 7.5
t-7 17.5zM-63 192q0 12 8 20.5t20 8.5t20 -8.5t8 -20.5q0 -11 -8 -19.5t-20 -8.5t-20 8.5t-8 19.5zM-22 248q0 13 9 22t22 9t22 -9t9 -22t-9 -21.5t-22 -8.5t-22 8.5t-9 21.5zM21 304q0 14 9.5 23t22.5 9t22.5 -9t9.5 -23q0 -13 -9.5 -22.5t-22.5 -9.5t-22.5 9.5t-9.5 22.5z
M65 361q0 13 9.5 22.5t22.5 9.5t22.5 -9.5t9.5 -22.5t-9.5 -22.5t-22.5 -9.5t-22.5 9.5t-9.5 22.5zM110 417q0 13 9 21.5t22 8.5t22 -8.5t9 -21.5t-9 -22t-22 -9t-22 9t-9 22zM157 473q0 11 8 19.5t20 8.5t20 -8.5t8 -19.5q0 -12 -8 -20.5t-20 -8.5t-20 8.5t-8 20.5z
M204 529q0 11 7 18t18 7t18 -7t7 -18t-7 -18t-18 -7t-18 7t-7 18zM252 585q0 8 6.5 14.5t14.5 6.5t14.5 -6.5t6.5 -14.5q0 -9 -6.5 -15t-14.5 -6t-14.5 6t-6.5 15zM301 641q0 16 16 16t16 -16t-16 -16t-16 16zM350 697q0 11 11 11t11 -11t-11 -11t-11 11z" />
    <glyph glyph-name="Euro" unicode="&#x20ac;" 
d="M33 458l43 -1q85 228 329 228q128 0 182.5 -49t42.5 -126q-8 -49 -40 -74t-76 -25q-41 0 -62.5 23t-15.5 55q8 42 37 65t68 24q-26 8 -56 8q-94 0 -139 -130l67 2q-7 -27 -18 -97l-73 2l-6 -37l77 2q-3 -9 -16 -97l-71 2q-3 -80 23.5 -112t85.5 -32q46 0 77 18h-21
q-46 0 -65 23t-16 58q3 41 29.5 64.5t72.5 23.5q49 0 72 -30.5t15 -82.5q-13 -80 -83 -131.5t-202 -51.5q-115 0 -184.5 61t-72.5 191l-40 -1q12 44 18 97l29 -1q0 11 6 35l-33 -1q12 63 16 97z" />
    <glyph glyph-name="uni2116" unicode="&#x2116;" horiz-adv-x="1131" 
d="M1034 92q-4 -50 -36 -78t-87 -28q-53 0 -80.5 27t-23.5 80q4 47 38.5 77t84.5 30q55 0 82 -30.5t22 -77.5zM950 282q42 0 67 27.5t36 90.5q12 63 -4 90t-58 27t-67.5 -27t-37.5 -90q-11 -63 5 -90.5t59 -27.5zM942 241q-66 0 -99.5 42t-20.5 117q15 79 57.5 119.5
t119.5 40.5q66 0 99.5 -42.5t19.5 -117.5q-28 -159 -176 -159zM422 689q79 -184 176 -366q17 93 22 158q5 78 -55 78h-43q11 50 19 130q78 -2 162 -2l162 2q-11 -50 -19 -130h-19q-63 0 -78 -78q-17 -86 -40.5 -241t-31.5 -241q-119 4 -238 0q-84 186 -192 402
q-19 -104 -27 -193q-7 -77 57 -77h40q-12 -55 -20 -133q-106 2 -165 2l-163 -2q11 52 19 133h21q32 0 52.5 21.5t27.5 55.5q33 151 43 283q3 33 -10 50.5t-51 17.5h-19q11 50 19 130q176 -4 351 0z" />
    <glyph glyph-name="trademark" unicode="&#x2122;" horiz-adv-x="716" 
d="M744 624h-10q-21 0 -27 -26q-7 -26 -14 -78q-2 -18 1 -24t16 -6h11q-6 -24 -12 -66q-59 1 -89 1l-87 -1q6 24 12 66h9q22 0 28 30l8 47q-13 -18 -40.5 -51.5t-36.5 -46.5h-23q-8 18 -47 96q-7 -37 -8 -45q-3 -30 22 -30h10q-6 -24 -12 -66q-39 1 -61 1l-66 -1q9 30 12 66
h14q23 0 29 30q11 47 14 77q3 27 -21 27h-13q4 14 12 64q76 -2 153 0q12 -37 36 -78q24 27 60 78q65 -2 132 0q-4 -14 -12 -64zM156 687h118q28 0 55.5 0.5t29.5 0.5q-19 -81 -25 -134q-31 2 -61 0l4 26q2 18 -1 24.5t-16 6.5h-7q-15 -77 -15 -94q-3 -27 22 -27h9
q-6 -42 -12 -66q-58 1 -89 1l-89 -1q9 30 12 66h10q24 0 32 27q7 33 16 94h-7q-14 0 -19 -6.5t-9 -24.5l-6 -26q-29 2 -60 0q16 79 22 134q21 -1 86 -1z" />
    <glyph glyph-name="onethird" unicode="&#x2153;" horiz-adv-x="378" 
d="M6 343q0 26 25 26q11 0 18.5 -7.5t7.5 -18.5q0 -25 -26 -25q-25 0 -25 25zM72 343q0 23 22 23q23 0 23 -23q0 -22 -23 -22q-22 0 -22 22zM137 343q0 21 20 21q9 0 15 -6t6 -15q0 -20 -21 -20q-20 0 -20 20zM200 343q0 21 20 21q9 0 15 -6t6 -15q0 -20 -21 -20
q-20 0 -20 20zM261 343q0 23 22 23q23 0 23 -23q0 -22 -23 -22q-22 0 -22 22zM321 343q0 26 25 26q11 0 18.5 -7.5t7.5 -18.5q0 -25 -26 -25q-25 0 -25 25zM131 470q31 0 35 29l15 91h-53q10 41 12 68h19q86 0 104 56q41 -4 82 0q-24 -84 -33 -143l-11 -72q-4 -29 25 -29h26
q-10 -39 -12 -63q-80 1 -125 1l-126 -1q9 34 11 63h31zM285 217q0 -60 -68 -83q52 -16 54 -58q3 -105 -170 -105q-57 0 -88.5 17.5t-31.5 50.5q0 28 19 46t48 18q48 0 48 -35q0 -22 -17 -35t-40 -11q11 -6 27 -6q63 0 63 60q0 19 -12.5 29t-31.5 10h-15l7 35h8q23 0 42 12
t19 40q0 36 -43 36q-9 0 -21 -2q39 -5 39 -33q0 -18 -14 -29.5t-39 -11.5q-50 0 -50 39q0 40 43.5 64.5t107.5 24.5q56 0 86 -19.5t30 -53.5z" />
    <glyph glyph-name="twothirds" unicode="&#x2154;" horiz-adv-x="378" 
d="M6 343q0 26 25 26q11 0 18.5 -7.5t7.5 -18.5q0 -25 -26 -25q-25 0 -25 25zM72 343q0 23 22 23q23 0 23 -23q0 -22 -23 -22q-22 0 -22 22zM137 343q0 21 20 21q9 0 15 -6t6 -15q0 -20 -21 -20q-20 0 -20 20zM200 343q0 21 20 21q9 0 15 -6t6 -15q0 -20 -21 -20
q-20 0 -20 20zM261 343q0 23 22 23q23 0 23 -23q0 -22 -23 -22q-22 0 -22 22zM321 343q0 26 25 26q11 0 18.5 -7.5t7.5 -18.5q0 -25 -26 -25q-25 0 -25 25zM334 535q10 -15 11 -37t-6.5 -44t-32.5 -37.5t-62 -15.5q-41 0 -93 33q-20 13 -38 13q-11 0 -12 -3l4 -3
q10 -4 14 -14t-1.5 -18.5t-19.5 -8.5q-17 0 -26 13t-8 33q3 62 98 103q57 24 64 72q3 19 -7 32.5t-35 13.5q-12 0 -25 -5q27 1 37.5 -10t8.5 -25q-2 -16 -17 -26.5t-39 -10.5q-25 0 -38.5 12t-9.5 34q7 38 49 60.5t97 22.5q70 0 95.5 -26t20.5 -62q-12 -92 -172 -107
q-43 -4 -64 -25q29 11 67 6q35 -7 70.5 -2.5t35.5 28.5zM285 217q0 -60 -68 -83q52 -16 54 -58q3 -105 -170 -105q-57 0 -88.5 17.5t-31.5 50.5q0 28 19 46t48 18q48 0 48 -35q0 -22 -17 -35t-40 -11q11 -6 27 -6q63 0 63 60q0 19 -12.5 29t-31.5 10h-15l7 35h8q23 0 42 12
t19 40q0 36 -43 36q-9 0 -21 -2q39 -5 39 -33q0 -18 -14 -29.5t-39 -11.5q-50 0 -50 39q0 40 43.5 64.5t107.5 24.5q56 0 86 -19.5t30 -53.5z" />
    <glyph glyph-name="oneeighth" unicode="&#x215b;" horiz-adv-x="378" 
d="M6 343q0 26 25 26q11 0 18.5 -7.5t7.5 -18.5q0 -25 -26 -25q-25 0 -25 25zM72 343q0 23 22 23q23 0 23 -23q0 -22 -23 -22q-22 0 -22 22zM137 343q0 21 20 21q9 0 15 -6t6 -15q0 -20 -21 -20q-20 0 -20 20zM200 343q0 21 20 21q9 0 15 -6t6 -15q0 -20 -21 -20
q-20 0 -20 20zM261 343q0 23 22 23q23 0 23 -23q0 -22 -23 -22q-22 0 -22 22zM321 343q0 26 25 26q11 0 18.5 -7.5t7.5 -18.5q0 -25 -26 -25q-25 0 -25 25zM131 470q31 0 35 29l15 91h-53q10 41 12 68h19q86 0 104 56q41 -4 82 0q-24 -84 -33 -143l-11 -72q-4 -29 25 -29h26
q-10 -39 -12 -63q-80 1 -125 1l-126 -1q9 34 11 63h31zM297 222q-5 -31 -37 -48q49 -26 36 -95q-8 -50 -54.5 -79t-114.5 -29q-137 0 -126 69q7 38 58 51q-41 29 -30 91q9 52 50.5 80t109.5 28q57 0 85 -18.5t23 -49.5zM116 71q-12 2 -21 4q-13 -10 -16 -26q-4 -31 54 -31
q64 0 69 23q2 12 -11 16t-75 14zM180 247q-49 0 -54 -25q-1 -12 11 -17t63 -12q12 -2 18 -4q6 8 9 25q3 14 -9 23.5t-38 9.5z" />
    <glyph glyph-name="threeeighths" unicode="&#x215c;" horiz-adv-x="378" 
d="M6 343q0 26 25 26q11 0 18.5 -7.5t7.5 -18.5q0 -25 -26 -25q-25 0 -25 25zM72 343q0 23 22 23q23 0 23 -23q0 -22 -23 -22q-22 0 -22 22zM137 343q0 21 20 21q9 0 15 -6t6 -15q0 -20 -21 -20q-20 0 -20 20zM200 343q0 21 20 21q9 0 15 -6t6 -15q0 -20 -21 -20
q-20 0 -20 20zM261 343q0 23 22 23q23 0 23 -23q0 -22 -23 -22q-22 0 -22 22zM321 343q0 26 25 26q11 0 18.5 -7.5t7.5 -18.5q0 -25 -26 -25q-25 0 -25 25zM369 646q0 -60 -68 -83q52 -16 54 -58q3 -105 -170 -105q-57 0 -88.5 17.5t-31.5 50.5q0 28 19 46t48 18
q48 0 48 -35q0 -22 -17 -35t-40 -11q11 -6 27 -6q63 0 63 60q0 19 -12.5 29t-31.5 10h-15l7 35h8q23 0 42 12t19 40q0 36 -43 36q-9 0 -21 -2q39 -5 39 -33q0 -18 -14 -29.5t-39 -11.5q-50 0 -50 39q0 40 43.5 64.5t107.5 24.5q56 0 86 -19.5t30 -53.5zM297 222
q-5 -31 -37 -48q49 -26 36 -95q-8 -50 -54.5 -79t-114.5 -29q-137 0 -126 69q7 38 58 51q-41 29 -30 91q9 52 50.5 80t109.5 28q57 0 85 -18.5t23 -49.5zM116 71q-12 2 -21 4q-13 -10 -16 -26q-4 -31 54 -31q64 0 69 23q2 12 -11 16t-75 14zM180 247q-49 0 -54 -25
q-1 -12 11 -17t63 -12q12 -2 18 -4q6 8 9 25q3 14 -9 23.5t-38 9.5z" />
    <glyph glyph-name="fiveeighths" unicode="&#x215d;" horiz-adv-x="378" 
d="M6 343q0 26 25 26q11 0 18.5 -7.5t7.5 -18.5q0 -25 -26 -25q-25 0 -25 25zM72 343q0 23 22 23q23 0 23 -23q0 -22 -23 -22q-22 0 -22 22zM137 343q0 21 20 21q9 0 15 -6t6 -15q0 -20 -21 -20q-20 0 -20 20zM200 343q0 21 20 21q9 0 15 -6t6 -15q0 -20 -21 -20
q-20 0 -20 20zM261 343q0 23 22 23q23 0 23 -23q0 -22 -23 -22q-22 0 -22 22zM321 343q0 26 25 26q11 0 18.5 -7.5t7.5 -18.5q0 -25 -26 -25q-25 0 -25 25zM150 546q-26 0 -43 -7l-12 14q44 54 56 156q22 -7 104 -7q90 0 124 12l-6 -51q-37 -51 -126 -51q-51 0 -83 15
q-5 -23 -19 -43q42 15 102 15q126 0 111 -94q-19 -105 -173 -105q-66 0 -95.5 22.5t-23.5 60.5q10 52 68 52q55 0 45 -45q-7 -36 -53 -36h-13q11 -9 30 -9q53 0 61 51q4 23 -9.5 36.5t-44.5 13.5zM297 222q-5 -31 -37 -48q49 -26 36 -95q-8 -50 -54.5 -79t-114.5 -29
q-137 0 -126 69q7 38 58 51q-41 29 -30 91q9 52 50.5 80t109.5 28q57 0 85 -18.5t23 -49.5zM116 71q-12 2 -21 4q-13 -10 -16 -26q-4 -31 54 -31q64 0 69 23q2 12 -11 16t-75 14zM180 247q-49 0 -54 -25q-1 -12 11 -17t63 -12q12 -2 18 -4q6 8 9 25q3 14 -9 23.5t-38 9.5z
" />
    <glyph glyph-name="seveneighths" unicode="&#x215e;" horiz-adv-x="378" 
d="M6 343q0 26 25 26q11 0 18.5 -7.5t7.5 -18.5q0 -25 -26 -25q-25 0 -25 25zM72 343q0 23 22 23q23 0 23 -23q0 -22 -23 -22q-22 0 -22 22zM137 343q0 21 20 21q9 0 15 -6t6 -15q0 -20 -21 -20q-20 0 -20 20zM200 343q0 21 20 21q9 0 15 -6t6 -15q0 -20 -21 -20
q-20 0 -20 20zM261 343q0 23 22 23q23 0 23 -23q0 -22 -23 -22q-22 0 -22 22zM321 343q0 26 25 26q11 0 18.5 -7.5t7.5 -18.5q0 -25 -26 -25q-25 0 -25 25zM145 714l3 -24q16 31 61 31q34 0 73 -27q41 -28 64 -28q5 0 7 3t0 7t-7 7q-17 9 -14 25t22 16t28 -14.5t6 -34.5
q-7 -47 -49 -76q-38 -27 -54.5 -55.5t-22.5 -71.5q-10 -74 -94 -74q-39 0 -58 16t-16 50q6 77 150 127q-26 -2 -45 2q-34 5 -46.5 -1.5t-16.5 -22.5h-57q2 7 29 145q4 -2 17.5 -2t19.5 2zM297 222q-5 -31 -37 -48q49 -26 36 -95q-8 -50 -54.5 -79t-114.5 -29q-137 0 -126 69
q7 38 58 51q-41 29 -30 91q9 52 50.5 80t109.5 28q57 0 85 -18.5t23 -49.5zM116 71q-12 2 -21 4q-13 -10 -16 -26q-4 -31 54 -31q64 0 69 23q2 12 -11 16t-75 14zM180 247q-49 0 -54 -25q-1 -12 11 -17t63 -12q12 -2 18 -4q6 8 9 25q3 14 -9 23.5t-38 9.5z" />
    <glyph glyph-name="minus" unicode="&#x2212;" 
d="M69 193q13 54 21 116q218 -4 440 0q-14 -57 -21 -116q-218 4 -440 0z" />
    <glyph glyph-name="notequal" unicode="&#x2260;" 
d="M85 283q11 45 18 101q116 -2 222 -2l34 108q14 -4 29 0l-36 -108q89 0 191 2q-12 -48 -18 -101q-54 1 -204 1q-10 -27 -22 -67q103 0 215 2q-12 -47 -18 -101q-59 1 -227 1l-37 -119q-14 4 -29 0q7 20 20 60t19 59q-137 0 -186 -1q11 45 18 101q104 -2 200 -2l21 67
q-155 0 -210 -1z" />
    <glyph glyph-name="lessequal" unicode="&#x2264;" 
d="M104 228l12 55q252 135 318 173l18 -98q-89 -28 -253 -108q122 -77 211 -115l-19 -35q63 0 89 1q-12 -47 -18 -101q-220 4 -440 0q11 45 18 101q130 -2 250 -2q-28 21 -63.5 45.5t-72 49.5t-50.5 34z" />
    <glyph glyph-name="greaterequal" unicode="&#x2265;" 
d="M493 270l-9 -55q-10 -5 -91.5 -48t-126.5 -68q102 0 214 2q-12 -47 -18 -101q-220 4 -440 0q11 45 18 101q62 -2 112 -2l-7 41q94 30 253 107q-126 80 -211 116l49 93q19 -18 56 -46t68.5 -49.5t75.5 -51.5t57 -39z" />
    <glyph glyph-name="space_uni0326" horiz-adv-x="200" 
d="M95 261q-50 0 -47 63q2 32 21.5 50.5t53.5 18.5t50.5 -22.5t13.5 -61.5q-4 -61 -51 -98t-113 -45l-4 20q107 18 127 96q-14 -21 -51 -21z" />
    <glyph glyph-name="dotlessI" horiz-adv-x="417" 
d="M-23 -2q11 48 19 133h17q28 0 36 10t17 47q8 32 28 157t22 155q2 31 -7 45t-35 14h-19q11 50 19 130q125 -2 195 -2q42 0 117.5 1t76.5 1q-14 -75 -18 -130h-9q-51 0 -68 -59q-8 -27 -27 -155t-21 -156q-2 -30 7 -44t41 -14h15q-15 -77 -18 -133q-124 2 -194 2z" />
    <glyph glyph-name="Jacute" 
d="M397 738l-8 13q22 36 59 72.5t72 53.5q47 17 77.5 5.5t27 -45t-47.5 -57.5q-39 -22 -90.5 -33.5t-89.5 -8.5zM206 145q-11 -77 -91 -94q10 -1 16 -1q46 0 74.5 30t43.5 107q50 262 51 313q1 31 -7.5 45t-35.5 14h-28q13 57 20 130q126 -2 197 -2q42 0 118.5 1t77.5 1
q-11 -50 -19 -130h-10q-25 0 -39.5 -12.5t-20.5 -46.5q-9 -48 -50 -304q-35 -221 -312 -221q-107 0 -160.5 42t-41.5 121q7 51 43 80.5t85 29.5q47 0 71.5 -28.5t17.5 -74.5z" />
    <glyph glyph-name="idotaccent" horiz-adv-x="385" 
d="M365 630q-7 -47 -42 -79.5t-94 -32.5q-50 0 -76.5 31.5t-21.5 80.5q6 47 40.5 80.5t92.5 33.5q52 0 79.5 -33t21.5 -81zM318 285l-35 -143q-16 -70 3 -70q22 0 41 134h42q-10 -102 -56.5 -166.5t-132.5 -64.5q-88 0 -114.5 52.5t5.5 166.5l39 138q8 26 9 44t-8 20
q-17 0 -30.5 -38.5t-18.5 -96.5h-41q12 102 57 167t122 65q81 0 111.5 -55t6.5 -153z" />
    <glyph glyph-name="jacute" horiz-adv-x="333" 
d="M300 285l-48 -248q-26 -133 -96.5 -185t-199.5 -52q-81 0 -121.5 30.5t-26.5 82.5q16 56 80 56q38 0 53 -22t5 -53q-7 -25 -34 -35t-54 -4q19 -17 49 -17q28 0 49.5 11.5t35.5 29t26 51.5t19.5 66.5t17.5 87.5l40 217q14 82 11 91q-2 4 -5 4q-16 0 -30 -39t-19 -96h-41
q13 103 58.5 167.5t122.5 64.5q53 0 82 -30t32 -76t-6 -102zM178 528l-8 13q22 36 59 72.5t72 53.5q47 17 77.5 5.5t27 -45t-47.5 -57.5q-39 -22 -90.5 -33.5t-89.5 -8.5z" />
    <glyph glyph-name="C.round" horiz-adv-x="690" 
d="M385 710q170 0 201 -102q25 40 40 82q54 -6 108 0q-43 -140 -61 -268q-54 2 -85 2l-85 -2q11 70 -5 104t-67 34q-36 0 -56.5 -15t-37.5 -61.5t-31 -137.5q-10 -69 -10.5 -113t9.5 -66t24 -29.5t37 -7.5q54 0 81 32t35 107q58 -2 90 -2l90 2q-19 -151 -99.5 -222.5
t-234.5 -71.5q-177 0 -252.5 89t-46.5 282q27 180 119.5 272t236.5 92z" />
    <glyph glyph-name="G.round" horiz-adv-x="785" 
d="M368 130q20 0 32.5 2.5t27.5 11.5t24 29.5t14 53.5q8 56 -44 56h-20l14 94q113 -2 177 -2l176 2l-14 -94h-18q-21 0 -29.5 -11.5t-12.5 -41.5q-20 -129 -17 -231q-81 4 -162 0q-9 34 -19 74q-77 -98 -223 -98q-47 0 -86.5 10.5t-76.5 36.5t-57.5 68.5t-30 106t6.5 149.5
q29 181 122.5 272.5t243.5 91.5q168 0 193 -110q23 35 48 90q63 -4 126 0q-18 -49 -38 -135t-23 -133q-63 2 -99 2l-99 -1q17 71 -4 104t-67 33q-37 0 -57 -13t-37 -60.5t-32 -144.5q-8 -69 -10 -111t9 -64.5t25 -29.5t37 -7z" />
    <glyph glyph-name="S.round" horiz-adv-x="707" 
d="M390 592q-120 0 -129 -56q-4 -24 23.5 -35.5t102.5 -12.5q165 -1 234.5 -81t47.5 -208q-18 -107 -108 -165.5t-229 -58.5q-151 0 -225 96q-17 -36 -32 -71q-50 4 -97 0q34 105 47 221q42 -4 84 0q27 -57 80 -87.5t149 -30.5q124 0 133 54q3 17 -4.5 26.5t-37.5 16
t-87 7.5q-147 2 -223.5 81t-55.5 202q38 220 325 220q157 0 207 -86q23 34 30 66q43 -4 86 0q-31 -93 -37 -204q-45 4 -90 0q-60 106 -194 106z" />
    <glyph glyph-name="Cacute.round" horiz-adv-x="690" 
d="M365 738l-8 13q22 36 59 72.5t72 53.5q47 17 77.5 5.5t27 -45t-47.5 -57.5q-39 -22 -90.5 -33.5t-89.5 -8.5zM385 710q170 0 201 -102q25 40 40 82q54 -6 108 0q-43 -140 -61 -268q-54 2 -85 2l-85 -2q11 70 -5 104t-67 34q-36 0 -56.5 -15t-37.5 -61.5t-31 -137.5
q-10 -69 -10.5 -113t9.5 -66t24 -29.5t37 -7.5q54 0 81 32t35 107q58 -2 90 -2l90 2q-19 -151 -99.5 -222.5t-234.5 -71.5q-177 0 -252.5 89t-46.5 282q27 180 119.5 272t236.5 92z" />
    <glyph glyph-name="Ccaron.round" horiz-adv-x="690" 
d="M276 891l14 11q57 -18 119 -73q29 23 77.5 45.5t78.5 26.5l11 -11q-40 -95 -129 -152h-88q-64 66 -83 153zM385 710q170 0 201 -102q25 40 40 82q54 -6 108 0q-43 -140 -61 -268q-54 2 -85 2l-85 -2q11 70 -5 104t-67 34q-36 0 -56.5 -15t-37.5 -61.5t-31 -137.5
q-10 -69 -10.5 -113t9.5 -66t24 -29.5t37 -7.5q54 0 81 32t35 107q58 -2 90 -2l90 2q-19 -151 -99.5 -222.5t-234.5 -71.5q-177 0 -252.5 89t-46.5 282q27 180 119.5 272t236.5 92z" />
    <glyph glyph-name="Ccedilla.round" horiz-adv-x="690" 
d="M385 710q170 0 201 -102q25 40 40 82q54 -6 108 0q-43 -140 -61 -268q-54 2 -85 2l-85 -2q11 70 -5 104t-67 34q-36 0 -56.5 -15t-37.5 -61.5t-31 -137.5q-10 -69 -10.5 -113t9.5 -66t24 -29.5t37 -7.5q54 0 81 32t35 107q58 -2 90 -2l90 2q-19 -151 -99.5 -222.5
t-234.5 -71.5h-2q-5 -21 -19 -35q44 1 75 -20t31 -61q0 -43 -34 -68t-91 -25q-76 0 -121 56l25 26q30 -32 65 -32q49 0 49 43q0 30 -23 39t-52 -3l-12 28q49 15 63 54q-152 11 -216 100t-37 269t119.5 272t236.5 92z" />
    <glyph glyph-name="Ccircumflex.round" horiz-adv-x="690" 
d="M558 748l-14 -11q-72 22 -129 73q-31 -24 -74.5 -46t-71.5 -26l-11 11q39 92 132 152h88q60 -62 80 -153zM385 710q170 0 201 -102q25 40 40 82q54 -6 108 0q-43 -140 -61 -268q-54 2 -85 2l-85 -2q11 70 -5 104t-67 34q-36 0 -56.5 -15t-37.5 -61.5t-31 -137.5
q-10 -69 -10.5 -113t9.5 -66t24 -29.5t37 -7.5q54 0 81 32t35 107q58 -2 90 -2l90 2q-19 -151 -99.5 -222.5t-234.5 -71.5q-177 0 -252.5 89t-46.5 282q27 180 119.5 272t236.5 92z" />
    <glyph glyph-name="Cdotaccent.round" horiz-adv-x="690" 
d="M385 710q170 0 201 -102q25 40 40 82q54 -6 108 0q-43 -140 -61 -268q-54 2 -85 2l-85 -2q11 70 -5 104t-67 34q-36 0 -56.5 -15t-37.5 -61.5t-31 -137.5q-10 -69 -10.5 -113t9.5 -66t24 -29.5t37 -7.5q54 0 81 32t35 107q58 -2 90 -2l90 2q-19 -151 -99.5 -222.5
t-234.5 -71.5q-177 0 -252.5 89t-46.5 282q27 180 119.5 272t236.5 92zM495 815q-3 -32 -25 -54.5t-58 -22.5t-53.5 22t-14.5 55q3 34 25.5 54.5t55.5 20.5q35 0 54 -20t16 -55z" />
    <glyph glyph-name="Gbreve.round" horiz-adv-x="785" 
d="M368 130q20 0 32.5 2.5t27.5 11.5t24 29.5t14 53.5q8 56 -44 56h-20l14 94q113 -2 177 -2l176 2l-14 -94h-18q-21 0 -29.5 -11.5t-12.5 -41.5q-20 -129 -17 -231q-81 4 -162 0q-9 34 -19 74q-77 -98 -223 -98q-47 0 -86.5 10.5t-76.5 36.5t-57.5 68.5t-30 106t6.5 149.5
q29 181 122.5 272.5t243.5 91.5q168 0 193 -110q23 35 48 90q63 -4 126 0q-18 -49 -38 -135t-23 -133q-63 2 -99 2l-99 -1q17 71 -4 104t-67 33q-37 0 -57 -13t-37 -60.5t-32 -144.5q-8 -69 -10 -111t9 -64.5t25 -29.5t37 -7zM424 744q-76 0 -98.5 40t-2.5 105l35 1
q-2 -22 18 -33t66 -11q84 0 100 44l35 -1q-2 -65 -39.5 -105t-113.5 -40z" />
    <glyph glyph-name="Gcircumflex.round" horiz-adv-x="785" 
d="M563 748l-14 -11q-72 22 -129 73q-31 -24 -74.5 -46t-71.5 -26l-11 11q39 92 132 152h88q60 -62 80 -153zM368 130q20 0 32.5 2.5t27.5 11.5t24 29.5t14 53.5q8 56 -44 56h-20l14 94q113 -2 177 -2l176 2l-14 -94h-18q-21 0 -29.5 -11.5t-12.5 -41.5q-20 -129 -17 -231
q-81 4 -162 0q-9 34 -19 74q-77 -98 -223 -98q-47 0 -86.5 10.5t-76.5 36.5t-57.5 68.5t-30 106t6.5 149.5q29 181 122.5 272.5t243.5 91.5q168 0 193 -110q23 35 48 90q63 -4 126 0q-18 -49 -38 -135t-23 -133q-63 2 -99 2l-99 -1q17 71 -4 104t-67 33q-37 0 -57 -13
t-37 -60.5t-32 -144.5q-8 -69 -10 -111t9 -64.5t25 -29.5t37 -7z" />
    <glyph glyph-name="Gcommaaccent.round" horiz-adv-x="785" 
d="M302 -185q-50 0 -47 63q2 32 21.5 50.5t53.5 18.5t50.5 -22.5t13.5 -61.5q-4 -61 -51 -98t-113 -45l-4 20q107 18 127 96q-14 -21 -51 -21zM368 130q20 0 32.5 2.5t27.5 11.5t24 29.5t14 53.5q8 56 -44 56h-20l14 94q113 -2 177 -2l176 2l-14 -94h-18q-21 0 -29.5 -11.5
t-12.5 -41.5q-20 -129 -17 -231q-81 4 -162 0q-9 34 -19 74q-77 -98 -223 -98q-47 0 -86.5 10.5t-76.5 36.5t-57.5 68.5t-30 106t6.5 149.5q29 181 122.5 272.5t243.5 91.5q168 0 193 -110q23 35 48 90q63 -4 126 0q-18 -49 -38 -135t-23 -133q-63 2 -99 2l-99 -1
q17 71 -4 104t-67 33q-37 0 -57 -13t-37 -60.5t-32 -144.5q-8 -69 -10 -111t9 -64.5t25 -29.5t37 -7z" />
    <glyph glyph-name="Gdotaccent.round" horiz-adv-x="785" 
d="M368 130q20 0 32.5 2.5t27.5 11.5t24 29.5t14 53.5q8 56 -44 56h-20l14 94q113 -2 177 -2l176 2l-14 -94h-18q-21 0 -29.5 -11.5t-12.5 -41.5q-20 -129 -17 -231q-81 4 -162 0q-9 34 -19 74q-77 -98 -223 -98q-47 0 -86.5 10.5t-76.5 36.5t-57.5 68.5t-30 106t6.5 149.5
q29 181 122.5 272.5t243.5 91.5q168 0 193 -110q23 35 48 90q63 -4 126 0q-18 -49 -38 -135t-23 -133q-63 2 -99 2l-99 -1q17 71 -4 104t-67 33q-37 0 -57 -13t-37 -60.5t-32 -144.5q-8 -69 -10 -111t9 -64.5t25 -29.5t37 -7zM480 815q-3 -32 -25 -54.5t-58 -22.5t-53.5 22
t-14.5 55q3 34 25.5 54.5t55.5 20.5q35 0 54 -20t16 -55z" />
    <glyph glyph-name="Sacute.round" horiz-adv-x="707" 
d="M364 738l-8 13q22 36 59 72.5t72 53.5q47 17 77.5 5.5t27 -45t-47.5 -57.5q-39 -22 -90.5 -33.5t-89.5 -8.5zM390 592q-120 0 -129 -56q-4 -24 23.5 -35.5t102.5 -12.5q165 -1 234.5 -81t47.5 -208q-18 -107 -108 -165.5t-229 -58.5q-151 0 -225 96q-17 -36 -32 -71
q-50 4 -97 0q34 105 47 221q42 -4 84 0q27 -57 80 -87.5t149 -30.5q124 0 133 54q3 17 -4.5 26.5t-37.5 16t-87 7.5q-147 2 -223.5 81t-55.5 202q38 220 325 220q157 0 207 -86q23 34 30 66q43 -4 86 0q-31 -93 -37 -204q-45 4 -90 0q-60 106 -194 106z" />
    <glyph glyph-name="Scaron.round" horiz-adv-x="707" 
d="M267 891l14 11q57 -18 119 -73q29 23 77.5 45.5t78.5 26.5l11 -11q-40 -95 -129 -152h-88q-64 66 -83 153zM390 592q-122 0 -129 -56q-5 -24 23 -35.5t103 -12.5q165 -1 234.5 -81t47.5 -208q-18 -107 -108 -165.5t-229 -58.5q-151 0 -225 96q-17 -36 -32 -71
q-50 4 -97 0q34 105 47 221q42 -4 84 0q27 -57 80 -87.5t149 -30.5q122 0 133 54q3 17 -5 26.5t-37.5 16t-86.5 7.5q-147 2 -223.5 81t-55.5 202q38 220 325 220q157 0 207 -86q23 34 30 66q43 -4 86 0q-31 -93 -37 -204q-45 4 -90 0q-60 106 -194 106z" />
    </font>
</defs>
</svg>
