<?xml version="1.0" standalone="no"?>
<!DOCTYPE svg PUBLIC "-//W3C//DTD SVG 1.1//EN" "http://www.w3.org/Graphics/SVG/1.1/DTD/svg11.dtd" >
<svg>
<metadata>
Created by FontForge 20110222 at Mon Apr 21 12:24:10 2014
 By Orthosie Webhosting
(C)2010 House Industries/Brand Design Co., Inc. All Rights Reserved.
</metadata>
<defs>
<font id="EamesCenturyModernBold" horiz-adv-x="600" >
  <font-face 
    font-family="EamesCenturyModernBold"
    font-weight="700"
    font-stretch="normal"
    units-per-em="1000"
    panose-1="2 0 8 3 7 7 5 2 2 3"
    ascent="820"
    descent="-180"
    x-height="469"
    cap-height="690"
    bbox="-220 -285 1120 1100.32"
    underline-thickness="50"
    underline-position="-50"
    unicode-range="U+0020-FB04"
  />
<missing-glyph horiz-adv-x="500" 
 />
    <glyph glyph-name="f_f" unicode="ff" horiz-adv-x="658" 
d="M615 76v-78q-91 2 -142 2l-142 -2v78h20q36 0 39 45q3 64 1 277l-152 -1q-4 -197 1 -276q3 -45 44 -45h17q-1 -9 -1 -39t1 -39q-92 2 -143 2l-143 -2q1 9 1 39t-1 39h24q36 0 41 45q3 42 1 273l-60 -2v76l59 -2v22q-2 103 40.5 156t126.5 53q67 0 98.5 -31t31.5 -75
q1 -37 -17.5 -56.5t-52.5 -19.5q-30 0 -47.5 16.5t-17.5 44.5q0 33 23 49t58 11q-21 14 -48 14q-49 0 -64 -44t13 -126l6 -16l160 -1v12q-7 222 191 222q75 0 113 -32.5t39 -79.5q0 -32 -18.5 -51t-52.5 -19q-31 0 -49 16.5t-18 44.5q0 33 23.5 49.5t59.5 10.5
q-21 14 -51 14q-53 0 -72.5 -34.5t-9.5 -124.5l3 -26l62 3v-76l-62 3q-2 -191 2 -274q3 -45 40 -45h25z" />
    <glyph glyph-name="f_i" unicode="fi" horiz-adv-x="631" 
d="M22 468l58 -2v4q-1 117 58 172t184 55q85 0 134.5 -30.5t49.5 -79.5q0 -35 -19.5 -53.5t-53.5 -18.5q-70 0 -70 62q0 54 57 59q-22 9 -57 9q-61 0 -92 -30t-31 -105v-43q248 0 310 5q-2 -56 -2 -180t2 -166q1 -30 12 -40t40 -10h14q-1 -13 -1 -41t1 -37q-92 2 -143 2
l-143 -2q1 9 1 37t-1 41h13q26 0 36 10t11 38q2 33 2 109t-2 110q-2 29 -13 40.5t-36 12.5q-15 1 -102 1q0 -251 2 -276t9.5 -35t33.5 -10h16q-2 -39 0 -78q-90 2 -141 2l-143 -2q1 9 1 39t-1 39h25q36 0 39 45q3 35 1 273l-59 -2v76z" />
    <glyph glyph-name="f_l" unicode="fl" horiz-adv-x="629" 
d="M550 693q-2 -49 -2 -286.5t2 -271.5q2 -33 12.5 -46t38.5 -13h14q-2 -36 0 -78q-94 2 -145 2l-140 -2q1 9 1 37t-1 41h15q24 0 33.5 13t11.5 46q2 32 2 212.5t-2 208.5q-2 34 -14 46q1 -6 1 -13q0 -74 -73 -74q-30 0 -47.5 17t-17.5 45q0 29 19 44.5t49 15.5l19 -2
q-22 15 -51 15q-49 0 -64.5 -44.5t13.5 -125.5l6 -15l72 3v-76l-62 2q-2 -237 1 -273q3 -45 41 -45h18q-1 -9 -1 -39t1 -39q-88 2 -140 2l-145 -2q1 9 1 39t-1 39h25q35 0 40 45q3 42 1 273l-60 -2v76l59 -2v22q-2 103 40.5 156t126.5 53q46 0 79 -18v11q185 0 224 3z" />
    <glyph glyph-name="f_f_i" unicode="ffi" horiz-adv-x="942" 
d="M612 76v-78q-90 2 -141 2l-139 -2v78h23q34 0 37 45q2 24 0 276h-154q-4 -185 2 -276q3 -45 44 -45h19q-1 -9 -1 -39t1 -39q-92 2 -143 2l-145 -2q1 9 1 39t-1 39h25q35 0 40 45q3 42 1 273l-60 -2v76l59 -2v22q-4 209 171 209q66 0 96 -31t30 -76q0 -75 -69 -75
q-32 0 -49 16.5t-17 45.5q0 34 24.5 49t59.5 10q-23 14 -50 14q-49 0 -65 -44t11 -126l7 -17h162v11q-1 112 59 167.5t184 55.5q88 0 133.5 -30t45.5 -80q0 -35 -20.5 -53.5t-56.5 -18.5q-32 0 -50.5 17t-18.5 45q0 54 63 59q-25 11 -60 11q-61 0 -89.5 -29t-28.5 -103v-48
q237 0 309 5q-1 -56 -1 -180t1 -166q1 -30 12 -40t40 -10h14v-78q-91 2 -142 2l-144 -2q1 9 1 37t-1 41h14q25 0 35 10t11 38q2 33 2 109t-2 110q-1 29 -12 40.5t-34 12.5q-15 1 -104 1q0 -251 2 -276q2 -24 10 -34.5t32 -10.5h17z" />
    <glyph glyph-name="f_f_l" unicode="ffl" horiz-adv-x="940" 
d="M21 468l59 -2v22q-2 103 40.5 156t126.5 53q67 0 98 -31.5t31 -77.5q2 -73 -69 -73q-31 0 -48 16.5t-17 45.5q0 31 22.5 47.5t58.5 11.5q-20 14 -48 14q-49 0 -65 -44t13 -126l6 -16l162 -1v25q-2 103 41.5 156t127.5 53q45 0 77 -17v10q185 0 224 3q-1 -58 -1 -286.5
t1 -271.5q2 -33 12.5 -46t38.5 -13h15q-1 -13 -1 -41t1 -37q-92 2 -143 2l-143 -2v78h15q27 0 35 12t10 47q1 32 1 212.5t-1 208.5q-2 32 -13 45q5 -40 -13 -63t-56 -23q-31 0 -47.5 16.5t-16.5 46.5t22 46.5t58 11.5q-19 14 -48 14q-49 0 -64 -47t13 -123l6 -16l72 4v-76
l-62 3q-2 -222 1 -274q3 -45 42 -45h17v-78q-90 2 -140 2l-140 -2v78h21q33 0 38 45q3 43 1 277l-153 -1q-4 -197 1 -276q3 -45 45 -45h18v-78q-94 2 -145 2l-143 -2q1 9 1 39t-1 39h24q36 0 41 45q3 42 1 273l-60 -2v76z" />
    <glyph glyph-name="f_j" unicode="fj" horiz-adv-x="587" 
d="M21 468l58 -2v4q-1 117 58 172t184 55q88 0 134 -30.5t46 -79.5q0 -35 -21 -53.5t-57 -18.5q-35 0 -53 17.5t-18 46.5q0 24 16.5 39.5t41.5 19.5q-26 7 -53 7q-61 0 -89.5 -28.5t-28.5 -106.5v-42q274 0 311 3q-4 -93 0 -440q1 -122 -45 -177t-150 -55q-72 0 -107.5 27
t-35.5 74q0 34 20.5 52.5t48.5 18.5q32 0 49 -16t17 -45q0 -25 -18 -44.5t-52 -20.5q15 -6 37 -6q40 0 57.5 26.5t18.5 99.5q4 312 0 379q-3 48 -47 48h-105q0 -247 2 -271q2 -25 9.5 -35t33.5 -10h25v-78q-99 2 -150 2l-143 -2q1 9 1 39t-1 39h25q36 0 39 45q3 35 1 273
l-59 -2v76z" />
    <glyph glyph-name="f_t" unicode="ft" horiz-adv-x="679" 
d="M621 171l44 -2q8 -92 -20.5 -140t-110.5 -48q-74 0 -110.5 41.5t-35.5 117.5q2 142 2 255h-150q-2 -223 1 -274q3 -45 45 -45h19v-78q-93 2 -145 2l-145 -2q1 9 1 39t-1 39h24q36 0 41 45q3 41 1 272l-60 -1v76l59 -3v23q-2 103 40.5 156t126.5 53q67 0 100 -31.5
t33 -75.5q0 -35 -17.5 -55t-50.5 -20q-32 0 -49.5 16.5t-17.5 43.5q0 34 23.5 50t60.5 9q-23 16 -54 16q-48 0 -63 -48t13 -122l9 -23h58q107 -1 147 37t61 148q8 -1 33 -1t33 1q-8 -62 -10 -178l101 5q-1 -8 -1 -38t1 -39l-101 1v-224q0 -60 6.5 -80.5t24.5 -20.5
q22 0 29.5 25t4.5 78z" />
    <glyph glyph-name="t_t" unicode="tt" horiz-adv-x="679" 
d="M227 454l85 1q94 1 134 46.5t54 140.5q8 -1 33 -1t33 1q-8 -62 -10 -178l101 5q-1 -8 -1 -38t1 -39l-101 1v-224q0 -60 6.5 -80.5t24.5 -20.5q22 0 29.5 25t4.5 78l44 -2q8 -93 -20.5 -140.5t-111.5 -47.5q-80 0 -113.5 39.5t-31.5 119.5q2 142 2 254h-163v-225
q0 -60 6.5 -80.5t24.5 -20.5q40 0 31 93l41 2q31 -182 -125 -182q-80 0 -113.5 39.5t-32.5 119.5l3 253h-48v62q132 6 157 187q7 -1 33 -1t33 1q-8 -65 -10 -188z" />
    <glyph glyph-name=".notdef" horiz-adv-x="500" 
 />
    <glyph glyph-name=".null" horiz-adv-x="0" 
 />
    <glyph glyph-name="nonmarkingreturn" horiz-adv-x="333" 
 />
    <glyph glyph-name="space" unicode=" " horiz-adv-x="224" 
 />
    <glyph glyph-name="exclam" unicode="!" horiz-adv-x="277" 
d="M226 64q0 -37 -23.5 -59.5t-63.5 -22.5q-38 0 -61.5 22.5t-23.5 61.5q0 37 24 60t61 23q40 0 63.5 -23.5t23.5 -61.5zM152 221q0 -21 -15 -21t-15 21q0 44 -2.5 76t-10.5 65.5t-12.5 48t-20.5 56.5t-22 58q-30 80 -5.5 132.5t88.5 52.5q63 0 88.5 -52.5t-5.5 -132.5
q-4 -9 -16 -39t-14.5 -36t-11 -30t-10 -33.5t-6.5 -31.5t-6 -39t-2.5 -41.5t-1.5 -53.5z" />
    <glyph glyph-name="quotedbl" unicode="&#x22;" horiz-adv-x="364" 
d="M119 427q0 -15 -13 -15q-12 0 -12 15q0 126 -22 177q-18 44 -8 73t43 29q31 0 42 -29t-9 -73q-23 -51 -21 -177zM269 427q0 -15 -13 -15q-12 0 -12 15q0 126 -22 177q-18 44 -8 73t43 29q31 0 42 -29t-9 -73q-23 -51 -21 -177z" />
    <glyph glyph-name="numbersign" unicode="#" horiz-adv-x="592" 
d="M157 0h-34q34 163 45 219q-90 0 -122 -1q7 23 9 40q62 -2 120 -2q20 102 32 169q-100 0 -135 -1q2 7 8 41q68 -2 134 -2q25 134 39 225h36q-25 -100 -49 -225h162q25 147 36 225h36q-14 -62 -46 -225q54 0 116 2q-5 -20 -8 -41q-31 1 -116 1q-21 -107 -31 -169
q56 0 120 2l-8 -40q-31 1 -119 1q-26 -148 -35 -219h-34q23 107 44 219h-164q-24 -134 -36 -219zM232 425q-20 -102 -32 -169h164q21 107 31 169h-163z" />
    <glyph glyph-name="dollar" unicode="$" horiz-adv-x="590" 
d="M268 787l-3 -109h55l-3 109h50l-4 -114q78 -12 121 -48.5t42 -89.5q-1 -31 -18.5 -49.5t-45.5 -18.5q-31 0 -48 14.5t-17 40.5q0 21 13 35.5t36 17.5q-32 29 -84 39l-5 -169q112 -15 161 -67t49 -139q0 -88 -52.5 -146.5t-150.5 -74.5l3 -117h-50l3 112l-55 -1l3 -111
h-50l3 115q-90 12 -142 53.5t-51 100.5q1 31 19.5 50t50.5 19q31 0 48.5 -15t17.5 -43q0 -22 -14.5 -36.5t-39.5 -17.5q32 -36 112 -47l5 187q-92 18 -138.5 69t-46.5 128q0 78 47.5 134t131.5 74l-3 115h50zM458 172q0 32 -23.5 51t-77.5 29l5 -169q46 10 71 33.5t25 55.5z
M258 263l5 -187l58 1l5 179q-11 2 -34 4t-34 3zM259 455l67 -6l-5 170q-29 2 -58 -1zM149 530q0 -53 78 -69l-5 149q-73 -22 -73 -80z" />
    <glyph glyph-name="percent" unicode="%" 
d="M92 85q0 9 9 9t9 -9t-9 -9t-9 9zM129 139q0 5 4 9.5t10 4.5t10 -4.5t4 -9.5q0 -15 -14 -15t-14 15zM165 192q0 8 6 14t14 6t14 -6t6 -14t-6 -14t-14 -6t-14 6t-6 14zM203 246q0 9 7 16t17 7t17 -7t7 -16q0 -10 -7 -17t-17 -7t-17 7t-7 17zM243 299q0 11 7.5 18.5
t18.5 7.5t18.5 -7.5t7.5 -18.5t-7.5 -18.5t-18.5 -7.5t-18.5 7.5t-7.5 18.5zM284 353q0 11 8 18.5t19 7.5t19 -7.5t8 -18.5t-8 -19t-19 -8t-19 8t-8 19zM327 406q0 10 7.5 18t18.5 8t18.5 -8t7.5 -18t-7.5 -18t-18.5 -8t-18.5 8t-7.5 18zM371 460q0 9 7 16t17 7t17 -7t7 -16
q0 -10 -7 -17t-17 -7t-17 7t-7 17zM417 513q0 8 6 14t14 6t14 -6t6 -14t-6 -14t-14 -6t-14 6t-6 14zM465 567q0 5 4 9.5t10 4.5t10 -4.5t4 -9.5q0 -15 -14 -15t-14 15zM512 620q0 9 9 9t9 -9t-9 -9t-9 9zM418 13q24 0 34 23.5t10 93.5q0 71 -10 94.5t-34 23.5
q-22 0 -32.5 -24.5t-10.5 -93.5q0 -72 9.5 -94.5t33.5 -22.5zM418 -29q-138 0 -138 159q0 83 40 121.5t98 38.5q140 0 140 -160q0 -82 -40 -120.5t-100 -38.5zM188 436q23 0 33 23.5t10 93.5q0 71 -10 94.5t-33 23.5t-33.5 -24.5t-10.5 -93.5q0 -72 9.5 -94.5t34.5 -22.5z
M188 394q-139 0 -139 159q0 83 40 121.5t99 38.5q139 0 139 -160q0 -83 -40 -121t-99 -38z" />
    <glyph glyph-name="ampersand" unicode="&#x26;" horiz-adv-x="791" 
d="M768 150q-2 -77 -44 -120.5t-130 -43.5q-104 0 -169 51q-66 -56 -175 -56q-98 0 -155.5 47.5t-57.5 135.5q0 75 48.5 125t119.5 68q-39 83 -39 149q0 194 205 194q83 0 125.5 -43t42.5 -113t-38.5 -123.5t-99.5 -81.5q60 -95 118 -173q41 49 42 95q2 47 -38 47h-23v60
q78 -2 122 -2l122 2v-60h-35q-27 0 -40 -11.5t-21 -34.5q-28 -90 -91 -140q39 -40 81 -40q33 0 53 20.5t23 55.5zM191 209q0 -73 53 -113.5t137 -16.5q-65 73 -144 216q-46 -32 -46 -86zM329 539q0 -72 44 -153q58 42 58 154q0 81 -50 81q-28 0 -40 -20t-12 -62z" />
    <glyph glyph-name="quotesingle" unicode="'" horiz-adv-x="215" 
d="M120 427q0 -15 -13 -15q-12 0 -12 15q0 126 -22 177q-18 44 -8 73t43 29q31 0 42 -29t-9 -73q-23 -51 -21 -177z" />
    <glyph glyph-name="parenleft" unicode="(" horiz-adv-x="299" 
d="M171 307q0 -212 20 -308.5t76 -172.5l-38 -30q-97 67 -148 184.5t-51 326.5t51 326.5t148 184.5l38 -31q-56 -75 -76 -174.5t-20 -305.5z" />
    <glyph glyph-name="parenright" unicode=")" horiz-adv-x="299" 
d="M126 307q0 205 -20.5 304.5t-75.5 175.5l38 31q97 -67 148 -184.5t51 -326.5t-51 -326.5t-148 -184.5l-38 30q56 77 76 173.5t20 307.5z" />
    <glyph glyph-name="asterisk" unicode="*" horiz-adv-x="500" 
d="M272 597q-12 -21 -13 -59l13 -7q35 21 45 41q3 5 8.5 20t13 25t20.5 18q23 13 46 7.5t34 -25.5q13 -22 6 -44.5t-29 -34.5q-12 -7 -26 -8.5t-29.5 0.5t-21.5 2q-23 0 -56 -18v-15q33 -19 57 -18q4 0 21 2.5t29 1t26 -8.5q22 -13 28.5 -35.5t-5.5 -43.5q-12 -20 -35 -25.5
t-45 7.5q-12 8 -20 19t-14.5 25.5t-8.5 18.5q-15 24 -43 41l-14 -8q0 -39 14 -59q2 -4 12.5 -17t15.5 -24t5 -26q1 -26 -15.5 -43t-40.5 -17q-25 0 -41 17t-15 43q0 14 6 26.5t15.5 24.5t11.5 17q12 20 13 58l-13 7q-35 -20 -44 -40q-3 -5 -8.5 -20t-13 -25t-20.5 -18
q-23 -13 -45.5 -7.5t-34.5 26.5t-5 43.5t29 34.5q12 7 26 8.5t29 -0.5t21 -2q24 0 56 17v17q-34 18 -57 17q-4 0 -21 -2.5t-29 -1t-25 8.5q-23 13 -30 35.5t6 43.5q12 20 35 25.5t45 -7.5q12 -8 20 -18.5t14.5 -25.5t8.5 -19q14 -23 44 -41l12 7q-1 40 -14 60q-3 5 -12.5 17
t-15 23.5t-5.5 26.5q0 27 16 43.5t40 16.5q25 0 41 -17t16 -43q0 -14 -6 -26.5t-16 -24.5t-12 -17z" />
    <glyph glyph-name="plus" unicode="+" 
d="M341 26h-83q5 143 13 196q-65 -10 -194 -13v83q109 0 194 -13q-10 65 -13 194h83q0 -98 -13 -194q96 13 195 13v-83q-132 3 -195 13q8 -62 13 -196z" />
    <glyph glyph-name="comma" unicode="," horiz-adv-x="263" 
d="M40 -91q67 10 101 48t31 93q-14 -27 -52 -27q-28 0 -44.5 17t-16.5 48q0 30 20 50.5t55 20.5q36 0 57.5 -25t21.5 -75q0 -39 -13.5 -72.5t-53 -63.5t-101.5 -38z" />
    <glyph glyph-name="hyphen" unicode="-" horiz-adv-x="282" 
d="M18 201v99q122 -4 247 0q-2 -49 0 -99q-125 4 -247 0z" />
    <glyph glyph-name="period" unicode="." horiz-adv-x="280" 
d="M230 72q0 -40 -23.5 -62.5t-66.5 -22.5q-41 0 -65.5 22t-24.5 64q0 38 25.5 62t64.5 24q42 0 66 -24t24 -63z" />
    <glyph glyph-name="slash" unicode="/" horiz-adv-x="381" 
d="M119 -177q-13 1 -53 1t-53 -1q148 484 249 867q53 -4 106 0q-135 -436 -249 -867z" />
    <glyph glyph-name="zero" unicode="0" horiz-adv-x="616" 
d="M210 276q0 -93 11 -144t31 -69.5t56 -18.5q53 0 75.5 49t22.5 185q0 138 -22.5 188.5t-76.5 50.5q-51 0 -74 -52t-23 -189zM38 277q0 145 72.5 223.5t197.5 78.5q131 0 201 -77t70 -224q0 -149 -72.5 -222.5t-198.5 -73.5q-270 0 -270 295z" />
    <glyph glyph-name="one" unicode="1" horiz-adv-x="444" 
d="M139 133q1 14 1 106t-1 155q-47 -24 -100 -12q1 9 1 40.5t-1 40.5h20q72 -3 104.5 26t38.5 96q14 -1 54.5 -1t54.5 1q-4 -82 -5 -124q-1 -35 -0.5 -162.5t1.5 -165.5q0 -29 11.5 -42t42.5 -13h48q-1 -8 -1 -39t1 -40q-120 3 -187 3l-188 -3q1 9 1 40t-1 39h51
q32 0 42.5 13t11.5 42z" />
    <glyph glyph-name="two" unicode="2" horiz-adv-x="543" 
d="M485 221q17 -42 19 -89q1 -73 -36.5 -114t-105.5 -42q-35 0 -66 11t-49.5 24t-53.5 41q-39 32 -72 32q-26 0 -41 -15q10 3 18 3q21 0 33 -12.5t12 -32.5t-13.5 -32t-36.5 -12q-26 0 -42.5 20.5t-16.5 55.5q0 135 149 195q75 31 105.5 65.5t30.5 86.5q0 48 -27 74.5
t-81 26.5q-36 0 -66.5 -14.5t-46.5 -41.5q16 6 38 6q35 0 55 -19t20 -52t-22 -51.5t-60 -18.5t-60.5 25t-22.5 68q0 79 60 124.5t161 45.5q105 0 161 -42.5t56 -116.5q0 -163 -241 -202q-118 -19 -154 -85q52 50 183 27q28 -5 41.5 -7t38.5 -5t37 0t26 9.5t19 21t2 35.5z
" />
    <glyph glyph-name="three" unicode="3" horiz-adv-x="591" 
d="M523 397q0 -132 -138 -167q82 -10 125.5 -57t43.5 -119q0 -100 -74.5 -152t-209.5 -52q-106 0 -170 47.5t-64 122.5q0 45 26 72.5t67 27.5q38 0 59.5 -20t21.5 -55t-23 -53.5t-61 -18.5q-10 0 -22 2q35 -61 129 -61q138 0 138 145q0 134 -140 134h-31v59h26
q63 1 94.5 33.5t31.5 102.5q0 55 -29 86.5t-83 31.5q-87 0 -122 -53q11 4 28 4q36 0 57 -18.5t21 -51.5t-21.5 -52t-57.5 -19q-40 0 -62 24t-22 65q0 73 64 123.5t171 50.5t167 -48t60 -134z" />
    <glyph glyph-name="four" unicode="4" horiz-adv-x="590" 
d="M286 7q1 23 1 76q-119 1 -257 -1v50q17 28 153.5 222t156.5 231q18 -1 61.5 -1t60.5 1q-2 -137 -2 -450l99 3v-59l-98 2q0 -60 1 -74q2 -24 12.5 -34t36.5 -10h36q-1 -9 -1 -39.5t1 -39.5q-106 3 -174 3l-179 -3v79h41q29 0 39.5 9.5t11.5 34.5zM287 410
q-167 -249 -183 -277q53 -1 184 -1q0 198 -1 278z" />
    <glyph glyph-name="five" unicode="5" horiz-adv-x="586" 
d="M222 229q-65 0 -125 -41l-25 25q28 59 40 165t9 203q65 -23 189 -23q123 0 201 33l26 -20q-6 -84 -64.5 -127t-152.5 -43q-97 0 -160 43q-6 -114 -31 -186q80 48 184 48q118 0 178 -57t60 -166q0 -113 -74.5 -173t-211.5 -60q-108 0 -168.5 46.5t-60.5 123.5q0 46 26 73
t67 27q38 0 59.5 -19.5t21.5 -54.5t-22 -54t-61 -19q-15 0 -25 4q33 -60 126 -60q138 0 138 160q0 152 -144 152z" />
    <glyph glyph-name="six" unicode="6" horiz-adv-x="596" 
d="M352 655q-77 0 -110.5 -67t-34.5 -225q47 75 152 75q99 0 150 -55t51 -161q0 -108 -72.5 -172.5t-192.5 -64.5q-121 0 -189.5 81t-68.5 255q0 191 79 290t205 99q95 0 149.5 -42.5t54.5 -105.5q0 -45 -22.5 -69t-65.5 -24q-38 0 -59 20.5t-21 53.5q0 38 26.5 57t69.5 14
q-32 41 -101 41zM209 215q0 -81 22 -121t76 -40q88 0 88 161q0 152 -88 152q-50 0 -74 -35t-24 -117z" />
    <glyph glyph-name="seven" unicode="7" horiz-adv-x="546" 
d="M105 584l8 -60q32 60 107 60q61 0 120 -50q63 -53 109 -53q26 0 39 14q-4 -1 -12 -1q-22 0 -36.5 13t-14.5 34q0 24 15 37t39 13q57 0 57 -69q0 -84 -83 -168q-26 -27 -42 -45.5t-34 -44.5t-27 -52t-15.5 -60t-6 -76.5t7.5 -94.5q8 -60 -20.5 -90t-76.5 -30
q-51 0 -77 29.5t-26 96.5q0 105 54.5 185t166.5 151q28 18 44.5 29.5t36 29.5t32.5 38q-52 -48 -137 -48q-56 -1 -122 30q-34 15 -54 15q-50 0 -49 -72q-10 1 -33.5 1t-33.5 -1q5 44 4 115.5t-6 123.5q10 -2 33 -2t33 2z" />
    <glyph glyph-name="eight" unicode="8" horiz-adv-x="606" 
d="M531 549q0 -85 -82 -135q67 -28 95.5 -75t28.5 -116q0 -116 -74 -177t-206 -61q-256 0 -256 168q0 103 116 147q-94 58 -94 181q0 104 66.5 166.5t185.5 62.5q106 0 163 -44t57 -117zM264 259q-34 7 -63 17q-61 -40 -61 -113q0 -50 40.5 -77t120.5 -27q75 0 116 26t41 66
t-38.5 62t-155.5 46zM309 642q-63 0 -95.5 -26.5t-32.5 -65.5q0 -43 35.5 -66t131.5 -41q26 -5 43 -10q46 44 46 109q0 45 -30.5 72.5t-97.5 27.5z" />
    <glyph glyph-name="nine" unicode="9" horiz-adv-x="593" 
d="M228 -101q83 0 119 67t37 232q-43 -79 -145 -79q-98 0 -151.5 56.5t-53.5 157.5q0 109 71.5 177.5t188.5 68.5q125 0 194 -85t69 -262q0 -176 -73.5 -279t-228.5 -103q-100 0 -156.5 41t-56.5 105q0 41 24 64.5t66 23.5q37 0 58.5 -19.5t21.5 -53.5q0 -42 -29.5 -59.5
t-75.5 -11.5q40 -41 121 -41zM383 355q0 85 -22.5 125.5t-75.5 40.5q-47 0 -67.5 -41.5t-20.5 -124.5q0 -167 89 -167q48 0 72.5 38t24.5 129z" />
    <glyph glyph-name="colon" unicode=":" horiz-adv-x="267" 
d="M202 344q0 -30 -18.5 -47.5t-50.5 -17.5q-31 0 -49.5 17.5t-18.5 48.5q0 30 19 48t49 18q32 0 50.5 -18.5t18.5 -48.5zM202 123q0 -30 -18.5 -47t-50.5 -17q-31 0 -49.5 17.5t-18.5 47.5t19 48t49 18q32 0 50.5 -18t18.5 -49z" />
    <glyph glyph-name="semicolon" unicode=";" horiz-adv-x="277" 
d="M72 125q0 30 19.5 48.5t51.5 18.5q36 0 55 -25.5t19 -67.5q0 -68 -49.5 -116.5t-130.5 -64.5l-7 25q151 34 148 155q-13 -33 -52 -33q-25 0 -39.5 15.5t-14.5 44.5zM212 344q0 -30 -18.5 -47.5t-50.5 -17.5q-31 0 -49.5 17.5t-18.5 48.5q0 30 19 48t49 18q31 0 50 -18.5
t19 -48.5z" />
    <glyph glyph-name="less" unicode="&#x3c;" 
d="M139 227v44q216 139 279 185l37 -68q-63 -31 -253 -139q190 -108 253 -139l-37 -68q-63 46 -279 185z" />
    <glyph glyph-name="equal" unicode="=" 
d="M80 131q2 38 0 78q221 -4 440 0q-2 -39 0 -78q-219 4 -440 0zM80 293q2 39 0 78q221 -4 440 0q-2 -38 0 -78q-219 4 -440 0z" />
    <glyph glyph-name="greater" unicode="&#x3e;" 
d="M454 271v-44q-216 -139 -279 -185l-37 68q63 31 253 139q-190 108 -253 139l37 68q63 -46 279 -185z" />
    <glyph glyph-name="question" unicode="?" horiz-adv-x="523" 
d="M375 274l13 -30q-65 -48 -137 -48q-39 0 -62.5 18.5t-23.5 50.5q0 26 15.5 45.5t49.5 40.5q93 57 93 156q0 58 -29.5 92t-90.5 34q-85 0 -116 -64q21 8 45 8q36 0 57 -20.5t21 -56.5q0 -34 -24 -55t-64 -21q-43 0 -66.5 26t-23.5 74q0 82 62.5 134t172.5 52
q117 0 175.5 -51.5t58.5 -140.5q0 -83 -50.5 -132.5t-155.5 -86.5q-31 -11 -42 -19t-11 -20q0 -22 30 -22q52 0 103 36zM356 65q0 -39 -23 -61t-63 -22t-63 22t-23 62q0 38 23.5 60.5t62.5 22.5q40 0 63 -22.5t23 -61.5z" />
    <glyph glyph-name="at" unicode="@" horiz-adv-x="821" 
d="M652 435q-27 -106 -53 -248q-16 -95 36 -95q35 0 60.5 38.5t36.5 93.5q33 165 -29 259.5t-229 94.5q-141 0 -236.5 -83t-120.5 -241q-28 -176 42.5 -266.5t215.5 -90.5q154 0 250 81l21 -23q-43 -46 -116.5 -73t-152.5 -27q-193 0 -280.5 110t-57.5 292q28 168 148 264
t285 96q181 0 267 -100.5t46 -293.5q-39 -183 -200 -183q-56 0 -88.5 23t-34.5 68q-47 -88 -143 -88q-58 0 -88.5 41.5t-18.5 124.5q17 122 74 181.5t131 59.5q91 0 101 -74q42 35 51 59q41 -2 83 0zM387 110q57 0 90 171q21 107 -28 107q-60 0 -92 -175q-18 -103 30 -103z
" />
    <glyph glyph-name="A" unicode="A" horiz-adv-x="884" 
d="M524 187l-8 24q-103 3 -243 1l-9 -27q-16 -47 -5.5 -70.5t50.5 -23.5h38q0 -7 -0.5 -46.5t-0.5 -46.5q-102 2 -159 2l-159 -2v93h26q42 0 65 19.5t42 68.5q50 126 194 517q57 -3 89 -3l89 3q28 -80 99 -261.5t102 -256.5q21 -50 41 -68.5t50 -18.5h31v-93q-131 2 -205 2
l-206 -2v93h40q36 0 45 24.5t-6 71.5zM495 271q-54 154 -102 276q-56 -148 -100 -276q104 -2 202 0z" />
    <glyph glyph-name="B" unicode="B" horiz-adv-x="718" 
d="M690 203q1 -101 -63.5 -152.5t-224.5 -51.5q-8 0 -88.5 0.5t-101.5 0.5l-184 -1v92h36q32 0 45.5 11.5t14.5 42.5q2 48 2 202.5t-2 194.5q-2 31 -14 44t-39 13h-43v91q5 0 88 -1t107 -1q23 0 86 0.5t84 0.5q270 0 270 -174q0 -62 -34 -101t-92 -55q72 -13 112 -54.5
t41 -101.5zM353 323h-50q0 -138 2 -192q3 -45 43 -45h34q63 0 89 29t26 94q0 61 -35 87.5t-109 26.5zM305 564q-2 -46 -2 -180h49q72 0 99 23.5t27 88.5q0 108 -108 108h-24q-39 0 -41 -40z" />
    <glyph glyph-name="C" unicode="C" horiz-adv-x="730" 
d="M551 666q34 -20 46 -14t16 44q9 -1 41 -1t41 1q-7 -39 -12.5 -123.5t-4.5 -136.5q-61 4 -120 0q-9 86 -42 131t-111 45q-84 0 -121.5 -59.5t-37.5 -206.5q0 -81 11.5 -135.5t33.5 -82.5t48 -39t61 -11q76 0 119 49.5t45 141.5q21 -1 64.5 -1t65.5 1q-4 -152 -75 -219.5
t-236 -67.5q-168 0 -256 85.5t-88 278.5q0 181 91.5 272.5t244.5 91.5q100 0 176 -44z" />
    <glyph glyph-name="D" unicode="D" horiz-adv-x="791" 
d="M411 689q178 0 259 -81.5t83 -257.5q1 -95 -23.5 -164t-71.5 -109.5t-107 -59t-136 -18.5q-131 1 -195 1l-192 -2v93h35q35 0 47.5 11t13.5 43q2 47 2 202t-2 195q-2 31 -15 44t-40 13h-41v91q2 0 79 -1t115 -1q36 0 110.5 0.5t78.5 0.5zM305 135q2 -44 43 -44h33
q98 0 140 54.5t42 205.5q0 141 -41 195t-140 54h-34q-41 0 -43 -39q-3 -57 -2.5 -212t2.5 -214z" />
    <glyph glyph-name="E" unicode="E" horiz-adv-x="733" 
d="M433 475v26h74q-5 -145 -5 -153q0 -71 5 -156q-37 2 -72 0v23q-1 56 -22 79.5t-78 23.5h-31q0 -128 3 -167q2 -33 16.5 -46.5t42.5 -13.5h105q76 0 105.5 39.5t29.5 141.5q12 -1 49.5 -1t49.5 1q-10 -106 -10 -277q-70 5 -215 5h-263q-26 0 -71.5 -0.5t-81 -1t-36.5 -0.5
v93h35q33 0 46 15.5t15 48.5q3 38 3 189t-2 192q-2 35 -15.5 49t-41.5 14h-40v91q4 0 85 -1t107 -1h253q173 0 228 7q-8 -117 -6 -260h-92q0 97 -30 129.5t-102 32.5h-107q-54 0 -57 -56q-3 -44 -3 -163h33q53 0 74.5 22t21.5 75z" />
    <glyph glyph-name="F" unicode="F" horiz-adv-x="712" 
d="M330 315h-26q0 -132 2 -159q2 -34 15.5 -49.5t48.5 -15.5h54v-93q-127 2 -198 2l-198 -2v93h38q31 0 44 16t15 49q2 46 2 192t-2 193q-3 58 -54 58h-43v91q3 0 82.5 -1t110.5 -1q14 0 84.5 0.5t151.5 0.5q180 0 227 6q-8 -144 -6 -279q-49 2 -91 0q0 107 -30 144t-106 37
h-87q-55 0 -58 -56q-2 -24 -2 -162h28q53 0 74.5 22t21.5 75v24h74q-5 -145 -5 -153q0 -71 5 -156q-37 2 -72 0v23q-1 56 -22 78.5t-78 22.5z" />
    <glyph glyph-name="G" unicode="G" horiz-adv-x="789" 
d="M374 710q102 0 177 -45q33 -20 45.5 -13.5t16.5 44.5q9 -1 41 -1t41 1q-7 -39 -12.5 -123.5t-4.5 -136.5q-61 4 -120 0q-9 86 -42 131t-111 45q-84 0 -121.5 -59.5t-37.5 -206.5q0 -80 12 -135t34.5 -83t47.5 -39t59 -11q64 0 101 34t37 105q0 41 -11 58.5t-43 17.5h-37
v74q107 -3 164 -3l160 3v-74h-27q-21 0 -29 -12t-8 -41q0 -159 11 -244q-51 4 -101 0q-11 48 -27 92q-27 -49 -84.5 -78.5t-131.5 -29.5q-159 0 -246.5 85.5t-87.5 280.5q0 181 91 272.5t244 91.5z" />
    <glyph glyph-name="H" unicode="H" horiz-adv-x="852" 
d="M28 -2v93h39q33 0 44.5 9.5t12.5 39.5q2 46 2 206.5t-2 198.5q-2 30 -13.5 42t-38.5 12h-44q1 11 1 46t-1 45q118 -3 184 -3q29 0 72.5 0.5t76 1.5t34.5 1v-91h-38q-27 0 -40 -12.5t-15 -41.5q-2 -22 -2 -170q121 -2 253 0q0 148 -2 170q-2 29 -15.5 41.5t-40.5 12.5h-39
q1 10 1 45t-1 46q118 -3 184 -3q29 0 73 0.5t76.5 1.5t34.5 1q-1 -11 -1 -46t1 -45h-44q-27 0 -38.5 -12t-13.5 -42q-2 -37 -2 -198.5t2 -206.5q2 -29 13 -39t44 -10h39q-1 -11 -1 -47t1 -46q-118 2 -184 2l-184 -2q1 11 1 46.5t-1 46.5h38q33 0 44.5 11t12.5 38q2 52 2 172
q-96 1 -253 -1q0 -119 2 -171q2 -28 12 -38.5t43 -10.5h38v-93q-117 2 -183 2z" />
    <glyph glyph-name="I" unicode="I" horiz-adv-x="428" 
d="M30 -2q1 11 1 46.5t-1 46.5h40q31 0 41.5 11t12.5 38q2 43 2 205t-2 200q-2 30 -13.5 42t-38.5 12h-42q1 11 1 46t-1 45q119 -3 185 -3q29 0 73 0.5t76.5 1.5t34.5 1q-1 -11 -1 -46t1 -45h-42q-27 0 -38.5 -12t-13.5 -42q-3 -40 -2.5 -199.5t2.5 -205.5q2 -27 13 -38
t41 -11h39v-93q-117 2 -183 2z" />
    <glyph glyph-name="J" unicode="J" horiz-adv-x="589" 
d="M198 157q0 -45 -33 -66t-78 -15q36 -34 94 -34q56 0 84 35.5t31 119.5q2 61 2 186t-2 162q-2 29 -13.5 41.5t-38.5 12.5h-40v91q114 -3 179 -3q28 0 70.5 0.5t74.5 1.5t34 1q-1 -11 -1 -46t1 -45h-32q-27 0 -39 -11.5t-13 -42.5q-1 -25 -1 -166.5t1 -176.5
q1 -107 -68 -163.5t-192 -56.5q-97 0 -150 44t-53 113q0 44 26 71.5t71 27.5q39 0 62.5 -22t23.5 -59z" />
    <glyph glyph-name="K" unicode="K" horiz-adv-x="839" 
d="M28 -2v93h36q33 0 45 12t14 44q3 40 2.5 199t-2.5 197q-2 30 -14.5 43t-43.5 13h-37v91q118 -3 184 -3q29 0 72.5 0.5t76 1.5t34.5 1q-1 -11 -1 -46t1 -45h-42q-26 0 -38 -13t-14 -43q-2 -24 -2 -194l210 181q23 19 15 44t-41 25h-38v91q118 -3 183 -3q29 0 71 0.5
t73 1.5t33 1q-2 -45 0 -91h-36q-50 0 -85.5 -16.5t-80.5 -53.5l-98 -82q33 -52 105.5 -162.5t87.5 -129.5q35 -44 48 -53q17 -11 43 -11h22q-2 -45 0 -92q-118 3 -185 3l-186 -3q1 10 1 45.5t-1 46.5h26q31 0 36 20.5t-16 54.5q-44 75 -113 170l-74 -62q0 -89 2 -127
q2 -31 11.5 -43.5t38.5 -12.5h40q-1 -11 -1 -46.5t1 -46.5q-116 2 -181 2z" />
    <glyph glyph-name="L" unicode="L" horiz-adv-x="663" 
d="M405 690q-1 -14 -1 -91h-41q-31 0 -45 -13.5t-15 -45.5q-2 -40 -2 -194t2 -203q1 -30 15 -41t42 -11h54q49 0 75.5 14t43 58t19.5 127q10 -1 44.5 -1t44.5 1q-9 -157 -5 -294q-62 4 -205 4h-230q-89 0 -173 -2v93h41q33 0 43.5 12.5t12.5 45.5q2 47 2 200t-2 191
q-2 30 -14 44.5t-38 14.5h-43v91q121 -3 188 -3q29 0 73 0.5t77.5 1.5t36.5 1z" />
    <glyph glyph-name="M" unicode="M" horiz-adv-x="988" 
d="M429 53q-88 194 -210 433q-2 -58 -1.5 -175.5t2.5 -148.5q2 -39 16.5 -55t48.5 -16h47q-1 -11 -1 -46.5t1 -46.5q-97 2 -152 2l-152 -2v93h38q33 0 47 15.5t16 55.5q2 37 2 188t-2 189q-3 60 -58 60h-42v91q152 -4 305 0q73 -161 178 -364q105 217 167 364q141 -4 281 0
v-91h-41q-54 0 -57 -62q-2 -35 -2 -186t2 -193q2 -35 14 -51t45 -16h39v-93q-122 2 -191 2l-192 -2v93h41q31 0 44 17t15 51q1 31 1.5 148.5t-0.5 180.5q-105 -208 -205 -435h-44z" />
    <glyph glyph-name="N" unicode="N" horiz-adv-x="830" 
d="M314 690q114 -181 287 -428q2 188 -1 273q-1 35 -16 49.5t-43 14.5h-52q1 10 1 45t-1 46q2 0 30 -1t65 -1.5t62 -0.5l157 3q-1 -11 -1 -46t1 -45h-44q-28 0 -42.5 -14.5t-16.5 -49.5q-2 -43 -2 -236.5t2 -298.5q-74 4 -147 0q-139 217 -323 486q-2 -242 2 -337
q2 -30 16 -44t47 -14h50q-2 -48 0 -93q-101 2 -158 2l-159 -2v93h40q33 0 47.5 14t16.5 44q2 49 2.5 199.5t-2.5 191.5q-5 59 -60 59h-43v91q141 -4 285 0z" />
    <glyph glyph-name="O" unicode="O" horiz-adv-x="782" 
d="M391 74q83 0 116 63t33 209q0 150 -32.5 210t-116.5 60q-79 0 -113.5 -63.5t-34.5 -207.5q0 -151 31.5 -211t116.5 -60zM391 -18q-352 0 -352 363q0 179 94.5 271t257.5 92q176 0 264 -89.5t88 -272.5q0 -181 -96.5 -272.5t-255.5 -91.5z" />
    <glyph glyph-name="P" unicode="P" horiz-adv-x="706" 
d="M387 237q-42 0 -84 2q0 -55 2 -89q3 -60 57 -60h49q-1 -11 -1 -46t1 -46q-122 2 -192 2l-191 -2v93h33q32 0 46.5 13.5t16.5 46.5q2 37 2 199t-2 200q-2 28 -13 38.5t-36 10.5h-47v91q8 0 104 -1.5t106 -1.5q24 0 76 0.5t72 0.5q135 0 211 -53.5t76 -166.5
q0 -115 -76 -173t-210 -58zM305 569q-3 -43 -3 -254h45q75 0 104.5 34.5t29.5 114.5q0 75 -27 107.5t-92 32.5h-23q-32 0 -34 -35z" />
    <glyph glyph-name="Q" unicode="Q" horiz-adv-x="782" 
d="M391 -18q-352 0 -352 363q0 179 94.5 271t257.5 92q176 0 264 -89.5t88 -272.5q0 -234 -163 -322q14 -76 30 -104t45 -28q53 0 50 92l41 2q10 -175 -155 -175q-73 0 -115 44.5t-38 129.5q-24 -3 -47 -3zM417 235q71 0 108 -49q15 61 15 160q0 150 -32.5 210t-116.5 60
q-79 0 -113.5 -63.5t-34.5 -207.5q0 -116 17 -176t60 -81q-13 18 -13 49q0 44 31 71t79 27zM338 131q0 -27 16 -42t46 -15q26 0 51 10q7 107 -57 107q-23 0 -39.5 -14t-16.5 -46z" />
    <glyph glyph-name="R" unicode="R" horiz-adv-x="797" 
d="M644 184q9 -67 21 -89t34 -22q24 0 30 35t-7 94q30 0 50 4q23 -99 -9.5 -164t-134.5 -65q-97 0 -133.5 45.5t-42.5 143.5q-4 80 -32 107.5t-86 27.5h-32q0 -120 3 -151q3 -32 16.5 -46t40.5 -14h35v-92q-152 2 -184 2l-185 -2v93h36q30 0 44 13.5t16 45.5q2 38 2 197.5
t-2 197.5q-2 30 -13 42t-38 12h-45v91q5 0 89.5 -1t106.5 -1q20 0 94 0.5t111 0.5q124 0 190.5 -47.5t66.5 -138.5q0 -72 -47 -119.5t-125 -55.5q63 -12 92.5 -48t37.5 -96zM305 564q-3 -96 -3 -195h58q70 0 98 27t28 92q0 61 -24 88.5t-84 27.5h-34q-37 0 -39 -40z" />
    <glyph glyph-name="S" unicode="S" horiz-adv-x="681" 
d="M340 620q-72 0 -106.5 -22.5t-34.5 -58.5q0 -39 37.5 -56.5t135.5 -26.5q141 -13 212 -68t71 -167q0 -114 -74.5 -176.5t-209.5 -62.5q-107 0 -195 48q-52 29 -61 -36q-7 1 -38 1t-38 -1q16 121 9 234q8 -1 37 -1t36 1q48 -159 248 -159q74 0 112.5 23.5t38.5 65.5
q0 43 -44 63t-151 31q-265 23 -265 221q0 103 68 169t196 66q95 0 169 -38q23 -14 35.5 -11t16.5 10.5t8 26.5q6 -1 36 -1t36 1q-19 -97 -9 -214h-19.5h-33h-19.5q-43 138 -204 138z" />
    <glyph glyph-name="T" unicode="T" horiz-adv-x="730" 
d="M507 595h-54q-2 -87 -1.5 -247.5t2.5 -192.5q3 -64 61 -64h43v-93q-123 2 -193 2l-193 -2v93h41q59 0 64 64q2 35 2 193t-2 247h-53q-46 0 -66.5 -24t-22.5 -70l-4 -88q-11 1 -49 1t-49 -1q6 133 -5 280q52 -4 182 -4h311q109 0 181 4q-11 -147 -5 -280q-11 1 -48.5 1
t-48.5 -1l-4 88q-2 46 -22.5 70t-66.5 24z" />
    <glyph glyph-name="U" unicode="U" horiz-adv-x="825" 
d="M112 268q0 8 0.5 68t1 105t-0.5 95q-2 34 -14.5 48.5t-40.5 14.5h-30v91q118 -3 184 -3q39 0 112.5 1.5t75.5 1.5v-91h-38q-30 0 -45 -14.5t-16 -48.5q-1 -52 -1 -146.5t1 -119.5q1 -99 36 -141t109 -42t109 41t36 142q3 193 0 266q-1 63 -58 63h-37v91q94 -3 149 -3
q32 0 90.5 1.5t61.5 1.5v-91h-31q-54 0 -55 -63q-1 -43 -1 -90t0.5 -99t0.5 -77q0 -293 -289 -293q-160 0 -235 69.5t-75 221.5z" />
    <glyph glyph-name="V" unicode="V" horiz-adv-x="801" 
d="M330 512q44 -157 106 -351q88 240 114 350q12 43 3 65.5t-45 22.5h-25v91q100 -3 153 -3q32 0 88.5 1.5t59.5 1.5q-1 -11 -1 -46t1 -45h-24q-41 0 -63 -16.5t-41 -64.5q-33 -79 -91.5 -248.5t-89.5 -275.5q-23 1 -90 1t-90 -1q-27 99 -82 276.5t-82 253.5q-16 43 -34 59
t-58 16h-21v91q123 -3 191 -3q41 0 116.5 1.5t76.5 1.5q-1 -11 -1 -46t1 -45h-30q-62 0 -42 -87z" />
    <glyph glyph-name="W" unicode="W" horiz-adv-x="1138" 
d="M849 -6q-23 1 -91 1t-91 -1q-53 208 -109 399q-56 -172 -115 -399q-20 1 -83.5 1t-83.5 -1q-25 101 -74 280.5t-73 257.5q-11 36 -28 51.5t-52 15.5h-31v91q121 -3 190 -3q41 0 116 1l74 2q-1 -11 -1 -46t1 -45h-29q-31 0 -40 -15.5t-1 -51.5q37 -161 98 -362
q78 257 99 362q7 37 -1.5 52t-41.5 15h-17q1 10 1 45t-1 46q101 -3 159 -3q34 0 95 1.5t63 1.5q-3 -46 0 -91h-26q-28 0 -36.5 -15t-0.5 -49q38 -164 98 -366q22 72 52.5 189.5t39.5 167.5q9 35 0 54t-44 19h-19q1 10 1 45t-1 46q90 -3 139 -3q28 0 80 1.5t55 1.5
q-1 -10 -1 -45t1 -46h-32q-36 0 -56 -15.5t-33 -58.5q-18 -59 -77 -268.5t-73 -262.5z" />
    <glyph glyph-name="X" unicode="X" horiz-adv-x="823" 
d="M410 181l-63 101l-64 -98q-28 -46 -21.5 -69.5t35.5 -23.5h24q-2 -45 0 -93q-96 2 -148 2l-145 -2v93h20q65 0 105 28t82 92l80 121q-41 64 -126 190q-28 42 -56.5 59.5t-72.5 17.5h-23v91q4 0 43.5 -0.5t91 -1t84.5 -0.5l206 2q-2 -46 0 -91h-17q-31 0 -38.5 -23.5
t12.5 -61.5q37 -62 71 -117q53 81 68 115q19 44 12.5 65.5t-34.5 21.5h-19q1 10 1 45t-1 46q86 -2 134 -2l134 2q-1 -11 -1 -46t1 -45h-20q-61 0 -88 -20t-59 -73l-96 -158q67 -105 123 -186q24 -39 51 -55t68 -16h31q-1 -11 -1 -47t1 -46q-137 2 -214 2l-208 -2
q1 11 1 46.5t-1 46.5h24q26 0 32 21.5t-19 68.5z" />
    <glyph glyph-name="Y" unicode="Y" horiz-adv-x="838" 
d="M660 525q-29 -50 -151 -287v-92q0 -31 11.5 -43t47.5 -12h49q-2 -46 0 -93q-133 2 -208 2l-209 -2q1 11 1 46.5t-1 46.5h51q36 0 45.5 12t9.5 43v91q-107 214 -156 299q-19 33 -45.5 48t-70.5 15h-16v91q136 -3 213 -3l212 3q-2 -46 0 -91h-34q-73 0 -36 -84
q38 -89 100 -188q56 106 92 188q38 84 -31 84h-27v91q101 -3 158 -3l156 3q-2 -44 0 -91h-21q-61 0 -88.5 -16.5t-51.5 -57.5z" />
    <glyph glyph-name="Z" unicode="Z" horiz-adv-x="674" 
d="M28 0v86q99 126 386 513h-108q-73 0 -107.5 -14t-49.5 -52.5t-15 -119.5q-9 1 -43 1t-44 -1q3 44 3.5 140t-1.5 139q84 -3 214 -3h375v-86q-108 -137 -383 -512h143q88 0 124.5 41t36.5 154q10 -1 44 -1t43 1q-7 -156 -1 -289q-126 3 -197 3h-420z" />
    <glyph glyph-name="bracketleft" unicode="[" horiz-adv-x="306" 
d="M61 147v365q0 118 -15 288q109 -4 219 0q-1 -9 -1 -36t1 -35h-28q-27 0 -39 -10.5t-13 -38.5t-1 -373.5t1 -373.5q2 -28 13.5 -38.5t45.5 -10.5h21q-1 -8 -1 -35t1 -36q-110 4 -219 0q15 170 15 334z" />
    <glyph glyph-name="backslash" unicode="\" horiz-adv-x="381" 
d="M262 -177q-101 383 -249 867q53 -4 106 0q114 -431 249 -867q-13 1 -53 1t-53 -1z" />
    <glyph glyph-name="bracketright" unicode="]" horiz-adv-x="306" 
d="M247 507v-398q0 -156 16 -296q-23 1 -110 1t-110 -1q1 9 1 36t-1 35h21q34 0 46 10.5t13 38.5q1 13 1 373.5t-1 373.5q-1 27 -13 38t-39 11h-28v71q23 -1 110 -1t110 1q-16 -136 -16 -293z" />
    <glyph glyph-name="asciicircum" unicode="^" 
d="M286 710h18q27 -31 98 -132.5t100 -146.5l-62 -35q-20 30 -69 121.5t-76 148.5q-124 -239 -147 -270l-60 35q36 56 103 152t95 127z" />
    <glyph glyph-name="underscore" unicode="_" horiz-adv-x="500" 
d="M0 -188q2 46 0 94q80 -2 250 -2t250 2q-2 -47 0 -94q-80 2 -250 2t-250 -2z" />
    <glyph glyph-name="grave" unicode="`" horiz-adv-x="532" 
d="M378 542l-8 -12q-96 25 -166 70q-31 19 -31.5 45.5t22.5 34.5t57 -9q57 -35 126 -129z" />
    <glyph glyph-name="a" unicode="a" horiz-adv-x="552" 
d="M451 284v-151q0 -37 4.5 -49.5t15.5 -12.5q30 0 22 111l40 2q6 -98 -19.5 -148.5t-98.5 -50.5q-95 0 -116 76q-47 -76 -144 -76q-63 0 -98.5 30.5t-35.5 87.5q0 146 271 160v39q0 62 -21 90t-82 27q-19 0 -35 -3q45 -14 45 -62q0 -33 -21 -51.5t-59 -18.5q-36 0 -56.5 19
t-20.5 55q0 58 60 91t145 33q113 0 158.5 -49t45.5 -149zM292 110v119q-106 -10 -106 -94q0 -63 48 -63q43 0 58 38z" />
    <glyph glyph-name="b" unicode="b" horiz-adv-x="589" 
d="M380 -17q-128 0 -163 121q-38 -48 -45 -110h-102q5 46 10 161q2 52 2 198t-3 213q-1 26 -10 36.5t-29 10.5h-25v76q187 0 226 3q-2 -103 -2 -260v-57q34 107 147 107q85 0 128 -59.5t43 -193.5q0 -129 -45 -187.5t-132 -58.5zM239 233q0 -85 17.5 -124t61.5 -39
q39 0 56 33t17 130q0 88 -13 125t-58 37q-41 0 -61 -37.5t-20 -124.5z" />
    <glyph glyph-name="c" unicode="c" horiz-adv-x="499" 
d="M365 157q6 0 31 -2t48 -3.5t32 -1.5q-7 -81 -63.5 -124t-149.5 -43q-115 0 -175.5 61t-60.5 181q0 121 65 189t182 68q87 0 139 -35t52 -96q0 -38 -22.5 -59.5t-63.5 -21.5q-39 0 -60.5 19t-21.5 52q0 46 38 64q-23 10 -49 10q-48 0 -70.5 -39.5t-22.5 -134.5
q0 -96 18.5 -134t63.5 -38q44 0 63.5 22t26.5 66z" />
    <glyph glyph-name="d" unicode="d" horiz-adv-x="591" 
d="M209 482q109 0 141 -102v184q0 50 -42 50h-32q2 38 0 76q160 0 234 3q-2 -96 -2 -298.5t2 -271.5q1 -47 43 -47h23q-1 -9 -1 -38t1 -38q-116 -2 -225 -2v99q-35 -114 -145 -114q-87 0 -130.5 58t-43.5 195q0 246 177 246zM269 70q81 0 81 140v53q0 70 -18 101t-58 31
q-43 0 -59.5 -32t-16.5 -127q0 -88 13.5 -127t57.5 -39z" />
    <glyph glyph-name="e" unicode="e" horiz-adv-x="512" 
d="M370 155q5 0 30.5 -2t47.5 -3t31 -1q-9 -79 -62.5 -123.5t-152.5 -44.5q-113 0 -175 61.5t-62 182.5q0 123 64.5 190t174.5 67q119 0 172 -73t44 -200h-80.5h-136.5h-76q3 -77 24 -109.5t67 -32.5q42 0 62.5 22t27.5 66zM260 402q-34 0 -52 -33.5t-19 -118.5h105
q15 0 21 6t6 26q0 63 -15 91.5t-46 28.5z" />
    <glyph glyph-name="f" unicode="f" horiz-adv-x="346" 
d="M21 468l59 -2v9q-4 112 43 167t147 55q71 0 111 -31t40 -81q0 -70 -70 -70q-31 0 -49 16.5t-18 44.5q0 32 23 48.5t56 11.5q-20 14 -50 14q-48 0 -67.5 -34t-10.5 -115l4 -36l68 3v-76l-69 2q-2 -189 2 -273q3 -45 40 -45h25v-21.5v-36v-21.5q-3 0 -28.5 0.5t-59.5 1.5
t-57 1t-57.5 -1t-60.5 -1.5t-27 -0.5q1 9 1 39.5t-1 39.5h24q38 0 41 45q3 62 1 273l-60 -2v76z" />
    <glyph glyph-name="g" unicode="g" horiz-adv-x="519" 
d="M233 482q50 0 92 -11q9 39 35 64t66 25q39 0 61 -19.5t22 -54.5q0 -29 -14.5 -45t-40.5 -16q-25 0 -39.5 13.5t-14.5 37.5q0 20 12 34q-41 -7 -59 -50q93 -40 93 -153q0 -86 -58.5 -132.5t-154.5 -46.5q-37 0 -67 6q-39 -3 -39 -22q0 -15 30 -21t122 -7q128 -1 175 -32.5
t47 -96.5q0 -67 -66 -113t-193 -46q-232 0 -232 103q0 53 73 74q-50 25 -50 77q0 40 25.5 64.5t66.5 32.5q-102 41 -102 160q0 84 58 129.5t152 45.5zM240 -52q-61 1 -105 9q-48 -15 -48 -44q0 -56 153 -56q89 0 134.5 16t45.5 40q0 20 -37 26.5t-143 8.5zM235 415
q-32 0 -45 -24t-13 -85q0 -63 13 -87t45 -24q33 0 45 23.5t12 87.5q0 63 -12.5 86t-44.5 23z" />
    <glyph glyph-name="h" unicode="h" horiz-adv-x="629" 
d="M550 298v-52v-68.5v-42.5q2 -33 12.5 -46t38.5 -13h10q-1 -13 -1 -41.5t1 -37.5q-3 0 -27.5 0.5t-57.5 1.5t-55 1t-55.5 -1t-58.5 -1.5t-26 -0.5q1 9 1 37.5t-1 41.5h13q25 0 34.5 13t11.5 46q3 72 0 157q-2 52 -17 77.5t-51 25.5q-82 0 -82 -140v-125q0 -31 10 -42.5
t37 -11.5h14q-2 -39 0 -79q-3 0 -28 0.5t-58.5 1.5t-55.5 1q-23 0 -57 -1t-60 -1.5t-27 -0.5q1 9 1 37t-1 42h16q28 0 37.5 10t11.5 43q2 28 2 215t-2 216q-2 32 -11 43t-39 11h-13v76q167 0 227 3q-4 -75 -4 -238v-83q34 110 154 110q80 0 119 -48.5t37 -135.5z" />
    <glyph glyph-name="i" unicode="i" horiz-adv-x="321" 
d="M240 471q-1 -30 -1 -167t1 -174q1 -32 12.5 -43t39.5 -11h14v-79q-3 0 -28.5 0.5t-59.5 1.5t-57 1t-58 -1t-61 -1.5t-27 -0.5q1 9 1 37t-1 42h15q29 0 38.5 10.5t11.5 42.5t2 108t-2 104q-2 30 -11.5 40.5t-39.5 10.5h-14q2 38 0 76q153 0 225 3zM246 624q0 -42 -25 -67
t-66 -25t-65.5 25t-24.5 67q0 40 24.5 65t65.5 25t66 -24.5t25 -65.5z" />
    <glyph glyph-name="j" unicode="j" horiz-adv-x="307" 
d="M63 -90q0 -27 -20.5 -46.5t-57.5 -13.5q19 -13 46 -13q35 0 53.5 24.5t19.5 82.5q1 62 1 213.5t-1 186.5q-3 48 -46 48h-18q2 38 0 76q189 0 228 3q-4 -56 -4 -166v-293q0 -213 -192 -213q-67 0 -106 26.5t-39 73.5q0 34 18.5 53t52.5 19q30 0 47.5 -16.5t17.5 -44.5z
M271 624q0 -42 -25 -67t-66 -25t-65.5 25t-24.5 67q0 40 25 65t65 25q41 0 66 -24.5t25 -65.5z" />
    <glyph glyph-name="k" unicode="k" horiz-adv-x="634" 
d="M240 692q-2 -75 -2 -440l113 85q27 20 22 37.5t-36 17.5h-16q1 9 1 39t-1 38q92 -3 144 -3q23 0 57 1t59.5 1.5t27.5 0.5q-2 -39 0 -77h-20q-44 0 -73 -11.5t-79 -45.5l-27 -18q78 -139 112 -184q24 -31 42.5 -44t43.5 -13h9q-2 -40 0 -79q-3 0 -29.5 0.5t-61.5 1.5
t-59 1q-23 0 -59 -1t-62.5 -1.5t-27.5 -0.5v79h12q43 0 12 58q-26 47 -61 96l-42 -28q0 -48 1 -67q1 -33 11.5 -46t33.5 -13h12q-2 -40 0 -79q-3 0 -27.5 0.5t-57.5 1.5t-55 1q-23 0 -56.5 -1t-59 -1.5t-26.5 -0.5q1 9 1 37t-1 42h15q28 0 38 12.5t12 46.5t2 211.5t-2 208.5
q-2 32 -11.5 45.5t-38.5 13.5h-13v76q145 0 223 2z" />
    <glyph glyph-name="l" unicode="l" horiz-adv-x="319" 
d="M240 693q-1 -58 -1 -286.5t1 -271.5q2 -33 12.5 -46t38.5 -13h15q-1 -13 -1 -41.5t1 -37.5q-3 0 -28.5 0.5t-59.5 1.5t-57 1t-58.5 -1t-61 -1.5t-26.5 -0.5q1 9 1 37t-1 42h15q28 0 38 12.5t12 46.5q2 32 2 212.5t-2 208.5q-2 31 -12 44.5t-39 13.5h-12v76q184 0 223 3z
" />
    <glyph glyph-name="m" unicode="m" horiz-adv-x="941" 
d="M860 298q-1 -134 0 -163q2 -33 12.5 -46t39.5 -13h14q-1 -13 -1 -41.5t1 -37.5q-3 0 -28 0.5t-58.5 1.5t-55.5 1q-23 0 -57 -1t-59.5 -1.5t-26.5 -0.5q1 9 1 37.5t-1 41.5h13q24 0 34 13.5t12 45.5q4 73 0 157q-2 52 -17 77.5t-51 25.5q-44 0 -63 -38.5t-19 -115.5v-106
q0 -33 10.5 -46t37.5 -13h13q-1 -13 -1 -41.5t1 -37.5q-3 0 -27.5 0.5t-57.5 1.5t-55 1t-55.5 -1t-58.5 -1.5t-26 -0.5q1 9 1 37.5t-1 41.5h13q24 0 34.5 13t11.5 46q3 76 0 157q-2 52 -17 77.5t-51 25.5q-44 0 -63 -38.5t-19 -115.5v-106q0 -33 11 -46t36 -13h14
q-1 -13 -1 -41.5t1 -37.5q-3 0 -28 0.5t-58.5 1.5t-55.5 1q-23 0 -57 -1t-60 -1.5t-27 -0.5q1 9 1 37t-1 42h15q28 0 37.5 12t12.5 47q2 33 2 103.5t-2 97.5q-2 30 -11.5 43t-39.5 13h-12v76q184 0 223 3v-96q35 107 154 107q127 0 151 -122q31 122 159 122q159 0 156 -184z
" />
    <glyph glyph-name="n" unicode="n" horiz-adv-x="631" 
d="M550 298v-52v-68.5v-42.5q2 -34 12.5 -46.5t39.5 -12.5h11q-1 -13 -1 -41.5t1 -37.5q-3 0 -27.5 0.5t-58 1.5t-55.5 1q-23 0 -56.5 -1t-58.5 -1.5t-26 -0.5q1 9 1 37.5t-1 41.5h13q24 0 34 13.5t12 45.5q3 72 0 157q-2 52 -17 77.5t-51 25.5q-82 0 -82 -140v-120
q0 -33 11 -46t36 -13h14q-1 -13 -1 -41.5t1 -37.5q-3 0 -28 0.5t-58.5 1.5t-55.5 1q-23 0 -57 -1t-60 -1.5t-27 -0.5q1 9 1 39.5t-1 39.5h15q29 0 38.5 12t11.5 47q2 36 2 105t-2 96q-2 30 -11.5 43t-39.5 13h-12v76q184 0 223 3v-101q34 112 154 112q156 0 156 -184z" />
    <glyph glyph-name="o" unicode="o" horiz-adv-x="543" 
d="M30 228q0 127 64 190.5t178 63.5q115 0 178 -63t63 -191q0 -124 -63.5 -185.5t-177.5 -61.5q-115 0 -178.5 62t-63.5 185zM197 228q0 -101 18 -134t57 -33q38 0 56.5 33.5t18.5 133.5q0 102 -18.5 139t-57.5 37q-38 0 -56 -36.5t-18 -139.5z" />
    <glyph glyph-name="p" unicode="p" horiz-adv-x="591" 
d="M385 -17q-112 0 -145 100v-123q0 -59 54 -59h15q-1 -9 -1 -39t1 -39q-3 0 -29 0.5t-60.5 1.5t-57.5 1t-58.5 -1t-61.5 -1.5t-27 -0.5q1 9 1 39t-1 39h15q26 0 37 14t13 45t2 187.5t-2 187.5t-13 44t-39 13h-11v76q184 0 223 3v-100q33 111 147 111q88 0 130 -60.5
t42 -192.5q0 -246 -174 -246zM322 395q-41 0 -61 -35.5t-21 -126.5q-2 -84 16 -123.5t63 -39.5q40 0 57 33t17 130q0 88 -13 125t-58 37z" />
    <glyph glyph-name="q" unicode="q" horiz-adv-x="588" 
d="M221 482q120 0 161 -94q37 47 48 103q12 -1 44.5 -1t44.5 1q-8 -56 -10 -196q-1 -61 -1 -183.5t1 -157.5q1 -26 10.5 -39.5t33.5 -13.5h25q-1 -13 -1 -41t1 -37q-3 0 -30 0.5t-63 1.5t-60 1t-61 -1t-64 -1.5t-28 -0.5v78h26q24 0 37.5 14.5t13.5 38.5v138
q-34 -109 -150 -109q-87 0 -127 57.5t-40 190.5q0 251 189 251zM270 395q-42 0 -57 -33t-15 -131q0 -42 2.5 -68.5t9.5 -49.5t21 -33t36 -10q41 0 60 34.5t22 126.5q5 164 -79 164z" />
    <glyph glyph-name="r" unicode="r" horiz-adv-x="464" 
d="M337 429q-46 0 -71 -38t-25 -111v-152q0 -31 11 -41.5t43 -10.5h22v-79q-3 0 -29.5 0.5t-61.5 1.5t-59 1t-60 -1t-63 -1.5t-28 -0.5q1 9 1 37t-1 42h15q29 0 39 11t11 41q1 32 1 111t-1 101q-1 28 -11.5 40t-39.5 12h-12v76q162 0 201 3l-8 -112q27 123 134 123
q52 0 81 -28t29 -79q0 -43 -21.5 -66.5t-60.5 -23.5q-34 0 -53.5 17.5t-19.5 48.5q0 34 24 52t56 16q-18 10 -43 10z" />
    <glyph glyph-name="s" unicode="s" horiz-adv-x="482" 
d="M237 412q-43 0 -63 -13t-20 -33q0 -24 24.5 -36t100.5 -19q179 -18 179 -165q0 -77 -48.5 -121t-144.5 -44q-73 0 -138 42q-27 13 -36 6t-13 -33q-27 4 -54 0q12 91 8 166q27 -4 54 0q50 -113 165 -113q83 0 83 50q0 21 -22.5 33.5t-88.5 18.5q-101 8 -147 53t-46 114
q0 73 55.5 119t147.5 45q61 -1 107 -31q23 -12 30 -7t12 30q26 -4 52 0q-8 -69 -8 -146q-26 2 -55 0q-34 84 -134 84z" />
    <glyph glyph-name="t" unicode="t" horiz-adv-x="350" 
d="M292 175h44q9 -92 -21 -141t-115 -49q-143 0 -141 155l3 253h-48v62q132 6 157 187q7 -1 33 -1t33 1q-8 -62 -10 -178l101 5q-1 -8 -1 -38t1 -39l-101 1v-224q0 -59 7.5 -79.5t25.5 -21.5q41 0 32 107z" />
    <glyph glyph-name="u" unicode="u" horiz-adv-x="617" 
d="M546 471q-3 -54 -3 -152v-180q1 -32 11 -47.5t34 -15.5h14v-76q-180 0 -219 -3v96q-35 -112 -152 -112q-74 0 -117 45.5t-41 141.5q1 23 1 82t-1 77q-1 35 -10.5 50t-34.5 15h-14v77q88 -1 109 -1q80 0 113 3q-3 -56 -3 -155v-134q0 -63 20 -88t48 -25q45 0 63.5 44.5
t18.5 144.5v77q0 32 -14 44.5t-51 12.5h-10q1 9 1 39t-1 38q102 -1 125 -1q95 0 113 3z" />
    <glyph glyph-name="v" unicode="v" horiz-adv-x="567" 
d="M561 392h-15q-35 0 -53 -13.5t-37 -63.5q-92 -239 -119 -328q-18 1 -63.5 1t-64.5 -1q-43 140 -117 330q-20 51 -31 61q-14 14 -44 14h-11q1 9 1 39t-1 38q91 -2 137 -2l158 2q-2 -39 0 -77h-16q-48 0 -33 -57q16 -68 64 -216q52 147 70 216q16 57 -32 57h-18q1 9 1 39
t-1 38q78 -2 113 -2l112 2q-1 -8 -1 -38t1 -39z" />
    <glyph glyph-name="w" unicode="w" horiz-adv-x="856" 
d="M490 -13q-42 159 -83 288q-47 -137 -89 -288q-16 1 -59 1t-59 -1q-62 203 -104 330q-15 46 -28 60.5t-44 14.5h-9v77q92 -3 143 -3l143 3q-2 -39 0 -77h-9q-44 0 -32 -55q17 -81 60 -217q48 143 63 211q6 30 -1.5 45.5t-34.5 15.5h-12q1 9 1 39t-1 38q79 -3 127 -3l129 3
q-1 -8 -1 -38t1 -39h-10q-45 0 -32 -54q25 -110 60 -219q38 121 59 211q15 62 -30 62h-14q1 9 1 39t-1 38q72 -3 109 -3l109 3q-1 -8 -1 -38t1 -39h-18q-35 0 -53 -16.5t-36 -66.5q-71 -201 -107 -322q-19 1 -69 1t-69 -1z" />
    <glyph glyph-name="x" unicode="x" horiz-adv-x="608" 
d="M291 134l-43 58l-48 -60q-18 -23 -11.5 -39.5t31.5 -16.5h12q-2 -39 0 -78q-71 2 -107 2l-110 -2v78h20q37 0 61 13t54 47l75 86l-92 120q-22 30 -39.5 40t-53.5 10h-15v77q103 -2 161 -2l170 2q-1 -8 -1 -38t1 -39h-14q-25 0 -29.5 -15t12.5 -43q9 -16 44 -61l56 64
q18 20 11 37.5t-34 17.5h-15q1 9 1 39t-1 38q61 -2 93 -2l104 2q-1 -8 -1 -38t1 -39h-22q-26 0 -42.5 -11t-52.5 -51l-77 -85q72 -95 96 -123q35 -46 93 -46h14q-2 -39 0 -78q-107 2 -164 2l-166 -2v78h14q22 0 27 16t-13 42z" />
    <glyph glyph-name="y" unicode="y" horiz-adv-x="583" 
d="M393 339q14 53 -32 53h-17q1 9 1 39t-1 38q66 -3 116 -3l108 3v-77h-18q-33 0 -49.5 -13t-28.5 -41q-56 -135 -117 -321q-38 -115 -87.5 -161.5t-126.5 -46.5q-57 0 -87 26t-30 69q0 39 23.5 62t59.5 23q75 0 75 -68q0 -32 -27 -52.5t-66 -14.5q20 -9 44 -9q59 0 92.5 41
t65.5 144q-63 2 -96 0q-40 139 -107 308q-12 30 -25 42t-40 12h-14q1 9 1 39t-1 38q86 -3 150 -3l150 3q-2 -39 0 -77h-15q-47 0 -33 -53q28 -100 65 -203q58 169 67 203z" />
    <glyph glyph-name="z" unicode="z" horiz-adv-x="482" 
d="M290 0h-272q1 9 1 34.5t-1 34.5q126 167 243 341h-55q-59 0 -86.5 -28t-32.5 -103h-57q9 93 2 194q68 -4 174 -4h247q-1 -9 -0.5 -34t1.5 -34q-118 -157 -246 -343h82q49 0 81.5 33t36.5 106q6 -1 28.5 -1t28.5 1q-13 -107 -4 -200q-85 3 -171 3z" />
    <glyph glyph-name="braceleft" unicode="{" horiz-adv-x="304" 
d="M33 286v41h12q31 0 45.5 16t10.5 53t-8.5 56t-18.5 66q-2 8 -3 11q-39 128 12.5 195t185.5 72l2 -49q-40 -5 -58 -21.5t-25.5 -63t6.5 -129.5q7 -61 8.5 -109.5t-24.5 -80.5t-83 -36q56 -6 82 -37t25 -76.5t-6 -100.5q-17 -115 -3 -168t78 -59l-2 -49q-45 2 -80 9.5
t-67.5 25.5t-47.5 47.5t-19.5 75.5t16.5 109q30 104 31 133q5 69 -57 69h-12z" />
    <glyph glyph-name="bar" unicode="|" horiz-adv-x="300" 
d="M140 -119q0 10 10 10t10 -10t-10 -10t-10 10zM135 -43q0 6 4.5 10.5t10.5 4.5t10.5 -4.5t4.5 -10.5t-4.5 -10.5t-10.5 -4.5t-10.5 4.5t-4.5 10.5zM130 33q0 8 6 14t14 6t14 -6t6 -14t-6 -14t-14 -6t-14 6t-6 14zM125 109q0 10 7.5 17t17.5 7t17.5 -7t7.5 -17
q0 -11 -7.5 -18t-17.5 -7t-17.5 7t-7.5 18zM122 185q0 11 8.5 19t19.5 8t19.5 -8t8.5 -19q0 -12 -8.5 -20t-19.5 -8t-19.5 8t-8.5 20zM120 261q0 12 9 20.5t21 8.5t21 -8.5t9 -20.5q0 -13 -9 -21.5t-21 -8.5t-21 8.5t-9 21.5zM120 337q0 12 8.5 21t21.5 9t21.5 -9t8.5 -21
q0 -13 -8.5 -22t-21.5 -9t-21.5 9t-8.5 22zM120 412q0 13 9 21.5t21 8.5t21 -8.5t9 -21.5q0 -12 -9 -20.5t-21 -8.5t-21 8.5t-9 20.5zM122 488q0 12 8.5 20t19.5 8t19.5 -8t8.5 -20q0 -11 -8.5 -19t-19.5 -8t-19.5 8t-8.5 19zM125 564q0 10 7.5 17.5t17.5 7.5t17.5 -7.5
t7.5 -17.5t-7.5 -17t-17.5 -7t-17.5 7t-7.5 17zM130 640q0 8 6 14t14 6t14 -6t6 -14t-6 -14t-14 -6t-14 6t-6 14zM135 716q0 6 4.5 10.5t10.5 4.5t10.5 -4.5t4.5 -10.5t-4.5 -10.5t-10.5 -4.5t-10.5 4.5t-4.5 10.5zM140 792q0 10 10 10t10 -10t-10 -10t-10 10z" />
    <glyph glyph-name="braceright" unicode="}" horiz-adv-x="292" 
d="M265 327v-41h-13q-16 0 -27 -4t-17.5 -12t-10 -17.5t-3 -24t2 -27t6 -31.5t8.5 -32.5t10 -33.5q4 -13 6 -20q15 -52 16.5 -93.5t-9 -69.5t-29 -48t-47 -32t-58.5 -17.5t-67 -6.5l-2 49q64 6 78 59t-3 168q-5 55 -6 100.5t25 76.5t82 37q-57 4 -83.5 36t-25 80.5
t9.5 109.5q14 83 6.5 129.5t-25.5 63t-58 21.5l2 49q133 -5 183 -71.5t11 -195.5q-35 -111 -31 -152q6 -50 56 -50h13z" />
    <glyph glyph-name="asciitilde" unicode="~" horiz-adv-x="532" 
d="M414 691l29 8q29 -79 -6.5 -124.5t-100.5 -45.5q-73 0 -118 70q-18 28 -29.5 38t-29.5 10q-24 0 -33 -21.5t3 -74.5l-31 -10q-27 81 8 126t101 45q69 0 117 -70q31 -47 59 -47q25 0 34 22t-3 74z" />
    <glyph glyph-name="exclamdown" unicode="&#xa1;" horiz-adv-x="277" 
d="M51 401q0 39 23 60t64 21q40 0 63 -21.5t23 -61.5q0 -39 -23.5 -61.5t-62.5 -22.5q-41 0 -64 23t-23 63zM125 244q0 21 15 21q16 0 16 -21q0 -37 2.5 -68t5.5 -51.5t11 -48t12.5 -40t17.5 -46.5t19 -51q29 -79 4.5 -132t-88.5 -53q-63 0 -88.5 53t6.5 132q4 9 15.5 38.5
t14 36.5t11 30.5t10 33.5t6.5 31.5t6 39t2.5 42t1.5 53.5z" />
    <glyph glyph-name="cent" unicode="&#xa2;" horiz-adv-x="534" 
d="M304 515l-33 -164l-28 -182q16 -8 45 -8q36 0 76 18q-41 13 -41 60q0 29 19.5 45.5t54.5 16.5q34 0 53.5 -19t19.5 -56q0 -60 -55 -100t-149 -40q-24 0 -35 1l-18 -125l-45 8l26 123q-82 18 -125 78.5t-43 160.5q0 118 65 185.5t177 67.5h14l17 123l44 -7l-25 -119
q68 -9 106.5 -41t38.5 -78q0 -34 -20 -52.5t-55 -18.5q-34 0 -52 17.5t-18 46.5q0 35 29 52q-21 6 -43 7zM182 336q0 -107 32 -146l34 165l24 159q-47 -5 -68.5 -45.5t-21.5 -132.5z" />
    <glyph glyph-name="sterling" unicode="&#xa3;" horiz-adv-x="584" 
d="M81 252q1 8 1 28.5t-1 28.5q26 -3 68 -3q-23 33 -36 55t-24.5 58.5t-11.5 73.5q0 96 68 153t171 57q99 0 149.5 -43t50.5 -108q0 -103 -90 -103q-32 0 -51 17t-19 46q0 26 17.5 43t49.5 17q19 0 34 -6q-8 26 -34 43t-67 17q-55 0 -86 -36t-30 -105q0 -17 2 -34t8 -39
t9.5 -33t13 -39t11.5 -34q78 0 114 3v-57l-99 3q17 -64 13 -114q61 -25 110 -25q81 0 95 50l50 -7q10 -72 -27.5 -124.5t-121.5 -52.5q-86 0 -154 48q-45 -45 -129 -45q-56 0 -84.5 24.5t-28.5 65.5q0 47 35 75t84 28q43 0 80 -8q-8 39 -37 86q-25 -1 -103 -4zM129 21
q60 0 83 48q-47 36 -83 36q-59 0 -59 -42q0 -18 15.5 -30t43.5 -12z" />
    <glyph glyph-name="yen" unicode="&#xa5;" horiz-adv-x="622" 
d="M89 389l76 -2q-23 65 -49 129q-20 49 -37 66t-51 17h-15q1 11 1 46t-1 45q100 -3 158 -3l160 3q-2 -47 0 -91h-14q-54 0 -31 -74t69 -176q54 129 67 177q10 31 5 52t-33 21h-14v91q78 -3 119 -3l109 3q-2 -47 0 -91h-14q-34 0 -52 -13.5t-34 -49.5l-66 -150l81 3
q-1 -11 -1 -37.5t1 -37.5l-110 4q-5 -10 -12.5 -28t-7.5 -19v-14l130 4q-1 -11 -1 -37t1 -38l-130 5v-45q0 -30 11.5 -42.5t46.5 -12.5h28q-2 -46 0 -92q-104 3 -173 3l-175 -3q1 11 1 46t-1 46h29q36 0 45.5 12t9.5 43v45l-126 -5v75l122 -4l-22 61l-100 -4v75z" />
    <glyph glyph-name="brokenbar" unicode="&#xa6;" horiz-adv-x="300" 
d="M140 -119q0 10 10 10t10 -10t-10 -10t-10 10zM135 -43q0 6 4.5 10.5t10.5 4.5t10.5 -4.5t4.5 -10.5t-4.5 -10.5t-10.5 -4.5t-10.5 4.5t-4.5 10.5zM130 33q0 8 6 14t14 6t14 -6t6 -14t-6 -14t-14 -6t-14 6t-6 14zM125 109q0 10 7.5 17t17.5 7t17.5 -7t7.5 -17
q0 -11 -7.5 -18t-17.5 -7t-17.5 7t-7.5 18zM122 185q0 11 8.5 19t19.5 8t19.5 -8t8.5 -19q0 -12 -8.5 -20t-19.5 -8t-19.5 8t-8.5 20zM120 261q0 12 9 20.5t21 8.5t21 -8.5t9 -20.5q0 -13 -9 -21.5t-21 -8.5t-21 8.5t-9 21.5zM120 412q0 13 9 21.5t21 8.5t21 -8.5t9 -21.5
q0 -12 -9 -20.5t-21 -8.5t-21 8.5t-9 20.5zM122 488q0 12 8.5 20t19.5 8t19.5 -8t8.5 -20q0 -11 -8.5 -19t-19.5 -8t-19.5 8t-8.5 19zM125 564q0 10 7.5 17.5t17.5 7.5t17.5 -7.5t7.5 -17.5t-7.5 -17t-17.5 -7t-17.5 7t-7.5 17zM130 640q0 8 6 14t14 6t14 -6t6 -14t-6 -14
t-14 -6t-14 6t-6 14zM135 716q0 6 4.5 10.5t10.5 4.5t10.5 -4.5t4.5 -10.5t-4.5 -10.5t-10.5 -4.5t-10.5 4.5t-4.5 10.5zM140 792q0 10 10 10t10 -10t-10 -10t-10 10z" />
    <glyph glyph-name="section" unicode="&#xa7;" horiz-adv-x="837" 
d="M537 657l5 -11q-41 -40 -63.5 -79t-45.5 -124t-46 -235q-17 -108 -43 -186.5t-52.5 -121t-60.5 -67t-60 -30.5t-58 -6q-55 0 -83.5 33.5t-21.5 82.5q5 33 26 56t56 23q30 0 47 -16t13 -47q-5 -30 -30 -45t-64 -4q13 -36 60 -36q39 0 63.5 27.5t47.5 111t46 243.5
q16 108 44.5 187.5t67 126.5t73 72t79.5 45zM302 -151l-5 11q40 40 63 79t46 124.5t46 234.5q12 77 28.5 139t34 104t39 73.5t41 49t43 28.5t42 14t40.5 3q61 0 89 -34.5t21 -82.5q-4 -33 -25 -55.5t-57 -22.5q-29 0 -46.5 16.5t-13.5 46.5t28.5 45t64.5 4q-12 36 -55 36
q-39 0 -64.5 -27t-49.5 -111t-47 -244q-12 -88 -34.5 -157.5t-47 -113t-58 -77t-61 -50.5t-62.5 -33z" />
    <glyph glyph-name="dieresis" unicode="&#xa8;" horiz-adv-x="533" 
d="M238 600q0 -27 -16 -42.5t-43 -15.5q-25 0 -41.5 16t-16.5 42t16.5 42t41.5 16q26 0 42.5 -16t16.5 -42zM410 600q0 -27 -16.5 -42.5t-42.5 -15.5q-25 0 -41.5 16t-16.5 42t16.5 42t41.5 16q26 0 42.5 -16t16.5 -42z" />
    <glyph glyph-name="copyright" unicode="&#xa9;" horiz-adv-x="843" 
d="M422 -16q-177 0 -272 95.5t-95 264.5q0 167 99 264t268 97q173 0 270 -96.5t97 -264.5q0 -169 -95.5 -264.5t-271.5 -95.5zM422 36q149 0 224.5 82.5t75.5 225.5q0 142 -77 225.5t-223 83.5t-223.5 -83.5t-77.5 -225.5t77.5 -225t223.5 -83zM412 562q63 0 110 -33
q30 -19 35 20h51q-11 -62 -11 -146q-33 2 -65 0q-5 43 -30.5 67t-62.5 24q-48 0 -68.5 -32.5t-20.5 -115.5q0 -85 21.5 -116t61.5 -31q89 0 92 102q42 -2 84 0q-2 -86 -46 -127.5t-139 -41.5q-104 0 -155.5 49.5t-51.5 164.5q0 105 52.5 160.5t142.5 55.5z" />
    <glyph glyph-name="ordfeminine" unicode="&#xaa;" horiz-adv-x="495" 
d="M365 560v-107q0 -25 3.5 -33.5t11.5 -8.5q22 0 15 77l29 2q4 -69 -14 -104t-69 -35q-67 0 -81 54q-32 -54 -100 -54q-44 0 -69 21t-25 62q0 101 190 111v28q0 43 -15 63t-57 19q-15 0 -29 -3q35 -8 35 -43q0 -22 -15 -35t-41 -13q-24 0 -38.5 13.5t-14.5 37.5q0 41 42 64
t101 23q79 0 110 -34.5t31 -104.5zM55 201q2 49 0 99q44 -2 183 -2t184 2v-99q-45 1 -184 1t-183 -1zM256 441v81q-75 -6 -75 -67q0 -44 33 -44q31 0 42 30z" />
    <glyph glyph-name="guillemotleft" unicode="&#xab;" horiz-adv-x="435" 
d="M223 429l12 -10q-11 -36 -39.5 -86.5t-55.5 -83.5q25 -31 54 -81t41 -84l-13 -10q-92 78 -180 145v66q1 1 181 144zM387 429l12 -10q-11 -36 -39.5 -86.5t-55.5 -83.5q25 -31 54 -81t41 -84l-13 -10q-92 78 -180 145v66q1 1 181 144z" />
    <glyph glyph-name="registered" unicode="&#xae;" horiz-adv-x="843" 
d="M422 36q149 0 224.5 82.5t75.5 225.5q0 142 -77 225.5t-223 83.5t-223.5 -83.5t-77.5 -225.5t77.5 -225t223.5 -83zM422 -16q-177 0 -272 95.5t-95 264.5q0 167 99 264t268 97q173 0 270 -96.5t97 -264.5q0 -169 -95.5 -264.5t-271.5 -95.5zM591 259q11 -57 29 -57
q12 0 13.5 22.5t-5.5 45.5q1 0 17 2l16 1q13 -56 -6 -94t-78 -38q-61 0 -84 26t-26 81q-3 46 -20.5 63t-51.5 17h-13q0 -60 2 -80q1 -35 31 -35h19q-1 -31 0 -61q-71 2 -111 2l-112 -2v61h20q33 0 34 34q1 19 1 107t-1 107q-1 32 -31 32h-23v60q40 -2 121 -2h107
q90 0 132.5 -26.5t42.5 -82.5q0 -40 -25 -65.5t-65 -35.5q30 -8 45 -28.5t22 -53.5zM384 472q-2 -34 -2 -109h34q39 0 54.5 17t15.5 53q0 32 -13.5 47t-48.5 15h-17q-21 0 -23 -23z" />
    <glyph glyph-name="macron" unicode="&#xaf;" horiz-adv-x="532" 
d="M120 560q2 40 0 81q137 -4 274 0q-2 -41 0 -81q-137 4 -274 0z" />
    <glyph glyph-name="degree" unicode="&#xb0;" horiz-adv-x="342" 
d="M171 410q87 0 87 123q0 67 -22.5 95t-64.5 28q-87 0 -87 -123q0 -68 22 -95.5t65 -27.5zM171 374q-67 0 -104 40t-37 119t38.5 119.5t102.5 40.5q67 0 104 -40t37 -120q0 -78 -38.5 -118.5t-102.5 -40.5z" />
    <glyph glyph-name="plusminus" unicode="&#xb1;" 
d="M80 0q2 38 0 77q94 -2 179 -2q4 93 12 147q-65 -10 -194 -13v83q109 0 194 -13q-10 65 -13 194h83q0 -98 -13 -194q96 13 195 13v-83q-132 3 -195 13q7 -58 11 -147q87 0 181 2q-2 -38 0 -77q-219 4 -440 0z" />
    <glyph glyph-name="acute" unicode="&#xb4;" horiz-adv-x="532" 
d="M166 530l-8 12q69 94 128 131q26 14 44 9t27.5 -18t3 -32.5t-29.5 -33.5q-69 -44 -165 -68z" />
    <glyph glyph-name="paragraph" unicode="&#xb6;" horiz-adv-x="559" 
d="M209 -163q42 0 60.5 31t18.5 109v233q-119 2 -180.5 63.5t-61.5 176.5q0 121 76 179.5t216 58.5h176v-74h-23q-50 0 -50 -49l1 -544q0 -222 -193 -222q-72 0 -108.5 28.5t-36.5 72.5q0 35 19 53t51 18q31 0 47.5 -16t16.5 -45q0 -24 -16 -42t-46 -24q16 -7 33 -7z" />
    <glyph glyph-name="periodcentered" unicode="&#xb7;" horiz-adv-x="291" 
d="M236 244q0 -40 -23.5 -62.5t-66.5 -22.5q-41 0 -65.5 22t-24.5 64q0 38 25.5 62t64.5 24q42 0 66 -24t24 -63z" />
    <glyph glyph-name="cedilla" unicode="&#xb8;" horiz-adv-x="532" 
d="M213 -111l-12 23q65 31 70 95l30 -6q3 -42 -28 -72q45 4 78 -16.5t33 -62.5q0 -44 -32 -69.5t-88 -25.5q-77 0 -111 59l23 20q29 -35 66 -35q55 0 55 52q0 29 -24.5 40t-59.5 -2z" />
    <glyph glyph-name="ordmasculine" unicode="&#xba;" horiz-adv-x="453" 
d="M61 521q0 88 45 133t124 45q81 0 125 -44.5t44 -134.5q0 -86 -44.5 -129t-124.5 -43t-124.5 43.5t-44.5 129.5zM57 201v99q44 -2 170 -2t171 2q-2 -50 0 -99q-45 1 -171 1t-170 -1zM177 520q0 -71 12.5 -94t40.5 -23q27 0 40.5 23.5t13.5 93.5q0 73 -13.5 99t-41.5 26
q-26 0 -39 -26t-13 -99z" />
    <glyph glyph-name="guillemotright" unicode="&#xbb;" horiz-adv-x="435" 
d="M36 419l13 10q123 -96 181 -144v-66q-62 -46 -181 -145l-12 10q12 34 40 84t54 81q-27 33 -55.5 83.5t-39.5 86.5zM200 419l13 10q123 -96 181 -144v-66q-62 -46 -181 -145l-12 10q12 34 40 84t54 81q-27 33 -55.5 83.5t-39.5 86.5z" />
    <glyph glyph-name="onequarter" unicode="&#xbc;" horiz-adv-x="378" 
d="M9 344q0 9 6.5 15.5t16.5 6.5q9 0 15.5 -6.5t6.5 -15.5q0 -10 -6.5 -16.5t-15.5 -6.5q-23 0 -23 23zM75 344q0 19 20 19q19 0 19 -19q0 -20 -19 -20q-20 0 -20 20zM140 344q0 17 18 17q7 0 12 -5t5 -12q0 -18 -17 -18q-18 0 -18 18zM203 344q0 17 18 17q7 0 12 -5t5 -12
q0 -18 -17 -18q-18 0 -18 18zM264 344q0 19 20 19q19 0 19 -19q0 -20 -19 -20q-20 0 -20 20zM324 344q0 9 6.5 15.5t16.5 6.5q9 0 15.5 -6.5t6.5 -15.5q0 -10 -6.5 -16.5t-15.5 -6.5q-23 0 -23 23zM111 447q30 0 30 27v130l-58 -1q1 5 1 24.5t-1 24.5h18q77 0 87 58
q6 -1 27.5 -1t28.5 1q-5 -69 -5 -128v-108q0 -27 30 -27h32v-46q-72 2 -112 2l-112 -2v46h34zM152 19q24 0 24 20v14q-31 0 -79 -0.5t-50 -0.5v23l157 211q11 -1 39 -1t38 1v-208l48 1v-28l-48 1v-12q0 -21 24 -21h24q-1 -20 0 -41q-65 2 -101 2l-101 -2v41h25zM91 77h85
v126z" />
    <glyph glyph-name="onehalf" unicode="&#xbd;" horiz-adv-x="378" 
d="M9 344q0 9 6.5 15.5t16.5 6.5q9 0 15.5 -6.5t6.5 -15.5q0 -10 -6.5 -16.5t-15.5 -6.5q-23 0 -23 23zM75 344q0 19 20 19q19 0 19 -19q0 -20 -19 -20q-20 0 -20 20zM140 344q0 17 18 17q7 0 12 -5t5 -12q0 -18 -17 -18q-18 0 -18 18zM203 344q0 17 18 17q7 0 12 -5t5 -12
q0 -18 -17 -18q-18 0 -18 18zM264 344q0 19 20 19q19 0 19 -19q0 -20 -19 -20q-20 0 -20 20zM324 344q0 9 6.5 15.5t16.5 6.5q9 0 15.5 -6.5t6.5 -15.5q0 -10 -6.5 -16.5t-15.5 -6.5q-23 0 -23 23zM309 83q10 -25 10.5 -50t-20.5 -44t-57 -19q-39 0 -88 30q-44 26 -70 8
q26 0 26 -19t-23 -19q-30 0 -30 37q0 41 24.5 67.5t70.5 53.5q32 17 45.5 33t13.5 38q0 52 -56 52q-45 0 -61 -27q13 5 27 5q40 0 40 -34q0 -15 -12.5 -24.5t-34.5 -9.5t-35 12t-13 34q0 39 33.5 61t86.5 22q64 0 94.5 -23.5t30.5 -62.5q0 -45 -28.5 -66t-86.5 -36
q-86 -22 -107 -61q33 33 110 16q36 -11 62 -7t22 30zM111 447q30 0 30 27v130l-58 -1q1 5 1 24.5t-1 24.5h18q77 0 87 58q6 -1 27.5 -1t28.5 1q-5 -69 -5 -128v-108q0 -27 30 -27h32v-46q-72 2 -112 2l-112 -2v46h34z" />
    <glyph glyph-name="threequarters" unicode="&#xbe;" horiz-adv-x="378" 
d="M9 344q0 9 6.5 15.5t16.5 6.5q9 0 15.5 -6.5t6.5 -15.5q0 -10 -6.5 -16.5t-15.5 -6.5q-23 0 -23 23zM75 344q0 19 20 19q19 0 19 -19q0 -20 -19 -20q-20 0 -20 20zM140 344q0 17 18 17q7 0 12 -5t5 -12q0 -18 -17 -18q-18 0 -18 18zM203 344q0 17 18 17q7 0 12 -5t5 -12
q0 -18 -17 -18q-18 0 -18 18zM264 344q0 19 20 19q19 0 19 -19q0 -20 -19 -20q-20 0 -20 20zM324 344q0 9 6.5 15.5t16.5 6.5q9 0 15.5 -6.5t6.5 -15.5q0 -10 -6.5 -16.5t-15.5 -6.5q-23 0 -23 23zM311 630q0 -54 -66 -71q80 -14 80 -75q0 -91 -149 -91q-56 0 -89 22t-33 58
q0 21 15 33.5t37 12.5t34 -10t12 -26q0 -36 -45 -36q-8 0 -16 2q19 -21 60 -21q66 0 66 58q0 55 -68 55h-13v29h13q62 0 62 55q0 49 -55 49q-41 0 -58 -25q14 4 25 4q38 0 38 -32q0 -15 -11.5 -24.5t-33.5 -9.5t-35.5 12t-13.5 34q0 36 35 58t89 22q56 0 88 -22.5t32 -60.5z
M152 19q24 0 24 20v14q-31 0 -79 -0.5t-50 -0.5v23l157 211q11 -1 39 -1t38 1v-208l48 1v-28l-48 1v-12q0 -21 24 -21h24q-1 -20 0 -41q-65 2 -101 2l-101 -2v41h25zM91 77h85v126z" />
    <glyph glyph-name="questiondown" unicode="&#xbf;" horiz-adv-x="523" 
d="M155 191l-13 30q65 48 137 48q39 0 62.5 -18.5t23.5 -50.5q0 -26 -15.5 -45.5t-49.5 -40.5q-93 -57 -93 -156q0 -58 29.5 -92t90.5 -34q85 0 116 64q-21 -8 -45 -8q-36 0 -57 20.5t-21 56.5q0 34 24 55t64 21q43 0 66.5 -26t23.5 -74q0 -82 -62.5 -134t-172.5 -52
q-117 0 -175.5 51.5t-58.5 140.5q0 83 50.5 132.5t155.5 86.5q31 11 42 19t11 20q0 22 -30 22q-52 0 -103 -36zM174 400q0 39 23 61t63 22t63 -22t23 -62q0 -38 -23.5 -60.5t-62.5 -22.5q-40 0 -63 22.5t-23 61.5z" />
    <glyph glyph-name="Agrave" unicode="&#xc0;" horiz-adv-x="884" 
d="M524 187l-8 24q-103 3 -243 1l-9 -27q-16 -47 -5.5 -70.5t50.5 -23.5h38q0 -7 -0.5 -46.5t-0.5 -46.5q-102 2 -159 2l-159 -2v93h26q42 0 65 19.5t42 68.5q50 126 194 517q57 -3 89 -3l89 3q28 -80 99 -261.5t102 -256.5q21 -50 41 -68.5t50 -18.5h31v-93q-131 2 -205 2
l-206 -2v93h40q36 0 45 24.5t-6 71.5zM495 271q-54 154 -102 276q-56 -148 -100 -276q104 -2 202 0zM506 754l-8 -12q-96 25 -166 70q-31 19 -31.5 45.5t22.5 34.5t57 -9q57 -35 126 -129z" />
    <glyph glyph-name="Aacute" unicode="&#xc1;" horiz-adv-x="884" 
d="M524 187l-8 24q-103 3 -243 1l-9 -27q-16 -47 -5.5 -70.5t50.5 -23.5h38q0 -7 -0.5 -46.5t-0.5 -46.5q-102 2 -159 2l-159 -2v93h26q42 0 65 19.5t42 68.5q50 126 194 517q57 -3 89 -3l89 3q28 -80 99 -261.5t102 -256.5q21 -50 41 -68.5t50 -18.5h31v-93q-131 2 -205 2
l-206 -2v93h40q36 0 45 24.5t-6 71.5zM495 271q-54 154 -102 276q-56 -148 -100 -276q104 -2 202 0zM404 742l-8 12q69 94 128 131q26 14 44 9t27.5 -18t3 -32.5t-29.5 -33.5q-69 -44 -165 -68z" />
    <glyph glyph-name="Acircumflex" unicode="&#xc2;" horiz-adv-x="884" 
d="M524 187l-8 24q-103 3 -243 1l-9 -27q-16 -47 -5.5 -70.5t50.5 -23.5h38q0 -7 -0.5 -46.5t-0.5 -46.5q-102 2 -159 2l-159 -2v93h26q42 0 65 19.5t42 68.5q50 126 194 517q57 -3 89 -3l89 3q28 -80 99 -261.5t102 -256.5q21 -50 41 -68.5t50 -18.5h31v-93q-131 2 -205 2
l-206 -2v93h40q36 0 45 24.5t-6 71.5zM495 271q-54 154 -102 276q-56 -148 -100 -276q104 -2 202 0zM589 745l-9 -11q-30 10 -72 33.5t-69 46.5q-26 -22 -67.5 -46t-69.5 -33l-9 10q30 72 115 146h67q30 -24 62.5 -64.5t51.5 -81.5z" />
    <glyph glyph-name="Atilde" unicode="&#xc3;" horiz-adv-x="884" 
d="M524 187l-8 24q-103 3 -243 1l-9 -27q-16 -47 -5.5 -70.5t50.5 -23.5h38q0 -7 -0.5 -46.5t-0.5 -46.5q-102 2 -159 2l-159 -2v93h26q42 0 65 19.5t42 68.5q50 126 194 517q57 -3 89 -3l89 3q28 -80 99 -261.5t102 -256.5q21 -50 41 -68.5t50 -18.5h31v-93q-131 2 -205 2
l-206 -2v93h40q36 0 45 24.5t-6 71.5zM495 271q-54 154 -102 276q-56 -148 -100 -276q104 -2 202 0zM561 877l25 7q24 -67 -6 -105t-85 -38q-62 0 -99 59q-16 23 -25.5 31.5t-24.5 8.5q-20 0 -28 -18.5t3 -62.5l-26 -8q-23 69 6.5 106.5t85.5 37.5q58 0 98 -59
q27 -40 50 -40q21 0 28.5 19t-2.5 62z" />
    <glyph glyph-name="Adieresis" unicode="&#xc4;" horiz-adv-x="884" 
d="M524 187l-8 24q-103 3 -243 1l-9 -27q-16 -47 -5.5 -70.5t50.5 -23.5h38q0 -7 -0.5 -46.5t-0.5 -46.5q-102 2 -159 2l-159 -2v93h26q42 0 65 19.5t42 68.5q50 126 194 517q57 -3 89 -3l89 3q28 -80 99 -261.5t102 -256.5q21 -50 41 -68.5t50 -18.5h31v-93q-131 2 -205 2
l-206 -2v93h40q36 0 45 24.5t-6 71.5zM495 271q-54 154 -102 276q-56 -148 -100 -276q104 -2 202 0zM414 812q0 -27 -16 -42.5t-43 -15.5q-25 0 -41.5 16t-16.5 42t16.5 42t41.5 16q26 0 42.5 -16t16.5 -42zM586 812q0 -27 -16.5 -42.5t-42.5 -15.5q-25 0 -41.5 16t-16.5 42
t16.5 42t41.5 16q26 0 42.5 -16t16.5 -42z" />
    <glyph glyph-name="Aring" unicode="&#xc5;" horiz-adv-x="884" 
d="M524 187l-8 24q-103 3 -243 1l-9 -27q-16 -47 -5.5 -70.5t50.5 -23.5h38q0 -7 -0.5 -46.5t-0.5 -46.5q-102 2 -159 2l-159 -2v93h26q42 0 65 19.5t42 68.5q50 126 194 517q57 -3 89 -3l89 3q28 -80 99 -261.5t102 -256.5q21 -50 41 -68.5t50 -18.5h31v-93q-131 2 -205 2
l-206 -2v93h40q36 0 45 24.5t-6 71.5zM495 271q-54 154 -102 276q-56 -148 -100 -276q104 -2 202 0zM489 835q0 23 -12.5 35.5t-33.5 12.5q-47 0 -47 -48q0 -51 47 -51q21 0 33.5 13.5t12.5 37.5zM532 835q0 -41 -24 -65.5t-65 -24.5t-65.5 24.5t-24.5 65.5t24 64.5t65 23.5
t65.5 -24t24.5 -64z" />
    <glyph glyph-name="AE" unicode="&#xc6;" horiz-adv-x="1090" 
d="M335 274q102 0 149 1q2 185 -3 258q-69 -112 -146 -259zM693 318h-31q0 -141 2 -167q2 -33 16.5 -46.5t42.5 -13.5h105q74 0 105 38.5t31 132.5v10q12 -1 49 -1t49 1q-10 -106 -10 -277q-47 4 -204 4q-250 1 -282 1q-140 0 -184 -2q1 11 1 46.5t-1 46.5h39q32 0 45 15.5
t16 48.5q2 22 2 62q-92 2 -179 0l-15 -32q-45 -94 29 -94h29q-1 -14 -1 -93q-103 2 -160 2l-159 -2v93h26q42 0 68.5 19.5t57.5 68.5q130 205 214 356q17 29 7.5 48.5t-42.5 19.5h-20v90q67 -5 238 -5q12 0 91.5 0.5t161.5 0.5q181 0 228 6q-8 -116 -6 -259q-11 1 -45.5 1
t-45.5 -1v7q0 91 -31.5 122.5t-101.5 31.5h-107q-54 0 -57 -56q-2 -29 -2 -163h33q53 0 74.5 22t21.5 75v26h74q-5 -145 -5 -153q0 -71 5 -156q-37 2 -72 0v23q-1 56 -22 79.5t-78 23.5z" />
    <glyph glyph-name="Ccedilla" unicode="&#xc7;" horiz-adv-x="730" 
d="M313 -111l-12 23q54 26 66 70q-160 4 -244 89.5t-84 274.5q0 181 91.5 272.5t244.5 91.5q100 0 176 -44q34 -20 46 -14t16 44q9 -1 41 -1t41 1q-7 -39 -12.5 -123.5t-4.5 -136.5q-61 4 -120 0q-9 86 -42 131t-111 45q-84 0 -121.5 -59.5t-37.5 -206.5q0 -81 11.5 -135.5
t33.5 -82.5t48 -39t61 -11q76 0 119 49.5t45 141.5q21 -1 64.5 -1t65.5 1q-4 -148 -71 -215.5t-223 -71.5q-3 -29 -27 -53q45 4 78 -16.5t33 -62.5q0 -44 -32 -69.5t-88 -25.5q-77 0 -111 59l23 20q29 -35 66 -35q55 0 55 52q0 29 -24.5 40t-59.5 -2z" />
    <glyph glyph-name="Egrave" unicode="&#xc8;" horiz-adv-x="733" 
d="M433 475v26h74q-5 -145 -5 -153q0 -71 5 -156q-37 2 -72 0v23q-1 56 -22 79.5t-78 23.5h-31q0 -128 3 -167q2 -33 16.5 -46.5t42.5 -13.5h105q76 0 105.5 39.5t29.5 141.5q12 -1 49.5 -1t49.5 1q-10 -106 -10 -277q-70 5 -215 5h-263q-26 0 -71.5 -0.5t-81 -1t-36.5 -0.5
v93h35q33 0 46 15.5t15 48.5q3 38 3 189t-2 192q-2 35 -15.5 49t-41.5 14h-40v91q4 0 85 -1t107 -1h253q173 0 228 7q-8 -117 -6 -260h-92q0 97 -30 129.5t-102 32.5h-107q-54 0 -57 -56q-3 -44 -3 -163h33q53 0 74.5 22t21.5 75zM461 754l-8 -12q-96 25 -166 70
q-31 19 -31.5 45.5t22.5 34.5t57 -9q57 -35 126 -129z" />
    <glyph glyph-name="Eacute" unicode="&#xc9;" horiz-adv-x="733" 
d="M433 475v26h74q-5 -145 -5 -153q0 -71 5 -156q-37 2 -72 0v23q-1 56 -22 79.5t-78 23.5h-31q0 -128 3 -167q2 -33 16.5 -46.5t42.5 -13.5h105q76 0 105.5 39.5t29.5 141.5q12 -1 49.5 -1t49.5 1q-10 -106 -10 -277q-70 5 -215 5h-263q-26 0 -71.5 -0.5t-81 -1t-36.5 -0.5
v93h35q33 0 46 15.5t15 48.5q3 38 3 189t-2 192q-2 35 -15.5 49t-41.5 14h-40v91q4 0 85 -1t107 -1h253q173 0 228 7q-8 -117 -6 -260h-92q0 97 -30 129.5t-102 32.5h-107q-54 0 -57 -56q-3 -44 -3 -163h33q53 0 74.5 22t21.5 75zM339 742l-8 12q69 94 128 131q26 14 44 9
t27.5 -18t3 -32.5t-29.5 -33.5q-69 -44 -165 -68z" />
    <glyph glyph-name="Ecircumflex" unicode="&#xca;" horiz-adv-x="733" 
d="M433 475v26h74q-5 -145 -5 -153q0 -71 5 -156q-37 2 -72 0v23q-1 56 -22 79.5t-78 23.5h-31q0 -128 3 -167q2 -33 16.5 -46.5t42.5 -13.5h105q76 0 105.5 39.5t29.5 141.5q12 -1 49.5 -1t49.5 1q-10 -106 -10 -277q-70 5 -215 5h-263q-26 0 -71.5 -0.5t-81 -1t-36.5 -0.5
v93h35q33 0 46 15.5t15 48.5q3 38 3 189t-2 192q-2 35 -15.5 49t-41.5 14h-40v91q4 0 85 -1t107 -1h253q173 0 228 7q-8 -117 -6 -260h-92q0 97 -30 129.5t-102 32.5h-107q-54 0 -57 -56q-3 -44 -3 -163h33q53 0 74.5 22t21.5 75zM535 745l-9 -11q-30 10 -72 33.5t-69 46.5
q-26 -22 -67.5 -46t-69.5 -33l-9 10q30 72 115 146h67q30 -24 62.5 -64.5t51.5 -81.5z" />
    <glyph glyph-name="Edieresis" unicode="&#xcb;" horiz-adv-x="733" 
d="M433 475v26h74q-5 -145 -5 -153q0 -71 5 -156q-37 2 -72 0v23q-1 56 -22 79.5t-78 23.5h-31q0 -128 3 -167q2 -33 16.5 -46.5t42.5 -13.5h105q76 0 105.5 39.5t29.5 141.5q12 -1 49.5 -1t49.5 1q-10 -106 -10 -277q-70 5 -215 5h-263q-26 0 -71.5 -0.5t-81 -1t-36.5 -0.5
v93h35q33 0 46 15.5t15 48.5q3 38 3 189t-2 192q-2 35 -15.5 49t-41.5 14h-40v91q4 0 85 -1t107 -1h253q173 0 228 7q-8 -117 -6 -260h-92q0 97 -30 129.5t-102 32.5h-107q-54 0 -57 -56q-3 -44 -3 -163h33q53 0 74.5 22t21.5 75zM361 812q0 -27 -16 -42.5t-43 -15.5
q-25 0 -41.5 16t-16.5 42t16.5 42t41.5 16q26 0 42.5 -16t16.5 -42zM533 812q0 -27 -16.5 -42.5t-42.5 -15.5q-25 0 -41.5 16t-16.5 42t16.5 42t41.5 16q26 0 42.5 -16t16.5 -42z" />
    <glyph glyph-name="Igrave" unicode="&#xcc;" horiz-adv-x="428" 
d="M30 -2q1 11 1 46.5t-1 46.5h40q31 0 41.5 11t12.5 38q2 43 2 205t-2 200q-2 30 -13.5 42t-38.5 12h-42q1 11 1 46t-1 45q119 -3 185 -3q29 0 73 0.5t76.5 1.5t34.5 1q-1 -11 -1 -46t1 -45h-42q-27 0 -38.5 -12t-13.5 -42q-3 -40 -2.5 -199.5t2.5 -205.5q2 -27 13 -38
t41 -11h39v-93q-117 2 -183 2zM278 754l-8 -12q-96 25 -166 70q-31 19 -31.5 45.5t22.5 34.5t57 -9q57 -35 126 -129z" />
    <glyph glyph-name="Iacute" unicode="&#xcd;" horiz-adv-x="428" 
d="M30 -2q1 11 1 46.5t-1 46.5h40q31 0 41.5 11t12.5 38q2 43 2 205t-2 200q-2 30 -13.5 42t-38.5 12h-42q1 11 1 46t-1 45q119 -3 185 -3q29 0 73 0.5t76.5 1.5t34.5 1q-1 -11 -1 -46t1 -45h-42q-27 0 -38.5 -12t-13.5 -42q-3 -40 -2.5 -199.5t2.5 -205.5q2 -27 13 -38
t41 -11h39v-93q-117 2 -183 2zM176 742l-8 12q69 94 128 131q26 14 44 9t27.5 -18t3 -32.5t-29.5 -33.5q-69 -44 -165 -68z" />
    <glyph glyph-name="Icircumflex" unicode="&#xce;" horiz-adv-x="428" 
d="M30 -2q1 11 1 46.5t-1 46.5h40q31 0 41.5 11t12.5 38q2 43 2 205t-2 200q-2 30 -13.5 42t-38.5 12h-42q1 11 1 46t-1 45q119 -3 185 -3q29 0 73 0.5t76.5 1.5t34.5 1q-1 -11 -1 -46t1 -45h-42q-27 0 -38.5 -12t-13.5 -42q-3 -40 -2.5 -199.5t2.5 -205.5q2 -27 13 -38
t41 -11h39v-93q-117 2 -183 2zM362 745l-9 -11q-30 10 -72 33.5t-69 46.5q-26 -22 -67.5 -46t-69.5 -33l-9 10q30 72 115 146h67q30 -24 62.5 -64.5t51.5 -81.5z" />
    <glyph glyph-name="Idieresis" unicode="&#xcf;" horiz-adv-x="428" 
d="M30 -2q1 11 1 46.5t-1 46.5h40q31 0 41.5 11t12.5 38q2 43 2 205t-2 200q-2 30 -13.5 42t-38.5 12h-42q1 11 1 46t-1 45q119 -3 185 -3q29 0 73 0.5t76.5 1.5t34.5 1q-1 -11 -1 -46t1 -45h-42q-27 0 -38.5 -12t-13.5 -42q-3 -40 -2.5 -199.5t2.5 -205.5q2 -27 13 -38
t41 -11h39v-93q-117 2 -183 2zM186 812q0 -27 -16 -42.5t-43 -15.5q-25 0 -41.5 16t-16.5 42t16.5 42t41.5 16q26 0 42.5 -16t16.5 -42zM358 812q0 -27 -16.5 -42.5t-42.5 -15.5q-25 0 -41.5 16t-16.5 42t16.5 42t41.5 16q26 0 42.5 -16t16.5 -42z" />
    <glyph glyph-name="Eth" unicode="&#xd0;" horiz-adv-x="791" 
d="M411 689q178 0 259 -81.5t83 -257.5q1 -95 -23.5 -164t-71.5 -109.5t-107 -59t-136 -18.5q-131 1 -195 1l-192 -2v93h35q35 0 47.5 11t13.5 43q2 52 2 164q-16 0 -40 -0.5t-29 -0.5q1 6 1.5 42.5t-0.5 43.5q28 -2 68 -2q0 106 -2 150q-2 31 -15 44t-40 13h-41v91
q2 0 79 -1t115 -1q36 0 110.5 0.5t78.5 0.5zM305 135q2 -44 43 -44h33q98 0 140 54.5t42 205.5q0 141 -41 195t-140 54h-34q-41 0 -43 -39q-3 -45 -3 -169q63 0 103 2q-1 -9 -1 -43t1 -43q-8 0 -43 0.5t-60 0.5q2 -161 3 -174z" />
    <glyph glyph-name="Ntilde" unicode="&#xd1;" horiz-adv-x="830" 
d="M314 690q114 -181 287 -428q2 188 -1 273q-1 35 -16 49.5t-43 14.5h-52q1 10 1 45t-1 46q2 0 30 -1t65 -1.5t62 -0.5l157 3q-1 -11 -1 -46t1 -45h-44q-28 0 -42.5 -14.5t-16.5 -49.5q-2 -43 -2 -236.5t2 -298.5q-74 4 -147 0q-139 217 -323 486q-2 -242 2 -337
q2 -30 16 -44t47 -14h50q-2 -48 0 -93q-101 2 -158 2l-159 -2v93h40q33 0 47.5 14t16.5 44q2 49 2.5 199.5t-2.5 191.5q-5 59 -60 59h-43v91q141 -4 285 0zM523 877l25 7q24 -67 -6 -105t-85 -38q-62 0 -99 59q-16 23 -25.5 31.5t-24.5 8.5q-20 0 -28 -18.5t3 -62.5l-26 -8
q-23 69 6.5 106.5t85.5 37.5q58 0 98 -59q27 -40 50 -40q21 0 28.5 19t-2.5 62z" />
    <glyph glyph-name="Ograve" unicode="&#xd2;" horiz-adv-x="782" 
d="M391 74q83 0 116 63t33 209q0 150 -32.5 210t-116.5 60q-79 0 -113.5 -63.5t-34.5 -207.5q0 -151 31.5 -211t116.5 -60zM391 -18q-352 0 -352 363q0 179 94.5 271t257.5 92q176 0 264 -89.5t88 -272.5q0 -181 -96.5 -272.5t-255.5 -91.5zM455 754l-8 -12q-96 25 -166 70
q-31 19 -31.5 45.5t22.5 34.5t57 -9q57 -35 126 -129z" />
    <glyph glyph-name="Oacute" unicode="&#xd3;" horiz-adv-x="782" 
d="M353 742l-8 12q69 94 128 131q26 14 44 9t27.5 -18t3 -32.5t-29.5 -33.5q-69 -44 -165 -68zM391 74q83 0 116 63t33 209q0 150 -32.5 210t-116.5 60q-79 0 -113.5 -63.5t-34.5 -207.5q0 -151 31.5 -211t116.5 -60zM391 -18q-352 0 -352 363q0 179 94.5 271t257.5 92
q176 0 264 -89.5t88 -272.5q0 -181 -96.5 -272.5t-255.5 -91.5z" />
    <glyph glyph-name="Ocircumflex" unicode="&#xd4;" horiz-adv-x="782" 
d="M539 745l-9 -11q-30 10 -72 33.5t-69 46.5q-26 -22 -67.5 -46t-69.5 -33l-9 10q30 72 115 146h67q30 -24 62.5 -64.5t51.5 -81.5zM391 74q83 0 116 63t33 209q0 150 -32.5 210t-116.5 60q-79 0 -113.5 -63.5t-34.5 -207.5q0 -151 31.5 -211t116.5 -60zM391 -18
q-352 0 -352 363q0 179 94.5 271t257.5 92q176 0 264 -89.5t88 -272.5q0 -181 -96.5 -272.5t-255.5 -91.5z" />
    <glyph glyph-name="Otilde" unicode="&#xd5;" horiz-adv-x="782" 
d="M391 74q83 0 116 63t33 209q0 150 -32.5 210t-116.5 60q-79 0 -113.5 -63.5t-34.5 -207.5q0 -151 31.5 -211t116.5 -60zM391 -18q-352 0 -352 363q0 179 94.5 271t257.5 92q176 0 264 -89.5t88 -272.5q0 -181 -96.5 -272.5t-255.5 -91.5zM510 877l25 7q24 -67 -6 -105
t-85 -38q-62 0 -99 59q-16 23 -25.5 31.5t-24.5 8.5q-20 0 -28 -18.5t3 -62.5l-26 -8q-23 69 6.5 106.5t85.5 37.5q58 0 98 -59q27 -40 50 -40q21 0 28.5 19t-2.5 62z" />
    <glyph glyph-name="Odieresis" unicode="&#xd6;" horiz-adv-x="782" 
d="M369 812q0 -27 -16 -42.5t-43 -15.5q-25 0 -41.5 16t-16.5 42t16.5 42t41.5 16q26 0 42.5 -16t16.5 -42zM541 812q0 -27 -16.5 -42.5t-42.5 -15.5q-25 0 -41.5 16t-16.5 42t16.5 42t41.5 16q26 0 42.5 -16t16.5 -42zM391 74q83 0 116 63t33 209q0 150 -32.5 210
t-116.5 60q-79 0 -113.5 -63.5t-34.5 -207.5q0 -151 31.5 -211t116.5 -60zM391 -18q-352 0 -352 363q0 179 94.5 271t257.5 92q176 0 264 -89.5t88 -272.5q0 -181 -96.5 -272.5t-255.5 -91.5z" />
    <glyph glyph-name="multiply" unicode="&#xd7;" 
d="M487 120l-58 -58q-82 82 -130 147q-45 -60 -128 -146l-59 59q74 74 146 128q-72 54 -146 128l59 58q77 -77 128 -145q51 68 129 146l58 -58q-79 -79 -147 -130q30 -23 148 -129z" />
    <glyph glyph-name="Oslash" unicode="&#xd8;" horiz-adv-x="782" 
d="M391 -18q-136 0 -220 54l-78 -78l-24 19l63 90q-93 91 -93 278q0 179 94.5 271t257.5 92q140 0 223 -56l83 84l22 -17l-66 -98q90 -89 90 -275q0 -181 -96.5 -272.5t-255.5 -91.5zM243 345q0 -91 9 -139l135 156l131 169q-31 85 -127 85q-79 0 -113.5 -63.5t-34.5 -207.5
zM391 74q83 0 116 63t33 209q0 79 -9 133l-125 -142l-141 -182q30 -81 126 -81z" />
    <glyph glyph-name="Ugrave" unicode="&#xd9;" horiz-adv-x="825" 
d="M112 268q0 8 0.5 68t1 105t-0.5 95q-2 34 -14.5 48.5t-40.5 14.5h-30v91q118 -3 184 -3q39 0 112.5 1.5t75.5 1.5v-91h-38q-30 0 -45 -14.5t-16 -48.5q-1 -52 -1 -146.5t1 -119.5q1 -99 36 -141t109 -42t109 41t36 142q3 193 0 266q-1 63 -58 63h-37v91q94 -3 149 -3
q32 0 90.5 1.5t61.5 1.5v-91h-31q-54 0 -55 -63q-1 -43 -1 -90t0.5 -99t0.5 -77q0 -293 -289 -293q-160 0 -235 69.5t-75 221.5zM480 754l-8 -12q-96 25 -166 70q-31 19 -31.5 45.5t22.5 34.5t57 -9q57 -35 126 -129z" />
    <glyph glyph-name="Uacute" unicode="&#xda;" horiz-adv-x="825" 
d="M424 742l-8 12q69 94 128 131q26 14 44 9t27.5 -18t3 -32.5t-29.5 -33.5q-69 -44 -165 -68zM112 268q0 8 0.5 68t1 105t-0.5 95q-2 34 -14.5 48.5t-40.5 14.5h-30v91q118 -3 184 -3q39 0 112.5 1.5t75.5 1.5v-91h-38q-30 0 -45 -14.5t-16 -48.5q-1 -52 -1 -146.5
t1 -119.5q1 -99 36 -141t109 -42t109 41t36 142q3 193 0 266q-1 63 -58 63h-37v91q94 -3 149 -3q32 0 90.5 1.5t61.5 1.5v-91h-31q-54 0 -55 -63q-1 -43 -1 -90t0.5 -99t0.5 -77q0 -293 -289 -293q-160 0 -235 69.5t-75 221.5z" />
    <glyph glyph-name="Ucircumflex" unicode="&#xdb;" horiz-adv-x="825" 
d="M595 745l-9 -11q-30 10 -72 33.5t-69 46.5q-26 -22 -67.5 -46t-69.5 -33l-9 10q30 72 115 146h67q30 -24 62.5 -64.5t51.5 -81.5zM112 268q0 8 0.5 68t1 105t-0.5 95q-2 34 -14.5 48.5t-40.5 14.5h-30v91q118 -3 184 -3q39 0 112.5 1.5t75.5 1.5v-91h-38q-30 0 -45 -14.5
t-16 -48.5q-1 -52 -1 -146.5t1 -119.5q1 -99 36 -141t109 -42t109 41t36 142q3 193 0 266q-1 63 -58 63h-37v91q94 -3 149 -3q32 0 90.5 1.5t61.5 1.5v-91h-31q-54 0 -55 -63q-1 -43 -1 -90t0.5 -99t0.5 -77q0 -293 -289 -293q-160 0 -235 69.5t-75 221.5z" />
    <glyph glyph-name="Udieresis" unicode="&#xdc;" horiz-adv-x="825" 
d="M419 812q0 -27 -16 -42.5t-43 -15.5q-25 0 -41.5 16t-16.5 42t16.5 42t41.5 16q26 0 42.5 -16t16.5 -42zM591 812q0 -27 -16.5 -42.5t-42.5 -15.5q-25 0 -41.5 16t-16.5 42t16.5 42t41.5 16q26 0 42.5 -16t16.5 -42zM112 268q0 8 0.5 68t1 105t-0.5 95q-2 34 -14.5 48.5
t-40.5 14.5h-30v91q118 -3 184 -3q39 0 112.5 1.5t75.5 1.5v-91h-38q-30 0 -45 -14.5t-16 -48.5q-1 -52 -1 -146.5t1 -119.5q1 -99 36 -141t109 -42t109 41t36 142q3 193 0 266q-1 63 -58 63h-37v91q94 -3 149 -3q32 0 90.5 1.5t61.5 1.5v-91h-31q-54 0 -55 -63
q-1 -43 -1 -90t0.5 -99t0.5 -77q0 -293 -289 -293q-160 0 -235 69.5t-75 221.5z" />
    <glyph glyph-name="Yacute" unicode="&#xdd;" horiz-adv-x="838" 
d="M660 525q-29 -50 -151 -287v-92q0 -31 11.5 -43t47.5 -12h49q-2 -46 0 -93q-133 2 -208 2l-209 -2q1 11 1 46.5t-1 46.5h51q36 0 45.5 12t9.5 43v91q-107 214 -156 299q-19 33 -45.5 48t-70.5 15h-16v91q136 -3 213 -3l212 3q-2 -46 0 -91h-34q-73 0 -36 -84
q38 -89 100 -188q56 106 92 188q38 84 -31 84h-27v91q101 -3 158 -3l156 3q-2 -44 0 -91h-21q-61 0 -88.5 -16.5t-51.5 -57.5zM459 742l-8 12q69 94 128 131q26 14 44 9t27.5 -18t3 -32.5t-29.5 -33.5q-69 -44 -165 -68z" />
    <glyph glyph-name="Thorn" unicode="&#xde;" horiz-adv-x="703" 
d="M26 -2q1 11 1 46.5t-1 46.5h40q31 0 41.5 11t12.5 38q2 43 2 205t-2 200q-2 30 -13.5 42t-38.5 12h-42q1 11 1 46t-1 45q119 -3 185 -3q29 0 73 0.5t76.5 1.5t34.5 1q-1 -11 -1 -46t1 -45h-42q-27 0 -38.5 -12.5t-13.5 -43.5q47 7 91 7q148 0 213 -52t65 -153
q0 -99 -71.5 -148.5t-235.5 -49.5q-27 0 -63 2q1 -33 13 -45.5t42 -12.5h39v-93q-117 2 -183 2zM331 468q-22 0 -33 -1q-1 -83 1 -244h33q74 0 104.5 28.5t29.5 93.5q0 65 -29 94t-106 29z" />
    <glyph glyph-name="germandbls" unicode="&#xdf;" horiz-adv-x="654" 
d="M25 468l55 -2q-2 118 61.5 174t174.5 56q108 0 165.5 -49.5t57.5 -134.5q0 -125 -105 -157q169 -15 169 -182q0 -188 -183 -188q-170 0 -127 183l41 -2q-20 -117 44 -117q29 0 41.5 30t12.5 102q0 79 -28.5 110.5t-96.5 27.5v56q40 0 59.5 32t19.5 105q0 68 -19 94
t-55 26t-55.5 -30t-19.5 -106v-367q0 -99 -2 -129q-75 3 -97 3q-21 0 -50 -0.5t-50 -1.5t-22 -1q1 9 1 38t-1 38h24q38 0 40 53q5 94 1 265l-56 -2v76z" />
    <glyph glyph-name="agrave" unicode="&#xe0;" horiz-adv-x="552" 
d="M451 284v-151q0 -37 4.5 -49.5t15.5 -12.5q30 0 22 111l40 2q6 -98 -19.5 -148.5t-98.5 -50.5q-95 0 -116 76q-47 -76 -144 -76q-63 0 -98.5 30.5t-35.5 87.5q0 146 271 160v39q0 62 -21 90t-82 27q-19 0 -35 -3q45 -14 45 -62q0 -33 -21 -51.5t-59 -18.5q-36 0 -56.5 19
t-20.5 55q0 58 60 91t145 33q113 0 158.5 -49t45.5 -149zM332 533l-8 -12q-96 25 -166 70q-31 19 -31.5 45.5t22.5 34.5t57 -9q57 -35 126 -129zM292 110v119q-106 -10 -106 -94q0 -63 48 -63q43 0 58 38z" />
    <glyph glyph-name="aacute" unicode="&#xe1;" horiz-adv-x="552" 
d="M451 284v-151q0 -37 4.5 -49.5t15.5 -12.5q30 0 22 111l40 2q6 -98 -19.5 -148.5t-98.5 -50.5q-95 0 -116 76q-47 -76 -144 -76q-63 0 -98.5 30.5t-35.5 87.5q0 146 271 160v39q0 62 -21 90t-82 27q-19 0 -35 -3q45 -14 45 -62q0 -33 -21 -51.5t-59 -18.5q-36 0 -56.5 19
t-20.5 55q0 58 60 91t145 33q113 0 158.5 -49t45.5 -149zM228 521l-8 12q69 94 128 131q26 14 44 9t27.5 -18t3 -32.5t-29.5 -33.5q-69 -44 -165 -68zM292 110v119q-106 -10 -106 -94q0 -63 48 -63q43 0 58 38z" />
    <glyph glyph-name="acircumflex" unicode="&#xe2;" horiz-adv-x="552" 
d="M451 284v-151q0 -37 4.5 -49.5t15.5 -12.5q30 0 22 111l40 2q6 -98 -19.5 -148.5t-98.5 -50.5q-95 0 -116 76q-47 -76 -144 -76q-63 0 -98.5 30.5t-35.5 87.5q0 146 271 160v39q0 62 -21 90t-82 27q-19 0 -35 -3q45 -14 45 -62q0 -33 -21 -51.5t-59 -18.5q-36 0 -56.5 19
t-20.5 55q0 58 60 91t145 33q113 0 158.5 -49t45.5 -149zM409 529l-9 -11q-30 10 -72 33.5t-69 46.5q-26 -22 -67.5 -46t-69.5 -33l-9 10q30 72 115 146h67q30 -24 62.5 -64.5t51.5 -81.5zM292 110v119q-106 -10 -106 -94q0 -63 48 -63q43 0 58 38z" />
    <glyph glyph-name="atilde" unicode="&#xe3;" horiz-adv-x="552" 
d="M451 284v-151q0 -37 4.5 -49.5t15.5 -12.5q30 0 22 111l40 2q6 -98 -19.5 -148.5t-98.5 -50.5q-95 0 -116 76q-47 -76 -144 -76q-63 0 -98.5 30.5t-35.5 87.5q0 146 271 160v39q0 62 -21 90t-82 27q-19 0 -35 -3q45 -14 45 -62q0 -33 -21 -51.5t-59 -18.5q-36 0 -56.5 19
t-20.5 55q0 58 60 91t145 33q113 0 158.5 -49t45.5 -149zM372 656l25 7q24 -67 -6 -105t-85 -38q-62 0 -99 59q-16 23 -25.5 31.5t-24.5 8.5q-20 0 -28 -18.5t3 -62.5l-26 -8q-23 69 6.5 106.5t85.5 37.5q58 0 98 -59q27 -40 50 -40q21 0 28.5 18.5t-2.5 62.5zM292 110v119
q-106 -10 -106 -94q0 -63 48 -63q43 0 58 38z" />
    <glyph glyph-name="adieresis" unicode="&#xe4;" horiz-adv-x="552" 
d="M451 284v-151q0 -37 4.5 -49.5t15.5 -12.5q30 0 22 111l40 2q6 -98 -19.5 -148.5t-98.5 -50.5q-95 0 -116 76q-47 -76 -144 -76q-63 0 -98.5 30.5t-35.5 87.5q0 146 271 160v39q0 62 -21 90t-82 27q-19 0 -35 -3q45 -14 45 -62q0 -33 -21 -51.5t-59 -18.5q-36 0 -56.5 19
t-20.5 55q0 58 60 91t145 33q113 0 158.5 -49t45.5 -149zM292 110v119q-106 -10 -106 -94q0 -63 48 -63q43 0 58 38zM235 591q0 -27 -16 -42.5t-43 -15.5q-25 0 -41.5 16t-16.5 42t16.5 42t41.5 16q26 0 42.5 -16t16.5 -42zM407 591q0 -27 -16.5 -42.5t-42.5 -15.5
q-25 0 -41.5 16t-16.5 42t16.5 42t41.5 16q26 0 42.5 -16t16.5 -42z" />
    <glyph glyph-name="aring" unicode="&#xe5;" horiz-adv-x="552" 
d="M451 284v-151q0 -37 4.5 -49.5t15.5 -12.5q30 0 22 111l40 2q6 -98 -19.5 -148.5t-98.5 -50.5q-95 0 -116 76q-47 -76 -144 -76q-63 0 -98.5 30.5t-35.5 87.5q0 146 271 160v39q0 62 -21 90t-82 27q-19 0 -35 -3q45 -14 45 -62q0 -33 -21 -51.5t-59 -18.5q-36 0 -56.5 19
t-20.5 55q0 58 60 91t145 33q113 0 158.5 -49t45.5 -149zM344 617q0 -41 -24 -65.5t-65 -24.5t-65.5 24.5t-24.5 65.5t24 64.5t65 23.5t65.5 -24t24.5 -64zM292 110v119q-106 -10 -106 -94q0 -63 48 -63q43 0 58 38zM301 617q0 23 -12.5 35.5t-33.5 12.5q-47 0 -47 -48
q0 -51 47 -51q21 0 33.5 13.5t12.5 37.5z" />
    <glyph glyph-name="ae" unicode="&#xe6;" horiz-adv-x="775" 
d="M743 150q-9 -78 -62.5 -122.5t-152.5 -44.5q-152 0 -207 93q-42 -91 -156 -91q-144 0 -144 123q0 140 270 155v45q0 111 -83 111q-25 0 -52 -5q42 -14 42 -60q0 -33 -21 -51.5t-57 -18.5t-56.5 19.5t-20.5 54.5q0 59 59.5 91.5t144.5 32.5q95 0 144 -41q55 41 139 41
q117 0 170.5 -74.5t45.5 -198.5h-287q2 -78 21 -109t64 -31q42 0 62.5 21.5t27.5 66.5q6 0 30.5 -2t47 -3.5t31.5 -1.5zM524 402q-33 0 -48.5 -33t-16.5 -119h101q13 0 17.5 5t4.5 22q0 125 -58 125zM297 137q-6 30 -6 65v27q-52 -6 -78.5 -27.5t-26.5 -66.5q0 -61 47 -61
q53 0 64 63z" />
    <glyph glyph-name="ccedilla" unicode="&#xe7;" horiz-adv-x="499" 
d="M198 -111l-12 23q54 25 66 71q-110 3 -167.5 64t-57.5 178q0 121 65 189t182 68q87 0 139 -35t52 -96q0 -38 -22.5 -59.5t-63.5 -21.5q-39 0 -60.5 19t-21.5 52q0 46 38 64q-23 10 -49 10q-48 0 -70.5 -39.5t-22.5 -134.5q0 -96 18.5 -134t63.5 -38q44 0 63.5 22t26.5 66
q6 0 31 -2t48 -3.5t32 -1.5q-7 -76 -57 -118.5t-134 -47.5q-3 -31 -27 -55q45 4 78 -16.5t33 -62.5q0 -44 -32 -69.5t-88 -25.5q-77 0 -111 59l23 20q29 -35 66 -35q55 0 55 52q0 29 -25 40t-59 -2z" />
    <glyph glyph-name="egrave" unicode="&#xe8;" horiz-adv-x="512" 
d="M370 155q5 0 30.5 -2t47.5 -3t31 -1q-9 -79 -62.5 -123.5t-152.5 -44.5q-113 0 -175 61.5t-62 182.5q0 123 64.5 190t174.5 67q119 0 172 -73t44 -200h-80.5h-136.5h-76q3 -77 24 -109.5t67 -32.5q42 0 62.5 22t27.5 66zM260 402q-34 0 -52 -33.5t-19 -118.5h105
q15 0 21 6t6 26q0 63 -15 91.5t-46 28.5zM331 533l-8 -12q-96 25 -166 70q-31 19 -31.5 45.5t22.5 34.5t57 -9q57 -35 126 -129z" />
    <glyph glyph-name="eacute" unicode="&#xe9;" horiz-adv-x="512" 
d="M230 521l-8 12q69 94 128 131q26 14 44 9t27.5 -18t3 -32.5t-29.5 -33.5q-69 -44 -165 -68zM370 155q5 0 30.5 -2t47.5 -3t31 -1q-9 -79 -62.5 -123.5t-152.5 -44.5q-113 0 -175 61.5t-62 182.5q0 123 64.5 190t174.5 67q119 0 172 -73t44 -200h-80.5h-136.5h-76
q3 -77 24 -109.5t67 -32.5q42 0 62.5 22t27.5 66zM260 402q-34 0 -52 -33.5t-19 -118.5h105q15 0 21 6t6 26q0 63 -15 91.5t-46 28.5z" />
    <glyph glyph-name="ecircumflex" unicode="&#xea;" horiz-adv-x="512" 
d="M418 529l-9 -11q-30 10 -72 33.5t-69 46.5q-26 -22 -67.5 -46t-69.5 -33l-9 10q30 72 115 146h67q30 -24 62.5 -64.5t51.5 -81.5zM370 155q5 0 30.5 -2t47.5 -3t31 -1q-9 -79 -62.5 -123.5t-152.5 -44.5q-113 0 -175 61.5t-62 182.5q0 123 64.5 190t174.5 67
q119 0 172 -73t44 -200h-80.5h-136.5h-76q3 -77 24 -109.5t67 -32.5q42 0 62.5 22t27.5 66zM260 402q-34 0 -52 -33.5t-19 -118.5h105q15 0 21 6t6 26q0 63 -15 91.5t-46 28.5z" />
    <glyph glyph-name="edieresis" unicode="&#xeb;" horiz-adv-x="512" 
d="M235 591q0 -27 -16 -42.5t-43 -15.5q-25 0 -41.5 16t-16.5 42t16.5 42t41.5 16q26 0 42.5 -16t16.5 -42zM407 591q0 -27 -16.5 -42.5t-42.5 -15.5q-25 0 -41.5 16t-16.5 42t16.5 42t41.5 16q26 0 42.5 -16t16.5 -42zM370 155q5 0 30.5 -2t47.5 -3t31 -1
q-9 -79 -62.5 -123.5t-152.5 -44.5q-113 0 -175 61.5t-62 182.5q0 123 64.5 190t174.5 67q119 0 172 -73t44 -200h-80.5h-136.5h-76q3 -77 24 -109.5t67 -32.5q42 0 62.5 22t27.5 66zM260 402q-34 0 -52 -33.5t-19 -118.5h105q15 0 21 6t6 26q0 63 -15 91.5t-46 28.5z" />
    <glyph glyph-name="igrave" unicode="&#xec;" horiz-adv-x="321" 
d="M240 471q-1 -30 -1 -167t1 -174q1 -32 12.5 -43t39.5 -11h14v-78q-6 0 -65 1.5t-79 1.5q-21 0 -83 -1.5t-64 -1.5q1 9 1 36.5t-1 41.5h15q29 0 38.5 10.5t11.5 42.5t2 108t-2 104q-2 30 -11.5 40.5t-39.5 10.5h-14q2 38 0 76q153 0 225 3zM210 533l-8 -12q-96 25 -166 70
q-31 19 -31.5 45.5t22.5 34.5t57 -9q57 -35 126 -129z" />
    <glyph glyph-name="iacute" unicode="&#xed;" horiz-adv-x="321" 
d="M117 521l-8 12q69 94 128 131q26 14 44 9t27.5 -18t3 -32.5t-29.5 -33.5q-69 -44 -165 -68zM240 471q-1 -30 -1 -167t1 -174q1 -32 12.5 -43t39.5 -11h14v-78q-6 0 -65 1.5t-79 1.5q-21 0 -83 -1.5t-64 -1.5q1 9 1 36.5t-1 41.5h15q29 0 38.5 10.5t11.5 42.5t2 108
t-2 104q-2 30 -11.5 40.5t-39.5 10.5h-14q2 38 0 76q153 0 225 3z" />
    <glyph glyph-name="icircumflex" unicode="&#xee;" horiz-adv-x="321" 
d="M293 529l-9 -11q-30 10 -72 33.5t-69 46.5q-26 -22 -67.5 -46t-69.5 -33l-9 10q30 72 115 146h67q30 -24 62.5 -64.5t51.5 -81.5zM240 471q-1 -30 -1 -167t1 -174q1 -32 12.5 -43t39.5 -11h14v-78q-6 0 -65 1.5t-79 1.5q-21 0 -83 -1.5t-64 -1.5q1 9 1 36.5t-1 41.5h15
q29 0 38.5 10.5t11.5 42.5t2 108t-2 104q-2 30 -11.5 40.5t-39.5 10.5h-14q2 38 0 76q153 0 225 3z" />
    <glyph glyph-name="idieresis" unicode="&#xef;" horiz-adv-x="321" 
d="M117 591q0 -27 -16 -42.5t-43 -15.5q-25 0 -41.5 16t-16.5 42t16.5 42t41.5 16q26 0 42.5 -16t16.5 -42zM289 591q0 -27 -16.5 -42.5t-42.5 -15.5q-25 0 -41.5 16t-16.5 42t16.5 42t41.5 16q26 0 42.5 -16t16.5 -42zM240 471q-1 -30 -1 -167t1 -174q1 -32 12.5 -43
t39.5 -11h14v-78q-6 0 -65 1.5t-79 1.5q-21 0 -83 -1.5t-64 -1.5q1 9 1 36.5t-1 41.5h15q29 0 38.5 10.5t11.5 42.5t2 108t-2 104q-2 30 -11.5 40.5t-39.5 10.5h-14q2 38 0 76q153 0 225 3z" />
    <glyph glyph-name="eth" unicode="&#xf0;" horiz-adv-x="535" 
d="M199 523l-23 32l68 47q-39 28 -104 37l14 51q90 -4 156 -39q32 28 71 58l23 -32q-16 -12 -65 -43q84 -54 126.5 -152t42.5 -215q0 -146 -65 -216t-179 -70q-113 0 -175 61.5t-62 185.5q0 126 63 190t168 64q29 0 63 -8q-16 68 -53 108zM191 228q0 -100 19.5 -133.5
t59.5 -33.5q37 0 55.5 34.5t18.5 132.5q0 102 -18.5 139t-56.5 37q-39 0 -58.5 -37t-19.5 -139z" />
    <glyph glyph-name="ntilde" unicode="&#xf1;" horiz-adv-x="631" 
d="M550 298v-52v-68.5v-42.5q2 -34 12.5 -46.5t39.5 -12.5h11q-1 -13 -1 -41.5t1 -37.5q-3 0 -27.5 0.5t-58 1.5t-55.5 1q-23 0 -56.5 -1t-58.5 -1.5t-26 -0.5q1 9 1 37.5t-1 41.5h13q24 0 34 13.5t12 45.5q3 72 0 157q-2 52 -17 77.5t-51 25.5q-82 0 -82 -140v-120
q0 -33 11 -46t36 -13h14q-1 -13 -1 -41.5t1 -37.5q-3 0 -28 0.5t-58.5 1.5t-55.5 1q-23 0 -57 -1t-60 -1.5t-27 -0.5q1 9 1 39.5t-1 39.5h15q29 0 38.5 12t11.5 47q2 36 2 105t-2 96q-2 30 -11.5 43t-39.5 13h-12v76q184 0 223 3v-101q34 112 154 112q159 0 156 -184z
M428 656l25 7q24 -67 -6 -105t-85 -38q-62 0 -99 59q-16 23 -25.5 31.5t-24.5 8.5q-20 0 -28 -18.5t3 -62.5l-26 -8q-23 69 6.5 106.5t85.5 37.5q58 0 98 -59q27 -40 50 -40q21 0 28.5 18.5t-2.5 62.5z" />
    <glyph glyph-name="ograve" unicode="&#xf2;" horiz-adv-x="543" 
d="M30 228q0 127 64 190.5t178 63.5q115 0 178 -63t63 -191q0 -124 -63.5 -185.5t-177.5 -61.5q-115 0 -178.5 62t-63.5 185zM197 228q0 -101 18 -134t57 -33q38 0 56.5 33.5t18.5 133.5q0 102 -18.5 139t-57.5 37q-38 0 -56 -36.5t-18 -139.5zM336 533l-8 -12
q-96 25 -166 70q-31 19 -31.5 45.5t22.5 34.5t57 -9q57 -35 126 -129z" />
    <glyph glyph-name="oacute" unicode="&#xf3;" horiz-adv-x="543" 
d="M233 521l-8 12q69 94 128 131q26 14 44 9t27.5 -18t3 -32.5t-29.5 -33.5q-69 -44 -165 -68zM30 228q0 127 64 190.5t178 63.5q115 0 178 -63t63 -191q0 -124 -63.5 -185.5t-177.5 -61.5q-115 0 -178.5 62t-63.5 185zM197 228q0 -101 18 -134t57 -33q38 0 56.5 33.5
t18.5 133.5q0 102 -18.5 139t-57.5 37q-38 0 -56 -36.5t-18 -139.5z" />
    <glyph glyph-name="ocircumflex" unicode="&#xf4;" horiz-adv-x="543" 
d="M424 529l-9 -11q-30 10 -72 33.5t-69 46.5q-26 -22 -67.5 -46t-69.5 -33l-9 10q30 72 115 146h67q30 -24 62.5 -64.5t51.5 -81.5zM30 228q0 127 64 190.5t178 63.5q115 0 178 -63t63 -191q0 -124 -63.5 -185.5t-177.5 -61.5q-115 0 -178.5 62t-63.5 185zM197 228
q0 -101 18 -134t57 -33q38 0 56.5 33.5t18.5 133.5q0 102 -18.5 139t-57.5 37q-38 0 -56 -36.5t-18 -139.5z" />
    <glyph glyph-name="otilde" unicode="&#xf5;" horiz-adv-x="543" 
d="M30 228q0 127 64 190.5t178 63.5q115 0 178 -63t63 -191q0 -124 -63.5 -185.5t-177.5 -61.5q-115 0 -178.5 62t-63.5 185zM197 228q0 -101 18 -134t57 -33q38 0 56.5 33.5t18.5 133.5q0 102 -18.5 139t-57.5 37q-38 0 -56 -36.5t-18 -139.5zM386 656l25 7q24 -67 -6 -105
t-85 -38q-62 0 -99 59q-16 23 -25.5 31.5t-24.5 8.5q-20 0 -28 -18.5t3 -62.5l-26 -8q-23 69 6.5 106.5t85.5 37.5q58 0 98 -59q27 -40 50 -40q21 0 28.5 18.5t-2.5 62.5z" />
    <glyph glyph-name="odieresis" unicode="&#xf6;" horiz-adv-x="543" 
d="M249 591q0 -27 -16 -42.5t-43 -15.5q-25 0 -41.5 16t-16.5 42t16.5 42t41.5 16q26 0 42.5 -16t16.5 -42zM421 591q0 -27 -16.5 -42.5t-42.5 -15.5q-25 0 -41.5 16t-16.5 42t16.5 42t41.5 16q26 0 42.5 -16t16.5 -42zM30 228q0 127 64 190.5t178 63.5q115 0 178 -63
t63 -191q0 -124 -63.5 -185.5t-177.5 -61.5q-115 0 -178.5 62t-63.5 185zM197 228q0 -101 18 -134t57 -33q38 0 56.5 33.5t18.5 133.5q0 102 -18.5 139t-57.5 37q-38 0 -56 -36.5t-18 -139.5z" />
    <glyph glyph-name="divide" unicode="&#xf7;" 
d="M365 110q0 -28 -17 -44t-48 -16q-30 0 -48 15.5t-18 45.5q0 27 19 45t47 18q31 0 48 -18t17 -46zM88 209v83q137 0 212 -18q76 18 212 18v-83q-151 3 -212 18q-63 -15 -212 -18zM365 388q0 -28 -17 -44t-48 -16q-30 0 -48 15.5t-18 45.5q0 27 19 45t47 18
q30 0 47.5 -18.5t17.5 -45.5z" />
    <glyph glyph-name="oslash" unicode="&#xf8;" horiz-adv-x="543" 
d="M30 228q0 127 64 190.5t178 63.5q90 0 148 -39l59 64l16 -13l-47 -73q65 -65 65 -193q0 -124 -63.5 -185.5t-177.5 -61.5q-89 0 -146 36l-58 -60l-17 14l46 68q-67 64 -67 189zM197 228q0 -49 2 -68l68 80l71 96q-8 38 -25 53t-42 15q-38 0 -56 -36.5t-18 -139.5z
M347 228q0 40 -3 68l-63 -72l-76 -102q8 -36 24 -48.5t43 -12.5q38 0 56.5 33.5t18.5 133.5z" />
    <glyph glyph-name="ugrave" unicode="&#xf9;" horiz-adv-x="617" 
d="M546 471q-3 -54 -3 -152v-180q1 -32 11 -47.5t34 -15.5h14v-76q-180 0 -219 -3v96q-35 -112 -152 -112q-74 0 -117 45.5t-41 141.5q1 23 1 82t-1 77q-1 35 -10.5 50t-34.5 15h-14v77q88 -1 109 -1q80 0 113 3q-3 -56 -3 -155v-134q0 -63 20 -88t48 -25q45 0 63.5 44.5
t18.5 144.5v77q0 32 -14 44.5t-51 12.5h-10q1 9 1 39t-1 38q102 -1 125 -1q95 0 113 3zM333 533l-8 -12q-96 25 -166 70q-31 19 -31.5 45.5t22.5 34.5t57 -9q57 -35 126 -129z" />
    <glyph glyph-name="uacute" unicode="&#xfa;" horiz-adv-x="617" 
d="M546 471q-3 -54 -3 -152v-180q1 -32 11 -47.5t34 -15.5h14v-76q-180 0 -219 -3v96q-35 -112 -152 -112q-74 0 -117 45.5t-41 141.5q1 23 1 82t-1 77q-1 35 -10.5 50t-34.5 15h-14v77q88 -1 109 -1q80 0 113 3q-3 -56 -3 -155v-134q0 -63 20 -88t48 -25q45 0 63.5 44.5
t18.5 144.5v77q0 32 -14 44.5t-51 12.5h-10q1 9 1 39t-1 38q102 -1 125 -1q95 0 113 3zM279 521l-8 12q69 94 128 131q26 14 44 9t27.5 -18t3 -32.5t-29.5 -33.5q-69 -44 -165 -68z" />
    <glyph glyph-name="ucircumflex" unicode="&#xfb;" horiz-adv-x="617" 
d="M546 471q-3 -54 -3 -152v-180q1 -32 11 -47.5t34 -15.5h14v-76q-180 0 -219 -3v96q-35 -112 -152 -112q-74 0 -117 45.5t-41 141.5q1 23 1 82t-1 77q-1 35 -10.5 50t-34.5 15h-14v77q88 -1 109 -1q80 0 113 3q-3 -56 -3 -155v-134q0 -63 20 -88t48 -25q45 0 63.5 44.5
t18.5 144.5v77q0 32 -14 44.5t-51 12.5h-10q1 9 1 39t-1 38q102 -1 125 -1q95 0 113 3zM436 529l-9 -11q-30 10 -72 33.5t-69 46.5q-26 -22 -67.5 -46t-69.5 -33l-9 10q30 72 115 146h67q30 -24 62.5 -64.5t51.5 -81.5z" />
    <glyph glyph-name="udieresis" unicode="&#xfc;" horiz-adv-x="617" 
d="M546 471q-3 -54 -3 -152v-180q1 -32 11 -47.5t34 -15.5h14v-76q-180 0 -219 -3v96q-35 -112 -152 -112q-74 0 -117 45.5t-41 141.5q1 23 1 82t-1 77q-1 35 -10.5 50t-34.5 15h-14v77q88 -1 109 -1q80 0 113 3q-3 -56 -3 -155v-134q0 -63 20 -88t48 -25q45 0 63.5 44.5
t18.5 144.5v77q0 32 -14 44.5t-51 12.5h-10q1 9 1 39t-1 38q102 -1 125 -1q95 0 113 3zM260 591q0 -27 -16 -42.5t-43 -15.5q-25 0 -41.5 16t-16.5 42t16.5 42t41.5 16q26 0 42.5 -16t16.5 -42zM432 591q0 -27 -16.5 -42.5t-42.5 -15.5q-25 0 -41.5 16t-16.5 42t16.5 42
t41.5 16q26 0 42.5 -16t16.5 -42z" />
    <glyph glyph-name="yacute" unicode="&#xfd;" horiz-adv-x="583" 
d="M393 339q14 53 -32 53h-17q1 9 1 39t-1 38q66 -3 116 -3l108 3v-77h-18q-33 0 -49.5 -13t-28.5 -41q-56 -135 -117 -321q-38 -115 -87.5 -161.5t-126.5 -46.5q-57 0 -87 26t-30 69q0 39 23.5 62t59.5 23q75 0 75 -68q0 -32 -27 -52.5t-66 -14.5q20 -9 44 -9q59 0 92.5 41
t65.5 144q-63 2 -96 0q-40 139 -107 308q-12 30 -25 42t-40 12h-14q1 9 1 39t-1 38q86 -3 150 -3l150 3q-2 -39 0 -77h-15q-47 0 -33 -53q28 -100 65 -203q58 169 67 203zM321 521l-8 12q69 94 128 131q26 14 44 9t27.5 -18t3 -32.5t-29.5 -33.5q-69 -44 -165 -68z" />
    <glyph glyph-name="thorn" unicode="&#xfe;" horiz-adv-x="591" 
d="M385 -17q-112 0 -145 103v-126q0 -59 54 -59h15q-1 -9 -1 -38.5t1 -37.5q-4 0 -60 1.5t-87 1.5q-23 0 -57.5 -1t-60.5 -1.5t-29 -0.5q1 8 1 37.5t-1 38.5h15q26 0 37 14t13 45q3 45 2.5 299t-2.5 298q-2 31 -13 44t-39 13h-11v76q184 0 223 3v-330q34 119 150 119
q87 0 128 -59t41 -194q0 -246 -174 -246zM322 395q-41 0 -61 -35t-21 -111v-16q0 -82 17 -122t62 -40q42 0 58.5 33.5t16.5 128.5q0 87 -13 124.5t-59 37.5z" />
    <glyph glyph-name="ydieresis" unicode="&#xff;" horiz-adv-x="583" 
d="M393 339q14 53 -32 53h-17q1 9 1 39t-1 38q66 -3 116 -3l108 3v-77h-18q-33 0 -49.5 -13t-28.5 -41q-56 -135 -117 -321q-38 -115 -87.5 -161.5t-126.5 -46.5q-57 0 -87 26t-30 69q0 39 23.5 62t59.5 23q75 0 75 -68q0 -32 -27 -52.5t-66 -14.5q20 -9 44 -9q59 0 92.5 41
t65.5 144q-63 2 -96 0q-40 139 -107 308q-12 30 -25 42t-40 12h-14q1 9 1 39t-1 38q86 -3 150 -3l150 3q-2 -39 0 -77h-15q-47 0 -33 -53q28 -100 65 -203q58 169 67 203zM303 591q0 -27 -16 -42.5t-43 -15.5q-25 0 -41.5 16t-16.5 42t16.5 42t41.5 16q26 0 42.5 -16
t16.5 -42zM475 591q0 -27 -16.5 -42.5t-42.5 -15.5q-25 0 -41.5 16t-16.5 42t16.5 42t41.5 16q26 0 42.5 -16t16.5 -42z" />
    <glyph glyph-name="Amacron" unicode="&#x100;" horiz-adv-x="884" 
d="M524 187l-8 24q-103 3 -243 1l-9 -27q-16 -47 -5.5 -70.5t50.5 -23.5h38q0 -7 -0.5 -46.5t-0.5 -46.5q-102 2 -159 2l-159 -2v93h26q42 0 65 19.5t42 68.5q50 126 194 517q57 -3 89 -3l89 3q28 -80 99 -261.5t102 -256.5q21 -50 41 -68.5t50 -18.5h31v-93q-131 2 -205 2
l-206 -2v93h40q36 0 45 24.5t-6 71.5zM495 271q-54 154 -102 276q-56 -148 -100 -276q104 -2 202 0zM310 759q2 40 0 81q137 -4 274 0q-2 -41 0 -81q-137 4 -274 0z" />
    <glyph glyph-name="amacron" unicode="&#x101;" horiz-adv-x="552" 
d="M451 284v-151q0 -37 4.5 -49.5t15.5 -12.5q30 0 22 111l40 2q6 -98 -19.5 -148.5t-98.5 -50.5q-95 0 -116 76q-47 -76 -144 -76q-63 0 -98.5 30.5t-35.5 87.5q0 146 271 160v39q0 62 -21 90t-82 27q-19 0 -35 -3q45 -14 45 -62q0 -33 -21 -51.5t-59 -18.5q-36 0 -56.5 19
t-20.5 55q0 58 60 91t145 33q113 0 158.5 -49t45.5 -149zM112 540q2 40 0 81q137 -4 274 0q-2 -40 0 -81q-137 4 -274 0zM292 110v119q-106 -10 -106 -94q0 -63 48 -63q43 0 58 38z" />
    <glyph glyph-name="Abreve" unicode="&#x102;" horiz-adv-x="884" 
d="M524 187l-8 24q-103 3 -243 1l-9 -27q-16 -47 -5.5 -70.5t50.5 -23.5h38q0 -7 -0.5 -46.5t-0.5 -46.5q-102 2 -159 2l-159 -2v93h26q42 0 65 19.5t42 68.5q50 126 194 517q57 -3 89 -3l89 3q28 -80 99 -261.5t102 -256.5q21 -50 41 -68.5t50 -18.5h31v-93q-131 2 -205 2
l-206 -2v93h40q36 0 45 24.5t-6 71.5zM495 271q-54 154 -102 276q-56 -148 -100 -276q104 -2 202 0zM442 746q-73 0 -109.5 41.5t-27.5 103.5l23 1q5 -63 114 -63t114 63l23 -1q9 -63 -27 -104t-110 -41z" />
    <glyph glyph-name="abreve" unicode="&#x103;" horiz-adv-x="552" 
d="M451 284v-151q0 -37 4.5 -49.5t15.5 -12.5q30 0 22 111l40 2q6 -98 -19.5 -148.5t-98.5 -50.5q-95 0 -116 76q-47 -76 -144 -76q-63 0 -98.5 30.5t-35.5 87.5q0 146 271 160v39q0 62 -21 90t-82 27q-19 0 -35 -3q45 -14 45 -62q0 -33 -21 -51.5t-59 -18.5q-36 0 -56.5 19
t-20.5 55q0 58 60 91t145 33q113 0 158.5 -49t45.5 -149zM252 530q-73 0 -109.5 41.5t-27.5 103.5l23 1q5 -63 114 -63t114 63l23 -1q9 -63 -27 -104t-110 -41zM292 110v119q-106 -10 -106 -94q0 -63 48 -63q43 0 58 38z" />
    <glyph glyph-name="Aogonek" unicode="&#x104;" horiz-adv-x="884" 
d="M787 -71q2 -135 -120 -135q-51 0 -81 24.5t-30 67.5q1 76 85 114l-196 -2v93h40q36 0 45 24.5t-6 71.5l-8 24q-103 3 -243 1l-9 -27q-16 -47 -5.5 -70.5t50.5 -23.5h38q0 -7 -0.5 -46.5t-0.5 -46.5q-102 2 -159 2l-159 -2v93h26q42 0 65 19.5t42 68.5q50 126 194 517
q57 -3 89 -3l89 3q28 -80 99 -261.5t102 -256.5q21 -50 41 -68.5t50 -18.5h31v-93q-90 2 -163 2q-56 -25 -56 -77q0 -26 15 -39t39 -13q56 0 65 63zM495 271q-54 154 -102 276q-56 -148 -100 -276q104 -2 202 0z" />
    <glyph glyph-name="aogonek" unicode="&#x105;" horiz-adv-x="552" 
d="M415 -15q-95 0 -116 76q-47 -76 -144 -76q-63 0 -98.5 30.5t-35.5 87.5q0 146 271 160v39q0 62 -21 90t-82 27q-19 0 -35 -3q45 -14 45 -62q0 -33 -21 -51.5t-59 -18.5q-36 0 -56.5 19t-20.5 55q0 58 60 91t145 33q113 0 158.5 -49t45.5 -149v-151q0 -37 4.5 -49.5
t15.5 -12.5q30 0 22 111l40 2q9 -119 -36 -173q-27 -32 -37.5 -50.5t-10.5 -40.5q0 -23 14.5 -36t37.5 -13q54 0 68 63l32 -5q-2 -63 -30 -99t-97 -36q-47 0 -76.5 25t-28.5 69q3 64 66 98q-5 -1 -20 -1zM292 110v119q-106 -10 -106 -94q0 -63 48 -63q43 0 58 38z" />
    <glyph glyph-name="Cacute" unicode="&#x106;" horiz-adv-x="730" 
d="M364 742l-8 12q69 94 128 131q26 14 44 9t27.5 -18t3 -32.5t-29.5 -33.5q-69 -44 -165 -68zM551 666q34 -20 46 -14t16 44q9 -1 41 -1t41 1q-7 -39 -12.5 -123.5t-4.5 -136.5q-61 4 -120 0q-9 86 -42 131t-111 45q-84 0 -121.5 -59.5t-37.5 -206.5q0 -81 11.5 -135.5
t33.5 -82.5t48 -39t61 -11q76 0 119 49.5t45 141.5q21 -1 64.5 -1t65.5 1q-4 -152 -75 -219.5t-236 -67.5q-168 0 -256 85.5t-88 278.5q0 181 91.5 272.5t244.5 91.5q100 0 176 -44z" />
    <glyph glyph-name="cacute" unicode="&#x107;" horiz-adv-x="499" 
d="M253 521l-8 12q69 94 128 131q26 14 44 9t27.5 -18t3 -32.5t-29.5 -33.5q-69 -44 -165 -68zM365 157q6 0 31 -2t48 -3.5t32 -1.5q-7 -81 -63.5 -124t-149.5 -43q-115 0 -175.5 61t-60.5 181q0 121 65 189t182 68q87 0 139 -35t52 -96q0 -38 -22.5 -59.5t-63.5 -21.5
q-39 0 -60.5 19t-21.5 52q0 46 38 64q-23 10 -49 10q-48 0 -70.5 -39.5t-22.5 -134.5q0 -96 18.5 -134t63.5 -38q44 0 63.5 22t26.5 66z" />
    <glyph glyph-name="Ccircumflex" unicode="&#x108;" horiz-adv-x="730" 
d="M526 745l-9 -11q-30 10 -72 33.5t-69 46.5q-26 -22 -67.5 -46t-69.5 -33l-9 10q30 72 115 146h67q30 -24 62.5 -64.5t51.5 -81.5zM551 666q34 -20 46 -14t16 44q9 -1 41 -1t41 1q-7 -39 -12.5 -123.5t-4.5 -136.5q-61 4 -120 0q-9 86 -42 131t-111 45q-84 0 -121.5 -59.5
t-37.5 -206.5q0 -81 11.5 -135.5t33.5 -82.5t48 -39t61 -11q76 0 119 49.5t45 141.5q21 -1 64.5 -1t65.5 1q-4 -152 -75 -219.5t-236 -67.5q-168 0 -256 85.5t-88 278.5q0 181 91.5 272.5t244.5 91.5q100 0 176 -44z" />
    <glyph glyph-name="ccircumflex" unicode="&#x109;" horiz-adv-x="499" 
d="M420 529l-9 -11q-30 10 -72 33.5t-69 46.5q-26 -22 -67.5 -46t-69.5 -33l-9 10q30 72 115 146h67q30 -24 62.5 -64.5t51.5 -81.5zM365 157q6 0 31 -2t48 -3.5t32 -1.5q-7 -81 -63.5 -124t-149.5 -43q-115 0 -175.5 61t-60.5 181q0 121 65 189t182 68q87 0 139 -35t52 -96
q0 -38 -22.5 -59.5t-63.5 -21.5q-39 0 -60.5 19t-21.5 52q0 46 38 64q-23 10 -49 10q-48 0 -70.5 -39.5t-22.5 -134.5q0 -96 18.5 -134t63.5 -38q44 0 63.5 22t26.5 66z" />
    <glyph glyph-name="Cdotaccent" unicode="&#x10a;" horiz-adv-x="730" 
d="M551 666q34 -20 46 -14t16 44q9 -1 41 -1t41 1q-7 -39 -12.5 -123.5t-4.5 -136.5q-61 4 -120 0q-9 86 -42 131t-111 45q-84 0 -121.5 -59.5t-37.5 -206.5q0 -81 11.5 -135.5t33.5 -82.5t48 -39t61 -11q76 0 119 49.5t45 141.5q21 -1 64.5 -1t65.5 1q-4 -152 -75 -219.5
t-236 -67.5q-168 0 -256 85.5t-88 278.5q0 181 91.5 272.5t244.5 91.5q100 0 176 -44zM442 827q0 -29 -17.5 -47t-46.5 -18q-28 0 -45.5 18t-17.5 47q0 28 17.5 45.5t45.5 17.5q29 0 46.5 -17.5t17.5 -45.5z" />
    <glyph glyph-name="cdotaccent" unicode="&#x10b;" horiz-adv-x="499" 
d="M365 157q6 0 31 -2t48 -3.5t32 -1.5q-7 -81 -63.5 -124t-149.5 -43q-115 0 -175.5 61t-60.5 181q0 121 65 189t182 68q87 0 139 -35t52 -96q0 -38 -22.5 -59.5t-63.5 -21.5q-39 0 -60.5 19t-21.5 52q0 46 38 64q-23 10 -49 10q-48 0 -70.5 -39.5t-22.5 -134.5
q0 -96 18.5 -134t63.5 -38q44 0 63.5 22t26.5 66zM331 606q0 -29 -17.5 -47t-46.5 -18q-28 0 -45.5 18t-17.5 47q0 28 17.5 45.5t45.5 17.5q29 0 46.5 -17.5t17.5 -45.5z" />
    <glyph glyph-name="Ccaron" unicode="&#x10c;" horiz-adv-x="730" 
d="M230 897l9 10q29 -9 71.5 -32.5t69.5 -46.5q26 21 67.5 45t69.5 34l9 -10q-30 -75 -115 -146h-67q-30 24 -62.5 64.5t-51.5 81.5zM551 666q34 -20 46 -14t16 44q9 -1 41 -1t41 1q-7 -39 -12.5 -123.5t-4.5 -136.5q-61 4 -120 0q-9 86 -42 131t-111 45q-84 0 -121.5 -59.5
t-37.5 -206.5q0 -81 11.5 -135.5t33.5 -82.5t48 -39t61 -11q76 0 119 49.5t45 141.5q21 -1 64.5 -1t65.5 1q-4 -152 -75 -219.5t-236 -67.5q-168 0 -256 85.5t-88 278.5q0 181 91.5 272.5t244.5 91.5q100 0 176 -44z" />
    <glyph glyph-name="ccaron" unicode="&#x10d;" horiz-adv-x="499" 
d="M129 676l9 10q29 -9 71.5 -32.5t69.5 -46.5q26 21 67.5 45t69.5 34l9 -10q-30 -75 -115 -146h-67q-30 24 -62.5 64.5t-51.5 81.5zM365 157q6 0 31 -2t48 -3.5t32 -1.5q-7 -81 -63.5 -124t-149.5 -43q-115 0 -175.5 61t-60.5 181q0 121 65 189t182 68q87 0 139 -35t52 -96
q0 -38 -22.5 -59.5t-63.5 -21.5q-39 0 -60.5 19t-21.5 52q0 46 38 64q-23 10 -49 10q-48 0 -70.5 -39.5t-22.5 -134.5q0 -96 18.5 -134t63.5 -38q44 0 63.5 22t26.5 66z" />
    <glyph glyph-name="Dcaron" unicode="&#x10e;" horiz-adv-x="791" 
d="M226 897l9 10q29 -9 71.5 -32.5t69.5 -46.5q26 21 67.5 45t69.5 34l9 -10q-30 -75 -115 -146h-67q-30 24 -62.5 64.5t-51.5 81.5zM411 689q178 0 259 -81.5t83 -257.5q1 -95 -23.5 -164t-71.5 -109.5t-107 -59t-136 -18.5q-131 1 -195 1l-192 -2v93h35q35 0 47.5 11
t13.5 43q2 47 2 202t-2 195q-2 31 -15 44t-40 13h-41v91q2 0 79 -1t115 -1q36 0 110.5 0.5t78.5 0.5zM305 135q2 -44 43 -44h33q98 0 140 54.5t42 205.5q0 141 -41 195t-140 54h-34q-41 0 -43 -39q-3 -57 -2.5 -212t2.5 -214z" />
    <glyph glyph-name="dcaron" unicode="&#x10f;" horiz-adv-x="728" 
d="M555 504q108 25 114 112q-15 -26 -48 -26q-47 0 -47 55q0 27 17 44t46 17q31 0 47 -21t16 -55q0 -56 -37.5 -94t-102.5 -52zM209 482q109 0 141 -102v184q0 50 -42 50h-32q2 38 0 76q160 0 234 3q-2 -96 -2 -298.5t2 -271.5q1 -47 43 -47h23q-1 -9 -1 -38t1 -38
q-116 -2 -225 -2v99q-35 -114 -145 -114q-87 0 -130.5 58t-43.5 195q0 246 177 246zM269 70q81 0 81 140v53q0 70 -18 101t-58 31q-43 0 -59.5 -32t-16.5 -127q0 -88 13.5 -127t57.5 -39z" />
    <glyph glyph-name="Dcroat" unicode="&#x110;" horiz-adv-x="791" 
d="M411 689q178 0 259 -81.5t83 -257.5q1 -95 -23.5 -164t-71.5 -109.5t-107 -59t-136 -18.5q-131 1 -195 1l-192 -2v93h35q35 0 47.5 11t13.5 43q2 52 2 164q-16 0 -40 -0.5t-29 -0.5q1 6 1.5 42.5t-0.5 43.5q28 -2 68 -2q0 106 -2 150q-2 31 -15 44t-40 13h-41v91
q2 0 79 -1t115 -1q36 0 110.5 0.5t78.5 0.5zM305 135q2 -44 43 -44h33q98 0 140 54.5t42 205.5q0 141 -41 195t-140 54h-34q-41 0 -43 -39q-3 -45 -3 -169q63 0 103 2q-1 -9 -1 -43t1 -43q-8 0 -43 0.5t-60 0.5q2 -161 3 -174z" />
    <glyph glyph-name="dcroat" unicode="&#x111;" horiz-adv-x="591" 
d="M285 511v48q30 -2 65 -2v7q0 50 -42 50h-32q2 38 0 76q160 0 234 3q-2 -66 -2 -136q32 0 64 2v-48q-1 0 -25 0.5t-39 0.5q0 -327 2 -389q1 -47 43 -47h23q-1 -9 -1 -38t1 -38q-116 -2 -225 -2v99q-35 -114 -145 -114q-87 0 -130.5 58t-43.5 195q0 246 177 246
q109 0 141 -102v132h-26.5t-26 -0.5t-12.5 -0.5zM269 70q81 0 81 140v53q0 70 -18 101t-58 31q-43 0 -59.5 -32t-16.5 -127q0 -88 13.5 -127t57.5 -39z" />
    <glyph glyph-name="Emacron" unicode="&#x112;" horiz-adv-x="733" 
d="M433 475v26h74q-5 -145 -5 -153q0 -71 5 -156q-37 2 -72 0v23q-1 56 -22 79.5t-78 23.5h-31q0 -128 3 -167q2 -33 16.5 -46.5t42.5 -13.5h105q76 0 105.5 39.5t29.5 141.5q12 -1 49.5 -1t49.5 1q-10 -106 -10 -277q-70 5 -215 5h-263q-26 0 -71.5 -0.5t-81 -1t-36.5 -0.5
v93h35q33 0 46 15.5t15 48.5q3 38 3 189t-2 192q-2 35 -15.5 49t-41.5 14h-40v91q4 0 85 -1t107 -1h253q173 0 228 7q-8 -117 -6 -260h-92q0 97 -30 129.5t-102 32.5h-107q-54 0 -57 -56q-3 -44 -3 -163h33q53 0 74.5 22t21.5 75zM257 759q2 40 0 81q137 -4 274 0
q-2 -41 0 -81q-137 4 -274 0z" />
    <glyph glyph-name="emacron" unicode="&#x113;" horiz-adv-x="512" 
d="M370 155q5 0 30.5 -2t47.5 -3t31 -1q-9 -79 -62.5 -123.5t-152.5 -44.5q-113 0 -175 61.5t-62 182.5q0 123 64.5 190t174.5 67q119 0 172 -73t44 -200h-80.5h-136.5h-76q3 -77 24 -109.5t67 -32.5q42 0 62.5 22t27.5 66zM260 402q-34 0 -52 -33.5t-19 -118.5h105
q15 0 21 6t6 26q0 63 -15 91.5t-46 28.5zM130 540q2 40 0 81q137 -4 274 0q-2 -40 0 -81q-137 4 -274 0z" />
    <glyph glyph-name="Ebreve" unicode="&#x114;" horiz-adv-x="733" 
d="M433 475v26h74q-5 -145 -5 -153q0 -71 5 -156q-37 2 -72 0v23q-1 56 -22 79.5t-78 23.5h-31q0 -128 3 -167q2 -33 16.5 -46.5t42.5 -13.5h105q76 0 105.5 39.5t29.5 141.5q12 -1 49.5 -1t49.5 1q-10 -106 -10 -277q-70 5 -215 5h-263q-26 0 -71.5 -0.5t-81 -1t-36.5 -0.5
v93h35q33 0 46 15.5t15 48.5q3 38 3 189t-2 192q-2 35 -15.5 49t-41.5 14h-40v91q4 0 85 -1t107 -1h253q173 0 228 7q-8 -117 -6 -260h-92q0 97 -30 129.5t-102 32.5h-107q-54 0 -57 -56q-3 -44 -3 -163h33q53 0 74.5 22t21.5 75zM393 746q-73 0 -109.5 41.5t-27.5 103.5
l23 1q5 -63 114 -63t114 63l23 -1q9 -63 -27 -104t-110 -41z" />
    <glyph glyph-name="ebreve" unicode="&#x115;" horiz-adv-x="512" 
d="M370 155q5 0 30.5 -2t47.5 -3t31 -1q-9 -79 -62.5 -123.5t-152.5 -44.5q-113 0 -175 61.5t-62 182.5q0 123 64.5 190t174.5 67q119 0 172 -73t44 -200h-80.5h-136.5h-76q3 -77 24 -109.5t67 -32.5q42 0 62.5 22t27.5 66zM260 402q-34 0 -52 -33.5t-19 -118.5h105
q15 0 21 6t6 26q0 63 -15 91.5t-46 28.5zM266 530q-73 0 -109.5 41.5t-27.5 103.5l23 1q5 -63 114 -63t114 63l23 -1q9 -63 -27 -104t-110 -41z" />
    <glyph glyph-name="Edotaccent" unicode="&#x116;" horiz-adv-x="733" 
d="M433 475v26h74q-5 -145 -5 -153q0 -71 5 -156q-37 2 -72 0v23q-1 56 -22 79.5t-78 23.5h-31q0 -128 3 -167q2 -33 16.5 -46.5t42.5 -13.5h105q76 0 105.5 39.5t29.5 141.5q12 -1 49.5 -1t49.5 1q-10 -106 -10 -277q-70 5 -215 5h-263q-26 0 -71.5 -0.5t-81 -1t-36.5 -0.5
v93h35q33 0 46 15.5t15 48.5q3 38 3 189t-2 192q-2 35 -15.5 49t-41.5 14h-40v91q4 0 85 -1t107 -1h253q173 0 228 7q-8 -117 -6 -260h-92q0 97 -30 129.5t-102 32.5h-107q-54 0 -57 -56q-3 -44 -3 -163h33q53 0 74.5 22t21.5 75zM447 827q0 -29 -17.5 -47t-46.5 -18
q-28 0 -45.5 18t-17.5 47q0 28 17.5 45.5t45.5 17.5q29 0 46.5 -17.5t17.5 -45.5z" />
    <glyph glyph-name="edotaccent" unicode="&#x117;" horiz-adv-x="512" 
d="M370 155q5 0 30.5 -2t47.5 -3t31 -1q-9 -79 -62.5 -123.5t-152.5 -44.5q-113 0 -175 61.5t-62 182.5q0 123 64.5 190t174.5 67q119 0 172 -73t44 -200h-80.5h-136.5h-76q3 -77 24 -109.5t67 -32.5q42 0 62.5 22t27.5 66zM260 402q-34 0 -52 -33.5t-19 -118.5h105
q15 0 21 6t6 26q0 63 -15 91.5t-46 28.5zM330 606q0 -29 -17.5 -47t-46.5 -18q-28 0 -45.5 18t-17.5 47q0 28 17.5 45.5t45.5 17.5q29 0 46.5 -17.5t17.5 -45.5z" />
    <glyph glyph-name="Eogonek" unicode="&#x118;" horiz-adv-x="733" 
d="M433 475v26h74q-5 -145 -5 -153q0 -71 5 -156q-37 2 -72 0v23q-1 56 -22 79.5t-78 23.5h-31q0 -128 3 -167q2 -33 16.5 -46.5t42.5 -13.5h105q76 0 105.5 39.5t29.5 141.5q12 -1 49.5 -1t49.5 1q-10 -106 -10 -277q-22 2 -79 4q-52 -27 -52 -76q0 -26 15 -39t39 -13
q56 0 65 63l31 -5q2 -135 -120 -135q-51 0 -81 24.5t-30 67.5q1 76 84 114h-350q-26 0 -71.5 -0.5t-81 -1t-36.5 -0.5v93h35q33 0 46 15.5t15 48.5q3 38 3 189t-2 192q-2 35 -15.5 49t-41.5 14h-40v91q4 0 85 -1t107 -1h253q173 0 228 7q-8 -117 -6 -260h-92q0 97 -30 129.5
t-102 32.5h-107q-54 0 -57 -56q-3 -44 -3 -163h33q53 0 74.5 22t21.5 75z" />
    <glyph glyph-name="eogonek" unicode="&#x119;" horiz-adv-x="512" 
d="M497 -71q-2 -63 -30 -99t-97 -36q-46 0 -76 25t-29 69q3 63 73 101q-32 -8 -74 -8q-113 0 -175 61.5t-62 182.5q0 123 64.5 190t174.5 67q119 0 172 -73t44 -200h-80.5h-136.5h-76q3 -77 24 -109.5t67 -32.5q42 0 62.5 22t27.5 66q5 0 30.5 -2t47.5 -3t31 -1
q-8 -79 -77 -137q-30 -25 -43 -45.5t-14 -46.5q0 -23 14.5 -36t37.5 -13q54 0 68 63zM260 402q-34 0 -52 -33.5t-19 -118.5h105q15 0 21 6t6 26q0 63 -15 91.5t-46 28.5z" />
    <glyph glyph-name="Ecaron" unicode="&#x11a;" horiz-adv-x="733" 
d="M433 475v26h74q-5 -145 -5 -153q0 -71 5 -156q-37 2 -72 0v23q-1 56 -22 79.5t-78 23.5h-31q0 -128 3 -167q2 -33 16.5 -46.5t42.5 -13.5h105q76 0 105.5 39.5t29.5 141.5q12 -1 49.5 -1t49.5 1q-10 -106 -10 -277q-70 5 -215 5h-263q-26 0 -71.5 -0.5t-81 -1t-36.5 -0.5
v93h35q33 0 46 15.5t15 48.5q3 38 3 189t-2 192q-2 35 -15.5 49t-41.5 14h-40v91q4 0 85 -1t107 -1h253q173 0 228 7q-8 -117 -6 -260h-92q0 97 -30 129.5t-102 32.5h-107q-54 0 -57 -56q-3 -44 -3 -163h33q53 0 74.5 22t21.5 75zM229 897l9 10q29 -9 71.5 -32.5t69.5 -46.5
q26 21 67.5 45t69.5 34l9 -10q-30 -75 -115 -146h-67q-30 24 -62.5 64.5t-51.5 81.5z" />
    <glyph glyph-name="ecaron" unicode="&#x11b;" horiz-adv-x="512" 
d="M117 676l9 10q29 -9 71.5 -32.5t69.5 -46.5q26 21 67.5 45t69.5 34l9 -10q-30 -75 -115 -146h-67q-30 24 -62.5 64.5t-51.5 81.5zM370 155q5 0 30.5 -2t47.5 -3t31 -1q-9 -79 -62.5 -123.5t-152.5 -44.5q-113 0 -175 61.5t-62 182.5q0 123 64.5 190t174.5 67
q119 0 172 -73t44 -200h-80.5h-136.5h-76q3 -77 24 -109.5t67 -32.5q42 0 62.5 22t27.5 66zM260 402q-34 0 -52 -33.5t-19 -118.5h105q15 0 21 6t6 26q0 63 -15 91.5t-46 28.5z" />
    <glyph glyph-name="Gcircumflex" unicode="&#x11c;" horiz-adv-x="789" 
d="M527 744l-9 -11q-30 10 -72 33.5t-69 46.5q-26 -22 -67.5 -46t-69.5 -33l-9 10q30 72 115 146h67q30 -24 62.5 -64.5t51.5 -81.5zM374 710q102 0 177 -45q33 -20 45.5 -13.5t16.5 44.5q9 -1 41 -1t41 1q-7 -39 -12.5 -123.5t-4.5 -136.5q-61 4 -120 0q-9 86 -42 131
t-111 45q-84 0 -121.5 -59.5t-37.5 -206.5q0 -80 12 -135t34.5 -83t47.5 -39t59 -11q64 0 101 34t37 105q0 41 -11 58.5t-43 17.5h-37v74q107 -3 164 -3l160 3v-74h-27q-21 0 -29 -12t-8 -41q0 -159 11 -244q-51 4 -101 0q-11 48 -27 92q-27 -49 -84.5 -78.5t-131.5 -29.5
q-159 0 -246.5 85.5t-87.5 280.5q0 181 91 272.5t244 91.5z" />
    <glyph glyph-name="gcircumflex" unicode="&#x11d;" horiz-adv-x="519" 
d="M233 482q50 0 92 -11q8 35 28 58q-71 32 -113 69q-26 -22 -67.5 -46t-69.5 -33l-9 10q30 72 115 146h67q62 -50 104 -126q20 11 46 11q39 0 61 -19.5t22 -54.5q0 -29 -14.5 -45t-40.5 -16q-25 0 -39.5 13.5t-14.5 37.5q0 20 12 34q-41 -7 -59 -50q93 -40 93 -153
q0 -86 -58.5 -132.5t-154.5 -46.5q-37 0 -67 6q-39 -3 -39 -22q0 -15 30 -21t122 -7q128 -1 175 -32.5t47 -96.5q0 -67 -66 -113t-193 -46q-232 0 -232 103q0 53 73 74q-50 25 -50 77q0 40 25.5 64.5t66.5 32.5q-102 41 -102 160q0 84 58 129.5t152 45.5zM240 -52
q-61 1 -105 9q-48 -15 -48 -44q0 -56 153 -56q89 0 134.5 16t45.5 40q0 20 -37 26.5t-143 8.5zM235 415q-32 0 -45 -24t-13 -85q0 -63 13 -87t45 -24q33 0 45 23.5t12 87.5q0 63 -12.5 86t-44.5 23z" />
    <glyph glyph-name="Gbreve" unicode="&#x11e;" horiz-adv-x="789" 
d="M374 710q102 0 177 -45q33 -20 45.5 -13.5t16.5 44.5q9 -1 41 -1t41 1q-7 -39 -12.5 -123.5t-4.5 -136.5q-61 4 -120 0q-9 86 -42 131t-111 45q-84 0 -121.5 -59.5t-37.5 -206.5q0 -80 12 -135t34.5 -83t47.5 -39t59 -11q64 0 101 34t37 105q0 41 -11 58.5t-43 17.5h-37
v74q107 -3 164 -3l160 3v-74h-27q-21 0 -29 -12t-8 -41q0 -159 11 -244q-51 4 -101 0q-11 48 -27 92q-27 -49 -84.5 -78.5t-131.5 -29.5q-159 0 -246.5 85.5t-87.5 280.5q0 181 91 272.5t244 91.5zM374 746q-73 0 -109.5 41.5t-27.5 103.5l23 1q5 -63 114 -63t114 63l23 -1
q9 -63 -27 -104t-110 -41z" />
    <glyph glyph-name="gbreve" unicode="&#x11f;" horiz-adv-x="519" 
d="M233 482q50 0 92 -11q9 39 35 64t66 25q39 0 61 -19.5t22 -54.5q0 -29 -14.5 -45t-40.5 -16q-25 0 -39.5 13.5t-14.5 37.5q0 20 12 34q-41 -7 -59 -50q93 -40 93 -153q0 -86 -58.5 -132.5t-154.5 -46.5q-37 0 -67 6q-39 -3 -39 -22q0 -15 30 -21t122 -7q128 -1 175 -32.5
t47 -96.5q0 -67 -66 -113t-193 -46q-232 0 -232 103q0 53 73 74q-50 25 -50 77q0 40 25.5 64.5t66.5 32.5q-102 41 -102 160q0 84 58 129.5t152 45.5zM240 -52q-61 1 -105 9q-48 -15 -48 -44q0 -56 153 -56q89 0 134.5 16t45.5 40q0 20 -37 26.5t-143 8.5zM235 415
q-32 0 -45 -24t-13 -85q0 -63 13 -87t45 -24q33 0 45 23.5t12 87.5q0 63 -12.5 86t-44.5 23zM222 530q-73 0 -109.5 41.5t-27.5 103.5l23 1q5 -63 114 -63t114 63l23 -1q9 -63 -27 -104t-110 -41z" />
    <glyph glyph-name="Gdotaccent" unicode="&#x120;" horiz-adv-x="789" 
d="M374 710q102 0 177 -45q33 -20 45.5 -13.5t16.5 44.5q9 -1 41 -1t41 1q-7 -39 -12.5 -123.5t-4.5 -136.5q-61 4 -120 0q-9 86 -42 131t-111 45q-84 0 -121.5 -59.5t-37.5 -206.5q0 -80 12 -135t34.5 -83t47.5 -39t59 -11q64 0 101 34t37 105q0 41 -11 58.5t-43 17.5h-37
v74q107 -3 164 -3l160 3v-74h-27q-21 0 -29 -12t-8 -41q0 -159 11 -244q-51 4 -101 0q-11 48 -27 92q-27 -49 -84.5 -78.5t-131.5 -29.5q-159 0 -246.5 85.5t-87.5 280.5q0 181 91 272.5t244 91.5zM434 827q0 -29 -17.5 -47t-46.5 -18q-28 0 -45.5 18t-17.5 47
q0 28 17.5 45.5t45.5 17.5q29 0 46.5 -17.5t17.5 -45.5z" />
    <glyph glyph-name="gdotaccent" unicode="&#x121;" horiz-adv-x="519" 
d="M233 482q50 0 92 -11q9 39 35 64t66 25q39 0 61 -19.5t22 -54.5q0 -29 -14.5 -45t-40.5 -16q-25 0 -39.5 13.5t-14.5 37.5q0 20 12 34q-41 -7 -59 -50q93 -40 93 -153q0 -86 -58.5 -132.5t-154.5 -46.5q-37 0 -67 6q-39 -3 -39 -22q0 -15 30 -21t122 -7q128 -1 175 -32.5
t47 -96.5q0 -67 -66 -113t-193 -46q-232 0 -232 103q0 53 73 74q-50 25 -50 77q0 40 25.5 64.5t66.5 32.5q-102 41 -102 160q0 84 58 129.5t152 45.5zM240 -52q-61 1 -105 9q-48 -15 -48 -44q0 -56 153 -56q89 0 134.5 16t45.5 40q0 20 -37 26.5t-143 8.5zM235 415
q-32 0 -45 -24t-13 -85q0 -63 13 -87t45 -24q33 0 45 23.5t12 87.5q0 63 -12.5 86t-44.5 23zM302 606q0 -29 -17.5 -47t-46.5 -18q-28 0 -45.5 18t-17.5 47q0 28 17.5 45.5t45.5 17.5q29 0 46.5 -17.5t17.5 -45.5z" />
    <glyph glyph-name="Gcommaaccent" unicode="&#x122;" horiz-adv-x="789" 
d="M289 -265q108 25 114 112q-15 -26 -48 -26q-47 0 -47 55q0 27 17 44t46 17q31 0 47 -21t16 -55q0 -56 -37.5 -94t-102.5 -52zM374 710q102 0 177 -45q33 -20 45.5 -13.5t16.5 44.5q9 -1 41 -1t41 1q-7 -39 -12.5 -123.5t-4.5 -136.5q-61 4 -120 0q-9 86 -42 131t-111 45
q-84 0 -121.5 -59.5t-37.5 -206.5q0 -80 12 -135t34.5 -83t47.5 -39t59 -11q64 0 101 34t37 105q0 41 -11 58.5t-43 17.5h-37v74q107 -3 164 -3l160 3v-74h-27q-21 0 -29 -12t-8 -41q0 -159 11 -244q-51 4 -101 0q-11 48 -27 92q-27 -49 -84.5 -78.5t-131.5 -29.5
q-159 0 -246.5 85.5t-87.5 280.5q0 181 91 272.5t244 91.5z" />
    <glyph glyph-name="gcommaaccent" unicode="&#x123;" horiz-adv-x="519" 
d="M322 751q-108 -25 -114 -112q15 26 48 26q47 0 47 -55q0 -27 -17 -44t-46 -17q-31 0 -47 21t-16 55q0 56 37.5 94t102.5 52zM233 482q50 0 92 -11q9 39 35 64t66 25q39 0 61 -19.5t22 -54.5q0 -29 -14.5 -45t-40.5 -16q-25 0 -39.5 13.5t-14.5 37.5q0 20 12 34
q-41 -7 -59 -50q93 -40 93 -153q0 -86 -58.5 -132.5t-154.5 -46.5q-37 0 -67 6q-39 -3 -39 -22q0 -15 30 -21t122 -7q128 -1 175 -32.5t47 -96.5q0 -67 -66 -113t-193 -46q-232 0 -232 103q0 53 73 74q-50 25 -50 77q0 40 25.5 64.5t66.5 32.5q-102 41 -102 160
q0 84 58 129.5t152 45.5zM240 -52q-61 1 -105 9q-48 -15 -48 -44q0 -56 153 -56q89 0 134.5 16t45.5 40q0 20 -37 26.5t-143 8.5zM235 415q-32 0 -45 -24t-13 -85q0 -63 13 -87t45 -24q33 0 45 23.5t12 87.5q0 63 -12.5 86t-44.5 23z" />
    <glyph glyph-name="Hcircumflex" unicode="&#x124;" horiz-adv-x="852" 
d="M574 745l-9 -11q-30 10 -72 33.5t-69 46.5q-26 -22 -67.5 -46t-69.5 -33l-9 10q30 72 115 146h67q30 -24 62.5 -64.5t51.5 -81.5zM28 -2v93h39q33 0 44.5 9.5t12.5 39.5q2 46 2 206.5t-2 198.5q-2 30 -13.5 42t-38.5 12h-44q1 11 1 46t-1 45q118 -3 184 -3q29 0 72.5 0.5
t76 1.5t34.5 1v-91h-38q-27 0 -40 -12.5t-15 -41.5q-2 -22 -2 -170q121 -2 253 0q0 148 -2 170q-2 29 -15.5 41.5t-40.5 12.5h-39q1 10 1 45t-1 46q118 -3 184 -3q29 0 73 0.5t76.5 1.5t34.5 1q-1 -11 -1 -46t1 -45h-44q-27 0 -38.5 -12t-13.5 -42q-2 -37 -2 -198.5
t2 -206.5q2 -29 13 -39t44 -10h39q-1 -11 -1 -47t1 -46q-118 2 -184 2l-184 -2q1 11 1 46.5t-1 46.5h38q33 0 44.5 11t12.5 38q2 52 2 172q-96 1 -253 -1q0 -119 2 -171q2 -28 12 -38.5t43 -10.5h38v-93q-117 2 -183 2z" />
    <glyph glyph-name="hcircumflex" unicode="&#x125;" horiz-adv-x="629" 
d="M288 738l-9 -11q-30 10 -72 33.5t-69 46.5q-26 -22 -67.5 -46t-69.5 -33l-9 10q30 72 115 146h67q30 -24 62.5 -64.5t51.5 -81.5zM550 298v-52v-68.5v-42.5q2 -33 12.5 -46t38.5 -13h10q-1 -13 -1 -41.5t1 -37.5q-3 0 -27.5 0.5t-57.5 1.5t-55 1t-55.5 -1t-58.5 -1.5
t-26 -0.5q1 9 1 37.5t-1 41.5h13q25 0 34.5 13t11.5 46q3 72 0 157q-2 52 -17 77.5t-51 25.5q-82 0 -82 -140v-125q0 -31 10 -42.5t37 -11.5h14q-2 -39 0 -79q-3 0 -28 0.5t-58.5 1.5t-55.5 1q-23 0 -57 -1t-60 -1.5t-27 -0.5q1 9 1 37t-1 42h16q28 0 37.5 10t11.5 43
q2 28 2 215t-2 216q-2 32 -11 43t-39 11h-13v76q167 0 227 3q-4 -75 -4 -238v-83q34 110 154 110q80 0 119 -48.5t37 -135.5z" />
    <glyph glyph-name="Hbar" unicode="&#x126;" horiz-adv-x="852" 
d="M28 -2v93h39q33 0 44.5 9.5t12.5 39.5q4 87 2 308q-35 0 -53 -1v58q17 -1 52 -1q0 29 -1 41q-2 30 -13.5 42t-38.5 12h-44q1 11 1 46t-1 45q118 -3 184 -3q29 0 72.5 0.5t76 1.5t34.5 1v-91h-38q-27 0 -39.5 -12.5t-15.5 -41.5q-2 -16 -2 -41h252q0 29 -1 41
q-2 29 -15.5 41.5t-40.5 12.5h-39q1 10 1 45t-1 46q118 -3 184 -3q29 0 73 0.5t76.5 1.5t34.5 1q-1 -11 -1 -46t1 -45h-44q-27 0 -38.5 -12t-13.5 -42q-2 -24 -2 -41q39 0 57 1v-58q-19 1 -57 1q-2 -223 2 -308q2 -29 13 -39t44 -10h39q-1 -11 -1 -47t1 -46q-118 2 -184 2
l-184 -2q1 11 1 46.5t-1 46.5h38q33 0 44.5 11t12.5 38q2 52 2 172q-96 1 -253 -1q0 -119 2 -171q2 -28 12 -38.5t43 -10.5h38v-93q-117 2 -183 2zM300 375q121 -2 253 0v73h-253v-73z" />
    <glyph glyph-name="hbar" unicode="&#x127;" horiz-adv-x="629" 
d="M20 511v48q14 -1 60 -1q-2 33 -11 44.5t-39 11.5h-13v76q167 0 227 3q-4 -60 -4 -135q51 0 67 1v-48q-26 1 -67 1v-140q34 110 154 110q80 0 119 -48.5t37 -135.5v-52v-68.5v-42.5q2 -33 12.5 -46t38.5 -13h10q-1 -13 -1 -41.5t1 -37.5q-3 0 -27.5 0.5t-57.5 1.5t-55 1
t-55.5 -1t-58.5 -1.5t-26 -0.5q1 9 1 37.5t-1 41.5h13q25 0 34.5 13t11.5 46q3 72 0 157q-2 52 -17 77.5t-51 25.5q-82 0 -82 -140v-125q0 -31 10 -42.5t37 -11.5h14q-2 -39 0 -79q-3 0 -28 0.5t-58.5 1.5t-55.5 1q-23 0 -57 -1t-60 -1.5t-27 -0.5q1 9 1 37t-1 42h16
q28 0 37.5 10t11.5 43q1 20 1.5 162t-0.5 221q-39 0 -61 -1z" />
    <glyph glyph-name="Itilde" unicode="&#x128;" horiz-adv-x="428" 
d="M30 -2q1 11 1 46.5t-1 46.5h40q31 0 41.5 11t12.5 38q2 43 2 205t-2 200q-2 30 -13.5 42t-38.5 12h-42q1 11 1 46t-1 45q119 -3 185 -3q29 0 73 0.5t76.5 1.5t34.5 1q-1 -11 -1 -46t1 -45h-42q-27 0 -38.5 -12t-13.5 -42q-3 -40 -2.5 -199.5t2.5 -205.5q2 -27 13 -38
t41 -11h39v-93q-117 2 -183 2zM335 877l25 7q24 -67 -6 -105t-85 -38q-62 0 -99 59q-16 23 -25.5 31.5t-24.5 8.5q-20 0 -28 -18.5t3 -62.5l-26 -8q-23 69 6.5 106.5t85.5 37.5q58 0 98 -59q27 -40 50 -40q21 0 28.5 19t-2.5 62z" />
    <glyph glyph-name="itilde" unicode="&#x129;" horiz-adv-x="321" 
d="M240 471q-1 -30 -1 -167t1 -174q1 -32 12.5 -43t39.5 -11h14v-78q-6 0 -65 1.5t-79 1.5q-21 0 -83 -1.5t-64 -1.5q1 9 1 36.5t-1 41.5h15q29 0 38.5 10.5t11.5 42.5t2 108t-2 104q-2 30 -11.5 40.5t-39.5 10.5h-14q2 38 0 76q153 0 225 3zM271 656l25 7q24 -67 -6 -105
t-85 -38q-62 0 -99 59q-16 23 -25.5 31.5t-24.5 8.5q-20 0 -28 -18.5t3 -62.5l-26 -8q-23 69 6.5 106.5t85.5 37.5q58 0 98 -59q27 -40 50 -40q21 0 28.5 18.5t-2.5 62.5z" />
    <glyph glyph-name="Imacron" unicode="&#x12a;" horiz-adv-x="428" 
d="M30 -2q1 11 1 46.5t-1 46.5h40q31 0 41.5 11t12.5 38q2 43 2 205t-2 200q-2 30 -13.5 42t-38.5 12h-42q1 11 1 46t-1 45q119 -3 185 -3q29 0 73 0.5t76.5 1.5t34.5 1q-1 -11 -1 -46t1 -45h-42q-27 0 -38.5 -12t-13.5 -42q-3 -40 -2.5 -199.5t2.5 -205.5q2 -27 13 -38
t41 -11h39v-93q-117 2 -183 2zM79 759q2 40 0 81q137 -4 274 0q-2 -41 0 -81q-137 4 -274 0z" />
    <glyph glyph-name="imacron" unicode="&#x12b;" horiz-adv-x="321" 
d="M240 471q-1 -30 -1 -167t1 -174q1 -32 12.5 -43t39.5 -11h14v-78q-6 0 -65 1.5t-79 1.5q-21 0 -83 -1.5t-64 -1.5q1 9 1 36.5t-1 41.5h15q29 0 38.5 10.5t11.5 42.5t2 108t-2 104q-2 30 -11.5 40.5t-39.5 10.5h-14q2 38 0 76q153 0 225 3zM10 540q2 40 0 81q137 -4 274 0
q-2 -41 0 -81q-137 4 -274 0z" />
    <glyph glyph-name="Ibreve" unicode="&#x12c;" horiz-adv-x="428" 
d="M30 -2q1 11 1 46.5t-1 46.5h40q31 0 41.5 11t12.5 38q2 43 2 205t-2 200q-2 30 -13.5 42t-38.5 12h-42q1 11 1 46t-1 45q119 -3 185 -3q29 0 73 0.5t76.5 1.5t34.5 1q-1 -11 -1 -46t1 -45h-42q-27 0 -38.5 -12t-13.5 -42q-3 -40 -2.5 -199.5t2.5 -205.5q2 -27 13 -38
t41 -11h39v-93q-117 2 -183 2zM214 746q-73 0 -109.5 41.5t-27.5 103.5l23 1q5 -63 114 -63t114 63l23 -1q9 -63 -27 -104t-110 -41z" />
    <glyph glyph-name="ibreve" unicode="&#x12d;" horiz-adv-x="321" 
d="M240 471q-1 -30 -1 -167t1 -174q1 -32 12.5 -43t39.5 -11h14v-78q-6 0 -65 1.5t-79 1.5q-21 0 -83 -1.5t-64 -1.5q1 9 1 36.5t-1 41.5h15q29 0 38.5 10.5t11.5 42.5t2 108t-2 104q-2 30 -11.5 40.5t-39.5 10.5h-14q2 38 0 76q153 0 225 3zM142 530q-73 0 -109.5 41.5
t-27.5 103.5l23 1q5 -63 114 -63t114 63l23 -1q9 -63 -27 -104t-110 -41z" />
    <glyph glyph-name="Iogonek" unicode="&#x12e;" horiz-adv-x="428" 
d="M348 -71q2 -135 -120 -135q-51 0 -81 24.5t-30 67.5q1 76 85 114l-172 -2q1 11 1 46.5t-1 46.5h40q31 0 41.5 11t12.5 38q2 43 2 205t-2 200q-2 30 -13.5 42t-38.5 12h-42q1 11 1 46t-1 45q119 -3 185 -3q29 0 73 0.5t76.5 1.5t34.5 1q-1 -11 -1 -46t1 -45h-42
q-27 0 -38.5 -12t-13.5 -42q-3 -40 -2.5 -199.5t2.5 -205.5q2 -27 13 -38t41 -11h39v-93q-80 2 -144 2q-56 -25 -56 -77q0 -26 15 -39t39 -13q56 0 65 63z" />
    <glyph glyph-name="iogonek" unicode="&#x12f;" horiz-adv-x="321" 
d="M289 -71q2 -135 -120 -135q-51 0 -81 24.5t-30 67.5q1 76 85 114q-23 0 -53.5 -1t-52 -1.5t-22.5 -0.5q1 9 1 37t-1 42h15q29 0 38.5 10.5t11.5 42.5t2 108t-2 104q-2 30 -11.5 40.5t-39.5 10.5h-14q2 38 0 76q153 0 225 3q-1 -30 -1 -167t1 -174q1 -32 12.5 -43
t39.5 -11h14v-79q-3 0 -20 0.5t-43.5 1.5t-47.5 1q-56 -25 -56 -77q0 -26 15 -39t39 -13q56 0 65 63zM246 624q0 -42 -25 -67t-66 -25t-65.5 25t-24.5 67q0 40 24.5 65t65.5 25t66 -24.5t25 -65.5z" />
    <glyph glyph-name="Idotaccent" unicode="&#x130;" horiz-adv-x="428" 
d="M30 -2q1 11 1 46.5t-1 46.5h40q31 0 41.5 11t12.5 38q2 43 2 205t-2 200q-2 30 -13.5 42t-38.5 12h-42q1 11 1 46t-1 45q119 -3 185 -3q29 0 73 0.5t76.5 1.5t34.5 1q-1 -11 -1 -46t1 -45h-42q-27 0 -38.5 -12t-13.5 -42q-3 -40 -2.5 -199.5t2.5 -205.5q2 -27 13 -38
t41 -11h39v-93q-117 2 -183 2zM278 827q0 -29 -17.5 -47t-46.5 -18q-28 0 -45.5 18t-17.5 47q0 28 17.5 45.5t45.5 17.5q29 0 46.5 -17.5t17.5 -45.5z" />
    <glyph glyph-name="dotlessi" unicode="&#x131;" horiz-adv-x="321" 
d="M240 471q-1 -30 -1 -167t1 -174q1 -32 12.5 -43t39.5 -11h14v-78q-6 0 -65 1.5t-79 1.5q-21 0 -83 -1.5t-64 -1.5q1 9 1 36.5t-1 41.5h15q29 0 38.5 10.5t11.5 42.5t2 108t-2 104q-2 30 -11.5 40.5t-39.5 10.5h-14q2 38 0 76q153 0 225 3z" />
    <glyph glyph-name="IJ" unicode="&#x132;" horiz-adv-x="990" 
d="M599 157q0 -45 -33 -66t-78 -15q36 -34 94 -34q56 0 84 35.5t31 119.5q2 62 2 186.5t-2 161.5q-2 29 -13.5 41.5t-38.5 12.5h-40v91q114 -3 179 -3q28 0 70.5 0.5t74.5 1.5t34 1q-1 -11 -1 -46t1 -45h-32q-27 0 -39 -11.5t-13 -42.5q-1 -25 -1 -166.5t1 -176.5
q1 -107 -68 -163.5t-192 -56.5q-97 0 -150 44t-53 113q0 44 26 71.5t71 27.5q39 0 62.5 -22t23.5 -59zM30 -2q1 11 1 46.5t-1 46.5h40q31 0 41.5 11t12.5 38q2 43 2 205t-2 200q-2 30 -13.5 42t-38.5 12h-42q1 11 1 46t-1 45q119 -3 185 -3q29 0 73 0.5t76.5 1.5t34.5 1
q-1 -11 -1 -46t1 -45h-42q-27 0 -38.5 -12t-13.5 -42q-3 -40 -2.5 -199.5t2.5 -205.5q2 -27 13 -38t41 -11h39v-93q-117 2 -183 2z" />
    <glyph glyph-name="ij" unicode="&#x133;" horiz-adv-x="581" 
d="M240 471q-1 -30 -1 -167t1 -174q1 -32 12.5 -43t39.5 -11h14v-79q-3 0 -28.5 0.5t-59.5 1.5t-57 1t-58 -1t-61 -1.5t-27 -0.5q1 9 1 37t-1 42h15q29 0 38.5 10.5t11.5 42.5t2 108t-2 104q-2 30 -11.5 40.5t-39.5 10.5h-14q2 38 0 76q153 0 225 3zM246 624q0 -42 -25 -67
t-66 -25t-65.5 25t-24.5 67q0 40 24.5 65t65.5 25t66 -24.5t25 -65.5zM337 -90q0 -27 -20.5 -46.5t-57.5 -13.5q19 -13 46 -13q35 0 53.5 24.5t19.5 82.5q1 62 1 213.5t-1 186.5q-3 48 -46 48h-18q2 38 0 76q189 0 228 3q-4 -56 -4 -166v-293q0 -213 -192 -213
q-67 0 -106 26.5t-39 73.5q0 34 18.5 53t52.5 19q30 0 47.5 -16.5t17.5 -44.5zM545 624q0 -42 -25 -67t-66 -25t-65.5 25t-24.5 67q0 40 25 65t65 25q41 0 66 -24.5t25 -65.5z" />
    <glyph glyph-name="Jcircumflex" unicode="&#x134;" horiz-adv-x="589" 
d="M526 745l-9 -11q-30 10 -72 33.5t-69 46.5q-26 -22 -67.5 -46t-69.5 -33l-9 10q30 72 115 146h67q30 -24 62.5 -64.5t51.5 -81.5zM198 157q0 -45 -33 -66t-78 -15q36 -34 94 -34q56 0 84 35.5t31 119.5q2 61 2 186t-2 162q-2 29 -13.5 41.5t-38.5 12.5h-40v91
q114 -3 179 -3q28 0 70.5 0.5t74.5 1.5t34 1q-1 -11 -1 -46t1 -45h-32q-27 0 -39 -11.5t-13 -42.5q-1 -25 -1 -166.5t1 -176.5q1 -107 -68 -163.5t-192 -56.5q-97 0 -150 44t-53 113q0 44 26 71.5t71 27.5q39 0 62.5 -22t23.5 -59z" />
    <glyph glyph-name="jcircumflex" unicode="&#x135;" horiz-adv-x="307" 
d="M61 -92q0 -26 -19.5 -44.5t-57.5 -12.5q19 -14 47 -14q35 0 53.5 24.5t19.5 82.5q1 62 1 213.5t-1 186.5q-3 48 -46 48h-18q2 38 0 76q185 0 224 3v-112v-210.5v-136.5q0 -213 -192 -213q-66 0 -105 27t-39 73q0 33 18.5 51.5t52.5 18.5q29 0 45.5 -16.5t16.5 -44.5z
M312 529l-9 -11q-30 10 -72 33.5t-69 46.5q-26 -22 -67.5 -46t-69.5 -33l-9 10q30 72 115 146h67q30 -24 62.5 -64.5t51.5 -81.5z" />
    <glyph glyph-name="Kcommaaccent" unicode="&#x136;" horiz-adv-x="839" 
d="M340 -260q108 25 114 112q-15 -26 -48 -26q-47 0 -47 55q0 27 17 44t46 17q31 0 47 -21t16 -55q0 -56 -37.5 -94t-102.5 -52zM28 -2v93h36q33 0 45 12t14 44q3 40 2.5 199t-2.5 197q-2 30 -14.5 43t-43.5 13h-37v91q118 -3 184 -3q29 0 72.5 0.5t76 1.5t34.5 1
q-1 -11 -1 -46t1 -45h-42q-26 0 -38 -13t-14 -43q-2 -24 -2 -194l210 181q23 19 15 44t-41 25h-38v91q118 -3 183 -3q29 0 71 0.5t73 1.5t33 1q-2 -45 0 -91h-36q-50 0 -85.5 -16.5t-80.5 -53.5l-98 -82q33 -52 105.5 -162.5t87.5 -129.5q35 -44 48 -53q17 -11 43 -11h22
q-2 -45 0 -92q-118 3 -185 3l-186 -3q1 10 1 45.5t-1 46.5h26q31 0 36 20.5t-16 54.5q-44 75 -113 170l-74 -62q0 -89 2 -127q2 -31 11.5 -43.5t38.5 -12.5h40q-1 -11 -1 -46.5t1 -46.5q-116 2 -181 2z" />
    <glyph glyph-name="kcommaaccent" unicode="&#x137;" horiz-adv-x="634" 
d="M227 -260q108 25 114 112q-15 -26 -48 -26q-47 0 -47 55q0 27 17 44t46 17q31 0 47 -21t16 -55q0 -56 -37.5 -94t-102.5 -52zM240 692q-2 -75 -2 -440l113 85q27 20 22 37.5t-36 17.5h-16q1 9 1 39t-1 38q92 -3 144 -3q23 0 57 1t59.5 1.5t27.5 0.5q-2 -39 0 -77h-20
q-44 0 -73 -11.5t-79 -45.5l-27 -18q78 -139 112 -184q24 -31 42.5 -44t43.5 -13h9q-2 -40 0 -79q-3 0 -29.5 0.5t-61.5 1.5t-59 1q-23 0 -59 -1t-62.5 -1.5t-27.5 -0.5v79h12q43 0 12 58q-26 47 -61 96l-42 -28q0 -48 1 -67q1 -33 11.5 -46t33.5 -13h12q-2 -40 0 -79
q-3 0 -27.5 0.5t-57.5 1.5t-55 1q-23 0 -56.5 -1t-59 -1.5t-26.5 -0.5q1 9 1 37t-1 42h15q28 0 38 12.5t12 46.5t2 211.5t-2 208.5q-2 32 -11.5 45.5t-38.5 13.5h-13v76q145 0 223 2z" />
    <glyph glyph-name="kgreenlandic" unicode="&#x138;" horiz-adv-x="634" 
d="M240 470q-2 -124 -2 -218l114 85q27 20 21.5 37.5t-36.5 17.5h-16q1 9 1 39t-1 38q92 -3 144 -3q23 0 57 1t59.5 1.5t27.5 0.5q-2 -40 0 -77h-20q-44 0 -73 -11.5t-79 -45.5l-27 -18q84 -149 112 -184q22 -30 41 -43.5t45 -13.5h9v-79q-3 0 -29.5 0.5t-61.5 1.5t-59 1
q-23 0 -59 -1t-62.5 -1.5t-27.5 -0.5v79h12q21 0 24 16t-12 42q-37 62 -61 96l-43 -28q0 -31 2 -67q1 -33 11.5 -46t33.5 -13h12q-1 -41 0 -79q-3 0 -27.5 0.5t-57.5 1.5t-55 1q-23 0 -56.5 -1t-59 -1.5t-26.5 -0.5q1 9 1 37t-1 42h15q28 0 38 12.5t12 46.5q6 124 0 198
q-2 32 -11.5 45.5t-38.5 13.5h-13v76q145 0 223 2z" />
    <glyph glyph-name="Lacute" unicode="&#x139;" horiz-adv-x="663" 
d="M201 742l-8 12q69 94 128 131q26 14 44 9t27.5 -18t3 -32.5t-29.5 -33.5q-69 -44 -165 -68zM405 690q-1 -14 -1 -91h-41q-31 0 -45 -13.5t-15 -45.5q-2 -40 -2 -194t2 -203q1 -30 15 -41t42 -11h54q49 0 75.5 14t43 58t19.5 127q10 -1 44.5 -1t44.5 1q-9 -157 -5 -294
q-62 4 -205 4h-230q-89 0 -173 -2v93h41q33 0 43.5 12.5t12.5 45.5q2 47 2 200t-2 191q-2 30 -14 44.5t-38 14.5h-43v91q121 -3 188 -3q29 0 73 0.5t77.5 1.5t36.5 1z" />
    <glyph glyph-name="lacute" unicode="&#x13a;" horiz-adv-x="319" 
d="M127 717l-8 12q69 94 128 131q26 14 44 9t27.5 -18t3 -32.5t-29.5 -33.5q-69 -44 -165 -68zM240 693q-1 -58 -1 -286.5t1 -271.5q2 -33 12.5 -46t38.5 -13h15q-1 -13 -1 -41.5t1 -37.5q-3 0 -28.5 0.5t-59.5 1.5t-57 1t-58.5 -1t-61 -1.5t-26.5 -0.5q1 9 1 37t-1 42h15
q28 0 38 12.5t12 46.5q2 32 2 212.5t-2 208.5q-2 31 -12 44.5t-39 13.5h-12v76q184 0 223 3z" />
    <glyph glyph-name="Lcommaaccent" unicode="&#x13b;" horiz-adv-x="663" 
d="M245 -260q108 25 114 112q-15 -26 -48 -26q-47 0 -47 55q0 27 17 44t46 17q31 0 47 -21t16 -55q0 -56 -37.5 -94t-102.5 -52zM405 690q-1 -14 -1 -91h-41q-31 0 -45 -13.5t-15 -45.5q-2 -40 -2 -194t2 -203q1 -30 15 -41t42 -11h54q49 0 75.5 14t43 58t19.5 127
q10 -1 44.5 -1t44.5 1q-9 -157 -5 -294q-62 4 -205 4h-230q-89 0 -173 -2v93h41q33 0 43.5 12.5t12.5 45.5q2 47 2 200t-2 191q-2 30 -14 44.5t-38 14.5h-43v91q121 -3 188 -3q29 0 73 0.5t77.5 1.5t36.5 1z" />
    <glyph glyph-name="lcommaaccent" unicode="&#x13c;" horiz-adv-x="319" 
d="M81 -260q108 25 114 112q-15 -26 -48 -26q-47 0 -47 55q0 27 17 44t46 17q31 0 47 -21t16 -55q0 -56 -37.5 -94t-102.5 -52zM240 693q-1 -58 -1 -286.5t1 -271.5q2 -33 12.5 -46t38.5 -13h15q-1 -13 -1 -41.5t1 -37.5q-3 0 -28.5 0.5t-59.5 1.5t-57 1t-58.5 -1t-61 -1.5
t-26.5 -0.5q1 9 1 37t-1 42h15q28 0 38 12.5t12 46.5q2 32 2 212.5t-2 208.5q-2 31 -12 44.5t-39 13.5h-12v76q184 0 223 3z" />
    <glyph glyph-name="Lcaron" unicode="&#x13d;" horiz-adv-x="663" 
d="M475 504q108 25 114 112q-15 -26 -48 -26q-47 0 -47 55q0 27 17 44t46 17q31 0 47 -21t16 -55q0 -56 -37.5 -94t-102.5 -52zM405 690q-1 -14 -1 -91h-41q-31 0 -45 -13.5t-15 -45.5q-2 -40 -2 -194t2 -203q1 -30 15 -41t42 -11h54q49 0 75.5 14t43 58t19.5 127
q10 -1 44.5 -1t44.5 1q-9 -157 -5 -294q-62 4 -205 4h-230q-89 0 -173 -2v93h41q33 0 43.5 12.5t12.5 45.5q2 47 2 200t-2 191q-2 30 -14 44.5t-38 14.5h-43v91q121 -3 188 -3q29 0 73 0.5t77.5 1.5t36.5 1z" />
    <glyph glyph-name="lcaron" unicode="&#x13e;" horiz-adv-x="441" 
d="M276 489q108 25 114 112q-15 -26 -48 -26q-47 0 -47 55q0 27 17 44t46 17q31 0 47 -21t16 -55q0 -56 -37.5 -94t-102.5 -52zM240 693q-1 -58 -1 -286.5t1 -271.5q2 -33 12.5 -46t38.5 -13h15q-1 -13 -1 -41.5t1 -37.5q-3 0 -28.5 0.5t-59.5 1.5t-57 1t-58.5 -1t-61 -1.5
t-26.5 -0.5q1 9 1 37t-1 42h15q28 0 38 12.5t12 46.5q2 32 2 212.5t-2 208.5q-2 31 -12 44.5t-39 13.5h-12v76q184 0 223 3z" />
    <glyph glyph-name="Ldot" unicode="&#x13f;" horiz-adv-x="663" 
d="M405 690q-1 -14 -1 -91h-41q-31 0 -45 -13.5t-15 -45.5q-2 -40 -2 -194t2 -203q1 -30 15 -41t42 -11h54q49 0 75.5 14t43 58t19.5 127q10 -1 44.5 -1t44.5 1q-9 -157 -5 -294q-62 4 -205 4h-230q-89 0 -173 -2v93h41q33 0 43.5 12.5t12.5 45.5q2 47 2 200t-2 191
q-2 30 -14 44.5t-38 14.5h-43v91q121 -3 188 -3q29 0 73 0.5t77.5 1.5t36.5 1zM538 391q0 -29 -17.5 -47t-46.5 -18q-28 0 -45.5 18t-17.5 47q0 28 17.5 45.5t45.5 17.5q29 0 46.5 -17.5t17.5 -45.5z" />
    <glyph glyph-name="ldot" unicode="&#x140;" horiz-adv-x="436" 
d="M240 693q-1 -58 -1 -286.5t1 -271.5q2 -33 12.5 -46t38.5 -13h15q-1 -13 -1 -41.5t1 -37.5q-3 0 -28.5 0.5t-59.5 1.5t-57 1t-58.5 -1t-61 -1.5t-26.5 -0.5q1 9 1 37t-1 42h15q28 0 38 12.5t12 46.5q2 32 2 212.5t-2 208.5q-2 31 -12 44.5t-39 13.5h-12v76q184 0 223 3z
M438 330q0 -29 -17.5 -47t-46.5 -18q-28 0 -45.5 18t-17.5 47q0 28 17.5 45.5t45.5 17.5q29 0 46.5 -17.5t17.5 -45.5z" />
    <glyph glyph-name="Lslash" unicode="&#x141;" horiz-adv-x="663" 
d="M405 690q-1 -14 -1 -91h-41q-31 0 -45 -13.5t-15 -45.5q-2 -38 -2 -124q13 6 33.5 14.5t33.5 14t21 9.5l20 -54q-23 -8 -108 -42q0 -181 2 -215q1 -30 15 -41t42 -11h54q49 0 75.5 14t43 58t19.5 127q10 -1 44.5 -1t44.5 1q-9 -157 -5 -294q-62 4 -205 4h-230
q-89 0 -173 -2v93h41q33 0 43.5 12.5t12.5 45.5q2 46 2 137l-46 -20l-20 54l66 26q0 142 -2 194q-3 59 -52 59h-43v91q121 -3 188 -3q29 0 73 0.5t77.5 1.5t36.5 1z" />
    <glyph glyph-name="lslash" unicode="&#x142;" horiz-adv-x="319" 
d="M240 693q-1 -32 -1 -274l42 21l21 -53l-63 -27q0 -206 1 -225q2 -33 12.5 -46t38.5 -13h15q-1 -13 -1 -41.5t1 -37.5q-3 0 -28.5 0.5t-59.5 1.5t-57 1t-58.5 -1t-61 -1.5t-26.5 -0.5q1 9 1 37t-1 42h15q28 0 38 12.5t12 46.5q1 17 1 153l-25 -12l-21 52q19 7 46 20
q0 189 -1 208q-2 31 -12 44.5t-39 13.5h-12v76q184 0 223 3z" />
    <glyph glyph-name="Nacute" unicode="&#x143;" horiz-adv-x="830" 
d="M423 742l-8 12q69 94 128 131q26 14 44 9t27.5 -18t3 -32.5t-29.5 -33.5q-69 -44 -165 -68zM314 690q114 -181 287 -428q2 188 -1 273q-1 35 -16 49.5t-43 14.5h-52q1 10 1 45t-1 46q2 0 30 -1t65 -1.5t62 -0.5l157 3q-1 -11 -1 -46t1 -45h-44q-28 0 -42.5 -14.5
t-16.5 -49.5q-2 -43 -2 -236.5t2 -298.5q-74 4 -147 0q-139 217 -323 486q-2 -242 2 -337q2 -30 16 -44t47 -14h50q-2 -48 0 -93q-101 2 -158 2l-159 -2v93h40q33 0 47.5 14t16.5 44q2 49 2.5 199.5t-2.5 191.5q-5 59 -60 59h-43v91q141 -4 285 0z" />
    <glyph glyph-name="nacute" unicode="&#x144;" horiz-adv-x="631" 
d="M309 521l-8 12q69 94 128 131q26 14 44 9t27.5 -18t3 -32.5t-29.5 -33.5q-69 -44 -165 -68zM550 298v-52v-68.5v-42.5q2 -34 12.5 -46.5t39.5 -12.5h11q-1 -13 -1 -41.5t1 -37.5q-3 0 -27.5 0.5t-58 1.5t-55.5 1q-23 0 -56.5 -1t-58.5 -1.5t-26 -0.5q1 9 1 37.5t-1 41.5
h13q24 0 34 13.5t12 45.5q3 72 0 157q-2 52 -17 77.5t-51 25.5q-82 0 -82 -140v-120q0 -33 11 -46t36 -13h14q-1 -13 -1 -41.5t1 -37.5q-3 0 -28 0.5t-58.5 1.5t-55.5 1q-23 0 -57 -1t-60 -1.5t-27 -0.5q1 9 1 39.5t-1 39.5h15q29 0 38.5 12t11.5 47q2 36 2 105t-2 96
q-2 30 -11.5 43t-39.5 13h-12v76q184 0 223 3v-101q34 112 154 112q159 0 156 -184z" />
    <glyph glyph-name="Ncommaaccent" unicode="&#x145;" horiz-adv-x="830" 
d="M341 -260q108 25 114 112q-15 -26 -48 -26q-47 0 -47 55q0 27 17 44t46 17q31 0 47 -21t16 -55q0 -56 -37.5 -94t-102.5 -52zM314 690q114 -181 287 -428q2 188 -1 273q-1 35 -16 49.5t-43 14.5h-52q1 10 1 45t-1 46q2 0 30 -1t65 -1.5t62 -0.5l157 3q-1 -11 -1 -46
t1 -45h-44q-28 0 -42.5 -14.5t-16.5 -49.5q-2 -43 -2 -236.5t2 -298.5q-74 4 -147 0q-139 217 -323 486q-2 -242 2 -337q2 -30 16 -44t47 -14h50q-2 -48 0 -93q-101 2 -158 2l-159 -2v93h40q33 0 47.5 14t16.5 44q2 49 2.5 199.5t-2.5 191.5q-5 59 -60 59h-43v91
q141 -4 285 0z" />
    <glyph glyph-name="ncommaaccent" unicode="&#x146;" horiz-adv-x="631" 
d="M235 -260q108 25 114 112q-15 -26 -48 -26q-47 0 -47 55q0 27 17 44t46 17q31 0 47 -21t16 -55q0 -56 -37.5 -94t-102.5 -52zM550 298v-52v-68.5v-42.5q2 -34 12.5 -46.5t39.5 -12.5h11q-1 -13 -1 -41.5t1 -37.5q-3 0 -27.5 0.5t-58 1.5t-55.5 1q-23 0 -56.5 -1
t-58.5 -1.5t-26 -0.5q1 9 1 37.5t-1 41.5h13q24 0 34 13.5t12 45.5q3 72 0 157q-2 52 -17 77.5t-51 25.5q-82 0 -82 -140v-120q0 -33 11 -46t36 -13h14q-1 -13 -1 -41.5t1 -37.5q-3 0 -28 0.5t-58.5 1.5t-55.5 1q-23 0 -57 -1t-60 -1.5t-27 -0.5q1 9 1 39.5t-1 39.5h15
q29 0 38.5 12t11.5 47q2 36 2 105t-2 96q-2 30 -11.5 43t-39.5 13h-12v76q184 0 223 3v-101q34 112 154 112q159 0 156 -184z" />
    <glyph glyph-name="Ncaron" unicode="&#x147;" horiz-adv-x="830" 
d="M287 897l9 10q29 -9 71.5 -32.5t69.5 -46.5q26 21 67.5 45t69.5 34l9 -10q-30 -75 -115 -146h-67q-30 24 -62.5 64.5t-51.5 81.5zM314 690q114 -181 287 -428q2 188 -1 273q-1 35 -16 49.5t-43 14.5h-52q1 10 1 45t-1 46q2 0 30 -1t65 -1.5t62 -0.5l157 3q-1 -11 -1 -46
t1 -45h-44q-28 0 -42.5 -14.5t-16.5 -49.5q-2 -43 -2 -236.5t2 -298.5q-74 4 -147 0q-139 217 -323 486q-2 -242 2 -337q2 -30 16 -44t47 -14h50q-2 -48 0 -93q-101 2 -158 2l-159 -2v93h40q33 0 47.5 14t16.5 44q2 49 2.5 199.5t-2.5 191.5q-5 59 -60 59h-43v91
q141 -4 285 0z" />
    <glyph glyph-name="ncaron" unicode="&#x148;" horiz-adv-x="631" 
d="M165 676l9 10q29 -9 71.5 -32.5t69.5 -46.5q26 21 67.5 45t69.5 34l9 -10q-30 -75 -115 -146h-67q-30 24 -62.5 64.5t-51.5 81.5zM550 298v-52v-68.5v-42.5q2 -34 12.5 -46.5t39.5 -12.5h11q-1 -13 -1 -41.5t1 -37.5q-3 0 -27.5 0.5t-58 1.5t-55.5 1q-23 0 -56.5 -1
t-58.5 -1.5t-26 -0.5q1 9 1 37.5t-1 41.5h13q24 0 34 13.5t12 45.5q3 72 0 157q-2 52 -17 77.5t-51 25.5q-82 0 -82 -140v-120q0 -33 11 -46t36 -13h14q-1 -13 -1 -41.5t1 -37.5q-3 0 -28 0.5t-58.5 1.5t-55.5 1q-23 0 -57 -1t-60 -1.5t-27 -0.5q1 9 1 39.5t-1 39.5h15
q29 0 38.5 12t11.5 47q2 36 2 105t-2 96q-2 30 -11.5 43t-39.5 13h-12v76q184 0 223 3v-101q34 112 154 112q159 0 156 -184z" />
    <glyph glyph-name="napostrophe" unicode="&#x149;" horiz-adv-x="631" 
d="M27 522q108 25 114 112q-15 -26 -48 -26q-47 0 -47 55q0 27 17 44t46 17q31 0 47 -21t16 -55q0 -56 -37.5 -94t-102.5 -52zM550 298v-52v-68.5v-42.5q2 -34 12.5 -46.5t39.5 -12.5h11q-1 -13 -1 -41.5t1 -37.5q-3 0 -27.5 0.5t-58 1.5t-55.5 1q-23 0 -56.5 -1t-58.5 -1.5
t-26 -0.5q1 9 1 37.5t-1 41.5h13q24 0 34 13.5t12 45.5q3 72 0 157q-2 52 -17 77.5t-51 25.5q-82 0 -82 -140v-120q0 -33 11 -46t36 -13h14q-1 -13 -1 -41.5t1 -37.5q-3 0 -28 0.5t-58.5 1.5t-55.5 1q-23 0 -57 -1t-60 -1.5t-27 -0.5q1 9 1 39.5t-1 39.5h15q29 0 38.5 12
t11.5 47q2 36 2 105t-2 96q-2 30 -11.5 43t-39.5 13h-12v76q184 0 223 3v-101q34 112 154 112q159 0 156 -184z" />
    <glyph glyph-name="Eng" unicode="&#x14a;" horiz-adv-x="830" 
d="M314 690q114 -181 287 -428q2 188 -1 273q-1 35 -16 49.5t-43 14.5h-52q1 10 1 45t-1 46q2 0 30 -1t65 -1.5t62 -0.5l157 3q-1 -11 -1 -46t1 -45h-44q-28 0 -42.5 -14.5t-16.5 -49.5q-1 -25 -1 -121t0.5 -231t0.5 -178q0 -102 -50.5 -154t-147.5 -52q-66 0 -104.5 27
t-38.5 74q0 34 19 53.5t53 19.5q30 0 47.5 -16.5t17.5 -45.5q0 -27 -19.5 -46t-58.5 -14q20 -14 54 -14q114 0 115 123v41q-8 0 -19 -0.5t-15 -0.5q-139 217 -323 486q-2 -242 2 -337q2 -30 16 -44t47 -14h50q-2 -48 0 -93q-101 2 -158 2l-159 -2v93h40q33 0 47.5 14
t16.5 44q2 49 2.5 199.5t-2.5 191.5q-5 59 -60 59h-43v91q141 -4 285 0z" />
    <glyph glyph-name="eng" unicode="&#x14b;" horiz-adv-x="588" 
d="M550 298v-286q0 -213 -192 -213q-66 0 -105.5 26.5t-39.5 71.5q0 33 18.5 52t50.5 19q29 0 46 -16.5t17 -43.5q0 -26 -18.5 -44.5t-56.5 -13.5q20 -13 47 -13q35 0 53.5 24.5t19.5 82.5q1 35 1 177t-1 171q-2 52 -17 77.5t-51 25.5q-82 0 -82 -140v-120q0 -33 11 -46
t36 -13h14q-1 -13 -1 -41.5t1 -37.5q-3 0 -28 0.5t-58.5 1.5t-55.5 1q-23 0 -57 -1t-60 -1.5t-27 -0.5q1 9 1 39.5t-1 39.5h15q29 0 38.5 12t11.5 47q2 36 2 105t-2 96q-2 30 -11.5 43t-39.5 13h-12v76q184 0 223 3v-101q34 112 154 112q159 0 156 -184z" />
    <glyph glyph-name="Omacron" unicode="&#x14c;" horiz-adv-x="782" 
d="M261 759q2 40 0 81q137 -4 274 0q-2 -41 0 -81q-137 4 -274 0zM391 74q83 0 116 63t33 209q0 150 -32.5 210t-116.5 60q-79 0 -113.5 -63.5t-34.5 -207.5q0 -151 31.5 -211t116.5 -60zM391 -18q-352 0 -352 363q0 179 94.5 271t257.5 92q176 0 264 -89.5t88 -272.5
q0 -181 -96.5 -272.5t-255.5 -91.5z" />
    <glyph glyph-name="omacron" unicode="&#x14d;" horiz-adv-x="543" 
d="M142 540q2 40 0 81q137 -4 274 0q-2 -40 0 -81q-137 4 -274 0zM30 228q0 127 64 190.5t178 63.5q115 0 178 -63t63 -191q0 -124 -63.5 -185.5t-177.5 -61.5q-115 0 -178.5 62t-63.5 185zM197 228q0 -101 18 -134t57 -33q38 0 56.5 33.5t18.5 133.5q0 102 -18.5 139
t-57.5 37q-38 0 -56 -36.5t-18 -139.5z" />
    <glyph glyph-name="Obreve" unicode="&#x14e;" horiz-adv-x="782" 
d="M391 74q83 0 116 63t33 209q0 150 -32.5 210t-116.5 60q-79 0 -113.5 -63.5t-34.5 -207.5q0 -151 31.5 -211t116.5 -60zM391 -18q-352 0 -352 363q0 179 94.5 271t257.5 92q176 0 264 -89.5t88 -272.5q0 -181 -96.5 -272.5t-255.5 -91.5zM405 746q-73 0 -109.5 41.5
t-27.5 103.5l23 1q5 -63 114 -63t114 63l23 -1q9 -63 -27 -104t-110 -41z" />
    <glyph glyph-name="obreve" unicode="&#x14f;" horiz-adv-x="543" 
d="M30 228q0 127 64 190.5t178 63.5q115 0 178 -63t63 -191q0 -124 -63.5 -185.5t-177.5 -61.5q-115 0 -178.5 62t-63.5 185zM197 228q0 -101 18 -134t57 -33q38 0 56.5 33.5t18.5 133.5q0 102 -18.5 139t-57.5 37q-38 0 -56 -36.5t-18 -139.5zM274 530q-73 0 -109.5 41.5
t-27.5 103.5l23 1q5 -63 114 -63t114 63l23 -1q9 -63 -27 -104t-110 -41z" />
    <glyph glyph-name="Ohungarumlaut" unicode="&#x150;" horiz-adv-x="782" 
d="M306 746l-10 8q48 104 92 148q15 14 31 18t27 -1.5t17.5 -15.5t3 -25.5t-17.5 -30.5q-54 -56 -143 -101zM470 746l-10 8q47 104 92 148q15 14 31 18t27 -1.5t17.5 -15.5t3 -25.5t-17.5 -30.5q-54 -56 -143 -101zM391 74q83 0 116 63t33 209q0 150 -32.5 210t-116.5 60
q-79 0 -113.5 -63.5t-34.5 -207.5q0 -151 31.5 -211t116.5 -60zM391 -18q-352 0 -352 363q0 179 94.5 271t257.5 92q176 0 264 -89.5t88 -272.5q0 -181 -96.5 -272.5t-255.5 -91.5z" />
    <glyph glyph-name="ohungarumlaut" unicode="&#x151;" horiz-adv-x="543" 
d="M180 525l-10 8q48 104 92 148q15 14 31 18t27 -1.5t17.5 -15.5t3 -25.5t-17.5 -30.5q-54 -56 -143 -101zM344 525l-10 8q47 104 92 148q15 14 31 18t27 -1.5t17.5 -15.5t3 -25.5t-17.5 -30.5q-54 -56 -143 -101zM30 228q0 127 64 190.5t178 63.5q115 0 178 -63t63 -191
q0 -124 -63.5 -185.5t-177.5 -61.5q-115 0 -178.5 62t-63.5 185zM197 228q0 -101 18 -134t57 -33q38 0 56.5 33.5t18.5 133.5q0 102 -18.5 139t-57.5 37q-38 0 -56 -36.5t-18 -139.5z" />
    <glyph glyph-name="OE" unicode="&#x152;" horiz-adv-x="1119" 
d="M391 74q102 0 115 63q7 34 6.5 209.5t-6.5 210.5q-11 58 -115 58q-80 0 -114 -61t-34 -209q0 -154 31.5 -212.5t116.5 -58.5zM721 318h-31q0 -141 2 -167q2 -33 17 -46.5t43 -13.5h104q74 0 105 38.5t31 132.5v10q12 -1 49.5 -1t49.5 1q-10 -106 -10 -276q-47 4 -205 4
q-249 1 -282 1q-2 0 -28.5 -0.5t-42.5 -0.5q-62 -20 -142 -20q-174 0 -258 88.5t-84 276.5q0 182 94.5 273.5t257.5 91.5q83 0 148 -21q15 0 39 -0.5t28 -0.5q12 0 91 0.5t161 0.5q182 0 229 6q-8 -100 -6 -259q-11 1 -46 1t-46 -1v7q0 91 -31 122.5t-101 31.5h-108
q-54 0 -57 -56q-2 -29 -2 -163h33q53 0 74.5 22t21.5 75v26h74q-5 -145 -5 -153q0 -71 5 -156q-37 2 -72 0v23q-1 56 -22 79.5t-78 23.5z" />
    <glyph glyph-name="oe" unicode="&#x153;" horiz-adv-x="829" 
d="M797 150q-9 -78 -63 -123.5t-152 -45.5q-95 0 -155 43q-61 -43 -155 -43q-116 0 -179 61.5t-63 187.5q0 124 63.5 188t178.5 64q99 0 160 -49q61 49 152 49q117 0 170.5 -74.5t45.5 -198.5h-287q2 -78 21 -109t64 -31q42 0 62.5 21.5t27.5 66.5q6 0 30.5 -2t47 -3.5
t31.5 -1.5zM197 229q0 -100 18 -134t57 -34q38 0 56.5 34t18.5 134q0 103 -18.5 139t-57.5 36q-38 0 -56 -36t-18 -139zM578 402q-33 0 -48.5 -33t-16.5 -119h101q13 0 17.5 5t4.5 22q0 125 -58 125z" />
    <glyph glyph-name="Racute" unicode="&#x154;" horiz-adv-x="797" 
d="M355 742l-8 12q69 94 128 131q26 14 44 9t27.5 -18t3 -32.5t-29.5 -33.5q-69 -44 -165 -68zM644 184q9 -67 21 -89t34 -22q24 0 30 35t-7 94q30 0 50 4q23 -99 -9.5 -164t-134.5 -65q-97 0 -133.5 45.5t-42.5 143.5q-4 80 -32 107.5t-86 27.5h-32q0 -120 3 -151
q3 -32 16.5 -46t40.5 -14h35v-92q-152 2 -184 2l-185 -2v93h36q30 0 44 13.5t16 45.5q2 38 2 197.5t-2 197.5q-2 30 -13 42t-38 12h-45v91q5 0 89.5 -1t106.5 -1q20 0 94 0.5t111 0.5q124 0 190.5 -47.5t66.5 -138.5q0 -72 -47 -119.5t-125 -55.5q63 -12 92.5 -48t37.5 -96z
M305 564q-3 -96 -3 -195h58q70 0 98 27t28 92q0 61 -24 88.5t-84 27.5h-34q-37 0 -39 -40z" />
    <glyph glyph-name="racute" unicode="&#x155;" horiz-adv-x="464" 
d="M208 521l-8 12q69 94 128 131q26 14 44 9t27.5 -18t3 -32.5t-29.5 -33.5q-69 -44 -165 -68zM337 429q-46 0 -71 -38t-25 -111v-152q0 -31 11 -41.5t43 -10.5h22v-79q-3 0 -29.5 0.5t-61.5 1.5t-59 1t-60 -1t-63 -1.5t-28 -0.5q1 9 1 37t-1 42h15q29 0 39 11t11 41
q1 32 1 111t-1 101q-1 28 -11.5 40t-39.5 12h-12v76q162 0 201 3l-8 -112q27 123 134 123q52 0 81 -28t29 -79q0 -43 -21.5 -66.5t-60.5 -23.5q-34 0 -53.5 17.5t-19.5 48.5q0 34 24 52t56 16q-18 10 -43 10z" />
    <glyph glyph-name="Rcommaaccent" unicode="&#x156;" horiz-adv-x="797" 
d="M329 -260q108 25 114 112q-15 -26 -48 -26q-47 0 -47 55q0 27 17 44t46 17q31 0 47 -21t16 -55q0 -56 -37.5 -94t-102.5 -52zM644 184q9 -67 21 -89t34 -22q24 0 30 35t-7 94q30 0 50 4q23 -99 -9.5 -164t-134.5 -65q-97 0 -133.5 45.5t-42.5 143.5q-4 80 -32 107.5
t-86 27.5h-32q0 -120 3 -151q3 -32 16.5 -46t40.5 -14h35v-92q-152 2 -184 2l-185 -2v93h36q30 0 44 13.5t16 45.5q2 38 2 197.5t-2 197.5q-2 30 -13 42t-38 12h-45v91q5 0 89.5 -1t106.5 -1q20 0 94 0.5t111 0.5q124 0 190.5 -47.5t66.5 -138.5q0 -72 -47 -119.5
t-125 -55.5q63 -12 92.5 -48t37.5 -96zM305 564q-3 -96 -3 -195h58q70 0 98 27t28 92q0 61 -24 88.5t-84 27.5h-34q-37 0 -39 -40z" />
    <glyph glyph-name="rcommaaccent" unicode="&#x157;" horiz-adv-x="464" 
d="M77 -260q108 25 114 112q-15 -26 -48 -26q-47 0 -47 55q0 27 17 44t46 17q31 0 47 -21t16 -55q0 -56 -37.5 -94t-102.5 -52zM337 429q-46 0 -71 -38t-25 -111v-152q0 -31 11 -41.5t43 -10.5h22v-79q-3 0 -29.5 0.5t-61.5 1.5t-59 1t-60 -1t-63 -1.5t-28 -0.5q1 9 1 37
t-1 42h15q29 0 39 11t11 41q1 32 1 111t-1 101q-1 28 -11.5 40t-39.5 12h-12v76q162 0 201 3l-8 -112q27 123 134 123q52 0 81 -28t29 -79q0 -43 -21.5 -66.5t-60.5 -23.5q-34 0 -53.5 17.5t-19.5 48.5q0 34 24 52t56 16q-18 10 -43 10z" />
    <glyph glyph-name="Rcaron" unicode="&#x158;" horiz-adv-x="797" 
d="M226 897l9 10q29 -9 71.5 -32.5t69.5 -46.5q26 21 67.5 45t69.5 34l9 -10q-30 -75 -115 -146h-67q-30 24 -62.5 64.5t-51.5 81.5zM644 184q9 -67 21 -89t34 -22q24 0 30 35t-7 94q30 0 50 4q23 -99 -9.5 -164t-134.5 -65q-97 0 -133.5 45.5t-42.5 143.5q-4 80 -32 107.5
t-86 27.5h-32q0 -120 3 -151q3 -32 16.5 -46t40.5 -14h35v-92q-152 2 -184 2l-185 -2v93h36q30 0 44 13.5t16 45.5q2 38 2 197.5t-2 197.5q-2 30 -13 42t-38 12h-45v91q5 0 89.5 -1t106.5 -1q20 0 94 0.5t111 0.5q124 0 190.5 -47.5t66.5 -138.5q0 -72 -47 -119.5
t-125 -55.5q63 -12 92.5 -48t37.5 -96zM305 564q-3 -96 -3 -195h58q70 0 98 27t28 92q0 61 -24 88.5t-84 27.5h-34q-37 0 -39 -40z" />
    <glyph glyph-name="rcaron" unicode="&#x159;" horiz-adv-x="464" 
d="M82 676l9 10q29 -9 71.5 -32.5t69.5 -46.5q26 21 67.5 45t69.5 34l9 -10q-30 -75 -115 -146h-67q-30 24 -62.5 64.5t-51.5 81.5zM337 429q-46 0 -71 -38t-25 -111v-152q0 -31 11 -41.5t43 -10.5h22v-79q-3 0 -29.5 0.5t-61.5 1.5t-59 1t-60 -1t-63 -1.5t-28 -0.5
q1 9 1 37t-1 42h15q29 0 39 11t11 41q1 32 1 111t-1 101q-1 28 -11.5 40t-39.5 12h-12v76q162 0 201 3l-8 -112q27 123 134 123q52 0 81 -28t29 -79q0 -43 -21.5 -66.5t-60.5 -23.5q-34 0 -53.5 17.5t-19.5 48.5q0 34 24 52t56 16q-18 10 -43 10z" />
    <glyph glyph-name="Sacute" unicode="&#x15a;" horiz-adv-x="681" 
d="M331 742l-8 12q69 94 128 131q26 14 44 9t27.5 -18t3 -32.5t-29.5 -33.5q-69 -44 -165 -68zM340 620q-72 0 -106.5 -22.5t-34.5 -58.5q0 -39 37.5 -56.5t135.5 -26.5q141 -13 212 -68t71 -167q0 -114 -74.5 -176.5t-209.5 -62.5q-107 0 -195 48q-52 29 -61 -36
q-7 1 -38 1t-38 -1q16 121 9 234q8 -1 37 -1t36 1q48 -159 248 -159q74 0 112.5 23.5t38.5 65.5q0 43 -44 63t-151 31q-265 23 -265 221q0 103 68 169t196 66q95 0 169 -38q23 -14 35.5 -11t16.5 10.5t8 26.5q6 -1 36 -1t36 1q-19 -97 -9 -214h-19.5h-33h-19.5
q-43 138 -204 138z" />
    <glyph glyph-name="sacute" unicode="&#x15b;" horiz-adv-x="482" 
d="M209 521l-8 12q69 94 128 131q26 14 44 9t27.5 -18t3 -32.5t-29.5 -33.5q-69 -44 -165 -68zM237 412q-43 0 -63 -13t-20 -33q0 -24 24.5 -36t100.5 -19q179 -18 179 -165q0 -77 -48.5 -121t-144.5 -44q-73 0 -138 42q-27 13 -36 6t-13 -33q-27 4 -54 0q12 91 8 166
q27 -4 54 0q50 -113 165 -113q83 0 83 50q0 21 -22.5 33.5t-88.5 18.5q-101 8 -147 53t-46 114q0 73 55.5 119t147.5 45q61 -1 107 -31q23 -12 30 -7t12 30q26 -4 52 0q-8 -69 -8 -146q-26 2 -55 0q-34 84 -134 84z" />
    <glyph glyph-name="Scircumflex" unicode="&#x15c;" horiz-adv-x="681" 
d="M479 745l-9 -11q-30 10 -72 33.5t-69 46.5q-26 -22 -67.5 -46t-69.5 -33l-9 10q30 72 115 146h67q30 -24 62.5 -64.5t51.5 -81.5zM340 620q-72 0 -106.5 -22.5t-34.5 -58.5q0 -39 37.5 -56.5t135.5 -26.5q141 -13 212 -68t71 -167q0 -114 -74.5 -176.5t-209.5 -62.5
q-107 0 -195 48q-52 29 -61 -36q-7 1 -38 1t-38 -1q16 121 9 234q8 -1 37 -1t36 1q48 -159 248 -159q74 0 112.5 23.5t38.5 65.5q0 43 -44 63t-151 31q-265 23 -265 221q0 103 68 169t196 66q95 0 169 -38q23 -14 35.5 -11t16.5 10.5t8 26.5q6 -1 36 -1t36 1
q-19 -97 -9 -214h-19.5h-33h-19.5q-43 138 -204 138z" />
    <glyph glyph-name="scircumflex" unicode="&#x15d;" horiz-adv-x="482" 
d="M390 529l-9 -11q-30 10 -72 33.5t-69 46.5q-26 -22 -67.5 -46t-69.5 -33l-9 10q30 72 115 146h67q30 -24 62.5 -64.5t51.5 -81.5zM237 412q-43 0 -63 -13t-20 -33q0 -24 24.5 -36t100.5 -19q179 -18 179 -165q0 -77 -48.5 -121t-144.5 -44q-73 0 -138 42q-27 13 -36 6
t-13 -33q-27 4 -54 0q12 91 8 166q27 -4 54 0q50 -113 165 -113q83 0 83 50q0 21 -22.5 33.5t-88.5 18.5q-101 8 -147 53t-46 114q0 73 55.5 119t147.5 45q61 -1 107 -31q23 -12 30 -7t12 30q26 -4 52 0q-8 -69 -8 -146q-26 2 -55 0q-34 84 -134 84z" />
    <glyph glyph-name="Scedilla" unicode="&#x15e;" horiz-adv-x="681" 
d="M292 -111l-12 23q54 25 66 71q-92 4 -170 47q-52 29 -61 -36q-7 1 -38 1t-38 -1q16 121 9 234q8 -1 37 -1t36 1q48 -159 248 -159q74 0 112.5 23.5t38.5 65.5q0 43 -44 63t-151 31q-265 23 -265 221q0 103 68 169t196 66q95 0 169 -38q23 -14 35.5 -11t16.5 10.5t8 26.5
q6 -1 36 -1t36 1q-19 -97 -9 -214h-19.5h-33h-19.5q-43 138 -204 138q-72 0 -106.5 -22.5t-34.5 -58.5q0 -39 37.5 -56.5t135.5 -26.5q141 -13 212 -68t71 -167q0 -113 -72 -175t-204 -64q-3 -29 -27 -53q45 4 78 -16.5t33 -62.5q0 -44 -32 -69.5t-88 -25.5q-77 0 -111 59
l23 20q29 -35 66 -35q55 0 55 52q0 29 -25 40t-59 -2z" />
    <glyph glyph-name="scedilla" unicode="&#x15f;" horiz-adv-x="482" 
d="M179 -111l-12 23q54 25 66 71q-57 8 -106 40q-27 13 -36 6t-13 -33q-27 4 -54 0q12 91 8 166q27 -4 54 0q50 -113 165 -113q83 0 83 50q0 22 -23 34t-88 18q-101 9 -147 54t-46 113q0 73 55.5 119t147.5 45q61 -1 107 -31q23 -12 30 -7t12 30q26 -4 52 0q-8 -69 -8 -146
q-26 2 -55 0q-34 84 -134 84q-43 0 -63 -13t-20 -33q0 -24 24.5 -36t100.5 -19q179 -18 179 -165q0 -77 -48 -120.5t-144 -44.5q-5 -30 -27 -52q45 4 78 -16.5t33 -62.5q0 -44 -32 -69.5t-88 -25.5q-77 0 -111 59l23 20q29 -35 66 -35q55 0 55 52q0 29 -24.5 40t-59.5 -2z
" />
    <glyph glyph-name="Scaron" unicode="&#x160;" horiz-adv-x="681" 
d="M193 897l9 10q29 -9 71.5 -32.5t69.5 -46.5q26 21 67.5 45t69.5 34l9 -10q-30 -75 -115 -146h-67q-30 24 -62.5 64.5t-51.5 81.5zM340 620q-72 0 -106.5 -22.5t-34.5 -58.5q0 -39 37.5 -56.5t135.5 -26.5q141 -13 212 -68t71 -167q0 -114 -74.5 -176.5t-209.5 -62.5
q-107 0 -195 48q-52 29 -61 -36q-7 1 -38 1t-38 -1q16 121 9 234q8 -1 37 -1t36 1q48 -159 248 -159q74 0 112.5 23.5t38.5 65.5q0 43 -44 63t-151 31q-265 23 -265 221q0 103 68 169t196 66q95 0 169 -38q23 -14 35.5 -11t16.5 10.5t8 26.5q6 -1 36 -1t36 1
q-19 -97 -9 -214h-19.5h-33h-19.5q-43 138 -204 138z" />
    <glyph glyph-name="scaron" unicode="&#x161;" horiz-adv-x="482" 
d="M92 676l9 10q29 -9 71.5 -32.5t69.5 -46.5q26 21 67.5 45t69.5 34l9 -10q-30 -75 -115 -146h-67q-30 24 -62.5 64.5t-51.5 81.5zM237 412q-43 0 -63 -13t-20 -33q0 -24 24.5 -36t100.5 -19q179 -18 179 -165q0 -77 -48.5 -121t-144.5 -44q-73 0 -138 42q-27 13 -36 6
t-13 -33q-27 4 -54 0q12 91 8 166q27 -4 54 0q50 -113 165 -113q83 0 83 50q0 21 -22.5 33.5t-88.5 18.5q-101 8 -147 53t-46 114q0 73 55.5 119t147.5 45q61 -1 107 -31q23 -12 30 -7t12 30q26 -4 52 0q-8 -69 -8 -146q-26 2 -55 0q-34 84 -134 84z" />
    <glyph glyph-name="Tcommaaccent" unicode="&#x162;" horiz-adv-x="730" 
d="M304 -110l-12 23q62 30 69 87l-189 -2v93h41q59 0 64 64q2 35 2 193t-2 247h-53q-46 0 -66.5 -24t-22.5 -70l-4 -88q-11 1 -49 1t-49 -1q6 133 -5 280q52 -4 182 -4h311q109 0 181 4q-11 -147 -5 -280q-11 1 -48.5 1t-48.5 -1l-4 88q-2 46 -22.5 70t-66.5 24h-54
q-2 -87 -1.5 -247.5t2.5 -192.5q3 -64 61 -64h43v-93q-96 2 -166 2q2 -40 -28 -70q45 4 78 -16.5t33 -62.5q0 -44 -32 -69.5t-88 -25.5q-77 0 -111 59l23 20q29 -35 66 -35q55 0 55 52q0 29 -25 40t-59 -2z" />
    <glyph glyph-name="tcommaaccent" unicode="&#x163;" horiz-adv-x="350" 
d="M127 -111l-12 23q55 27 66 74q-124 10 -122 154l3 253h-48v62q132 6 157 187q7 -1 33 -1t33 1q-8 -62 -10 -178l101 5q-1 -8 -1 -38t1 -39l-101 1v-224q0 -59 7.5 -79.5t25.5 -21.5q41 0 32 107h44q8 -88 -18.5 -136.5t-102.5 -52.5q-3 -32 -28 -57q45 4 78 -16.5
t33 -62.5q0 -44 -32 -69.5t-88 -25.5q-77 0 -111 59l23 20q29 -35 66 -35q55 0 55 52q0 29 -24.5 40t-59.5 -2z" />
    <glyph glyph-name="Tcaron" unicode="&#x164;" horiz-adv-x="730" 
d="M217 897l9 10q29 -9 71.5 -32.5t69.5 -46.5q26 21 67.5 45t69.5 34l9 -10q-30 -75 -115 -146h-67q-30 24 -62.5 64.5t-51.5 81.5zM507 595h-54q-2 -87 -1.5 -247.5t2.5 -192.5q3 -64 61 -64h43v-93q-123 2 -193 2l-193 -2v93h41q59 0 64 64q2 35 2 193t-2 247h-53
q-46 0 -66.5 -24t-22.5 -70l-4 -88q-11 1 -49 1t-49 -1q6 133 -5 280q52 -4 182 -4h311q109 0 181 4q-11 -147 -5 -280q-11 1 -48.5 1t-48.5 -1l-4 88q-2 46 -22.5 70t-66.5 24z" />
    <glyph glyph-name="tcaron" unicode="&#x165;" horiz-adv-x="467" 
d="M294 517q108 25 114 112q-15 -26 -48 -26q-47 0 -47 55q0 27 17 44t46 17q31 0 47 -21t16 -55q0 -56 -37.5 -94t-102.5 -52zM292 175h44q9 -92 -21 -141t-115 -49q-143 0 -141 155l3 253h-48v62q132 6 157 187q7 -1 33 -1t33 1q-8 -62 -10 -178l101 5q-1 -8 -1 -38t1 -39
l-101 1v-224q0 -59 7.5 -79.5t25.5 -21.5q41 0 32 107z" />
    <glyph glyph-name="Tbar" unicode="&#x166;" horiz-adv-x="730" 
d="M507 595h-54q-2 -132 -2 -277l114 5v-58q-45 0 -113 4q0 -84 2 -114q3 -64 61 -64h43v-93q-123 2 -193 2l-193 -2v93h41q59 0 64 64q0 7 0.5 22.5t1 43.5t0.5 48q-68 -4 -114 -4v58q31 0 114 -5q0 145 -2 277h-53q-46 0 -66.5 -24t-22.5 -70l-4 -88q-11 1 -49 1t-49 -1
q6 133 -5 280q52 -4 182 -4h311q109 0 181 4q-11 -147 -5 -280q-11 1 -48.5 1t-48.5 -1l-4 88q-2 46 -22.5 70t-66.5 24z" />
    <glyph glyph-name="tbar" unicode="&#x167;" horiz-adv-x="350" 
d="M292 175h44q9 -92 -21 -141t-115 -49q-143 0 -141 155l1 133q-42 -2 -46 -2v58l47 -3l1 67h-48v62q132 6 157 187q7 -1 33 -1t33 1q-8 -62 -10 -178l101 5q-1 -8 -1 -38t1 -39l-101 1v-70l96 6v-58l-96 5v-107q0 -59 7.5 -79.5t25.5 -21.5q41 0 32 107z" />
    <glyph glyph-name="Utilde" unicode="&#x168;" horiz-adv-x="825" 
d="M112 268q0 8 0.5 68t1 105t-0.5 95q-2 34 -14.5 48.5t-40.5 14.5h-30v91q118 -3 184 -3q39 0 112.5 1.5t75.5 1.5v-91h-38q-30 0 -45 -14.5t-16 -48.5q-1 -52 -1 -146.5t1 -119.5q1 -99 36 -141t109 -42t109 41t36 142q3 193 0 266q-1 63 -58 63h-37v91q94 -3 149 -3
q32 0 90.5 1.5t61.5 1.5v-91h-31q-54 0 -55 -63q-1 -43 -1 -90t0.5 -99t0.5 -77q0 -293 -289 -293q-160 0 -235 69.5t-75 221.5zM550 877l25 7q24 -67 -6 -105t-85 -38q-62 0 -99 59q-16 23 -25.5 31.5t-24.5 8.5q-20 0 -28 -18.5t3 -62.5l-26 -8q-23 69 6.5 106.5
t85.5 37.5q58 0 98 -59q27 -40 50 -40q21 0 28.5 19t-2.5 62z" />
    <glyph glyph-name="utilde" unicode="&#x169;" horiz-adv-x="617" 
d="M546 471q-3 -54 -3 -152v-180q1 -32 11 -47.5t34 -15.5h14v-76q-180 0 -219 -3v96q-35 -112 -152 -112q-74 0 -117 45.5t-41 141.5q1 23 1 82t-1 77q-1 35 -10.5 50t-34.5 15h-14v77q88 -1 109 -1q80 0 113 3q-3 -56 -3 -155v-134q0 -63 20 -88t48 -25q45 0 63.5 44.5
t18.5 144.5v77q0 32 -14 44.5t-51 12.5h-10q1 9 1 39t-1 38q102 -1 125 -1q95 0 113 3zM423 656l25 7q24 -67 -6 -105t-85 -38q-62 0 -99 59q-16 23 -25.5 31.5t-24.5 8.5q-20 0 -28 -18.5t3 -62.5l-26 -8q-23 69 6.5 106.5t85.5 37.5q58 0 98 -59q27 -40 50 -40
q21 0 28.5 18.5t-2.5 62.5z" />
    <glyph glyph-name="Umacron" unicode="&#x16a;" horiz-adv-x="825" 
d="M112 268q0 8 0.5 68t1 105t-0.5 95q-2 34 -14.5 48.5t-40.5 14.5h-30v91q118 -3 184 -3q39 0 112.5 1.5t75.5 1.5v-91h-38q-30 0 -45 -14.5t-16 -48.5q-1 -52 -1 -146.5t1 -119.5q1 -99 36 -141t109 -42t109 41t36 142q3 193 0 266q-1 63 -58 63h-37v91q94 -3 149 -3
q32 0 90.5 1.5t61.5 1.5v-91h-31q-54 0 -55 -63q-1 -43 -1 -90t0.5 -99t0.5 -77q0 -293 -289 -293q-160 0 -235 69.5t-75 221.5zM318 759q2 40 0 81q137 -4 274 0q-2 -41 0 -81q-137 4 -274 0z" />
    <glyph glyph-name="umacron" unicode="&#x16b;" horiz-adv-x="617" 
d="M546 471q-3 -54 -3 -152v-180q1 -32 11 -47.5t34 -15.5h14v-76q-180 0 -219 -3v96q-35 -112 -152 -112q-74 0 -117 45.5t-41 141.5q1 23 1 82t-1 77q-1 35 -10.5 50t-34.5 15h-14v77q88 -1 109 -1q80 0 113 3q-3 -56 -3 -155v-134q0 -63 20 -88t48 -25q45 0 63.5 44.5
t18.5 144.5v77q0 32 -14 44.5t-51 12.5h-10q1 9 1 39t-1 38q102 -1 125 -1q95 0 113 3zM162 540q2 40 0 81q137 -4 274 0q-2 -40 0 -81q-137 4 -274 0z" />
    <glyph glyph-name="Ubreve" unicode="&#x16c;" horiz-adv-x="825" 
d="M112 268q0 8 0.5 68t1 105t-0.5 95q-2 34 -14.5 48.5t-40.5 14.5h-30v91q118 -3 184 -3q39 0 112.5 1.5t75.5 1.5v-91h-38q-30 0 -45 -14.5t-16 -48.5q-1 -52 -1 -146.5t1 -119.5q1 -99 36 -141t109 -42t109 41t36 142q3 193 0 266q-1 63 -58 63h-37v91q94 -3 149 -3
q32 0 90.5 1.5t61.5 1.5v-91h-31q-54 0 -55 -63q-1 -43 -1 -90t0.5 -99t0.5 -77q0 -293 -289 -293q-160 0 -235 69.5t-75 221.5zM451 746q-73 0 -109.5 41.5t-27.5 103.5l23 1q5 -63 114 -63t114 63l23 -1q9 -63 -27 -104t-110 -41z" />
    <glyph glyph-name="ubreve" unicode="&#x16d;" horiz-adv-x="617" 
d="M546 471q-3 -54 -3 -152v-180q1 -32 11 -47.5t34 -15.5h14v-76q-180 0 -219 -3v96q-35 -112 -152 -112q-74 0 -117 45.5t-41 141.5q1 23 1 82t-1 77q-1 35 -10.5 50t-34.5 15h-14v77q88 -1 109 -1q80 0 113 3q-3 -56 -3 -155v-134q0 -63 20 -88t48 -25q45 0 63.5 44.5
t18.5 144.5v77q0 32 -14 44.5t-51 12.5h-10q1 9 1 39t-1 38q102 -1 125 -1q95 0 113 3zM291 530q-73 0 -109.5 41.5t-27.5 103.5l23 1q5 -63 114 -63t114 63l23 -1q9 -63 -27 -104t-110 -41z" />
    <glyph glyph-name="Uring" unicode="&#x16e;" horiz-adv-x="825" 
d="M496 835q0 23 -12.5 35.5t-33.5 12.5q-47 0 -47 -48q0 -51 47 -51q21 0 33.5 13.5t12.5 37.5zM539 835q0 -41 -24 -65.5t-65 -24.5t-65.5 24.5t-24.5 65.5t24 64.5t65 23.5t65.5 -24t24.5 -64zM112 268q0 8 0.5 68t1 105t-0.5 95q-2 34 -14.5 48.5t-40.5 14.5h-30v91
q118 -3 184 -3q39 0 112.5 1.5t75.5 1.5v-91h-38q-30 0 -45 -14.5t-16 -48.5q-1 -52 -1 -146.5t1 -119.5q1 -99 36 -141t109 -42t109 41t36 142q3 193 0 266q-1 63 -58 63h-37v91q94 -3 149 -3q32 0 90.5 1.5t61.5 1.5v-91h-31q-54 0 -55 -63q-1 -43 -1 -90t0.5 -99t0.5 -77
q0 -293 -289 -293q-160 0 -235 69.5t-75 221.5z" />
    <glyph glyph-name="uring" unicode="&#x16f;" horiz-adv-x="617" 
d="M546 471q-3 -54 -3 -152v-180q1 -32 11 -47.5t34 -15.5h14v-76q-180 0 -219 -3v96q-35 -112 -152 -112q-74 0 -117 45.5t-41 141.5q1 23 1 82t-1 77q-1 35 -10.5 50t-34.5 15h-14v77q88 -1 109 -1q80 0 113 3q-3 -56 -3 -155v-134q0 -63 20 -88t48 -25q45 0 63.5 44.5
t18.5 144.5v77q0 32 -14 44.5t-51 12.5h-10q1 9 1 39t-1 38q102 -1 125 -1q95 0 113 3zM362 617q0 -41 -24 -65.5t-65 -24.5t-65.5 24.5t-24.5 65.5t24 64.5t65 23.5t65.5 -24t24.5 -64zM319 617q0 23 -12.5 35.5t-33.5 12.5q-47 0 -47 -48q0 -51 47 -51q21 0 33.5 13.5
t12.5 37.5z" />
    <glyph glyph-name="Uhungarumlaut" unicode="&#x170;" horiz-adv-x="825" 
d="M112 268q0 8 0.5 68t1 105t-0.5 95q-2 34 -14.5 48.5t-40.5 14.5h-30v91q118 -3 184 -3q39 0 112.5 1.5t75.5 1.5v-91h-38q-30 0 -45 -14.5t-16 -48.5q-1 -52 -1 -146.5t1 -119.5q1 -99 36 -141t109 -42t109 41t36 142q3 193 0 266q-1 63 -58 63h-37v91q94 -3 149 -3
q32 0 90.5 1.5t61.5 1.5v-91h-31q-54 0 -55 -63q-1 -43 -1 -90t0.5 -99t0.5 -77q0 -293 -289 -293q-160 0 -235 69.5t-75 221.5zM363 746l-10 8q48 104 92 148q15 14 31 18t27 -1.5t17.5 -15.5t3 -25.5t-17.5 -30.5q-54 -56 -143 -101zM527 746l-10 8q47 104 92 148
q15 14 31 18t27 -1.5t17.5 -15.5t3 -25.5t-17.5 -30.5q-54 -56 -143 -101z" />
    <glyph glyph-name="uhungarumlaut" unicode="&#x171;" horiz-adv-x="617" 
d="M546 471q-3 -54 -3 -152v-180q1 -32 11 -47.5t34 -15.5h14v-76q-180 0 -219 -3v96q-35 -112 -152 -112q-74 0 -117 45.5t-41 141.5q1 23 1 82t-1 77q-1 35 -10.5 50t-34.5 15h-14v77q88 -1 109 -1q80 0 113 3q-3 -56 -3 -155v-134q0 -63 20 -88t48 -25q45 0 63.5 44.5
t18.5 144.5v77q0 32 -14 44.5t-51 12.5h-10q1 9 1 39t-1 38q102 -1 125 -1q95 0 113 3zM358 525l-10 8q47 104 92 148q15 14 31 18t27 -1.5t17.5 -15.5t3 -25.5t-17.5 -30.5q-54 -56 -143 -101zM194 525l-10 8q48 104 92 148q15 14 31 18t27 -1.5t17.5 -15.5t3 -25.5
t-17.5 -30.5q-54 -56 -143 -101z" />
    <glyph glyph-name="Uogonek" unicode="&#x172;" horiz-adv-x="825" 
d="M112 268q0 8 0.5 68t1 105t-0.5 95q-2 34 -14.5 48.5t-40.5 14.5h-30v91q118 -3 184 -3q39 0 112.5 1.5t75.5 1.5v-91h-38q-30 0 -45 -14.5t-16 -48.5q-1 -52 -1 -146.5t1 -119.5q1 -99 36 -141t109 -42t109 41t36 142q3 193 0 266q-1 63 -58 63h-37v91q94 -3 149 -3
q32 0 90.5 1.5t61.5 1.5v-91h-31q-54 0 -55 -63q-1 -43 -1 -90t0.5 -99t0.5 -77q0 -285 -275 -293q-22 -21 -22 -54q0 -26 15 -39t39 -13q56 0 65 63l31 -5q2 -135 -120 -135q-51 0 -81 24.5t-30 67.5q1 57 48 92q-139 8 -204 77.5t-65 212.5z" />
    <glyph glyph-name="uogonek" unicode="&#x173;" horiz-adv-x="617" 
d="M546 471q-3 -54 -3 -152v-180q1 -32 11 -47.5t34 -15.5h14v-76h-67q-56 -25 -56 -77q0 -26 15 -39t39 -13q56 0 65 63l31 -5q2 -135 -120 -135q-51 0 -81 24.5t-30 67.5q1 76 85 114q-93 -2 -100 -3v96q-35 -112 -152 -112q-74 0 -117 45.5t-41 141.5q1 23 1 82t-1 77
q-1 35 -10.5 50t-34.5 15h-14v77q88 -1 109 -1q80 0 113 3q-3 -56 -3 -155v-134q0 -63 20 -88t48 -25q45 0 63.5 44.5t18.5 144.5v77q0 32 -14 44.5t-51 12.5h-10q1 9 1 39t-1 38q102 -1 125 -1q95 0 113 3z" />
    <glyph glyph-name="Wcircumflex" unicode="&#x174;" horiz-adv-x="1138" 
d="M769 750l-9 -11q-30 10 -72 33.5t-69 46.5q-26 -22 -67.5 -46t-69.5 -33l-9 10q30 72 115 146h67q30 -24 62.5 -64.5t51.5 -81.5zM849 -6q-23 1 -91 1t-91 -1q-53 208 -109 399q-56 -172 -115 -399q-20 1 -83.5 1t-83.5 -1q-25 101 -74 280.5t-73 257.5q-11 36 -28 51.5
t-52 15.5h-31v91q121 -3 190 -3q41 0 116 1l74 2q-1 -11 -1 -46t1 -45h-29q-31 0 -40 -15.5t-1 -51.5q37 -161 98 -362q78 257 99 362q7 37 -1.5 52t-41.5 15h-17q1 10 1 45t-1 46q101 -3 159 -3q34 0 95 1.5t63 1.5q-3 -46 0 -91h-26q-28 0 -36.5 -15t-0.5 -49
q38 -164 98 -366q22 72 52.5 189.5t39.5 167.5q9 35 0 54t-44 19h-19q1 10 1 45t-1 46q90 -3 139 -3q28 0 80 1.5t55 1.5q-1 -10 -1 -45t1 -46h-32q-36 0 -56 -15.5t-33 -58.5q-18 -59 -77 -268.5t-73 -262.5z" />
    <glyph glyph-name="wcircumflex" unicode="&#x175;" horiz-adv-x="856" 
d="M610 529l-9 -11q-30 10 -72 33.5t-69 46.5q-26 -22 -67.5 -46t-69.5 -33l-9 10q30 72 115 146h67q30 -24 62.5 -64.5t51.5 -81.5zM490 -13q-42 159 -83 288q-47 -137 -89 -288q-16 1 -59 1t-59 -1q-62 203 -104 330q-15 46 -28 60.5t-44 14.5h-9v77q92 -3 143 -3l143 3
q-2 -39 0 -77h-9q-44 0 -32 -55q17 -81 60 -217q48 143 63 211q6 30 -1.5 45.5t-34.5 15.5h-12q1 9 1 39t-1 38q79 -3 127 -3l129 3q-1 -8 -1 -38t1 -39h-10q-45 0 -32 -54q25 -110 60 -219q38 121 59 211q15 62 -30 62h-14q1 9 1 39t-1 38q72 -3 109 -3l109 3q-1 -8 -1 -38
t1 -39h-18q-35 0 -53 -16.5t-36 -66.5q-71 -201 -107 -322q-19 1 -69 1t-69 -1z" />
    <glyph glyph-name="Ycircumflex" unicode="&#x176;" horiz-adv-x="838" 
d="M660 525q-29 -50 -151 -287v-92q0 -31 11.5 -43t47.5 -12h49q-2 -46 0 -93q-133 2 -208 2l-209 -2q1 11 1 46.5t-1 46.5h51q36 0 45.5 12t9.5 43v91q-107 214 -156 299q-19 33 -45.5 48t-70.5 15h-16v91q136 -3 213 -3l212 3q-2 -46 0 -91h-34q-73 0 -36 -84
q38 -89 100 -188q56 106 92 188q38 84 -31 84h-27v91q101 -3 158 -3l156 3q-2 -44 0 -91h-21q-61 0 -88.5 -16.5t-51.5 -57.5zM609 750l-9 -11q-30 10 -72 33.5t-69 46.5q-26 -22 -67.5 -46t-69.5 -33l-9 10q30 72 115 146h67q30 -24 62.5 -64.5t51.5 -81.5z" />
    <glyph glyph-name="ycircumflex" unicode="&#x177;" horiz-adv-x="583" 
d="M393 339q14 53 -32 53h-17q1 9 1 39t-1 38q66 -3 116 -3l108 3v-77h-18q-33 0 -49.5 -13t-28.5 -41q-56 -135 -117 -321q-38 -115 -87.5 -161.5t-126.5 -46.5q-57 0 -87 26t-30 69q0 39 23.5 62t59.5 23q75 0 75 -68q0 -32 -27 -52.5t-66 -14.5q20 -9 44 -9q59 0 92.5 41
t65.5 144q-63 2 -96 0q-40 139 -107 308q-12 30 -25 42t-40 12h-14q1 9 1 39t-1 38q86 -3 150 -3l150 3q-2 -39 0 -77h-15q-47 0 -33 -53q28 -100 65 -203q58 169 67 203zM463 529l-9 -11q-30 10 -72 33.5t-69 46.5q-26 -22 -67.5 -46t-69.5 -33l-9 10q30 72 115 146h67
q30 -24 62.5 -64.5t51.5 -81.5z" />
    <glyph glyph-name="Ydieresis" unicode="&#x178;" horiz-adv-x="838" 
d="M660 525q-29 -50 -151 -287v-92q0 -31 11.5 -43t47.5 -12h49q-2 -46 0 -93q-133 2 -208 2l-209 -2q1 11 1 46.5t-1 46.5h51q36 0 45.5 12t9.5 43v91q-107 214 -156 299q-19 33 -45.5 48t-70.5 15h-16v91q136 -3 213 -3l212 3q-2 -46 0 -91h-34q-73 0 -36 -84
q38 -89 100 -188q56 106 92 188q38 84 -31 84h-27v91q101 -3 158 -3l156 3q-2 -44 0 -91h-21q-61 0 -88.5 -16.5t-51.5 -57.5zM449 812q0 -27 -16 -42.5t-43 -15.5q-25 0 -41.5 16t-16.5 42t16.5 42t41.5 16q26 0 42.5 -16t16.5 -42zM621 812q0 -27 -16.5 -42.5t-42.5 -15.5
q-25 0 -41.5 16t-16.5 42t16.5 42t41.5 16q26 0 42.5 -16t16.5 -42z" />
    <glyph glyph-name="Zacute" unicode="&#x179;" horiz-adv-x="674" 
d="M330 742l-8 12q69 94 128 131q26 14 44 9t27.5 -18t3 -32.5t-29.5 -33.5q-69 -44 -165 -68zM28 0v86q99 126 386 513h-108q-73 0 -107.5 -14t-49.5 -52.5t-15 -119.5q-9 1 -43 1t-44 -1q3 44 3.5 140t-1.5 139q84 -3 214 -3h375v-86q-108 -137 -383 -512h143
q88 0 124.5 41t36.5 154q10 -1 44 -1t43 1q-7 -156 -1 -289q-126 3 -197 3h-420z" />
    <glyph glyph-name="zacute" unicode="&#x17a;" horiz-adv-x="482" 
d="M220 521l-8 12q69 94 128 131q26 14 44 9t27.5 -18t3 -32.5t-29.5 -33.5q-69 -44 -165 -68zM290 0h-272q1 9 1 34.5t-1 34.5q126 167 243 341h-55q-59 0 -86.5 -28t-32.5 -103h-57q9 93 2 194q68 -4 174 -4h247q-1 -9 -0.5 -34t1.5 -34q-118 -157 -246 -343h82
q49 0 81.5 33t36.5 106q6 -1 28.5 -1t28.5 1q-13 -107 -4 -200q-85 3 -171 3z" />
    <glyph glyph-name="Zdotaccent" unicode="&#x17b;" horiz-adv-x="674" 
d="M28 0v86q99 126 386 513h-108q-73 0 -107.5 -14t-49.5 -52.5t-15 -119.5q-9 1 -43 1t-44 -1q3 44 3.5 140t-1.5 139q84 -3 214 -3h375v-86q-108 -137 -383 -512h143q88 0 124.5 41t36.5 154q10 -1 44 -1t43 1q-7 -156 -1 -289q-126 3 -197 3h-420zM421 827
q0 -29 -17.5 -47t-46.5 -18q-28 0 -45.5 18t-17.5 47q0 28 17.5 45.5t45.5 17.5q29 0 46.5 -17.5t17.5 -45.5z" />
    <glyph glyph-name="zdotaccent" unicode="&#x17c;" horiz-adv-x="482" 
d="M290 0h-272q1 9 1 34.5t-1 34.5q126 167 243 341h-55q-59 0 -86.5 -28t-32.5 -103h-57q9 93 2 194q68 -4 174 -4h247q-1 -9 -0.5 -34t1.5 -34q-118 -157 -246 -343h82q49 0 81.5 33t36.5 106q6 -1 28.5 -1t28.5 1q-13 -107 -4 -200q-85 3 -171 3zM311 606
q0 -29 -17.5 -47t-46.5 -18q-28 0 -45.5 18t-17.5 47q0 28 17.5 45.5t45.5 17.5q29 0 46.5 -17.5t17.5 -45.5z" />
    <glyph glyph-name="Zcaron" unicode="&#x17d;" horiz-adv-x="674" 
d="M208 897l9 10q29 -9 71.5 -32.5t69.5 -46.5q26 21 67.5 45t69.5 34l9 -10q-30 -75 -115 -146h-67q-30 24 -62.5 64.5t-51.5 81.5zM28 0v86q99 126 386 513h-108q-73 0 -107.5 -14t-49.5 -52.5t-15 -119.5q-9 1 -43 1t-44 -1q3 44 3.5 140t-1.5 139q84 -3 214 -3h375v-86
q-108 -137 -383 -512h143q88 0 124.5 41t36.5 154q10 -1 44 -1t43 1q-7 -156 -1 -289q-126 3 -197 3h-420z" />
    <glyph glyph-name="zcaron" unicode="&#x17e;" horiz-adv-x="482" 
d="M109 676l9 10q29 -9 71.5 -32.5t69.5 -46.5q26 21 67.5 45t69.5 34l9 -10q-30 -75 -115 -146h-67q-30 24 -62.5 64.5t-51.5 81.5zM290 0h-272q1 9 1 34.5t-1 34.5q126 167 243 341h-55q-59 0 -86.5 -28t-32.5 -103h-57q9 93 2 194q68 -4 174 -4h247q-1 -9 -0.5 -34
t1.5 -34q-118 -157 -246 -343h82q49 0 81.5 33t36.5 106q6 -1 28.5 -1t28.5 1q-13 -107 -4 -200q-85 3 -171 3z" />
    <glyph glyph-name="longs" unicode="&#x17f;" horiz-adv-x="346" 
d="M305 76v-21.5v-36v-21.5q-3 0 -28.5 0.5t-59.5 1.5t-57 1t-57.5 -1t-60.5 -1.5t-27 -0.5q1 9 1 39.5t-1 39.5h24q38 0 41 45q6 113 0 354q-4 112 43 167t147 55q71 0 111 -31t40 -81q0 -70 -70 -70q-31 0 -49 16.5t-18 44.5q0 29 18.5 45t50.5 16l14 -1q-19 14 -50 14
q-51 0 -71 -33.5t-11 -115.5l5 -44q-2 -49 -2 -172.5t2 -163.5q2 -45 40 -45h25z" />
    <glyph glyph-name="florin" unicode="&#x192;" horiz-adv-x="559" 
d="M110 349v60l84 -3q-3 85 14 147t49.5 94t69 46.5t80.5 14.5q72 0 110 -31t38 -84q0 -38 -19.5 -58.5t-54.5 -20.5q-30 0 -48 15t-18 41q0 32 23 47.5t59 10.5q-19 24 -55 24q-23 0 -37.5 -4t-30 -18t-21 -40.5t-9.5 -72t5 -111.5l105 3v-60l-99 2q33 -373 -212 -373
q-66 0 -101 29t-35 76q0 34 19 54t54 20q29 0 45.5 -14t16.5 -39t-16.5 -39.5t-44.5 -14.5l-20 2q20 -25 63 -25q63 0 79.5 63t-5.5 261z" />
    <glyph glyph-name="uni01B5" unicode="&#x1b5;" horiz-adv-x="674" 
d="M28 0v86q86 111 152 199q-52 -4 -89 -4v55q14 0 124 -6l199 269h-108q-73 0 -107.5 -14t-49.5 -52.5t-15 -119.5q-9 1 -43 1t-44 -1q3 44 3.5 140t-1.5 139q84 -3 214 -3h375v-86q-47 -60 -205 -271l84 4v-55q-7 0 -117 7q-40 -54 -145 -197h143q88 0 124.5 41t36.5 154
q10 -1 44 -1t43 1q-7 -156 -1 -289q-126 3 -197 3h-420z" />
    <glyph glyph-name="uni01B6" unicode="&#x1b6;" horiz-adv-x="482" 
d="M290 0h-272q1 9 1 34.5t-1 34.5l85 116q-40 -10 -64 -12l-5 40q4 0 18.5 2t37 5t42.5 5q71 100 129 185h-55q-59 0 -86.5 -28t-32.5 -103h-57q9 93 2 194q68 -4 174 -4h247q-1 -9 -0.5 -34t1.5 -34q-30 -40 -100 -135q60 13 72 15l5 -40q-41 -7 -104 -14
q-115 -164 -119 -169h82q49 0 81.5 33t36.5 106q6 -1 28.5 -1t28.5 1q-13 -107 -4 -200q-85 3 -171 3z" />
    <glyph glyph-name="uni01FA" unicode="&#x1fa;" horiz-adv-x="884" 
d="M524 187l-8 24q-103 3 -243 1l-9 -27q-16 -47 -5.5 -70.5t50.5 -23.5h38q0 -7 -0.5 -46.5t-0.5 -46.5q-102 2 -159 2l-159 -2v93h26q42 0 65 19.5t42 68.5q50 126 194 517q57 -3 89 -3l89 3q28 -80 99 -261.5t102 -256.5q21 -50 41 -68.5t50 -18.5h31v-93q-131 2 -205 2
l-206 -2v93h40q36 0 45 24.5t-6 71.5zM495 271q-54 154 -102 276q-56 -148 -100 -276q104 -2 202 0zM380 947l-8 12q69 94 128 131q26 14 44 9t27.5 -18t3 -32.5t-29.5 -33.5q-69 -44 -165 -68zM488 835q0 23 -12.5 35.5t-33.5 12.5q-47 0 -47 -48q0 -51 47 -51
q21 0 33.5 13.5t12.5 37.5zM531 835q0 -41 -24 -65.5t-65 -24.5t-65.5 24.5t-24.5 65.5t24 64.5t65 23.5t65.5 -24t24.5 -64z" />
    <glyph glyph-name="aringacute" unicode="&#x1fb;" horiz-adv-x="552" 
d="M451 284v-151q0 -37 4.5 -49.5t15.5 -12.5q30 0 22 111l40 2q6 -98 -19.5 -148.5t-98.5 -50.5q-95 0 -116 76q-47 -76 -144 -76q-63 0 -98.5 30.5t-35.5 87.5q0 146 271 160v39q0 62 -21 90t-82 27q-19 0 -35 -3q45 -14 45 -62q0 -33 -21 -51.5t-59 -18.5q-36 0 -56.5 19
t-20.5 55q0 58 60 91t145 33q113 0 158.5 -49t45.5 -149zM349 617q0 -41 -24 -65.5t-65 -24.5t-65.5 24.5t-24.5 65.5t24 64.5t65 23.5t65.5 -24t24.5 -64zM207 729l-8 12q69 94 128 131q26 14 44 9t27.5 -18t3 -32.5t-29.5 -33.5q-69 -44 -165 -68zM292 110v119
q-106 -10 -106 -94q0 -63 48 -63q43 0 58 38zM306 617q0 23 -12.5 35.5t-33.5 12.5q-47 0 -47 -48q0 -51 47 -51q21 0 33.5 13.5t12.5 37.5z" />
    <glyph glyph-name="AEacute" unicode="&#x1fc;" horiz-adv-x="1090" 
d="M640 742l-8 12q69 94 128 131q26 14 44 9t27.5 -18t3 -32.5t-29.5 -33.5q-69 -44 -165 -68zM335 274q102 0 149 1q2 185 -3 258q-69 -112 -146 -259zM693 318h-31q0 -141 2 -167q2 -33 16.5 -46.5t42.5 -13.5h105q74 0 105 38.5t31 132.5v10q12 -1 49 -1t49 1
q-10 -106 -10 -277q-47 4 -204 4q-250 1 -282 1q-140 0 -184 -2q1 11 1 46.5t-1 46.5h39q32 0 45 15.5t16 48.5q2 22 2 62q-92 2 -179 0l-15 -32q-45 -94 29 -94h29q-1 -14 -1 -93q-103 2 -160 2l-159 -2v93h26q42 0 68.5 19.5t57.5 68.5q130 205 214 356q17 29 7.5 48.5
t-42.5 19.5h-20v90q67 -5 238 -5q12 0 91.5 0.5t161.5 0.5q181 0 228 6q-8 -116 -6 -259q-11 1 -45.5 1t-45.5 -1v7q0 91 -31.5 122.5t-101.5 31.5h-107q-54 0 -57 -56q-2 -29 -2 -163h33q53 0 74.5 22t21.5 75v26h74q-5 -145 -5 -153q0 -71 5 -156q-37 2 -72 0v23
q-1 56 -22 79.5t-78 23.5z" />
    <glyph glyph-name="aeacute" unicode="&#x1fd;" horiz-adv-x="775" 
d="M344 521l-8 12q69 94 128 131q26 14 44 9t27.5 -18t3 -32.5t-29.5 -33.5q-69 -44 -165 -68zM743 150q-9 -78 -62.5 -122.5t-152.5 -44.5q-152 0 -207 93q-42 -91 -156 -91q-144 0 -144 123q0 140 270 155v45q0 111 -83 111q-25 0 -52 -5q42 -14 42 -60q0 -33 -21 -51.5
t-57 -18.5t-56.5 19.5t-20.5 54.5q0 59 59.5 91.5t144.5 32.5q95 0 144 -41q55 41 139 41q117 0 170.5 -74.5t45.5 -198.5h-287q2 -78 21 -109t64 -31q42 0 62.5 21.5t27.5 66.5q6 0 30.5 -2t47 -3.5t31.5 -1.5zM524 402q-33 0 -48.5 -33t-16.5 -119h101q13 0 17.5 5t4.5 22
q0 125 -58 125zM297 137q-6 30 -6 65v27q-52 -6 -78.5 -27.5t-26.5 -66.5q0 -61 47 -61q53 0 64 63z" />
    <glyph glyph-name="Oslashacute" unicode="&#x1fe;" horiz-adv-x="782" 
d="M353 742l-8 12q69 94 128 131q26 14 44 9t27.5 -18t3 -32.5t-29.5 -33.5q-69 -44 -165 -68zM391 -18q-136 0 -220 54l-78 -78l-24 19l63 90q-93 91 -93 278q0 179 94.5 271t257.5 92q140 0 223 -56l83 84l22 -17l-66 -98q90 -89 90 -275q0 -181 -96.5 -272.5
t-255.5 -91.5zM243 345q0 -91 9 -139l135 156l131 169q-31 85 -127 85q-79 0 -113.5 -63.5t-34.5 -207.5zM391 74q83 0 116 63t33 209q0 79 -9 133l-125 -142l-141 -182q30 -81 126 -81z" />
    <glyph glyph-name="oslashacute" unicode="&#x1ff;" horiz-adv-x="543" 
d="M234 521l-8 12q69 94 128 131q26 14 44 9t27.5 -18t3 -32.5t-29.5 -33.5q-69 -44 -165 -68zM30 228q0 127 64 190.5t178 63.5q90 0 148 -39l59 64l16 -13l-47 -73q65 -65 65 -193q0 -124 -63.5 -185.5t-177.5 -61.5q-89 0 -146 36l-58 -60l-17 14l46 68q-67 64 -67 189z
M197 228q0 -49 2 -68l68 80l71 96q-8 38 -25 53t-42 15q-38 0 -56 -36.5t-18 -139.5zM347 228q0 40 -3 68l-63 -72l-76 -102q8 -36 24 -48.5t43 -12.5q38 0 56.5 33.5t18.5 133.5z" />
    <glyph glyph-name="Scommaaccent" unicode="&#x218;" horiz-adv-x="681" 
d="M276 -260q108 25 114 112q-15 -26 -48 -26q-47 0 -47 55q0 27 17 44t46 17q31 0 47 -21t16 -55q0 -56 -37.5 -94t-102.5 -52zM340 620q-72 0 -106.5 -22.5t-34.5 -58.5q0 -39 37.5 -56.5t135.5 -26.5q141 -13 212 -68t71 -167q0 -114 -74.5 -176.5t-209.5 -62.5
q-107 0 -195 48q-52 29 -61 -36q-7 1 -38 1t-38 -1q16 121 9 234q8 -1 37 -1t36 1q48 -159 248 -159q74 0 112.5 23.5t38.5 65.5q0 43 -44 63t-151 31q-265 23 -265 221q0 103 68 169t196 66q95 0 169 -38q23 -14 35.5 -11t16.5 10.5t8 26.5q6 -1 36 -1t36 1
q-19 -97 -9 -214h-19.5h-33h-19.5q-43 138 -204 138z" />
    <glyph glyph-name="scommaaccent" unicode="&#x219;" horiz-adv-x="482" 
d="M167 -260q108 25 114 112q-15 -26 -48 -26q-47 0 -47 55q0 27 17 44t46 17q31 0 47 -21t16 -55q0 -56 -37.5 -94t-102.5 -52zM237 412q-43 0 -63 -13t-20 -33q0 -24 24.5 -36t100.5 -19q179 -18 179 -165q0 -77 -48.5 -121t-144.5 -44q-73 0 -138 42q-27 13 -36 6
t-13 -33q-27 4 -54 0q12 91 8 166q27 -4 54 0q50 -113 165 -113q83 0 83 50q0 21 -22.5 33.5t-88.5 18.5q-101 8 -147 53t-46 114q0 73 55.5 119t147.5 45q61 -1 107 -31q23 -12 30 -7t12 30q26 -4 52 0q-8 -69 -8 -146q-26 2 -55 0q-34 84 -134 84z" />
    <glyph glyph-name="uni021A" unicode="&#x21a;" horiz-adv-x="730" 
d="M282 -259q108 25 114 112q-15 -26 -48 -26q-47 0 -47 55q0 27 17 44t46 17q31 0 47 -21t16 -55q0 -56 -37.5 -94t-102.5 -52zM507 595h-54q-2 -87 -1.5 -247.5t2.5 -192.5q3 -64 61 -64h43v-93q-123 2 -193 2l-193 -2v93h41q59 0 64 64q2 35 2 193t-2 247h-53
q-46 0 -66.5 -24t-22.5 -70l-4 -88q-11 1 -49 1t-49 -1q6 133 -5 280q52 -4 182 -4h311q109 0 181 4q-11 -147 -5 -280q-11 1 -48.5 1t-48.5 -1l-4 88q-2 46 -22.5 70t-66.5 24z" />
    <glyph glyph-name="uni021B" unicode="&#x21b;" horiz-adv-x="350" 
d="M106 -260q108 25 114 112q-15 -26 -48 -26q-47 0 -47 55q0 27 17 44t46 17q31 0 47 -21t16 -55q0 -56 -37.5 -94t-102.5 -52zM292 175h44q9 -92 -21 -141t-115 -49q-143 0 -141 155l3 253h-48v62q132 6 157 187q7 -1 33 -1t33 1q-8 -62 -10 -178l101 5q-1 -8 -1 -38
t1 -39l-101 1v-224q0 -59 7.5 -79.5t25.5 -21.5q41 0 32 107z" />
    <glyph glyph-name="uni0237" unicode="&#x237;" horiz-adv-x="313" 
d="M61 -92q0 -26 -19.5 -44.5t-57.5 -12.5q19 -14 47 -14q35 0 53.5 24.5t19.5 82.5q1 62 1 213.5t-1 186.5q-3 48 -46 48h-18q2 38 0 76q185 0 224 3v-112v-210.5v-136.5q0 -213 -192 -213q-66 0 -105 27t-39 73q0 33 18.5 51.5t52.5 18.5q29 0 45.5 -16.5t16.5 -44.5z" />
    <glyph glyph-name="circumflex" unicode="&#x2c6;" horiz-adv-x="532" 
d="M402 538l-9 -11q-30 10 -72 33.5t-69 46.5q-26 -22 -67.5 -46t-69.5 -33l-9 10q30 72 115 146h67q30 -24 62.5 -64.5t51.5 -81.5z" />
    <glyph glyph-name="caron" unicode="&#x2c7;" horiz-adv-x="532" 
d="M106 685l9 10q29 -9 71.5 -32.5t69.5 -46.5q26 21 67.5 45t69.5 34l9 -10q-30 -75 -115 -146h-67q-30 24 -62.5 64.5t-51.5 81.5z" />
    <glyph glyph-name="breve" unicode="&#x2d8;" horiz-adv-x="532" 
d="M257 539q-73 0 -109.5 41.5t-27.5 103.5l23 1q5 -63 114 -63t114 63l23 -1q9 -63 -27 -104t-110 -41z" />
    <glyph glyph-name="dotaccent" unicode="&#x2d9;" horiz-adv-x="532" 
d="M340 615q0 -29 -17.5 -47t-46.5 -18q-28 0 -45.5 18t-17.5 47q0 28 17.5 45.5t45.5 17.5q29 0 46.5 -17.5t17.5 -45.5z" />
    <glyph glyph-name="ring" unicode="&#x2da;" horiz-adv-x="532" 
d="M318 623q0 23 -12.5 35.5t-33.5 12.5q-47 0 -47 -48q0 -51 47 -51q21 0 33.5 13.5t12.5 37.5zM361 623q0 -41 -24 -65.5t-65 -24.5t-65.5 24.5t-24.5 65.5t24 64.5t65 23.5t65.5 -24t24.5 -64z" />
    <glyph glyph-name="ogonek" unicode="&#x2db;" horiz-adv-x="532" 
d="M396 -71q2 -135 -120 -135q-51 0 -81 24.5t-30 67.5q1 57 49.5 92.5t117.5 41.5l11 -7q-97 -21 -97 -90q0 -26 15 -39t39 -13q56 0 65 63z" />
    <glyph glyph-name="tilde" unicode="&#x2dc;" horiz-adv-x="532" 
d="M380 665l25 7q24 -67 -6 -105t-85 -38q-62 0 -99 59q-16 23 -25.5 31.5t-24.5 8.5q-20 0 -28 -18.5t3 -62.5l-26 -8q-23 69 6.5 106.5t85.5 37.5q58 0 98 -59q27 -40 50 -40q21 0 28.5 19t-2.5 62z" />
    <glyph glyph-name="hungarumlaut" unicode="&#x2dd;" horiz-adv-x="532" 
d="M114 534l-10 8q48 104 92 148q15 14 31 18t27 -1.5t17.5 -15.5t3 -25.5t-17.5 -30.5q-54 -56 -143 -101zM278 534l-10 8q47 104 92 148q15 14 31 18t27 -1.5t17.5 -15.5t3 -25.5t-17.5 -30.5q-54 -56 -143 -101z" />
    <glyph glyph-name="Wgrave" unicode="&#x1e80;" horiz-adv-x="1138" 
d="M849 -6q-23 1 -91 1t-91 -1q-53 208 -109 399q-56 -172 -115 -399q-20 1 -83.5 1t-83.5 -1q-25 101 -74 280.5t-73 257.5q-11 36 -28 51.5t-52 15.5h-31v91q121 -3 190 -3q41 0 116 1l74 2q-1 -11 -1 -46t1 -45h-29q-31 0 -40 -15.5t-1 -51.5q37 -161 98 -362
q78 257 99 362q7 37 -1.5 52t-41.5 15h-17q1 10 1 45t-1 46q101 -3 159 -3q34 0 95 1.5t63 1.5q-3 -46 0 -91h-26q-28 0 -36.5 -15t-0.5 -49q38 -164 98 -366q22 72 52.5 189.5t39.5 167.5q9 35 0 54t-44 19h-19q1 10 1 45t-1 46q90 -3 139 -3q28 0 80 1.5t55 1.5
q-1 -10 -1 -45t1 -46h-32q-36 0 -56 -15.5t-33 -58.5q-18 -59 -77 -268.5t-73 -262.5zM665 757l-8 -12q-96 25 -166 70q-31 19 -31.5 45.5t22.5 34.5t57 -9q57 -35 126 -129z" />
    <glyph glyph-name="wgrave" unicode="&#x1e81;" horiz-adv-x="856" 
d="M490 -13q-42 159 -83 288q-47 -137 -89 -288q-16 1 -59 1t-59 -1q-62 203 -104 330q-15 46 -28 60.5t-44 14.5h-9v77q92 -3 143 -3l143 3q-2 -39 0 -77h-9q-44 0 -32 -55q17 -81 60 -217q48 143 63 211q6 30 -1.5 45.5t-34.5 15.5h-12q1 9 1 39t-1 38q79 -3 127 -3l129 3
q-1 -8 -1 -38t1 -39h-10q-45 0 -32 -54q25 -110 60 -219q38 121 59 211q15 62 -30 62h-14q1 9 1 39t-1 38q72 -3 109 -3l109 3q-1 -8 -1 -38t1 -39h-18q-35 0 -53 -16.5t-36 -66.5q-71 -201 -107 -322q-19 1 -69 1t-69 -1zM519 533l-8 -12q-96 25 -166 70q-31 19 -31.5 45.5
t22.5 34.5t57 -9q57 -35 126 -129z" />
    <glyph glyph-name="Wacute" unicode="&#x1e82;" horiz-adv-x="1138" 
d="M540 745l-8 12q69 94 128 131q26 14 44 9t27.5 -18t3 -32.5t-29.5 -33.5q-69 -44 -165 -68zM849 -6q-23 1 -91 1t-91 -1q-53 208 -109 399q-56 -172 -115 -399q-20 1 -83.5 1t-83.5 -1q-25 101 -74 280.5t-73 257.5q-11 36 -28 51.5t-52 15.5h-31v91q121 -3 190 -3
q41 0 116 1l74 2q-1 -11 -1 -46t1 -45h-29q-31 0 -40 -15.5t-1 -51.5q37 -161 98 -362q78 257 99 362q7 37 -1.5 52t-41.5 15h-17q1 10 1 45t-1 46q101 -3 159 -3q34 0 95 1.5t63 1.5q-3 -46 0 -91h-26q-28 0 -36.5 -15t-0.5 -49q38 -164 98 -366q22 72 52.5 189.5
t39.5 167.5q9 35 0 54t-44 19h-19q1 10 1 45t-1 46q90 -3 139 -3q28 0 80 1.5t55 1.5q-1 -10 -1 -45t1 -46h-32q-36 0 -56 -15.5t-33 -58.5q-18 -59 -77 -268.5t-73 -262.5z" />
    <glyph glyph-name="wacute" unicode="&#x1e83;" horiz-adv-x="856" 
d="M402 521l-8 12q69 94 128 131q26 14 44 9t27.5 -18t3 -32.5t-29.5 -33.5q-69 -44 -165 -68zM490 -13q-42 159 -83 288q-47 -137 -89 -288q-16 1 -59 1t-59 -1q-62 203 -104 330q-15 46 -28 60.5t-44 14.5h-9v77q92 -3 143 -3l143 3q-2 -39 0 -77h-9q-44 0 -32 -55
q17 -81 60 -217q48 143 63 211q6 30 -1.5 45.5t-34.5 15.5h-12q1 9 1 39t-1 38q79 -3 127 -3l129 3q-1 -8 -1 -38t1 -39h-10q-45 0 -32 -54q25 -110 60 -219q38 121 59 211q15 62 -30 62h-14q1 9 1 39t-1 38q72 -3 109 -3l109 3q-1 -8 -1 -38t1 -39h-18q-35 0 -53 -16.5
t-36 -66.5q-71 -201 -107 -322q-19 1 -69 1t-69 -1z" />
    <glyph glyph-name="Wdieresis" unicode="&#x1e84;" horiz-adv-x="1138" 
d="M594 812q0 -27 -16 -42.5t-43 -15.5q-25 0 -41.5 16t-16.5 42t16.5 42t41.5 16q26 0 42.5 -16t16.5 -42zM766 812q0 -27 -16.5 -42.5t-42.5 -15.5q-25 0 -41.5 16t-16.5 42t16.5 42t41.5 16q26 0 42.5 -16t16.5 -42zM849 -6q-23 1 -91 1t-91 -1q-53 208 -109 399
q-56 -172 -115 -399q-20 1 -83.5 1t-83.5 -1q-25 101 -74 280.5t-73 257.5q-11 36 -28 51.5t-52 15.5h-31v91q121 -3 190 -3q41 0 116 1l74 2q-1 -11 -1 -46t1 -45h-29q-31 0 -40 -15.5t-1 -51.5q37 -161 98 -362q78 257 99 362q7 37 -1.5 52t-41.5 15h-17q1 10 1 45t-1 46
q101 -3 159 -3q34 0 95 1.5t63 1.5q-3 -46 0 -91h-26q-28 0 -36.5 -15t-0.5 -49q38 -164 98 -366q22 72 52.5 189.5t39.5 167.5q9 35 0 54t-44 19h-19q1 10 1 45t-1 46q90 -3 139 -3q28 0 80 1.5t55 1.5q-1 -10 -1 -45t1 -46h-32q-36 0 -56 -15.5t-33 -58.5
q-18 -59 -77 -268.5t-73 -262.5z" />
    <glyph glyph-name="wdieresis" unicode="&#x1e85;" horiz-adv-x="856" 
d="M436 591q0 -27 -16 -42.5t-43 -15.5q-25 0 -41.5 16t-16.5 42t16.5 42t41.5 16q26 0 42.5 -16t16.5 -42zM608 591q0 -27 -16.5 -42.5t-42.5 -15.5q-25 0 -41.5 16t-16.5 42t16.5 42t41.5 16q26 0 42.5 -16t16.5 -42zM490 -13q-42 159 -83 288q-47 -137 -89 -288
q-16 1 -59 1t-59 -1q-62 203 -104 330q-15 46 -28 60.5t-44 14.5h-9v77q92 -3 143 -3l143 3q-2 -39 0 -77h-9q-44 0 -32 -55q17 -81 60 -217q48 143 63 211q6 30 -1.5 45.5t-34.5 15.5h-12q1 9 1 39t-1 38q79 -3 127 -3l129 3q-1 -8 -1 -38t1 -39h-10q-45 0 -32 -54
q25 -110 60 -219q38 121 59 211q15 62 -30 62h-14q1 9 1 39t-1 38q72 -3 109 -3l109 3q-1 -8 -1 -38t1 -39h-18q-35 0 -53 -16.5t-36 -66.5q-71 -201 -107 -322q-19 1 -69 1t-69 -1z" />
    <glyph glyph-name="uni1E8A" unicode="&#x1e8a;" horiz-adv-x="823" 
d="M410 181l-63 101l-64 -98q-28 -46 -21.5 -69.5t35.5 -23.5h24q-2 -45 0 -93q-96 2 -148 2l-145 -2v93h20q65 0 105 28t82 92l80 121q-41 64 -126 190q-28 42 -56.5 59.5t-72.5 17.5h-23v91q4 0 43.5 -0.5t91 -1t84.5 -0.5l206 2q-2 -46 0 -91h-17q-31 0 -38.5 -23.5
t12.5 -61.5q37 -62 71 -117q53 81 68 115q19 44 12.5 65.5t-34.5 21.5h-19q1 10 1 45t-1 46q86 -2 134 -2l134 2q-1 -11 -1 -46t1 -45h-20q-61 0 -88 -20t-59 -73l-96 -158q67 -105 123 -186q24 -39 51 -55t68 -16h31q-1 -11 -1 -47t1 -46q-137 2 -214 2l-208 -2
q1 11 1 46.5t-1 46.5h24q26 0 32 21.5t-19 68.5zM501 823q0 -29 -17.5 -47t-46.5 -18q-28 0 -45.5 18t-17.5 47q0 28 17.5 45.5t45.5 17.5q29 0 46.5 -17.5t17.5 -45.5z" />
    <glyph glyph-name="uni1E8B" unicode="&#x1e8b;" horiz-adv-x="608" 
d="M291 134l-43 58l-48 -60q-18 -23 -11.5 -39.5t31.5 -16.5h12q-2 -39 0 -78q-71 2 -107 2l-110 -2v78h20q37 0 61 13t54 47l75 86l-92 120q-22 30 -39.5 40t-53.5 10h-15v77q103 -2 161 -2l170 2q-1 -8 -1 -38t1 -39h-14q-25 0 -29.5 -15t12.5 -43q9 -16 44 -61l56 64
q18 20 11 37.5t-34 17.5h-15q1 9 1 39t-1 38q61 -2 93 -2l104 2q-1 -8 -1 -38t1 -39h-22q-26 0 -42.5 -11t-52.5 -51l-77 -85q72 -95 96 -123q35 -46 93 -46h14q-2 -39 0 -78q-107 2 -164 2l-166 -2v78h14q22 0 27 16t-13 42zM394 601q0 -29 -17.5 -47t-46.5 -18
q-28 0 -45.5 18t-17.5 47q0 28 17.5 45.5t45.5 17.5q29 0 46.5 -17.5t17.5 -45.5z" />
    <glyph glyph-name="Ygrave" unicode="&#x1ef2;" horiz-adv-x="838" 
d="M660 525q-29 -50 -151 -287v-92q0 -31 11.5 -43t47.5 -12h49q-2 -46 0 -93q-133 2 -208 2l-209 -2q1 11 1 46.5t-1 46.5h51q36 0 45.5 12t9.5 43v91q-107 214 -156 299q-19 33 -45.5 48t-70.5 15h-16v91q136 -3 213 -3l212 3q-2 -46 0 -91h-34q-73 0 -36 -84
q38 -89 100 -188q56 106 92 188q38 84 -31 84h-27v91q101 -3 158 -3l156 3q-2 -44 0 -91h-21q-61 0 -88.5 -16.5t-51.5 -57.5zM508 754l-8 -12q-96 25 -166 70q-31 19 -31.5 45.5t22.5 34.5t57 -9q57 -35 126 -129z" />
    <glyph glyph-name="ygrave" unicode="&#x1ef3;" horiz-adv-x="583" 
d="M393 339q14 53 -32 53h-17q1 9 1 39t-1 38q66 -3 116 -3l108 3v-77h-18q-33 0 -49.5 -13t-28.5 -41q-56 -135 -117 -321q-38 -115 -87.5 -161.5t-126.5 -46.5q-57 0 -87 26t-30 69q0 39 23.5 62t59.5 23q75 0 75 -68q0 -32 -27 -52.5t-66 -14.5q20 -9 44 -9q59 0 92.5 41
t65.5 144q-63 2 -96 0q-40 139 -107 308q-12 30 -25 42t-40 12h-14q1 9 1 39t-1 38q86 -3 150 -3l150 3q-2 -39 0 -77h-15q-47 0 -33 -53q28 -100 65 -203q58 169 67 203zM391 533l-8 -12q-96 25 -166 70q-31 19 -31.5 45.5t22.5 34.5t57 -9q57 -35 126 -129z" />
    <glyph glyph-name="uni2009" unicode="&#x2009;" horiz-adv-x="112" 
 />
    <glyph glyph-name="endash" unicode="&#x2013;" horiz-adv-x="500" 
d="M21 193q2 53 0 108q229 -4 458 0q-2 -54 0 -108q-229 4 -458 0z" />
    <glyph glyph-name="emdash" unicode="&#x2014;" horiz-adv-x="1000" 
d="M21 193q2 53 0 108q479 -4 958 0q-2 -54 0 -108q-479 4 -958 0z" />
    <glyph glyph-name="quoteleft" unicode="&#x2018;" horiz-adv-x="262" 
d="M222 676q-67 -10 -101 -48t-32 -94q14 28 53 28q28 0 45 -16.5t17 -47.5t-20.5 -51.5t-55.5 -20.5q-36 0 -57 25t-21 75q0 62 40.5 113t126.5 61z" />
    <glyph glyph-name="quoteright" unicode="&#x2019;" horiz-adv-x="262" 
d="M40 450q66 10 100.5 48t31.5 92q-14 -26 -51 -26q-28 0 -45 17t-17 48t19.5 51t55.5 20q78 0 78 -100q0 -39 -13.5 -72.5t-52.5 -63.5t-101 -38z" />
    <glyph glyph-name="quotesinglbase" unicode="&#x201a;" horiz-adv-x="262" 
d="M40 -91q66 10 100.5 48t31.5 92q-14 -26 -51 -26q-28 0 -45 17t-17 48t19.5 51t55.5 20q78 0 78 -100q0 -39 -13.5 -72.5t-52.5 -63.5t-101 -38z" />
    <glyph glyph-name="quotedblleft" unicode="&#x201c;" horiz-adv-x="450" 
d="M222 676q-67 -10 -101 -48t-32 -94q14 28 53 28q28 0 45 -16.5t17 -47.5t-20.5 -51.5t-55.5 -20.5q-36 0 -57 25t-21 75q0 62 40.5 113t126.5 61zM410 676q-67 -10 -101 -48t-32 -94q14 28 53 28q28 0 45 -16.5t17 -47.5t-20.5 -51.5t-55.5 -20.5q-36 0 -57 25t-21 75
q0 62 40.5 113t126.5 61z" />
    <glyph glyph-name="quotedblright" unicode="&#x201d;" horiz-adv-x="450" 
d="M40 456q66 10 100.5 48t31.5 92q-14 -26 -51 -26q-28 0 -45 17t-17 48t19.5 51t55.5 20q78 0 78 -100q0 -39 -13.5 -72.5t-52.5 -63.5t-101 -38zM228 456q66 10 100.5 48t31.5 92q-14 -26 -51 -26q-28 0 -45 17t-17 48t19.5 51t55.5 20q78 0 78 -100q0 -39 -13.5 -72.5
t-52.5 -63.5t-101 -38z" />
    <glyph glyph-name="quotedblbase" unicode="&#x201e;" horiz-adv-x="450" 
d="M40 -91q66 10 100.5 48t31.5 92q-14 -26 -51 -26q-28 0 -45 17t-17 48t19.5 51t55.5 20q78 0 78 -100q0 -39 -13.5 -72.5t-52.5 -63.5t-101 -38zM228 -91q66 10 100.5 48t31.5 92q-14 -26 -51 -26q-28 0 -45 17t-17 48t19.5 51t55.5 20q78 0 78 -100q0 -39 -13.5 -72.5
t-52.5 -63.5t-101 -38z" />
    <glyph glyph-name="dagger" unicode="&#x2020;" 
d="M234 349q48 20 54 126q-17 5 -23 21q-27 -5 -59 -24q-21 -14 -46.5 -16.5t-44 11t-18.5 41.5t18.5 41.5t44 11t46.5 -16.5q32 -19 59 -24q7 17 23 21q-4 55 -25 88q-30 47 -20 88t55 41q46 0 55 -42.5t-21 -86.5q-20 -31 -24 -89q14 -4 21 -21q27 5 59 25
q22 14 47.5 16.5t44 -11t18.5 -41.5t-18.5 -41.5t-44 -11t-47.5 16.5q-30 19 -59 24q-6 -15 -21 -21q6 -104 54 -126v-32q-54 -24 -54 -163q0 -76 25 -118q28 -45 19 -87t-54 -42q-44 0 -53.5 42.5t19.5 86.5q24 38 24 118q0 139 -54 163v32z" />
    <glyph glyph-name="daggerdbl" unicode="&#x2021;" 
d="M362 349v-32q-48 -22 -54 -126q15 -6 21 -21q29 5 59 24q22 14 47.5 16.5t44 -11t18.5 -41.5t-18.5 -41.5t-44 -11t-47.5 16.5q-32 20 -59 25q-7 -17 -21 -21q4 -58 24 -89q30 -44 21 -86.5t-55 -42.5q-45 0 -55 41t20 88q21 33 25 88q-16 4 -23 21q-27 -5 -59 -24
q-21 -14 -46.5 -16.5t-44 11t-18.5 41.5t18.5 41.5t44 11t46.5 -16.5q32 -19 59 -24q6 16 23 21q-6 106 -54 126v32q48 20 54 126q-17 5 -23 21q-27 -5 -59 -24q-21 -14 -46.5 -16.5t-44 11t-18.5 41.5t18.5 41.5t44 11t46.5 -16.5q32 -19 59 -24q7 17 23 21q-4 55 -25 88
q-30 47 -20 88t55 41q46 0 55 -42.5t-21 -86.5q-20 -31 -24 -89q14 -4 21 -21q27 5 59 25q22 14 47.5 16.5t44 -11t18.5 -41.5t-18.5 -41.5t-44 -11t-47.5 16.5q-30 19 -59 24q-6 -15 -21 -21q6 -104 54 -126z" />
    <glyph glyph-name="bullet" unicode="&#x2022;" horiz-adv-x="454" 
d="M408 241q0 -83 -48.5 -129t-133.5 -46q-83 0 -131.5 46t-48.5 132q0 83 49 130t131 47q85 0 133.5 -48.5t48.5 -131.5z" />
    <glyph glyph-name="ellipsis" unicode="&#x2026;" horiz-adv-x="840" 
d="M230 72q0 -40 -23.5 -62.5t-66.5 -22.5q-41 0 -65.5 22t-24.5 64q0 38 25.5 62t64.5 24q42 0 66 -24t24 -63zM510 72q0 -40 -23.5 -62.5t-66.5 -22.5q-41 0 -65.5 22t-24.5 64q0 38 25.5 62t64.5 24q42 0 66 -24t24 -63zM790 72q0 -40 -23.5 -62.5t-66.5 -22.5
q-41 0 -65.5 22t-24.5 64q0 38 25.5 62t64.5 24q42 0 66 -24t24 -63z" />
    <glyph glyph-name="perthousand" unicode="&#x2030;" horiz-adv-x="916" 
d="M92 85q0 9 9 9t9 -9t-9 -9t-9 9zM129 139q0 5 4 9.5t10 4.5t10 -4.5t4 -9.5q0 -15 -14 -15t-14 15zM165 192q0 8 6 14t14 6t14 -6t6 -14t-6 -14t-14 -6t-14 6t-6 14zM203 246q0 9 7 16t17 7t17 -7t7 -16q0 -10 -7 -17t-17 -7t-17 7t-7 17zM243 299q0 11 7.5 18.5
t18.5 7.5t18.5 -7.5t7.5 -18.5t-7.5 -18.5t-18.5 -7.5t-18.5 7.5t-7.5 18.5zM284 353q0 11 8 18.5t19 7.5t19 -7.5t8 -18.5t-8 -19t-19 -8t-19 8t-8 19zM327 406q0 10 7.5 18t18.5 8t18.5 -8t7.5 -18t-7.5 -18t-18.5 -8t-18.5 8t-7.5 18zM371 460q0 9 7 16t17 7t17 -7t7 -16
q0 -10 -7 -17t-17 -7t-17 7t-7 17zM417 513q0 8 6 14t14 6t14 -6t6 -14t-6 -14t-14 -6t-14 6t-6 14zM465 567q0 5 4 9.5t10 4.5t10 -4.5t4 -9.5q0 -15 -14 -15t-14 15zM512 620q0 9 9 9t9 -9t-9 -9t-9 9zM418 13q24 0 34 23.5t10 93.5q0 71 -10 94.5t-34 23.5
q-22 0 -32.5 -24.5t-10.5 -93.5q0 -72 9.5 -94.5t33.5 -22.5zM418 -29q-138 0 -138 159q0 83 40 121.5t98 38.5q140 0 140 -160q0 -82 -40 -120.5t-100 -38.5zM734 13q24 0 34 23.5t10 93.5q0 71 -10 94.5t-34 23.5q-22 0 -32.5 -24.5t-10.5 -93.5q0 -72 9.5 -94.5
t33.5 -22.5zM734 -29q-138 0 -138 159q0 83 40 121.5t98 38.5q140 0 140 -160q0 -82 -40 -120.5t-100 -38.5zM188 436q23 0 33 23.5t10 93.5q0 71 -10 94.5t-33 23.5t-33.5 -24.5t-10.5 -93.5q0 -72 9.5 -94.5t34.5 -22.5zM188 394q-139 0 -139 159q0 83 40 121.5t99 38.5
q139 0 139 -160q0 -83 -40 -121t-99 -38z" />
    <glyph glyph-name="guilsinglleft" unicode="&#x2039;" horiz-adv-x="282" 
d="M223 429l12 -10q-11 -36 -39.5 -86.5t-55.5 -83.5q25 -31 54 -81t41 -84l-13 -10q-92 78 -180 145v66q1 1 181 144z" />
    <glyph glyph-name="guilsinglright" unicode="&#x203a;" horiz-adv-x="282" 
d="M47 419l13 10q123 -96 181 -144v-66q-62 -46 -181 -145l-12 10q12 34 40 84t54 81q-27 33 -55.5 83.5t-39.5 86.5z" />
    <glyph glyph-name="fraction" unicode="&#x2044;" horiz-adv-x="150" 
d="M-220 -32q0 9 9 9t9 -9t-9 -9t-9 9zM-181 24q0 14 14 14t14 -14t-14 -14t-14 14zM-141 80q0 8 5.5 13t12.5 5t12.5 -5t5.5 -13t-5.5 -13t-12.5 -5t-12.5 5t-5.5 13zM-101 136q0 9 6.5 15.5t15.5 6.5t15.5 -6.5t6.5 -15.5t-6.5 -15.5t-15.5 -6.5t-15.5 6.5t-6.5 15.5z
M-60 192q0 10 7 17.5t18 7.5t18 -7.5t7 -17.5t-7.5 -17.5t-17.5 -7.5t-17.5 7.5t-7.5 17.5zM-18 248q0 11 8 19t19 8t19 -8t8 -19t-8 -18.5t-19 -7.5t-19 7.5t-8 18.5zM25 304q0 12 8 20t20 8t20 -8t8 -20q0 -11 -8 -19.5t-20 -8.5t-20 8.5t-8 19.5zM69 361q0 11 8 19.5
t20 8.5t20 -8.5t8 -19.5q0 -12 -8 -20t-20 -8t-20 8t-8 20zM114 417q0 11 8 18.5t19 7.5t19 -7.5t8 -18.5t-8 -19t-19 -8t-19 8t-8 19zM160 473q0 10 7.5 17.5t17.5 7.5t17.5 -7.5t7.5 -17.5q0 -11 -7 -18t-18 -7t-18 7t-7 18zM207 529q0 9 6.5 15.5t15.5 6.5t15.5 -6.5
t6.5 -15.5t-6.5 -15.5t-15.5 -6.5t-15.5 6.5t-6.5 15.5zM255 585q0 7 5.5 12.5t12.5 5.5t12.5 -5.5t5.5 -12.5t-5.5 -12.5t-12.5 -5.5t-12.5 5.5t-5.5 12.5zM303 641q0 14 14 14t14 -14t-14 -14t-14 14zM352 697q0 9 9 9t9 -9t-9 -9t-9 9z" />
    <glyph glyph-name="Euro" unicode="&#x20ac;" horiz-adv-x="615" 
d="M26 442l41 -1q21 119 95 181.5t194 62.5q112 0 171.5 -43t59.5 -110q0 -42 -22.5 -63t-61.5 -21q-38 0 -58.5 18.5t-20.5 50.5q0 37 28 55t69 13q-41 30 -105 30q-73 0 -112 -41t-51 -136l135 4q-2 -9 -2 -37.5t2 -36.5l-139 3q-2 -32 0 -67l138 4q-4 -26 0 -74l-134 3
q12 -95 51.5 -138.5t111.5 -43.5q75 0 106 30q-39 -5 -68 13.5t-29 58.5q0 34 21 53.5t60 19.5q40 0 62 -24t22 -71q0 -68 -57 -111.5t-177 -43.5q-123 0 -196.5 60.5t-93.5 194.5l-40 -1v74l34 -1v62l-34 -1q1 8 1 36.5t-1 37.5z" />
    <glyph glyph-name="uni2116" unicode="&#x2116;" horiz-adv-x="1133" 
d="M1031 72q0 -40 -23.5 -62.5t-66.5 -22.5q-41 0 -65.5 22t-24.5 64q0 38 25.5 62t64.5 24q42 0 66 -24t24 -63zM942 281q87 0 87 123q0 67 -22.5 95t-64.5 28q-87 0 -87 -123q0 -68 22 -95.5t65 -27.5zM942 245q-67 0 -104 40t-37 119t38.5 119.5t102.5 40.5q67 0 104 -40
t37 -120q0 -78 -38.5 -118.5t-102.5 -40.5zM314 690q114 -181 287 -428q2 188 -1 273q-1 35 -16 49.5t-43 14.5h-52q1 10 1 45t-1 46q2 0 30 -1t65 -1.5t62 -0.5l157 3q-1 -11 -1 -46t1 -45h-44q-28 0 -42.5 -14.5t-16.5 -49.5q-2 -43 -2 -236.5t2 -298.5q-74 4 -147 0
q-139 217 -323 486q-2 -242 2 -337q2 -30 16 -44t47 -14h50q-2 -48 0 -93q-101 2 -158 2l-159 -2v93h40q33 0 47.5 14t16.5 44q2 49 2.5 199.5t-2.5 191.5q-5 59 -60 59h-43v91q141 -4 285 0z" />
    <glyph glyph-name="trademark" unicode="&#x2122;" horiz-adv-x="720" 
d="M697 641h-15q-21 0 -23 -24q-1 -12 -1 -56.5t1 -60.5q1 -15 5.5 -21t17.5 -6h15q-1 -6 -1 -24t1 -24q-54 1 -83 1l-81 -1v48h14q22 0 24 27v93q-69 -126 -74 -137h-20q-34 65 -76 136v-28v-38v-25q2 -28 26 -28h16v-48q-39 1 -61 1l-64 -1q1 6 1 24t-1 24h16q23 0 25 28
q1 14 1 58t-1 58q-1 24 -25 24h-15v48q69 -2 135 0q27 -56 64 -114q40 72 59 114q58 -2 120 0q-1 -6 -1 -24t1 -24zM102 688h123q63 0 77 1q-5 -67 -1 -118h-49l-1 29q-3 34 -26 34h-21q-2 -111 1 -136q2 -25 26 -25h15q-1 -6 -1 -24t1 -24q-54 1 -83 1l-82 -1v48h14
q24 0 26 25q3 52 0 136h-19q-26 0 -27 -34l-1 -29h-49q2 19 1 58.5t-3 59.5q18 -1 79 -1z" />
    <glyph glyph-name="onethird" unicode="&#x2153;" horiz-adv-x="378" 
d="M9 344q0 9 6.5 15.5t16.5 6.5q9 0 15.5 -6.5t6.5 -15.5q0 -10 -6.5 -16.5t-15.5 -6.5q-23 0 -23 23zM75 344q0 19 20 19q19 0 19 -19q0 -20 -19 -20q-20 0 -20 20zM140 344q0 17 18 17q7 0 12 -5t5 -12q0 -18 -17 -18q-18 0 -18 18zM203 344q0 17 18 17q7 0 12 -5t5 -12
q0 -18 -17 -18q-18 0 -18 18zM264 344q0 19 20 19q19 0 19 -19q0 -20 -19 -20q-20 0 -20 20zM324 344q0 9 6.5 15.5t16.5 6.5q9 0 15.5 -6.5t6.5 -15.5q0 -10 -6.5 -16.5t-15.5 -6.5q-23 0 -23 23zM111 447q30 0 30 27v130l-58 -1q1 5 1 24.5t-1 24.5h18q77 0 87 58
q6 -1 27.5 -1t28.5 1q-5 -69 -5 -128v-108q0 -27 30 -27h32v-46q-72 2 -112 2l-112 -2v46h34zM311 208q0 -54 -66 -71q80 -14 80 -75q0 -91 -149 -91q-56 0 -89 22t-33 58q0 21 15 33.5t37 12.5t34 -10t12 -26q0 -36 -45 -36q-8 0 -16 2q19 -21 60 -21q66 0 66 58
q0 55 -68 55h-13v29h13q62 0 62 55q0 49 -55 49q-41 0 -58 -25q14 4 25 4q38 0 38 -32q0 -15 -11.5 -24.5t-33.5 -9.5t-35.5 12t-13.5 34q0 36 35 58t89 22q56 0 88 -22.5t32 -60.5z" />
    <glyph glyph-name="twothirds" unicode="&#x2154;" horiz-adv-x="378" 
d="M9 344q0 9 6.5 15.5t16.5 6.5q9 0 15.5 -6.5t6.5 -15.5q0 -10 -6.5 -16.5t-15.5 -6.5q-23 0 -23 23zM75 344q0 19 20 19q19 0 19 -19q0 -20 -19 -20q-20 0 -20 20zM140 344q0 17 18 17q7 0 12 -5t5 -12q0 -18 -17 -18q-18 0 -18 18zM203 344q0 17 18 17q7 0 12 -5t5 -12
q0 -18 -17 -18q-18 0 -18 18zM264 344q0 19 20 19q19 0 19 -19q0 -20 -19 -20q-20 0 -20 20zM324 344q0 9 6.5 15.5t16.5 6.5q9 0 15.5 -6.5t6.5 -15.5q0 -10 -6.5 -16.5t-15.5 -6.5q-23 0 -23 23zM309 506q10 -25 10.5 -50t-20.5 -44t-57 -19q-37 0 -88 29q-44 27 -70 9
q11 1 18.5 -5t7.5 -14q0 -19 -23 -19q-30 0 -30 37q0 42 24.5 69t70.5 52q31 17 45 32.5t14 37.5q0 53 -56 53q-45 0 -61 -27q16 4 27 4q40 0 40 -33q0 -15 -12.5 -24.5t-34.5 -9.5t-35 12t-13 34q0 39 33.5 61t86.5 22q63 0 94 -23.5t31 -62.5q0 -45 -28.5 -66t-86.5 -36
q-86 -22 -107 -61q33 31 110 16q36 -11 62 -7t22 30zM311 208q0 -54 -66 -71q80 -14 80 -75q0 -91 -149 -91q-56 0 -89 22t-33 58q0 21 15 33.5t37 12.5t34 -10t12 -26q0 -36 -45 -36q-8 0 -16 2q19 -21 60 -21q66 0 66 58q0 55 -68 55h-13v29h13q62 0 62 55q0 49 -55 49
q-41 0 -58 -25q14 4 25 4q38 0 38 -32q0 -15 -11.5 -24.5t-33.5 -9.5t-35.5 12t-13.5 34q0 36 35 58t89 22q56 0 88 -22.5t32 -60.5z" />
    <glyph glyph-name="oneeighth" unicode="&#x215b;" horiz-adv-x="378" 
d="M9 344q0 9 6.5 15.5t16.5 6.5q9 0 15.5 -6.5t6.5 -15.5q0 -10 -6.5 -16.5t-15.5 -6.5q-23 0 -23 23zM75 344q0 19 20 19q19 0 19 -19q0 -20 -19 -20q-20 0 -20 20zM140 344q0 17 18 17q7 0 12 -5t5 -12q0 -18 -17 -18q-18 0 -18 18zM203 344q0 17 18 17q7 0 12 -5t5 -12
q0 -18 -17 -18q-18 0 -18 18zM264 344q0 19 20 19q19 0 19 -19q0 -20 -19 -20q-20 0 -20 20zM324 344q0 9 6.5 15.5t16.5 6.5q9 0 15.5 -6.5t6.5 -15.5q0 -10 -6.5 -16.5t-15.5 -6.5q-23 0 -23 23zM111 447q30 0 30 27v130l-58 -1q1 5 1 24.5t-1 24.5h18q77 0 87 58
q6 -1 27.5 -1t28.5 1q-5 -69 -5 -128v-108q0 -27 30 -27h32v-46q-72 2 -112 2l-112 -2v46h34zM309 220q0 -36 -39 -56q61 -24 61 -84q0 -52 -38.5 -80.5t-106.5 -28.5q-136 0 -136 72q0 43 57 61q-47 26 -47 82q0 47 34.5 75.5t98.5 28.5q56 0 86 -19t30 -51zM166 85
q-19 3 -34 8q-25 -17 -25 -43q0 -42 78 -42q79 0 79 35q0 16 -18.5 24t-79.5 18zM192 256q-28 0 -45 -10t-17 -26t15.5 -24.5t62.5 -15.5q16 -2 29 -6q19 16 19 42q0 17 -16 28.5t-48 11.5z" />
    <glyph glyph-name="threeeighths" unicode="&#x215c;" horiz-adv-x="378" 
d="M9 344q0 9 6.5 15.5t16.5 6.5q9 0 15.5 -6.5t6.5 -15.5q0 -10 -6.5 -16.5t-15.5 -6.5q-23 0 -23 23zM75 344q0 19 20 19q19 0 19 -19q0 -20 -19 -20q-20 0 -20 20zM140 344q0 17 18 17q7 0 12 -5t5 -12q0 -18 -17 -18q-18 0 -18 18zM203 344q0 17 18 17q7 0 12 -5t5 -12
q0 -18 -17 -18q-18 0 -18 18zM264 344q0 19 20 19q19 0 19 -19q0 -20 -19 -20q-20 0 -20 20zM324 344q0 9 6.5 15.5t16.5 6.5q9 0 15.5 -6.5t6.5 -15.5q0 -10 -6.5 -16.5t-15.5 -6.5q-23 0 -23 23zM311 630q0 -54 -66 -71q80 -14 80 -75q0 -91 -149 -91q-56 0 -89 22t-33 58
q0 21 15 33.5t37 12.5t34 -10t12 -26q0 -36 -45 -36q-8 0 -16 2q19 -21 60 -21q66 0 66 58q0 55 -68 55h-13v29h13q62 0 62 55q0 49 -55 49q-41 0 -58 -25q14 4 25 4q38 0 38 -32q0 -15 -11.5 -24.5t-33.5 -9.5t-35.5 12t-13.5 34q0 36 35 58t89 22q56 0 88 -22.5t32 -60.5z
M309 220q0 -36 -39 -56q61 -24 61 -84q0 -52 -38.5 -80.5t-106.5 -28.5q-136 0 -136 72q0 43 57 61q-47 26 -47 82q0 47 34.5 75.5t98.5 28.5q56 0 86 -19t30 -51zM166 85q-19 3 -34 8q-25 -17 -25 -43q0 -42 78 -42q79 0 79 35q0 16 -18.5 24t-79.5 18zM192 256
q-28 0 -45 -10t-17 -26t15.5 -24.5t62.5 -15.5q16 -2 29 -6q19 16 19 42q0 17 -16 28.5t-48 11.5z" />
    <glyph glyph-name="fiveeighths" unicode="&#x215d;" horiz-adv-x="378" 
d="M9 344q0 9 6.5 15.5t16.5 6.5q9 0 15.5 -6.5t6.5 -15.5q0 -10 -6.5 -16.5t-15.5 -6.5q-23 0 -23 23zM75 344q0 19 20 19q19 0 19 -19q0 -20 -19 -20q-20 0 -20 20zM140 344q0 17 18 17q7 0 12 -5t5 -12q0 -18 -17 -18q-18 0 -18 18zM203 344q0 17 18 17q7 0 12 -5t5 -12
q0 -18 -17 -18q-18 0 -18 18zM264 344q0 19 20 19q19 0 19 -19q0 -20 -19 -20q-20 0 -20 20zM324 344q0 9 6.5 15.5t16.5 6.5q9 0 15.5 -6.5t6.5 -15.5q0 -10 -6.5 -16.5t-15.5 -6.5q-23 0 -23 23zM144 554q-32 0 -56 -16l-14 12q28 50 26 156q26 -8 98 -8q76 0 113 13
l8 -31q-27 -58 -117 -58q-45 0 -81 19q-2 -37 -16 -69q42 21 97 21q122 0 122 -96q0 -49 -38.5 -76t-109.5 -27q-57 0 -88.5 19.5t-31.5 54.5q0 21 13 33t35 12q44 0 44 -35q0 -37 -48 -36q17 -14 48 -14q64 0 64 63t-68 63zM309 220q0 -36 -39 -56q61 -24 61 -84
q0 -52 -38.5 -80.5t-106.5 -28.5q-136 0 -136 72q0 43 57 61q-47 26 -47 82q0 47 34.5 75.5t98.5 28.5q56 0 86 -19t30 -51zM166 85q-19 3 -34 8q-25 -17 -25 -43q0 -42 78 -42q79 0 79 35q0 16 -18.5 24t-79.5 18zM192 256q-28 0 -45 -10t-17 -26t15.5 -24.5t62.5 -15.5
q16 -2 29 -6q19 16 19 42q0 17 -16 28.5t-48 11.5z" />
    <glyph glyph-name="seveneighths" unicode="&#x215e;" horiz-adv-x="378" 
d="M9 344q0 9 6.5 15.5t16.5 6.5q9 0 15.5 -6.5t6.5 -15.5q0 -10 -6.5 -16.5t-15.5 -6.5q-23 0 -23 23zM75 344q0 19 20 19q19 0 19 -19q0 -20 -19 -20q-20 0 -20 20zM140 344q0 17 18 17q7 0 12 -5t5 -12q0 -18 -17 -18q-18 0 -18 18zM203 344q0 17 18 17q7 0 12 -5t5 -12
q0 -18 -17 -18q-18 0 -18 18zM264 344q0 19 20 19q19 0 19 -19q0 -20 -19 -20q-20 0 -20 20zM324 344q0 9 6.5 15.5t16.5 6.5q9 0 15.5 -6.5t6.5 -15.5q0 -10 -6.5 -16.5t-15.5 -6.5q-23 0 -23 23zM91 714l7 -26q15 25 51 25q30 0 73 -32q44 -34 79 -13q-14 -3 -24.5 3
t-10.5 18q0 26 27 26q32 0 32 -39t-39 -74q-37 -31 -50 -63t-7 -93q3 -27 -15.5 -40.5t-45.5 -13.5q-57 0 -58 49q-2 51 30 86.5t96 66.5q30 15 46 31q-25 -15 -61 -18t-65 7t-44 4t-14 -28q-5 1 -19 1t-19 -1q8 48 -2 124q16 -2 33 0zM309 220q0 -36 -39 -56q61 -24 61 -84
q0 -52 -38.5 -80.5t-106.5 -28.5q-136 0 -136 72q0 43 57 61q-47 26 -47 82q0 47 34.5 75.5t98.5 28.5q56 0 86 -19t30 -51zM166 85q-19 3 -34 8q-25 -17 -25 -43q0 -42 78 -42q79 0 79 35q0 16 -18.5 24t-79.5 18zM192 256q-28 0 -45 -10t-17 -26t15.5 -24.5t62.5 -15.5
q16 -2 29 -6q19 16 19 42q0 17 -16 28.5t-48 11.5z" />
    <glyph glyph-name="minus" unicode="&#x2212;" 
d="M80 208q2 43 0 87q221 -4 440 0q-2 -44 0 -87q-219 4 -440 0z" />
    <glyph glyph-name="notequal" unicode="&#x2260;" 
d="M80 293q2 39 0 78q122 -2 242 -2l38 121q15 -4 29 0l-40 -121q81 0 171 2q-2 -38 0 -78q-51 1 -195 1q-10 -29 -28 -87q109 0 223 2q-2 -39 0 -78q-62 1 -246 1q-2 -8 -17 -55t-24 -77q-15 4 -29 0q31 93 43 132q-123 0 -167 -1q2 38 0 78q100 -2 191 -2q5 14 14 43
t14 44q-163 0 -219 -1z" />
    <glyph glyph-name="lessequal" unicode="&#x2264;" 
d="M139 227v44q216 139 279 185l37 -68q-63 -31 -253 -139q190 -108 253 -139l-19 -34q60 0 84 1q-2 -38 0 -77q-219 4 -440 0q2 38 0 77q73 -2 290 -2q-37 25 -231 152z" />
    <glyph glyph-name="greaterequal" unicode="&#x2265;" 
d="M454 271v-44q-204 -133 -231 -152q223 0 297 2q-2 -38 0 -77q-219 4 -440 0q2 38 0 77q22 -1 76 -1l-18 34q63 31 253 139q-190 108 -253 139l37 68q63 -46 279 -185z" />
    <glyph glyph-name="space_uni0326" horiz-adv-x="224" 
d="M43 168q108 25 114 112q-15 -26 -48 -26q-47 0 -47 55q0 27 17 44t46 17q31 0 47 -21t16 -55q0 -56 -37.5 -94t-102.5 -52z" />
    <glyph glyph-name="dotlessI" horiz-adv-x="426" 
d="M28 -2q1 11 1 46.5t-1 46.5h40q31 0 41.5 11t12.5 38q2 43 2 205t-2 200q-2 30 -13.5 42t-38.5 12h-42q1 11 1 46t-1 45q119 -3 185 -3q29 0 73 0.5t76.5 1.5t34.5 1q-1 -11 -1 -46t1 -45h-42q-27 0 -38.5 -12t-13.5 -42q-3 -40 -2.5 -199.5t2.5 -205.5q2 -27 13 -38
t41 -11h39v-93q-117 2 -183 2z" />
    <glyph glyph-name="Jacute" horiz-adv-x="589" 
d="M338 742l-8 12q69 94 128 131q26 14 44 9t27.5 -18t3 -32.5t-29.5 -33.5q-69 -44 -165 -68zM198 157q0 -45 -33 -66t-78 -15q36 -34 94 -34q56 0 84 35.5t31 119.5q2 61 2 186t-2 162q-2 29 -13.5 41.5t-38.5 12.5h-40v91q114 -3 179 -3q28 0 70.5 0.5t74.5 1.5t34 1
q-1 -11 -1 -46t1 -45h-32q-27 0 -39 -11.5t-13 -42.5q-1 -25 -1 -166.5t1 -176.5q1 -107 -68 -163.5t-192 -56.5q-97 0 -150 44t-53 113q0 44 26 71.5t71 27.5q39 0 62.5 -22t23.5 -59z" />
    <glyph glyph-name="idotaccent" horiz-adv-x="321" 
d="M240 471q-1 -30 -1 -167t1 -174q1 -32 12.5 -43t39.5 -11h14v-79q-3 0 -28.5 0.5t-59.5 1.5t-57 1t-58 -1t-61 -1.5t-27 -0.5q1 9 1 37t-1 42h15q29 0 38.5 10.5t11.5 42.5t2 108t-2 104q-2 30 -11.5 40.5t-39.5 10.5h-14q2 38 0 76q153 0 225 3zM246 624q0 -42 -25 -67
t-66 -25t-65.5 25t-24.5 67q0 40 24.5 65t65.5 25t66 -24.5t25 -65.5z" />
    <glyph glyph-name="jacute" horiz-adv-x="307" 
d="M61 -92q0 -26 -19.5 -44.5t-57.5 -12.5q19 -14 47 -14q35 0 53.5 24.5t19.5 82.5q1 62 1 213.5t-1 186.5q-3 48 -46 48h-18q2 38 0 76q185 0 224 3v-112v-210.5v-136.5q0 -213 -192 -213q-66 0 -105 27t-39 73q0 33 18.5 51.5t52.5 18.5q29 0 45.5 -16.5t16.5 -44.5z
M141 521l-8 12q69 94 128 131q26 14 44 9t27.5 -18t3 -32.5t-29.5 -33.5q-69 -44 -165 -68z" />
    <glyph glyph-name="C.round" horiz-adv-x="730" 
d="M372 710q166 0 219 -96q14 37 22 82q9 -1 41 -1t41 1q-7 -39 -12.5 -123.5t-4.5 -136.5q-61 4 -120 0q-9 86 -42 131t-111 45q-84 0 -121.5 -59.5t-37.5 -206.5q0 -155 39.5 -211.5t112.5 -56.5q79 0 121 49t45 142q21 -1 64.5 -1t65.5 1q-4 -152 -77 -219.5t-245 -67.5
q-160 0 -246.5 85.5t-86.5 278.5q0 181 91 272.5t242 91.5z" />
    <glyph glyph-name="G.round" horiz-adv-x="789" 
d="M398 78q64 -1 101.5 34t37.5 105q0 41 -11 58.5t-43 17.5h-37v74q107 -3 164 -3l160 3v-74h-27q-21 0 -29 -12t-8 -41q0 -159 11 -244q-51 4 -101 0q-9 40 -29 98q-24 -51 -81 -81.5t-133 -30.5q-159 0 -246.5 84.5t-87.5 279.5q0 181 90.5 272.5t242.5 91.5
q163 0 219 -100q9 25 22 86q12 -1 42.5 -1t39.5 1q-7 -39 -12.5 -123.5t-4.5 -136.5q-72 5 -120 0q-9 86 -41.5 131t-112.5 45q-84 0 -121 -60t-37 -208q0 -102 20.5 -162.5t52 -81.5t79.5 -22z" />
    <glyph glyph-name="S.round" horiz-adv-x="681" 
d="M335 620q-136 0 -136 -81q0 -39 37.5 -56.5t135.5 -26.5q140 -13 211.5 -68t71.5 -167q0 -114 -74.5 -176.5t-209.5 -62.5q-154 0 -230 87q-19 -36 -26 -75q-7 1 -38 1t-38 -1q16 121 9 234q8 -1 37 -1t36 1q48 -159 248 -159q74 0 112.5 23.5t38.5 65.5q0 43 -44 63
t-151 31q-136 12 -200.5 68t-64.5 157q0 106 70.5 168.5t193.5 62.5q137 0 201 -72q17 30 26 60q6 -1 37 -1t37 1q-19 -97 -9 -214h-71q-24 73 -76 105.5t-134 32.5z" />
    <glyph glyph-name="s.round" horiz-adv-x="482" 
d="M371 328q-29 83 -134 83q-39 0 -61 -12.5t-22 -32.5q0 -24 24.5 -36t100.5 -19q179 -18 179 -165q0 -77 -48.5 -121t-144.5 -44q-106 0 -161 70q-17 -20 -27 -55q-26 4 -54 0q13 87 9 166q27 -4 54 0q50 -113 165 -113q83 0 83 50q0 21 -22.5 33.5t-88.5 18.5
q-101 8 -147 53t-46 114q0 73 53 118.5t144 45.5q90 0 133 -56q16 23 22 48q26 -4 52 0q-8 -59 -8 -146q-26 2 -55 0z" />
    <glyph glyph-name="Cacute.round" horiz-adv-x="730" 
d="M350 742l-8 12q69 94 128 131q26 14 44 9t27.5 -18t3 -32.5t-29.5 -33.5q-69 -44 -165 -68zM372 710q166 0 219 -96q14 37 22 82q9 -1 41 -1t41 1q-7 -39 -12.5 -123.5t-4.5 -136.5q-61 4 -120 0q-9 86 -42 131t-111 45q-84 0 -121.5 -59.5t-37.5 -206.5
q0 -155 39.5 -211.5t112.5 -56.5q79 0 121 49t45 142q21 -1 64.5 -1t65.5 1q-4 -152 -77 -219.5t-245 -67.5q-160 0 -246.5 85.5t-86.5 278.5q0 181 91 272.5t242 91.5z" />
    <glyph glyph-name="Ccaron.round" horiz-adv-x="730" 
d="M234 897l9 10q29 -9 71.5 -32.5t69.5 -46.5q26 21 67.5 45t69.5 34l9 -10q-30 -75 -115 -146h-67q-30 24 -62.5 64.5t-51.5 81.5zM372 710q166 0 219 -96q14 37 22 82q9 -1 41 -1t41 1q-7 -39 -12.5 -123.5t-4.5 -136.5q-61 4 -120 0q-9 86 -42 131t-111 45
q-84 0 -121.5 -59.5t-37.5 -206.5q0 -155 39.5 -211.5t112.5 -56.5q79 0 121 49t45 142q21 -1 64.5 -1t65.5 1q-4 -152 -77 -219.5t-245 -67.5q-160 0 -246.5 85.5t-86.5 278.5q0 181 91 272.5t242 91.5z" />
    <glyph glyph-name="Ccedilla.round" horiz-adv-x="730" 
d="M372 710q166 0 219 -96q14 37 22 82q9 -1 41 -1t41 1q-7 -39 -12.5 -123.5t-4.5 -136.5q-61 4 -120 0q-9 86 -42 131t-111 45q-84 0 -121.5 -59.5t-37.5 -206.5q0 -155 39.5 -211.5t112.5 -56.5q79 0 121 49t45 142q21 -1 64.5 -1t65.5 1q-4 -146 -70.5 -213.5
t-223.5 -72.5q-3 -32 -27 -54q45 4 78 -16.5t33 -62.5q0 -44 -32 -69.5t-88 -25.5q-77 0 -111 59l23 20q29 -35 66 -35q55 0 55 52q0 29 -24.5 40t-59.5 -2l-12 23q52 25 65 70q-158 2 -242.5 87.5t-84.5 276.5q0 181 91 272.5t242 91.5z" />
    <glyph glyph-name="Ccircumflex.round" horiz-adv-x="730" 
d="M525 745l-9 -11q-30 10 -72 33.5t-69 46.5q-26 -22 -67.5 -46t-69.5 -33l-9 10q30 72 115 146h67q30 -24 62.5 -64.5t51.5 -81.5zM372 710q166 0 219 -96q14 37 22 82q9 -1 41 -1t41 1q-7 -39 -12.5 -123.5t-4.5 -136.5q-61 4 -120 0q-9 86 -42 131t-111 45
q-84 0 -121.5 -59.5t-37.5 -206.5q0 -155 39.5 -211.5t112.5 -56.5q79 0 121 49t45 142q21 -1 64.5 -1t65.5 1q-4 -152 -77 -219.5t-245 -67.5q-160 0 -246.5 85.5t-86.5 278.5q0 181 91 272.5t242 91.5z" />
    <glyph glyph-name="Cdotaccent.round" horiz-adv-x="730" 
d="M372 710q166 0 219 -96q14 37 22 82q9 -1 41 -1t41 1q-7 -39 -12.5 -123.5t-4.5 -136.5q-61 4 -120 0q-9 86 -42 131t-111 45q-84 0 -121.5 -59.5t-37.5 -206.5q0 -155 39.5 -211.5t112.5 -56.5q79 0 121 49t45 142q21 -1 64.5 -1t65.5 1q-4 -152 -77 -219.5t-245 -67.5
q-160 0 -246.5 85.5t-86.5 278.5q0 181 91 272.5t242 91.5zM446 827q0 -29 -17.5 -47t-46.5 -18q-28 0 -45.5 18t-17.5 47q0 28 17.5 45.5t45.5 17.5q29 0 46.5 -17.5t17.5 -45.5z" />
    <glyph glyph-name="Gbreve.round" horiz-adv-x="789" 
d="M398 78q64 -1 101.5 34t37.5 105q0 41 -11 58.5t-43 17.5h-37v74q107 -3 164 -3l160 3v-74h-27q-21 0 -29 -12t-8 -41q0 -159 11 -244q-51 4 -101 0q-9 40 -29 98q-24 -51 -81 -81.5t-133 -30.5q-159 0 -246.5 84.5t-87.5 279.5q0 181 90.5 272.5t242.5 91.5
q163 0 219 -100q9 25 22 86q12 -1 42.5 -1t39.5 1q-7 -39 -12.5 -123.5t-4.5 -136.5q-72 5 -120 0q-9 86 -41.5 131t-112.5 45q-84 0 -121 -60t-37 -208q0 -102 20.5 -162.5t52 -81.5t79.5 -22zM380 746q-73 0 -109.5 41.5t-27.5 103.5l23 1q5 -63 114 -63t114 63l23 -1
q9 -63 -27 -104t-110 -41z" />
    <glyph glyph-name="Gcircumflex.round" horiz-adv-x="789" 
d="M527 745l-9 -11q-30 10 -72 33.5t-69 46.5q-26 -22 -67.5 -46t-69.5 -33l-9 10q30 72 115 146h67q30 -24 62.5 -64.5t51.5 -81.5zM398 78q64 -1 101.5 34t37.5 105q0 41 -11 58.5t-43 17.5h-37v74q107 -3 164 -3l160 3v-74h-27q-21 0 -29 -12t-8 -41q0 -159 11 -244
q-51 4 -101 0q-9 40 -29 98q-24 -51 -81 -81.5t-133 -30.5q-159 0 -246.5 84.5t-87.5 279.5q0 181 90.5 272.5t242.5 91.5q163 0 219 -100q9 25 22 86q12 -1 42.5 -1t39.5 1q-7 -39 -12.5 -123.5t-4.5 -136.5q-72 5 -120 0q-9 86 -41.5 131t-112.5 45q-84 0 -121 -60
t-37 -208q0 -102 20.5 -162.5t52 -81.5t79.5 -22z" />
    <glyph glyph-name="Gcommaaccent.round" horiz-adv-x="789" 
d="M280 -265q108 25 114 112q-15 -26 -48 -26q-47 0 -47 55q0 27 17 44t46 17q31 0 47 -21t16 -55q0 -56 -37.5 -94t-102.5 -52zM398 78q64 -1 101.5 34t37.5 105q0 41 -11 58.5t-43 17.5h-37v74q107 -3 164 -3l160 3v-74h-27q-21 0 -29 -12t-8 -41q0 -159 11 -244
q-51 4 -101 0q-9 40 -29 98q-24 -51 -81 -81.5t-133 -30.5q-159 0 -246.5 84.5t-87.5 279.5q0 181 90.5 272.5t242.5 91.5q163 0 219 -100q9 25 22 86q12 -1 42.5 -1t39.5 1q-7 -39 -12.5 -123.5t-4.5 -136.5q-72 5 -120 0q-9 86 -41.5 131t-112.5 45q-84 0 -121 -60
t-37 -208q0 -102 20.5 -162.5t52 -81.5t79.5 -22z" />
    <glyph glyph-name="Gdotaccent.round" horiz-adv-x="789" 
d="M398 78q64 -1 101.5 34t37.5 105q0 41 -11 58.5t-43 17.5h-37v74q107 -3 164 -3l160 3v-74h-27q-21 0 -29 -12t-8 -41q0 -159 11 -244q-51 4 -101 0q-9 40 -29 98q-24 -51 -81 -81.5t-133 -30.5q-159 0 -246.5 84.5t-87.5 279.5q0 181 90.5 272.5t242.5 91.5
q163 0 219 -100q9 25 22 86q12 -1 42.5 -1t39.5 1q-7 -39 -12.5 -123.5t-4.5 -136.5q-72 5 -120 0q-9 86 -41.5 131t-112.5 45q-84 0 -121 -60t-37 -208q0 -102 20.5 -162.5t52 -81.5t79.5 -22zM444 827q0 -29 -17.5 -47t-46.5 -18q-28 0 -45.5 18t-17.5 47q0 28 17.5 45.5
t45.5 17.5q29 0 46.5 -17.5t17.5 -45.5z" />
    </font>
</defs>
</svg>
