<?xml version="1.0" standalone="no"?>
<!DOCTYPE svg PUBLIC "-//W3C//DTD SVG 1.1//EN" "http://www.w3.org/Graphics/SVG/1.1/DTD/svg11.dtd" >
<svg>
<metadata>
Created by FontForge 20110222 at Mon Apr 21 12:21:34 2014
 By Orthosie Webhosting
(C)2010 House Industries/Brand Design Co., Inc. All Rights Reserved.
</metadata>
<defs>
<font id="EamesCenturyModernBoldItalic" horiz-adv-x="600" >
  <font-face 
    font-family="EamesCenturyModernBoldItalic"
    font-weight="700"
    font-style="italic"
    font-stretch="normal"
    units-per-em="1000"
    panose-1="2 0 8 3 7 7 5 2 2 3"
    ascent="820"
    descent="-180"
    x-height="483"
    cap-height="689"
    bbox="-221 -275 1186 1102.38"
    underline-thickness="50"
    underline-position="-50"
    slope="-8.5"
    unicode-range="U+0020-FB04"
  />
<missing-glyph horiz-adv-x="500" 
 />
    <glyph glyph-name="f_f" unicode="ff" horiz-adv-x="667" 
d="M681 661q-44 0 -72 -45.5t-49 -153.5l109 3l-8 -51l-109 3l-7 -50q-42 -306 -120 -438t-198 -132q-57 0 -84 26t-18 65q11 51 64 51q26 0 40 -16t8 -41q-5 -21 -24 -31t-42 -8q11 -9 33 -9q23 0 40 8.5t31 30t24 47t20 72.5t17.5 92t18.5 119q17 122 47 216h-140
q-6 -32 -8 -52q-60 -570 -318 -570q-57 0 -84 26t-18 65q11 51 64 51q26 0 40 -16t8 -41q-5 -21 -24 -31t-42 -8q10 -9 33 -9t40 8.5t31 30t24 47t20 72.5t17.5 92t18.5 119q17 118 46 213l-62 -2l7 52l71 -3q27 71 60.5 122t68.5 76.5t66.5 36.5t62.5 11q55 0 84.5 -27.5
t28.5 -70.5q77 98 178 98q59 0 88.5 -31.5t23.5 -79.5q-6 -42 -28 -63.5t-56 -21.5q-31 0 -48.5 17.5t-12.5 46.5q6 29 31 44t62 5q-12 35 -54 35zM390 661q-44 0 -72 -46t-49 -154h147q13 33 24 56q-11 -4 -28 -4q-31 0 -48.5 17.5t-12.5 46.5q6 29 31 44t62 5
q-12 35 -54 35z" />
    <glyph glyph-name="f_i" unicode="fi" horiz-adv-x="592" 
d="M400 661q-50 0 -80 -43.5t-51 -156.5q214 2 280 5q-28 -123 -66 -311q-6 -31 -8.5 -47.5t-3 -30.5t3 -19.5t10.5 -5.5q38 0 57 137l39 -2q-8 -86 -48 -147t-107 -61q-73 0 -93.5 44.5t2.5 159.5l49 232l-123 2q-3 -16 -7 -50q-42 -306 -120 -438t-198 -132q-57 0 -84 26
t-18 65q5 24 22.5 37.5t41.5 13.5q26 0 40 -16t8 -41q-5 -21 -24 -31t-41 -8q11 -9 32 -9q23 0 40 8.5t31 30t24 47t20 72.5t17.5 92t18.5 119q18 126 46 212l-62 -1l7 52l71 -3q27 71 61 122t69.5 76.5t67.5 36.5t65 11q70 0 101.5 -31t25.5 -80q-6 -42 -28.5 -63.5
t-55.5 -21.5q-31 0 -48.5 17.5t-12.5 46.5t29.5 44t61.5 6q-15 34 -62 34z" />
    <glyph glyph-name="f_l" unicode="fl" horiz-adv-x="620" 
d="M400 661q-50 0 -80 -43.5t-51 -155.5l93 3l-8 -51l-93 2q-3 -15 -7 -49q-42 -306 -120 -438t-198 -132q-57 0 -84 26t-18 65q5 24 22.5 37.5t41.5 13.5q26 0 40 -16t8 -41q-5 -21 -24 -31t-41 -8q11 -9 32 -9q23 0 40 8.5t31 30t24 47t20 72.5t17.5 92t18.5 119
q18 126 46 212l-62 -1l7 52l71 -3q27 71 61 122t69.5 76.5t67.5 36.5t65 11q53 0 85 -19h132q0 -66 -14 -125q-56 -248 -85 -419q-6 -32 -8 -50t0 -27.5t5.5 -12t11.5 -2.5q35 0 52 135l39 -2q-9 -88 -48.5 -147.5t-115.5 -59.5q-71 0 -93 43t1 147q41 187 73 343
q-28 2 -43 19.5t-10 44.5q5 29 29.5 44t61.5 6q-15 34 -62 34z" />
    <glyph glyph-name="f_f_i" unicode="ffi" horiz-adv-x="887" 
d="M691 661q-50 0 -80 -43.5t-51 -156.5q222 2 284 5q-37 -164 -65 -311q-6 -32 -8.5 -47.5t-3.5 -30.5t2.5 -20t11.5 -5q37 0 56 137l39 -2q-8 -86 -47.5 -147t-107.5 -61q-72 0 -92.5 44.5t2.5 159.5l48 232l-127 2l-7 -50q-42 -306 -120 -438t-198 -132q-57 0 -84 26
t-18 65q5 24 22.5 37.5t41.5 13.5q26 0 40 -16t8 -41q-5 -21 -24 -31t-41 -8q10 -9 32 -9q23 0 40 8.5t31 30t24 47t20 72.5t17.5 92t18.5 119q17 121 47 215h-141l-7 -51q-42 -306 -120 -438t-198 -132q-57 0 -84 26t-18 65q11 51 64 51q26 0 40 -16t8 -41q-5 -21 -24 -31
t-42 -8q10 -9 33 -9t40 8.5t31 30t24 47t20 72.5t17.5 92t18.5 119q18 127 46 213l-62 -2l7 52l71 -3q27 71 60.5 122t68.5 76.5t66.5 36.5t62.5 11q55 0 84.5 -28t28.5 -71q78 99 183 99q70 0 101.5 -31t25.5 -80q-6 -42 -28.5 -63.5t-55.5 -21.5q-31 0 -48.5 17.5
t-12.5 46.5t29.5 44t61.5 6q-15 34 -62 34zM390 661q-44 0 -72 -46t-49 -154h147q13 33 24 56q-11 -4 -28 -4q-31 0 -48.5 17.5t-12.5 46.5q6 29 31 44t62 5q-12 35 -54 35z" />
    <glyph glyph-name="f_f_l" unicode="ffl" horiz-adv-x="901" 
d="M48 414l7 52l71 -3q27 71 60.5 122t68.5 76.5t66.5 36.5t62.5 11q55 0 84.5 -28t28.5 -71q78 99 183 99q53 0 85 -19h122q1 -60 -14 -125q-52 -230 -84 -419q-6 -32 -8 -50t-0.5 -27.5t5 -12t11.5 -2.5q35 0 52 135l39 -2q-9 -88 -48.5 -147.5t-115.5 -59.5
q-71 0 -92.5 43t1.5 147q26 112 73 344q-24 5 -36 21.5t-8 41.5q5 29 29 44t61 6v1q-16 33 -61 33q-50 0 -80 -43.5t-51 -154.5l80 2l-8 -51l-80 3q-3 -16 -7 -50q-42 -306 -120 -438t-198 -132q-57 0 -84 26t-18 65q5 24 22.5 37.5t41.5 13.5q26 0 40 -16t8 -41
q-5 -21 -24 -31t-41 -8q10 -9 32 -9q23 0 40 8.5t31 30t24 47t20 72.5t17.5 92t18.5 119q17 122 47 216h-140q-6 -34 -8 -52q-42 -306 -120 -438t-198 -132q-57 0 -84 26t-18 65q11 51 64 51q26 0 40 -16t8 -41q-5 -21 -24 -31t-42 -8q10 -9 33 -9t40 8.5t31 30t24 47
t20 72.5t17.5 92t18.5 119q17 118 46 213zM390 661q-44 0 -72 -46t-49 -154h147q13 33 24 56q-11 -4 -28 -4q-31 0 -48.5 17.5t-12.5 46.5q6 29 31 44t62 5q-12 35 -54 35z" />
    <glyph glyph-name="f_j" unicode="fj" horiz-adv-x="567" 
d="M400 661q-50 0 -80 -43.5t-51 -156.5q222 2 288 5q-2 -9 -11 -60t-28 -149.5t-42 -208.5q-26 -128 -82 -180.5t-153 -52.5q-56 0 -87.5 27t-21.5 67q12 51 67 51q27 0 40 -17.5t6 -41.5q-6 -22 -26.5 -31t-44.5 -6q11 -13 34 -13q28 0 46.5 13t31 43.5t20 61.5t18.5 87
q3 14 4 22l64 336l-131 3q-3 -16 -7 -50q-42 -306 -120 -438t-198 -132q-57 0 -84 26t-18 65q5 24 22.5 37.5t41.5 13.5q26 0 40 -16t8 -41q-5 -21 -24 -31t-41 -8q11 -9 32 -9q23 0 40 8.5t31 30t24 47t20 72.5t17.5 92t18.5 119q18 126 46 212l-62 -1l7 52l71 -3
q27 71 61 122t69.5 76.5t67.5 36.5t65 11q70 0 101.5 -31t25.5 -80q-6 -42 -28.5 -63.5t-55.5 -21.5q-31 0 -48.5 17.5t-12.5 46.5t29.5 44t61.5 6q-15 34 -62 34z" />
    <glyph glyph-name="f_t" unicode="ft" horiz-adv-x="655" 
d="M48 414l7 52l71 -3q27 71 60.5 122t68.5 76.5t66.5 36.5t62.5 11q59 0 88.5 -31.5t23.5 -79.5q-6 -42 -28 -63.5t-56 -21.5q-31 0 -48.5 17.5t-12.5 46.5q6 29 31 44t62 5q-12 35 -54 35q-44 0 -72 -45.5t-49 -154.5h68v1q108 0 151.5 31.5t61.5 105.5h49
q-13 -46 -31 -136l91 2l-8 -51l-92 1q-5 -27 -15.5 -85t-19 -102.5t-9.5 -54.5q-10 -70 -8 -95.5t21 -25.5q17 0 32 37t20 100l39 -2q-15 -208 -164 -208q-142 0 -115 164q5 32 26 134t28 137l-133 1q-3 -16 -7 -48q-42 -306 -120 -438t-198 -132q-57 0 -84 26t-18 65
q11 51 64 51q26 0 40 -16t8 -41q-5 -21 -24 -31t-42 -8q10 -9 33 -9t40 8.5t31 30t24 47t20 72.5t17.5 92t18.5 119q18 126 46 212z" />
    <glyph glyph-name="t_t" unicode="tt" horiz-adv-x="692" 
d="M616 189l39 -2q-15 -208 -164 -208q-142 0 -115 164q5 28 26 130t28 143h-167q-41 -216 -45 -243q-10 -70 -8.5 -95.5t20.5 -25.5t32.5 31t15.5 96l39 -2q-7 -97 -42.5 -147.5t-117.5 -50.5q-142 0 -114 164q5 28 26 129t28 142h-40l5 51q61 0 99 20.5t56 51.5t37 89h52
q-9 -33 -35 -163h109q44 1 75.5 9t51 19t35 34.5t24 43t21.5 57.5h52q-16 -59 -35 -163l91 2l-8 -51l-92 1q-5 -28 -15.5 -85.5t-19 -102.5t-9.5 -54q-10 -70 -8 -95.5t21 -25.5q17 0 32 37t20 100z" />
    <glyph glyph-name=".notdef" horiz-adv-x="500" 
 />
    <glyph glyph-name=".null" horiz-adv-x="0" 
 />
    <glyph glyph-name="nonmarkingreturn" horiz-adv-x="333" 
 />
    <glyph glyph-name="space" unicode=" " horiz-adv-x="200" 
 />
    <glyph glyph-name="exclam" unicode="!" horiz-adv-x="367" 
d="M230 65q-2 -39 -26 -61t-67 -22q-40 0 -62 21.5t-21 63.5q1 38 26.5 61.5t64.5 23.5q42 0 64.5 -24t20.5 -63zM183 225q-2 -12 -6.5 -16.5t-12.5 -3.5q-16 4 -13 25q8 40 11.5 72.5t5 53t-2 49t-5.5 39.5t-10.5 46t-11.5 50q-18 79 10 124.5t95 45.5q49 0 75.5 -30
t23 -77t-36.5 -93q-5 -8 -20 -28.5t-19 -26.5t-15 -23t-15 -25t-12 -25.5t-12 -31t-10 -33.5t-10.5 -42.5t-8.5 -49.5z" />
    <glyph glyph-name="quotedbl" unicode="&#x22;" horiz-adv-x="365" 
d="M120 425q-5 -16 -17 -16q-16 0 -9 17q39 122 32 176q-5 48 12 76t48 28q23 0 31.5 -18t0.5 -46.5t-32 -57.5q-35 -46 -66 -159zM270 425q-5 -16 -17 -16q-16 0 -9 17q39 122 32 176q-5 48 12 76t48 28q23 0 31.5 -18t0.5 -46.5t-32 -57.5q-35 -46 -66 -159z" />
    <glyph glyph-name="numbersign" unicode="#" horiz-adv-x="592" 
d="M126 0h-34q28 92 64 218q-26 0 -67 -0.5t-54 -0.5l12 42q62 -2 120 -2l47 168q-29 0 -75 -0.5t-61 -0.5q2 4 7 22t5 19q68 -2 134 -2q34 124 59 225h36q-31 -94 -69 -225h161q24 93 57 225h36q-26 -82 -67 -225q54 0 116 2q-1 -3 -6 -20.5t-5 -20.5q-13 0 -52 0.5
t-63 0.5q-13 -43 -46 -168q57 0 119 2q-10 -34 -11 -42q-14 0 -54 0.5t-65 0.5q-41 -158 -54 -218h-34q37 122 63 218h-164q-27 -101 -55 -218zM239 425q-25 -87 -47 -168h164q5 19 14.5 53.5t17 62.5t13.5 52h-162z" />
    <glyph glyph-name="dollar" unicode="$" 
d="M218 -99h-47l22 115q-92 12 -138 54t-34 99q12 56 74 56q30 0 45.5 -17.5t10.5 -44.5q-7 -37 -43 -48q35 -27 98 -34l35 182q-87 21 -126.5 83t-18.5 150q17 71 71.5 118.5t132.5 61.5l15 111h46l-20 -106q8 1 24 1q17 0 25 -1l15 106h46l-20 -110q73 -12 109 -48.5
t29 -86.5q-9 -65 -75 -65q-30 0 -45.5 16.5t-11.5 44.5q7 42 49 50q-27 17 -67 24l-31 -169q102 -19 142.5 -75t24.5 -151q-13 -81 -73.5 -133.5t-157.5 -66.5l-16 -116h-48l21 112h-47zM432 163q5 34 -12.5 53t-62.5 29l-23 -161q90 18 98 79zM258 78q25 0 36 1l33 171
q-11 2 -31 4t-28 3l-25 -179h15zM300 455q47 -7 59 -8l23 169q-6 1 -18 1q-13 0 -35 -2zM214 547q-17 -62 59 -85l19 147q-66 -17 -78 -62z" />
    <glyph glyph-name="percent" unicode="%" 
d="M105 108q0 9 9 9t9 -9t-9 -9t-9 9zM141 159q0 6 4.5 10.5t10.5 4.5q14 0 14 -15t-14 -15q-6 0 -10.5 4.5t-4.5 10.5zM178 210q0 8 6 14t14 6t14 -6t6 -14t-6 -14t-14 -6t-14 6t-6 14zM216 262q0 9 7 16t17 7t17 -7t7 -16q0 -10 -7 -17t-17 -7t-17 7t-7 17zM256 313
q0 11 8 18.5t18 7.5q11 0 19 -7.5t8 -18.5t-8 -19t-19 -8t-18.5 8t-7.5 19zM297 364q0 11 8 19t19 8t19.5 -8t8.5 -19t-8.5 -19t-19.5 -8t-19 8t-8 19zM340 415q0 11 7.5 19t18.5 8t19 -8t8 -19t-8 -18.5t-19 -7.5q-10 0 -18 7.5t-8 18.5zM384 467q0 9 7 16t17 7t17 -7
t7 -16q0 -10 -7 -17t-17 -7t-17 7t-7 17zM430 518q0 8 6 14t14 6t14 -6t6 -14t-6 -14t-14 -6t-14 6t-6 14zM478 569q0 15 14 15q6 0 10.5 -4.5t4.5 -10.5t-4.5 -10.5t-10.5 -4.5q-14 0 -14 15zM525 620q0 9 9 9t9 -9t-9 -9t-9 9zM374 16q20 0 35 24.5t27 89.5
q21 118 -16 118q-42 0 -63 -118q-21 -114 17 -114zM369 -29q-59 0 -93.5 37.5t-19.5 121.5q29 160 169 160q139 0 112 -160q-28 -159 -168 -159zM190 443q20 0 35 24.5t27 89.5q21 118 -16 118q-42 0 -63 -118q-21 -114 17 -114zM185 398q-59 0 -93 37.5t-20 121.5
q29 160 169 160q139 0 112 -160q-28 -159 -168 -159z" />
    <glyph glyph-name="ampersand" unicode="&#x26;" horiz-adv-x="795" 
d="M733 136q-18 -83 -64.5 -117t-131.5 -34q-52 0 -88.5 13t-69.5 46q-72 -63 -188 -63q-99 0 -144.5 54t-35.5 129q11 76 65 126.5t130 68.5q-25 88 -15 160q12 90 69.5 135.5t151.5 45.5q85 0 126.5 -43.5t32.5 -113.5q-9 -69 -54 -122t-110 -82q17 -34 23 -44
q57 -102 72 -123q41 43 51 89q8 46 -26 46h-28q9 27 9 62q78 -2 122 -2l122 2q-4 -19 -9 -62h-40q-20 0 -32.5 -10t-24.5 -36q-41 -89 -105 -134q30 -29 70 -29q26 0 41.5 10t27.5 36zM302 77q25 0 45 5q-38 50 -80 134q-26 50 -36 75q-41 -27 -48 -79q-8 -58 25 -96.5
t94 -38.5zM363 539q-8 -73 22 -151q63 43 79 152q10 78 -40 78q-51 0 -61 -79z" />
    <glyph glyph-name="quotesingle" unicode="'" horiz-adv-x="215" 
d="M120 425q-5 -16 -17 -16q-16 0 -9 17q39 122 32 176q-5 48 12 76t48 28q23 0 31.5 -18t0.5 -46.5t-32 -57.5q-35 -46 -66 -159z" />
    <glyph glyph-name="parenleft" unicode="(" horiz-adv-x="320" 
d="M200 331q-29 -216 -23 -309.5t50 -169.5l-43 -31q-181 130 -129 510q20 144 62 247t93.5 162t122.5 101l34 -32q-67 -76 -103 -177t-64 -301z" />
    <glyph glyph-name="parenright" unicode=")" horiz-adv-x="320" 
d="M123 331q28 192 22 297.5t-50 180.5l43 32q183 -131 130 -510q-20 -143 -62 -246.5t-94 -162.5t-123 -101l-34 31q76 88 106.5 175.5t61.5 303.5z" />
    <glyph glyph-name="asterisk" unicode="*" horiz-adv-x="500" 
d="M338 587q-15 -18 -21 -48l13 -11q30 13 43 31q1 1 10.5 18t18 24.5t22.5 13.5q25 9 46.5 0t30.5 -31q9 -24 -1.5 -45t-34.5 -30q-19 -4 -28.5 -3.5t-26 5t-21.5 5.5q-23 4 -53 -7l-3 -14q27 -22 50 -23q5 0 16.5 -0.5t19 -1t18.5 -4.5t20 -11q21 -16 23.5 -40t-12.5 -42
q-17 -19 -40 -20.5t-43 14.5q-11 9 -17 22t-9.5 27.5t-5.5 19.5q-8 22 -32 43l-15 -7q-4 -31 6 -52q1 -3 10 -18t12 -27t1 -27q-4 -27 -23 -41t-43 -10q-25 4 -38.5 23.5t-8.5 45.5q3 14 11 25.5t19.5 22t14.5 14.5q14 16 20 47l-13 11q-29 -13 -42 -31q-3 -4 -9 -14
t-10.5 -16t-13 -13.5t-19.5 -11.5q-25 -10 -46.5 -1t-29.5 32q-9 23 1.5 44.5t34.5 30.5q18 5 28.5 3.5t26 -6t21.5 -4.5q22 -4 52 6l3 15q-27 20 -49 23h-17t-19.5 0.5t-17.5 4.5t-20 11q-21 16 -23.5 40t12.5 42q16 19 40 21t43 -15q11 -9 17 -22t9.5 -27.5t5.5 -19.5
q7 -22 32 -43l14 6q4 34 -6 54q-2 5 -7.5 15t-9 16.5t-5.5 17.5t0 23q4 26 22.5 40t42.5 10q25 -3 38.5 -22.5t8.5 -45.5q-2 -14 -10 -25.5t-19.5 -22t-14.5 -14.5z" />
    <glyph glyph-name="plus" unicode="+" 
d="M291 26h-86q32 143 49 194q-91 -12 -195 -12l15 86q106 0 190 -13q3 82 22 192h86q-19 -104 -47 -192q88 13 195 13l-15 -86q-105 0 -191 12q-3 -58 -23 -194z" />
    <glyph glyph-name="comma" unicode="," horiz-adv-x="260" 
d="M79 24q-27 0 -42.5 16.5t-13.5 46.5q3 35 26.5 55.5t57.5 20.5q38 0 57 -25.5t14 -67.5q-7 -70 -57.5 -117.5t-128.5 -61.5l-5 25q133 29 150 138q-19 -30 -58 -30z" />
    <glyph glyph-name="hyphen" unicode="-" horiz-adv-x="286" 
d="M17 193q11 94 12 104q123 -4 246 0q-8 -50 -12 -104q-123 4 -246 0z" />
    <glyph glyph-name="period" unicode="." horiz-adv-x="285" 
d="M211 74q-3 -41 -29.5 -64.5t-70.5 -23.5q-42 0 -65 22.5t-19 66.5q4 39 31.5 63.5t68.5 24.5q43 0 65.5 -25t18.5 -64z" />
    <glyph glyph-name="slash" unicode="/" horiz-adv-x="380" 
d="M386 690q-62 -155 -153 -432t-133 -435q-14 1 -57 1t-57 -1q61 156 152.5 433t133.5 434q57 -4 114 0z" />
    <glyph glyph-name="zero" unicode="0" horiz-adv-x="576" 
d="M251 64q91 0 126 249q12 111 2 149t-47 38q-92 0 -127 -248q-13 -112 -2.5 -150t48.5 -38zM247 -18q-254 0 -222 285q16 148 99.5 232t211.5 84q246 0 220 -284q-14 -150 -95.5 -233.5t-213.5 -83.5z" />
    <glyph glyph-name="one" unicode="1" horiz-adv-x="468" 
d="M139 143q18 79 41 246l-110 -3q12 48 15 85h45q74 0 112 26.5t58 93.5q50 -4 101 0q-28 -102 -44 -203l-39 -245q-10 -61 50 -61h49q-13 -36 -15 -84q-128 2 -200 2l-199 -2l15 84h53q32 0 47 15.5t21 45.5z" />
    <glyph glyph-name="two" unicode="2" horiz-adv-x="542" 
d="M503 223q8 -32 8.5 -64.5t-9.5 -65t-29 -57.5t-52.5 -40.5t-78.5 -15.5q-34 0 -64.5 12t-45.5 22.5t-49 38.5q-39 33 -77 33q-33 -2 -50 -21q8 3 16 3q24 0 34.5 -13t8.5 -33q-5 -39 -49 -39q-28 0 -41.5 22.5t-8.5 59.5q14 124 181 191q76 31 111.5 65t43.5 82
q7 47 -15.5 76t-70.5 29q-80 0 -122 -59q14 2 24 2q37 0 57.5 -21.5t14.5 -55.5q-5 -32 -28.5 -49.5t-58.5 -17.5q-40 0 -61 31t-8 88q16 68 87.5 114.5t159.5 46.5q106 0 156 -46.5t40 -122.5q-10 -79 -82.5 -130.5t-190.5 -70.5q-89 -15 -139 -53q29 15 71 15q39 0 97 -16
q52 -15 92 -15q39 1 57 15.5t21 52.5z" />
    <glyph glyph-name="three" unicode="3" horiz-adv-x="593" 
d="M557 403q-10 -64 -53.5 -107t-112.5 -58q78 -12 114 -60t27 -113q-15 -107 -101.5 -158t-222.5 -50q-111 1 -164 48.5t-39 126.5q8 47 37.5 73t70.5 26q38 0 58 -22t15 -57q-4 -37 -29 -57t-62 -18q-16 0 -28 5q19 -55 113 -55q69 0 105.5 34.5t47.5 106.5
q20 131 -113 131h-27l10 62h26q121 2 143 127q9 55 -14 87t-76 32q-86 0 -126 -59q12 4 30 4q38 -1 57 -21t14 -53q-4 -33 -27 -52t-61 -19q-43 0 -64 28t-12 77q14 74 86.5 124.5t178.5 50.5q109 0 161 -48t38 -136z" />
    <glyph glyph-name="four" unicode="4" horiz-adv-x="567" 
d="M205 11q2 8 7.5 32.5t9.5 39.5q-103 1 -229 -1l9 52l366 458q20 -1 68.5 -1t68.5 1q-47 -222 -84 -455l103 3q-2 -6 -6.5 -31t-4.5 -31l-101 2q-9 -58 -10 -69q-3 -24 5.5 -34.5t35.5 -10.5h41q-5 -17 -14 -81q-124 2 -193 2l-197 -2q3 10 13 81h53q28 0 40 9.5t19 35.5z
M288 412q-29 -40 -101 -143t-96 -134q44 -1 142 -1q37 164 55 278z" />
    <glyph glyph-name="five" unicode="5" horiz-adv-x="574" 
d="M206 234q-61 0 -126 -39l-21 26q102 153 110 370q57 -21 187 -21q126 0 201 32q3 -37 7 -63q-64 -132 -229 -132q-89 0 -144 32q-24 -101 -59 -167q88 44 187 44q114 0 165 -62t35 -163q-18 -110 -99 -172t-219 -62q-112 0 -163.5 49.5t-36.5 129.5q8 44 36 69.5t70 25.5
q37 0 57.5 -21.5t16.5 -57.5q-4 -37 -28 -56.5t-59 -19.5q-18 0 -33 6q18 -55 102 -55q124 0 149 155q24 152 -106 152z" />
    <glyph glyph-name="six" unicode="6" horiz-adv-x="601" 
d="M435 652q-77 0 -119 -64.5t-68 -221.5q55 72 157 72q96 0 138.5 -56.5t25.5 -159.5q-17 -111 -97.5 -174.5t-196.5 -63.5q-139 0 -192.5 81t-25.5 256q30 192 126.5 290.5t229.5 98.5q94 0 138.5 -40.5t38.5 -103.5q-4 -47 -31.5 -72t-73.5 -25q-39 0 -59.5 21t-16.5 54
q4 35 29 54t65 19q14 0 26 -3q-26 38 -94 38zM226 215q-13 -75 0 -115.5t62 -40.5q43 0 66.5 38.5t36.5 117.5q23 147 -55 147q-45 0 -72 -34.5t-38 -112.5z" />
    <glyph glyph-name="seven" unicode="7" horiz-adv-x="556" 
d="M153 586q0 -16 2 -56q34 55 109 55q60 0 114 -50q38 -34 59.5 -46t43.5 -12q28 0 39 18h-8q-27 -3 -42.5 11t-15.5 36q0 24 15.5 39t39.5 15q30 0 47 -23t10 -62q-7 -40 -31.5 -75.5t-76.5 -81.5q-44 -39 -71.5 -69.5t-51.5 -75t-34 -102.5t-8 -135q1 -58 -29 -88.5
t-77 -30.5q-109 0 -103 120q10 224 277 361q74 37 107 71q-51 -35 -115 -35q-47 0 -105 29q-36 19 -59 19q-46 0 -57 -73q-9 1 -38 1t-39 -1q31 118 35 241q9 -2 30.5 -2t32.5 2z" />
    <glyph glyph-name="eight" unicode="8" horiz-adv-x="581" 
d="M254 -14q-133 0 -192 45t-47 127q8 52 45 89t97 54q-93 64 -68 198q19 99 94 155t192 56q105 0 158 -46t42 -118q-13 -87 -105 -131q117 -66 93 -214q-17 -102 -97.5 -158.5t-211.5 -56.5zM256 258q-33 9 -50 16q-69 -38 -79 -109q-7 -47 27 -73.5t110 -27.5
q77 -1 121 20t50 55q6 36 -28.5 61t-150.5 58zM376 452l40 -12q49 41 58 101q6 43 -20.5 69t-89.5 27q-59 1 -98.5 -22t-43.5 -63q-4 -37 25 -55.5t129 -44.5z" />
    <glyph glyph-name="nine" unicode="9" horiz-adv-x="579" 
d="M168 -88q82 0 123.5 58.5t67.5 225.5q-52 -71 -147 -71q-97 0 -138.5 54t-27.5 156q16 113 95 180.5t199 67.5q265 0 213 -346q-57 -380 -361 -380q-99 0 -151 43t-38 118q8 41 38 64.5t70 23.5q43 0 66 -23t16 -61q-7 -39 -38 -55t-66 -16q-16 0 -31 5q35 -44 110 -44z
M384 359q14 82 2.5 122t-55.5 40q-46 0 -69 -38.5t-36 -123.5q-13 -87 -0.5 -122.5t51.5 -35.5q44 0 68.5 34t38.5 124z" />
    <glyph glyph-name="colon" unicode=":" horiz-adv-x="254" 
d="M232 371q-2 -33 -24 -52t-57 -19q-34 0 -53 18.5t-15 53.5q2 31 25 51.5t56 20.5q35 0 53 -20.5t15 -52.5zM182 118q-2 -33 -23.5 -52t-57.5 -19q-34 0 -53 18.5t-15 53.5q3 32 25.5 52t55.5 20q36 0 54 -20.5t14 -52.5z" />
    <glyph glyph-name="semicolon" unicode=";" horiz-adv-x="254" 
d="M81 55q-53 0 -47 61q2 30 23 48.5t55 18.5q74 0 66 -94q-6 -69 -60.5 -117.5t-136.5 -63.5l-5 25q155 34 163 157q-15 -35 -58 -35zM226 371q-2 -33 -23.5 -52t-57.5 -19q-34 0 -53 18.5t-15 53.5q3 32 25.5 52t55.5 20q36 0 54 -20.5t14 -52.5z" />
    <glyph glyph-name="less" unicode="&#x3c;" 
d="M120 233l8 39q198 109 317 184l23 -74q-85 -45 -282 -132q160 -91 229 -137l-45 -71q-44 42 -250 191z" />
    <glyph glyph-name="equal" unicode="=" 
d="M58 130q8 34 14 80q221 -4 440 0q-9 -37 -14 -80q-219 4 -440 0zM87 293q10 41 15 79q219 -4 440 0q-11 -42 -15 -79q-219 4 -440 0z" />
    <glyph glyph-name="greater" unicode="&#x3e;" 
d="M471 265l-7 -39q-174 -95 -318 -184l-22 72q92 49 280 134q-146 82 -228 140l45 68q50 -48 250 -191z" />
    <glyph glyph-name="question" unicode="?" horiz-adv-x="597" 
d="M398 281l10 -29q-71 -48 -150 -47q-36 1 -55.5 19t-16.5 47q4 47 87 89q52 27 80.5 60.5t34.5 82.5q7 60 -18 91.5t-78 33.5q-39 0 -73.5 -16t-54.5 -42q24 9 52 9q35 -2 52.5 -23t11.5 -60q-6 -33 -32 -53.5t-67 -19.5q-40 1 -61.5 30.5t-13.5 82.5q12 74 83 124t176 50
q120 0 171 -51.5t40 -133.5q-11 -76 -69.5 -125t-163.5 -87q-48 -17 -63.5 -27t-16.5 -21q-1 -9 6.5 -14.5t20.5 -6.5q49 -2 108 37zM344 65q-2 -39 -25.5 -61t-66.5 -22q-40 0 -62.5 21.5t-20.5 63.5q1 38 26 61.5t64 23.5q42 0 64.5 -24t20.5 -63z" />
    <glyph glyph-name="at" unicode="@" horiz-adv-x="820" 
d="M653 435q-36 -139 -52 -248q-18 -94 34 -94q34 0 61.5 36.5t39.5 94.5q34 162 -30.5 258t-231.5 96q-141 0 -237 -83t-121 -242q-27 -175 43 -265.5t215 -90.5q157 0 251 82l22 -23q-44 -46 -117.5 -73.5t-153.5 -27.5q-193 -1 -281 109.5t-58 291.5q28 169 148 265
t287 96q184 0 267.5 -106t41.5 -288q-42 -183 -197 -183q-56 0 -89 22.5t-35 67.5q-47 -87 -143 -87q-58 0 -88.5 41.5t-18.5 124.5q18 123 75 182.5t130 59.5q90 0 102 -73q41 33 52 57q42 -2 84 0zM387 112q56 0 88 169q20 106 -26 106q-59 0 -91 -174q-18 -101 29 -101z
" />
    <glyph glyph-name="A" unicode="A" horiz-adv-x="878" 
d="M500 213q-98 3 -238 1l-12 -25q-23 -48 -16 -71t47 -23h37q-8 -38 -15 -97q-100 2 -157 2l-159 -2q9 46 15 97h25q41 0 65.5 19.5t51.5 68.5q137 248 269 514q60 -2 93 -2l92 2q50 -245 122 -514q13 -50 30.5 -69t47.5 -19h32q-6 -23 -15 -97q-134 2 -209 2l-209 -2
q9 46 15 97h40q36 0 48 23t4 72l-2 9q-1 9 -2 14zM290 269q102 -2 198 0q-33 158 -59 270q-8 -15 -61.5 -118.5t-77.5 -151.5z" />
    <glyph glyph-name="B" unicode="B" horiz-adv-x="722" 
d="M679 179q-14 -94 -90 -137t-233 -43q-110 1 -177 1l-192 -2q13 82 15 97h36q31 0 41.5 9.5t17.5 39.5q9 35 35 205t26 199q1 26 -8.5 36.5t-34.5 10.5h-42q12 49 14 94q2 0 42.5 -0.5t87.5 -1t66 -0.5q24 0 88 0.5t81 0.5q142 0 199.5 -51.5t45.5 -136.5
q-8 -57 -47 -94.5t-99 -54.5q68 -17 103 -61t25 -111zM357 318h-49q-24 -161 -24 -182q-1 -45 36 -45h34q61 0 91 27t39 88q9 60 -22.5 86t-104.5 26zM348 555q-7 -22 -30 -176l46 1q72 2 102.5 23.5t40.5 88.5q8 53 -14.5 80.5t-72.5 27.5h-24q-34 0 -48 -45z" />
    <glyph glyph-name="C" unicode="C" horiz-adv-x="714" 
d="M417 710q87 0 168 -44q54 -29 64 29q13 -1 41 -1t41 1q-19 -44 -34 -119.5t-20 -140.5q-1 0 -24 1t-32 1q-8 0 -33.5 -1t-26.5 -1q26 173 -122 173q-78 0 -122.5 -58.5t-66.5 -203.5q-12 -65 -9 -111.5t10.5 -76t25.5 -46t37.5 -23t46.5 -6.5q82 0 127 46.5t62 139.5
q8 -2 61 -2q55 0 63 2q-25 -149 -105 -221.5t-231 -72.5q-345 0 -291 371q29 184 124.5 274t245.5 90z" />
    <glyph glyph-name="D" unicode="D" horiz-adv-x="801" 
d="M473 688q171 0 244 -86.5t49 -266.5q-47 -336 -392 -336q-130 1 -195 1l-192 -2q12 47 15 97h37q30 0 41.5 12.5t19.5 46.5q7 34 32 196.5t26 190.5q2 30 -7.5 42t-35.5 12h-42q11 43 14 95q105 -3 193 -3q44 0 111 0.5t82 0.5zM285 142q-3 -51 44 -51h26q96 0 147.5 53
t72.5 193q22 150 -9 206t-132 56h-32q-41 0 -54 -42q-6 -19 -33.5 -202.5t-29.5 -212.5z" />
    <glyph glyph-name="E" unicode="E" horiz-adv-x="724" 
d="M458 474l4 27h76q-19 -84 -29 -152q-11 -76 -16 -156h-75l3 24q7 51 -8 74.5t-62 25.5h-45q-20 -127 -22 -166q-2 -31 11.5 -43.5t41.5 -12.5h99q78 0 110 33.5t48 134.5l1 10q13 -1 51 -1t51 1q-22 -92 -46 -277q-57 4 -204 4h-262l-197 -2q13 82 15 97h36q30 0 40 12.5
t19 46.5q8 31 33.5 193.5t27.5 192.5q2 29 -8.5 42t-35.5 13h-41q11 43 14 95q2 0 41 -1t86.5 -1.5t69.5 -0.5h240q168 0 232 8q-30 -123 -45 -258q-14 1 -49 1t-46 -1l2 13q13 91 -9.5 117.5t-99.5 26.5h-101q-29 0 -43.5 -11.5t-21.5 -43.5q-7 -27 -29 -160h36
q52 0 75.5 21.5t31.5 73.5z" />
    <glyph glyph-name="F" unicode="F" horiz-adv-x="716" 
d="M462 501h76q-15 -65 -29 -154q-10 -61 -17 -154h-74l4 28q8 52 -11 74t-76 22h-29q-21 -139 -23 -171t10 -41.5t46 -9.5h58q-4 -15 -14 -97q-127 2 -199 2l-196 -2q6 23 15 97h36q30 0 40 10.5t19 44.5q8 31 33.5 195.5t27.5 194.5q2 29 -8 42t-35 13h-41q12 63 14 95
q16 0 97 -1.5t99 -1.5h236q173 0 236 8q-33 -149 -49 -280q-12 1 -47 1t-47 -1l6 38q4 28 4.5 49t-2 36t-10 25.5t-16.5 16.5t-24.5 9t-31 4t-39.5 1h-91q-30 0 -44.5 -11.5t-21.5 -43.5q-9 -33 -28 -160h31q54 0 78.5 22t33.5 80z" />
    <glyph glyph-name="G" unicode="G" horiz-adv-x="797" 
d="M363 81q133 0 154 137q5 39 -5 56.5t-42 17.5h-32l11 76q106 -2 166 -2l165 2l-11 -76h-26q-21 0 -31 -12t-14 -41q-23 -151 -24 -239q-15 2 -57.5 2t-57.5 -2q-6 48 -15 95q-35 -54 -96 -87t-137 -33q-68 0 -120.5 19t-92.5 63t-51.5 114.5t1.5 174.5q28 182 127 273
t246 91q101 0 170 -42q24 -15 42.5 -8.5t23.5 35.5q13 -1 41 -1t41 1q-19 -44 -34 -119.5t-20 -140.5q-34 1 -55 1l-61 -1q16 84 -16 128.5t-111 44.5q-80 0 -125 -58.5t-67 -203.5q-9 -82 -7.5 -133.5t21 -81t42.5 -40t57 -10.5z" />
    <glyph glyph-name="H" unicode="H" horiz-adv-x="851" 
d="M-13 -2q2 9 14 97h37q31 0 40.5 9t18.5 40q9 34 36 204.5t27 198.5q0 27 -9 37.5t-34 10.5h-41q11 42 14 94q118 -2 184 -2q39 0 110 1t73 1q-10 -52 -13 -94h-36q-27 0 -41.5 -12.5t-22.5 -41.5q-9 -31 -30 -175q118 -2 248 0q23 151 24 175q2 29 -9.5 41.5t-38.5 12.5
h-36q13 52 13 94q119 -2 186 -2q39 0 111 1t74 1q-11 -40 -14 -94h-41q-26 0 -39.5 -12t-21.5 -42q-7 -28 -33.5 -197.5t-28.5 -199.5q-2 -28 9 -38.5t43 -10.5h37q-3 -11 -8 -48t-5 -49q-119 2 -185 2l-186 -2q10 54 13 97h35q32 0 43.5 10.5t19.5 38.5q7 24 28 158
q-95 1 -248 -1q-19 -122 -22 -157q-2 -27 8 -38t42 -11h36q-3 -11 -8 -48t-5 -49q-118 2 -184 2z" />
    <glyph glyph-name="I" unicode="I" horiz-adv-x="422" 
d="M-14 -2q2 9 14 97h37q31 0 41 9t18 40q8 29 34.5 198t28.5 199t-7 42t-36 12h-41q3 13 14 94q118 -2 184 -2q39 0 110 1t73 1q-10 -52 -13 -94h-36q-27 0 -41.5 -12.5t-22.5 -41.5q-7 -28 -33.5 -199.5t-28.5 -197.5q-2 -27 7.5 -38t42.5 -11h36q-10 -55 -13 -97
q-118 2 -184 2z" />
    <glyph glyph-name="J" unicode="J" horiz-adv-x="584" 
d="M68 71h-9q32 -30 82 -30q55 0 87 34.5t47 116.5q55 303 56 349q2 30 -7 42t-36 12h-40q12 64 14 94q116 -2 181 -2q39 0 108.5 1t71.5 1q-11 -40 -14 -94h-34q-26 0 -39.5 -11t-19.5 -43q-5 -26 -56 -344q-34 -222 -285 -222q-99 0 -147 45.5t-38 118.5q7 44 37.5 71
t74.5 27q40 0 60.5 -23.5t14.5 -62.5q-7 -46 -39.5 -64t-69.5 -16z" />
    <glyph glyph-name="K" unicode="K" horiz-adv-x="829" 
d="M-13 -2q4 18 15 97h36q30 0 41 11t20 45q7 29 33.5 196t27.5 193q2 29 -8.5 42t-39.5 13h-36q5 27 14 94q118 -2 185 -2q39 0 110.5 1t73.5 1q-6 -30 -14 -94h-40q-46 0 -60 -55q-8 -28 -32 -188l227 174q27 20 20 44.5t-40 24.5h-33q5 21 15 94q117 -2 182 -2
q39 0 109 1t72 1q-6 -23 -15 -94h-36q-50 0 -89 -16t-89 -53l-102 -76q76 -162 151 -293q21 -37 35 -49.5t44 -12.5h22q-12 -63 -14 -97q-119 2 -186 2l-187 -2q12 62 14 97h26q31 0 39 21t-8 56q-25 56 -88 165l-80 -59q-17 -107 -17 -127q-2 -56 41 -56h37
q-12 -58 -14 -97q-113 2 -180 2z" />
    <glyph glyph-name="L" unicode="L" horiz-adv-x="671" 
d="M468 689l-14 -94h-40q-31 0 -47.5 -13.5t-23.5 -45.5q-8 -35 -33.5 -196t-26.5 -192t11 -42t41 -11h52q64 0 101.5 35t54.5 123l8 40q11 -1 46.5 -1t46.5 1q-32 -165 -49 -297q-47 4 -197 4h-267q-13 0 -75 -1t-69 -1q4 18 15 97h38q30 0 40.5 12t18.5 47q8 33 34 193.5
t27 188.5q2 32 -6.5 45.5t-35.5 13.5h-42q3 13 14 94q121 -2 189 -2q30 0 74.5 0.5t78 1t36.5 0.5z" />
    <glyph glyph-name="M" unicode="M" horiz-adv-x="986" 
d="M397 54q-56 175 -145 425q-35 -215 -45 -313q-8 -71 55 -71h42q-10 -39 -14 -97q-94 2 -148 2l-154 -2q12 62 14 97h36q59 0 74 71q7 30 30.5 183.5t26.5 186.5q4 59 -51 59h-40q11 42 14 94q155 -4 308 0q39 -123 123 -358q85 134 220 358q140 -4 279 0q-3 -17 -13 -94
h-40q-51 0 -65 -62q-7 -28 -31 -181.5t-27 -189.5q-2 -37 7 -52t42 -15h41q-10 -50 -13 -97q-124 2 -194 2l-194 -2q4 18 15 97h38q57 0 70 68q17 85 50 319q-133 -208 -266 -428h-45z" />
    <glyph glyph-name="N" unicode="N" horiz-adv-x="826" 
d="M376 689q28 -66 222 -430q32 194 39 272q3 35 -9.5 49.5t-40.5 14.5h-54q11 42 14 94q10 0 68 -1t90 -1l157 2q-11 -40 -14 -94h-42q-28 0 -44.5 -14.5t-24.5 -49.5q-12 -56 -39.5 -242.5t-39.5 -289.5q-22 1 -79 1t-79 -1q-22 48 -244 475q-36 -210 -47 -315
q-5 -64 62 -64h44q-12 -58 -14 -97q-102 2 -159 2l-158 -2q6 30 14 97h34q64 0 79 64q10 45 33 193t24 184q2 31 -10 45t-44 14h-41q5 27 14 94q143 -4 289 0z" />
    <glyph glyph-name="O" unicode="O" horiz-adv-x="794" 
d="M366 77q82 0 125 62t65 208q23 148 -2 204.5t-105 56.5q-79 0 -124 -59t-66 -203q-22 -149 2.5 -209t104.5 -60zM352 -25q-166 0 -247 95.5t-54 275.5q28 182 137 273t275 91q176 0 251.5 -92t48.5 -271q-27 -185 -139 -278.5t-272 -93.5z" />
    <glyph glyph-name="P" unicode="P" horiz-adv-x="709" 
d="M383 227q-48 0 -88 4q-10 -63 -10 -78q-2 -31 9 -44.5t44 -13.5h49q-4 -13 -14 -97q-123 2 -193 2l-190 -2q9 46 15 97h32q30 0 42 11t20 43q9 32 34.5 200t27.5 197q2 27 -8 38t-35 11h-42q10 42 14 95q63 -3 190 -3h171q136 0 202 -53.5t51 -176.5q-15 -117 -99 -173.5
t-222 -56.5zM348 552q-10 -37 -42 -245h51q69 0 105.5 35t47.5 111q12 81 -11 112t-83 31h-19q-39 0 -49 -44z" />
    <glyph glyph-name="Q" unicode="Q" horiz-adv-x="794" 
d="M352 -25q-166 0 -247 95.5t-54 275.5q28 182 137 273t275 91q176 0 251.5 -92t48.5 -271q-20 -132 -83.5 -218t-160.5 -124q1 -63 12.5 -87t39.5 -24q55 0 66 91l40 -2q-11 -82 -53 -127.5t-126 -45.5q-165 0 -133 165h-13zM384 231q84 0 115 -79q38 64 57 195
q23 148 -2 204.5t-105 56.5q-79 0 -124 -59t-66 -203q-24 -154 4 -215q11 100 121 100zM360 77q25 0 34 2q13 59 2 87t-41 28q-24 0 -41 -15.5t-20 -42.5q-3 -28 13 -43.5t53 -15.5z" />
    <glyph glyph-name="R" unicode="R" horiz-adv-x="805" 
d="M634 184q-1 -60 7 -84t28 -24q21 0 30.5 38.5t5.5 87.5l56 5q7 -97 -33.5 -163t-136.5 -66q-102 0 -134 46t-23 141q8 79 -16 107t-82 28h-34q-20 -133 -20 -152q0 -29 11 -41t39 -12h39q-12 -58 -14 -97q-120 2 -187 2l-183 -2q6 23 15 97h33q30 0 42 9t21 40
q8 29 34.5 198.5t27.5 198.5q2 30 -7 42t-36 12h-41q8 41 13 95q5 0 90 -1.5t107 -1.5q24 0 91 0.5t86 0.5q280 0 258 -189q-8 -71 -57.5 -115.5t-121.5 -59.5q51 -14 71.5 -48.5t20.5 -91.5zM345 552q-7 -20 -33 -187h66q69 0 103 27.5t43 90.5q8 58 -15 86.5t-81 28.5h-23
q-26 0 -39.5 -11t-20.5 -35z" />
    <glyph glyph-name="S" unicode="S" horiz-adv-x="682" 
d="M378 624q-140 0 -152 -77q-7 -44 27 -63.5t131 -27.5q145 -9 206 -80.5t42 -189.5q-15 -96 -92.5 -152.5t-204.5 -56.5q-120 0 -201 48q-48 28 -61 -26q-13 1 -42.5 1t-42.5 -1q42 96 51 234q12 -1 40 -1t39 1q-3 -81 48 -122t164 -41q145 0 155 82q5 46 -30 68t-132 30
q-131 8 -194.5 76.5t-45.5 179.5q17 103 95.5 154.5t197.5 49.5q83 -1 166 -41q23 -14 38 -9t23 35q13 -1 39.5 -1t39.5 1q-39 -88 -45 -215q-38 2 -74 0q-2 66 -51 105t-134 39z" />
    <glyph glyph-name="T" unicode="T" horiz-adv-x="734" 
d="M567 586h-65q-60 -354 -66 -437q-5 -54 54 -54h40q-4 -13 -14 -97q-124 2 -194 2l-195 -2q10 41 14 97h39q33 0 49 12.5t23 41.5q24 100 67 437h-62q-39 0 -61 -23t-32 -70l-17 -78q-46 4 -97 0q25 142 37 277q100 -5 185 -5h310q4 0 184 5q-37 -196 -47 -277
q-48 4 -96 0l9 78q10 93 -65 93z" />
    <glyph glyph-name="U" unicode="U" horiz-adv-x="822" 
d="M110 270q5 25 21.5 132t18.5 134q2 32 -7.5 45.5t-36.5 13.5h-31q5 27 14 94q121 -2 188 -2q40 0 112 1t74 1q-6 -23 -15 -94h-39q-28 0 -43.5 -13.5t-24.5 -45.5q-6 -23 -39 -266q-14 -97 13.5 -138t99.5 -41t111 40t56 139q36 218 40 266q5 59 -49 59h-35q11 42 14 94
q99 -2 155 -2q32 0 91 1t62 1q-6 -30 -14 -94h-31q-49 0 -61 -59q-3 -14 -39 -267q-46 -292 -337 -292q-158 0 -225.5 67.5t-42.5 225.5z" />
    <glyph glyph-name="V" unicode="V" horiz-adv-x="805" 
d="M376 509q16 -117 62 -343q112 232 156 342q18 43 11.5 65t-41.5 22h-25q3 13 14 94q95 -2 149 -2q32 0 89 1t60 1q-10 -52 -13 -94h-27q-41 0 -65.5 -16.5t-47.5 -63.5q-123 -246 -244 -521q-94 4 -188 0q-58 365 -94 526q-9 41 -26 58t-57 17h-21q10 56 13 94
q125 -2 195 -2q42 0 117.5 1t76.5 1q-11 -40 -14 -94h-29q-62 0 -51 -86z" />
    <glyph glyph-name="W" unicode="W" horiz-adv-x="1137" 
d="M812 -6q-96 4 -191 0q-19 190 -48 389q-78 -174 -168 -389q-87 4 -175 0q-32 318 -64 535q-5 36 -20.5 51t-55.5 15h-25q12 64 14 94q124 -2 193 -2q31 0 76 0.5t79 1t38 0.5q-12 -59 -14 -94h-28q-30 0 -41.5 -15.5t-8.5 -50.5q4 -58 44 -357q106 235 152 357
q25 66 -33 66h-22q12 48 15 94q103 -2 161 -2q34 0 96 1t64 1q-9 -43 -15 -94h-25q-51 0 -47 -64q9 -111 45 -362q126 299 146 354q26 72 -33 72h-23q12 48 15 94q88 -2 137 -2q29 0 81 1t55 1q-12 -45 -15 -94h-34q-35 0 -57.5 -15.5t-42.5 -56.5q-63 -134 -225 -529z" />
    <glyph glyph-name="X" unicode="X" horiz-adv-x="808" 
d="M384 186q-12 28 -45 97q-77 -84 -85 -96q-22 -31 -28 -52.5t2 -30.5t25 -9h23q-5 -20 -15 -97q-90 2 -141 2l-142 -2q4 18 15 97h14q44 0 80.5 16.5t59 37t64.5 67.5q97 109 104 117q-44 90 -94 185q-23 43 -48 60t-69 17h-36q5 27 14 94q143 -2 223 -2l223 2
q-12 -65 -14 -94h-23q-30 0 -41 -23.5t4 -62.5q19 -46 48 -106l83 105q21 26 25 47t-6 30.5t-28 9.5h-15q12 65 14 94q88 -2 136 -2l140 2q-6 -30 -14 -94h-20q-61 0 -93 -20t-77 -73q-37 -43 -121 -150q71 -142 96 -187q20 -37 46 -53.5t67 -16.5h27q-12 -58 -14 -97
q-138 2 -217 2l-217 -2q10 41 14 97h31q26 0 34.5 21t-9.5 70z" />
    <glyph glyph-name="Y" unicode="Y" horiz-adv-x="839" 
d="M696 521q-76 -103 -188 -278l-13 -91q-5 -31 5 -44t46 -13h47q-6 -30 -14 -97q-133 2 -208 2l-209 -2q11 42 14 97h44q37 0 50.5 12t17.5 43l13 88q-48 143 -109 295q-14 34 -37 48t-70 14h-16q11 42 14 94q136 -2 213 -2l214 2q-11 -43 -14 -94h-30q-69 0 -47 -85
q14 -50 66 -174q83 121 112 174q23 38 21 61.5t-39 23.5h-25q11 42 14 94q101 -2 158 -2l156 2q-11 -40 -14 -94h-20q-62 0 -92.5 -17t-59.5 -57z" />
    <glyph glyph-name="Z" unicode="Z" horiz-adv-x="669" 
d="M-12 0q12 60 14 90q155 164 443 504h-112q-89 0 -125 -26.5t-51 -107.5l-8 -44q-44 4 -86 0q25 122 42 276q123 -5 212 -5h377q-12 -55 -14 -89q-153 -166 -439 -503h133q77 0 121 33.5t55 119.5l5 38q45 -4 88 0q-24 -129 -45 -290q-76 4 -194 4h-416z" />
    <glyph glyph-name="bracketleft" unicode="[" horiz-adv-x="326" 
d="M31 74l79 485q8 51 15 111t11 95l3 35q114 -4 228 0q-8 -33 -11 -76h-24q-27 0 -39.5 -10.5t-20.5 -38.5t-64 -368t-58 -368t8 -38.5t43 -10.5h16q-11 -46 -13 -77q-112 4 -225 0q28 113 52 261z" />
    <glyph glyph-name="backslash" unicode="\" horiz-adv-x="380" 
d="M262 -177q-27 156 -90.5 432t-109.5 435q55 -4 109 0q27 -156 90.5 -432.5t108.5 -434.5q-12 1 -53.5 1t-54.5 -1z" />
    <glyph glyph-name="bracketright" unicode="]" horiz-adv-x="326" 
d="M286 545l-79 -471q-11 -67 -18.5 -132.5t-9.5 -97.5l-2 -31q-110 4 -220 0q9 37 12 82h15q32 0 44.5 10t20.5 39q7 29 64.5 366.5t58.5 364.5q2 28 -7.5 38.5t-36.5 10.5h-24q9 40 12 76q112 -4 223 0q-35 -137 -53 -255z" />
    <glyph glyph-name="asciicircum" unicode="^" 
d="M351 710h18q19 -28 152 -279l-68 -35q-42 92 -100 269q-138 -210 -185 -269l-59 35q38 49 123 147t119 132z" />
    <glyph glyph-name="underscore" unicode="_" horiz-adv-x="500" 
d="M-8 -187q5 21 16 96q79 -1 249.5 -1t250.5 1q-6 -24 -16 -96q-79 1 -249.5 1t-250.5 -1z" />
    <glyph glyph-name="grave" unicode="`" horiz-adv-x="532" 
d="M380 549l-8 -12q-103 24 -168 67q-32 19 -32.5 45.5t23.5 35.5t58 -6q57 -35 127 -130z" />
    <glyph glyph-name="a" unicode="a" horiz-adv-x="576" 
d="M568 187q-8 -96 -51 -152t-112 -56q-56 0 -80.5 26t-20.5 85q-52 -111 -157 -111q-64 0 -95.5 49.5t-17.5 157.5q19 147 84 222t145 75q103 0 117 -92q48 43 64 74q11 -1 43 -1t43 1q-40 -170 -63 -314q-8 -55 -7 -77.5t14 -22.5q36 0 55 138zM224 52q32 0 62 55.5
t49 164.5q14 74 8.5 106t-35.5 32q-67 0 -106 -222q-14 -81 -9.5 -108.5t31.5 -27.5z" />
    <glyph glyph-name="b" unicode="b" horiz-adv-x="545" 
d="M90 610h-20l6 79q108 -4 215 0q0 -47 -18 -142l-32 -164q52 100 148 100q64 0 96.5 -52.5t19.5 -153.5q-20 -153 -82.5 -225.5t-148.5 -72.5q-120 0 -120 125q-57 -53 -82 -105q-9 1 -30.5 1t-30.5 -1q87 406 112 558q4 27 -1.5 40t-31.5 13zM314 410q-32 0 -62 -55.5
t-49 -164.5q-14 -74 -9 -106t36 -32q67 0 105 223q10 55 11 83.5t-6.5 40t-25.5 11.5z" />
    <glyph glyph-name="c" unicode="c" horiz-adv-x="474" 
d="M208 -21q-108 0 -149.5 61t-18.5 191q24 125 92 188.5t169 63.5q79 0 116.5 -32.5t35.5 -88.5q-2 -47 -25 -71.5t-63 -24.5q-32 0 -52 20.5t-12 57.5q6 28 28.5 40.5t49.5 10.5q-13 27 -51 27q-44 0 -70 -36.5t-51 -151.5q-19 -101 -8.5 -134.5t52.5 -33.5q34 0 56 24.5
t34 78.5q85 -5 87 -5q-38 -185 -220 -185z" />
    <glyph glyph-name="d" unicode="d" horiz-adv-x="575" 
d="M546 564q-62 -281 -83 -412q-10 -59 -9 -80t17 -21q36 0 53 138l39 -2q-8 -93 -49.5 -150.5t-112.5 -57.5q-51 0 -75 25.5t-22 82.5q-51 -108 -153 -108q-65 0 -98 50t-19 157q19 147 84.5 222t146.5 75q83 0 98 -71l29 145q5 26 -1 39.5t-32 13.5h-20q7 32 11 79
q105 -4 209 0q0 -63 -13 -125zM225 52q32 0 62 55.5t49 164.5q14 74 9 106t-36 32q-66 0 -105 -222q-10 -55 -11 -83.5t6.5 -40.5t25.5 -12z" />
    <glyph glyph-name="e" unicode="e" horiz-adv-x="478" 
d="M342 169q82 -5 87 -5q-19 -90 -68.5 -137.5t-148.5 -47.5q-113 0 -154.5 60t-17.5 192q24 125 91.5 188.5t168.5 63.5q88 0 125 -42.5t26 -110.5q-6 -40 -29 -66.5t-59.5 -39.5t-74.5 -17t-87 -3q-14 -76 -3.5 -107t49.5 -31q37 0 59.5 22.5t35.5 80.5zM294 421
q-28 0 -45.5 -34.5t-41.5 -149.5q49 0 72.5 16.5t35.5 67.5q10 39 5.5 69.5t-26.5 30.5z" />
    <glyph glyph-name="f" unicode="f" horiz-adv-x="376" 
d="M390 661q-44 0 -72 -45t-49 -153l93 2l-8 -51l-93 2l-7 -49q-42 -306 -120 -438t-198 -132q-57 0 -84 26t-18 65q11 51 64 51q26 0 40 -16t8 -41q-5 -21 -24 -31t-42 -8q10 -9 33 -9t40 8.5t31 30t24 47t20 72.5t17.5 92t18.5 119q18 126 46 212l-62 -1l7 52l71 -3
q27 71 60.5 122t68.5 76.5t66.5 36.5t62.5 11q59 0 88.5 -31.5t23.5 -79.5q-6 -42 -28 -63.5t-56 -21.5q-31 0 -48.5 17.5t-12.5 46.5q6 29 31 44t62 5q-12 35 -54 35z" />
    <glyph glyph-name="g" unicode="g" horiz-adv-x="534" 
d="M292 57l5 25q-51 -103 -148 -103q-65 0 -97 50t-18 157q19 147 84 222t145 75q61 0 88.5 -26.5t30.5 -76.5q62 43 80 100q8 -1 33.5 -1t34.5 1q-46 -196 -86 -428q-23 -133 -98 -194t-187 -61q-83 0 -119.5 34t-23.5 80q14 53 71 53q28 0 44 -16.5t11 -42.5t-26 -40
t-50 -8q26 -28 81 -28q16 0 30 3.5t24.5 7.5t20 15t16 17.5t13 23.5t10.5 26t9 31t7 31.5t7.5 36t7.5 36.5zM224 52q32 0 62 55.5t49 164.5q14 74 8.5 106t-35.5 32q-67 0 -106 -222q-14 -81 -9.5 -108.5t31.5 -27.5z" />
    <glyph glyph-name="h" unicode="h" horiz-adv-x="577" 
d="M523 189l39 -2q-9 -89 -50 -148.5t-116 -59.5q-148 0 -95 190l31 112q36 129 -8 129q-35 0 -64.5 -56t-63.5 -204l-30 -151q-50 3 -77 3l-78 -3q75 335 113 558q4 27 -2.5 40t-31.5 13h-20q6 39 6 79q108 -4 216 0q-1 -50 -18 -143l-32 -163q56 100 159 100
q144 0 94 -203l-32 -128q-7 -27 -10.5 -43.5t-4 -31t4 -20.5t14.5 -6q34 0 56 138z" />
    <glyph glyph-name="i" unicode="i" horiz-adv-x="355" 
d="M328 629q-5 -38 -33 -63.5t-73 -25.5q-38 0 -59.5 25.5t-17.5 63.5t31.5 64t72.5 26q40 0 61.5 -26t17.5 -64zM276 296l-41 -159q-8 -32 -9.5 -50.5t3.5 -26.5t16 -8q35 0 53 137l39 -2q-8 -87 -48 -147.5t-116 -60.5q-147 0 -97 181l46 167q24 83 -2 83q-46 0 -62 -140
l-39 2q10 90 49 150.5t108 60.5q74 0 98 -49t2 -138z" />
    <glyph glyph-name="j" unicode="j" horiz-adv-x="306" 
d="M323 629q-4 -37 -32 -63t-73 -26q-43 0 -62 25.5t-15 63.5q3 37 31 63.5t72 26.5q43 0 63.5 -26t15.5 -64zM265 296l-51 -266q-25 -126 -87 -179.5t-169 -53.5q-63 0 -94.5 24.5t-25.5 65.5q4 29 23 45t47 16q29 0 42 -16t9 -41q-4 -26 -27 -37t-49 -6q15 -17 48 -17
q59 0 84.5 49.5t49.5 179.5l47 251q19 99 -1 99q-44 0 -60 -140l-39 2q10 95 50.5 153t109.5 58q129 0 93 -187z" />
    <glyph glyph-name="k" unicode="k" horiz-adv-x="563" 
d="M506 189l40 -2q-8 -91 -48 -149.5t-116 -58.5q-66 0 -96 36.5t-12 102.5q14 56 0.5 75t-64.5 17l-10 -44l-33 -169q-50 3 -77 3q-46 0 -79 -3q94 417 114 560q4 27 -2.5 40t-31.5 13h-20q6 39 6 79q111 -4 221 0q-4 -48 -23 -143l-32 -162q53 99 150 99q69 0 94 -36.5
t12 -93.5q-11 -43 -49 -73.5t-89 -43.5q86 -15 74 -124q-7 -61 19 -61q38 0 52 138zM320 407q-30 0 -53.5 -36.5t-48.5 -131.5q100 7 124 103q7 31 0.5 48t-22.5 17z" />
    <glyph glyph-name="l" unicode="l" horiz-adv-x="307" 
d="M277 564q-52 -255 -83 -418q-10 -56 -8.5 -75.5t17.5 -19.5q37 0 54 138l39 -2q-7 -87 -48 -147.5t-112 -60.5q-70 0 -91 43.5t2 147.5q38 158 77 387q11 53 -34 53h-19q6 26 10 79q104 -4 209 0q1 -57 -13 -125z" />
    <glyph glyph-name="m" unicode="m" horiz-adv-x="881" 
d="M51 270l-39 2q9 88 48 149.5t108 61.5q101 0 101 -114q58 114 167 114q53 0 78.5 -25.5t26.5 -81.5q57 107 164 107q71 0 94.5 -46.5t-1.5 -156.5l-33 -132q-14 -56 -12.5 -76.5t18.5 -20.5q35 0 54 138l39 -2q-8 -88 -48.5 -148t-116.5 -60q-146 0 -94 190l30 112
q35 129 -8 129q-31 0 -57.5 -42t-54.5 -150l-1 -4l-47 -215q-52 3 -82 3l-82 -3q44 165 68 283q15 74 12 101t-24 27q-73 0 -120 -227l-38 -184q-50 3 -78 3l-77 -3q40 168 66 314q16 81 11 91q-3 6 -12 6q-43 0 -60 -140z" />
    <glyph glyph-name="n" unicode="n" horiz-adv-x="614" 
d="M51 270l-39 2q9 89 48.5 150t110.5 61q99 0 97 -117q58 117 168 117q149 0 96 -203l-35 -132q-14 -52 -12.5 -74.5t19.5 -22.5q34 0 53 138l39 -2q-8 -88 -49 -148t-116 -60q-74 0 -98 53t2 137l33 112q38 129 -9 129q-37 0 -68.5 -61t-63.5 -219l-27 -131q-49 3 -77 3
l-77 -3q40 167 67 314q11 54 10.5 75.5t-14.5 21.5q-20 0 -35.5 -38.5t-22.5 -101.5z" />
    <glyph glyph-name="o" unicode="o" horiz-adv-x="513" 
d="M220 48q68 0 106 250q9 72 1.5 94t-34.5 22q-69 0 -105 -236q-10 -76 -2 -103t34 -27zM216 -21q-101 0 -151 57t-37 171q14 119 86 197.5t182 78.5q99 0 148.5 -53t40.5 -160q-10 -125 -80 -208t-189 -83z" />
    <glyph glyph-name="p" unicode="p" horiz-adv-x="582" 
d="M171 483q100 0 98 -119q51 119 159 119q65 0 97 -52.5t18 -153.5q-21 -154 -83 -226t-148 -72q-77 0 -103 49l-15 -75q-5 -27 3.5 -38t34.5 -11h29q-9 -30 -17 -80q-94 2 -147 2l-147 -2q7 24 16 80h18q45 0 56 49q58 267 73 360q10 57 9.5 77t-13.5 20q-20 0 -35.5 -39
t-22.5 -101l-39 2q6 55 22.5 100t52 78t84.5 33zM352 410q-33 0 -63 -55.5t-49 -164.5q-14 -74 -8.5 -106t36.5 -32q67 0 106 223q14 80 9.5 107.5t-31.5 27.5z" />
    <glyph glyph-name="q" unicode="q" horiz-adv-x="560" 
d="M531 480q-50 -215 -107 -537q-8 -39 29 -39h32q-4 -16 -17 -80q-95 2 -149 2l-149 -2q10 32 18 80h36q38 0 48 45l26 130q-52 -100 -147 -100q-66 0 -98.5 50t-18.5 157q20 147 85 222t146 75q109 0 118 -103q65 43 81 100q8 -1 33 -1t34 1zM225 52q32 0 62 55.5
t49 164.5q14 74 9 106t-36 32q-67 0 -105 -222q-10 -55 -11 -83.5t6.5 -40.5t25.5 -12z" />
    <glyph glyph-name="r" unicode="r" horiz-adv-x="471" 
d="M318 343q6 32 31.5 44t54.5 8q-9 29 -39 29q-76 0 -107 -143q-52 -246 -58 -283q-49 2 -77 2l-77 -2q10 41 64 306q17 87 12 99q-3 7 -10 7q-22 0 -38 -39t-23 -101l-39 2q9 89 48.5 150t110.5 61q86 0 96 -88q39 88 120 88q47 0 70.5 -30.5t16.5 -86.5
q-14 -100 -92 -100q-33 0 -52.5 20.5t-11.5 56.5z" />
    <glyph glyph-name="s" unicode="s" horiz-adv-x="440" 
d="M295 442q-83 0 -100 -44q-11 -31 6.5 -53t75.5 -41q166 -53 117 -201q-20 -59 -75.5 -91.5t-138.5 -32.5q-91 0 -138.5 32t-34.5 86q5 23 23 37t44 14q29 0 43 -18t7 -45q-6 -20 -23 -30t-37 -9q32 -23 91 -23q92 0 105 53q7 30 -10 52t-73 41q-155 53 -110 191
q17 53 72 88t136 35q83 0 125.5 -31t31.5 -81q-11 -47 -64 -47q-29 0 -43 17t-7 42q9 37 51 41q-33 18 -74 18z" />
    <glyph glyph-name="t" unicode="t" horiz-adv-x="359" 
d="M283 189l39 -2q-15 -208 -164 -208q-142 0 -115 164q5 28 26 129.5t28 142.5l-40 -1l5 51q61 0 99 20.5t56 51.5t37 89h52q-16 -59 -35 -163l92 2l-7 -51l-94 1l-44 -242q-12 -68 -9.5 -94.5t22.5 -26.5q17 0 32 37t20 100z" />
    <glyph glyph-name="u" unicode="u" horiz-adv-x="615" 
d="M562 189l39 -2q-8 -86 -48 -147t-107 -61q-57 0 -81.5 26t-22.5 87q-55 -113 -162 -113q-145 0 -96 204l33 128q25 99 0 99q-45 0 -61 -140l-39 2q9 89 48.5 150t110.5 61q52 0 79.5 -26t29 -68.5t-10.5 -95.5l-28 -111q-32 -130 10 -130q71 0 119 229l39 185
q50 -2 78 -2l77 2q-28 -123 -66 -311q-6 -31 -8.5 -48t-3 -31t3 -19.5t10.5 -5.5q38 0 57 138z" />
    <glyph glyph-name="v" unicode="v" horiz-adv-x="507" 
d="M55 270l-40 2q10 89 49.5 150t110.5 61q76 0 101.5 -55.5t-0.5 -140.5l-29 -111q-12 -45 -14.5 -70.5t5.5 -39.5t30 -14q50 0 89.5 71.5t53.5 162.5q6 41 5 68q-3 -1 -10 -1q-27 0 -44 18.5t-13 50.5q4 31 23 46.5t44 14.5q80 -1 57 -147q-7 -45 -20 -90t-36.5 -94.5
t-54 -86.5t-75 -61.5t-96.5 -24.5q-85 0 -109.5 52t2.5 148l33 133q1 5 4 16l7.5 31.5t3.5 24.5t-3 20t-13 6q-45 0 -61 -140z" />
    <glyph glyph-name="w" unicode="w" horiz-adv-x="762" 
d="M176 -21q-146 0 -92 204l35 135q24 92 -2 92q-21 0 -37.5 -39t-23.5 -101l-39 2q9 89 48.5 150t110.5 61q77 0 102.5 -54t1.5 -136l-31 -111q-37 -130 8 -130q62 0 110 223l41 192q53 -2 82 -2l81 2q-20 -65 -71 -282q-18 -74 -12.5 -103.5t35.5 -29.5q51 0 92 72t54 162
q6 46 5 75h-9q-26 0 -42 17.5t-12 47.5q4 29 22 43.5t41 13.5q77 -2 54 -147q-9 -56 -28.5 -114t-51.5 -115t-81.5 -92.5t-107.5 -35.5q-123 0 -125 113q-55 -113 -158 -113z" />
    <glyph glyph-name="x" unicode="x" horiz-adv-x="585" 
d="M523 188q2 -100 -42.5 -154.5t-135.5 -54.5q-128 0 -152 98q-39 -93 -120 -93q-46 0 -67.5 29t-10.5 79q7 35 29 55.5t51 20.5t41 -17t6 -46q-7 -32 -34.5 -42t-47.5 2q2 -36 40 -36q42 0 69 46t52 145q23 82 23 136.5t-36 54.5q-34 0 -51.5 -37.5t-15.5 -104.5l-36 3
q-6 95 37 153t126 58q110 0 132 -95q41 95 120 95q45 0 66 -27.5t16 -79.5q-4 -48 -25.5 -72t-54.5 -24q-30 0 -46 19t-8 54q7 34 35 45.5t50 -0.5q-6 37 -43 37q-41 0 -68 -43.5t-51 -140.5q-27 -113 -20 -159.5t48 -46.5q44 0 65.5 38t20.5 105h38z" />
    <glyph glyph-name="y" unicode="y" horiz-adv-x="578" 
d="M56 270l-39 2q9 89 48.5 150t110.5 61q147 0 98 -190l-29 -111q-16 -62 -13 -96t24 -34q18 0 36.5 16.5t41.5 69.5t40 138l39 191q20 -2 76 -2l76 2q-7 -28 -41 -200t-42 -215q-23 -132 -100 -193.5t-189 -61.5q-77 0 -114 30.5t-30 73.5q4 30 23.5 46.5t48.5 16.5
q26 0 41.5 -14.5t14.5 -39.5q-2 -30 -25 -44.5t-52 -8.5q26 -28 81 -28q30 0 52.5 12.5t35.5 24.5t25.5 48.5t16.5 52.5t14 67q3 15 5 23l4 20q-55 -98 -154 -98q-54 0 -81.5 26.5t-28 72t13.5 105.5l32 128q25 99 0 99q-44 0 -60 -140z" />
    <glyph glyph-name="z" unicode="z" horiz-adv-x="492" 
d="M127 263l-33 2q-20 111 15 170.5t108 59.5q76 0 143 -64q55 -53 95 -41q-37 12 -37 49q0 50 42 50q22 0 33 -17t9 -44q-4 -38 -39 -70t-124 -89q-5 -5 -34.5 -22.5t-72.5 -44t-71 -45.5q58 27 111 6q50 -21 80 -21q74 0 78 67l31 -3q17 -98 -16.5 -162.5t-115.5 -64.5
q-51 0 -87.5 15.5t-70.5 52.5q-53 58 -106 33q33 -9 33 -52q0 -48 -42 -48q-18 0 -30 13.5t-12 39.5q1 41 35.5 77.5t124.5 92.5q8 6 38 23l75 42.5t72 41.5q-48 -13 -109 19q-34 20 -61 20q-31 0 -46.5 -19.5t-15.5 -66.5z" />
    <glyph glyph-name="braceleft" unicode="{" horiz-adv-x="324" 
d="M38 316l6 42h13q58 0 67 66t-8 127q-1 5 -1 8q-21 133 43.5 195t204.5 66l-4 -58q-41 -2 -62.5 -15t-35.5 -56.5t-14 -127.5q0 -40 -3 -69.5t-11.5 -59.5t-23.5 -49t-41 -32t-62 -16q34 -3 55.5 -16.5t30.5 -31.5t8.5 -47t-5.5 -54.5t-15 -63.5q-36 -115 -31 -166t69 -52
l-10 -58q-57 -2 -100.5 10.5t-73.5 41t-29 83.5t37 131q52 109 58 145q8 57 -49 57h-13z" />
    <glyph glyph-name="bar" unicode="|" horiz-adv-x="300" 
d="M68 -104q0 4 3.5 7.5t7.5 3.5q11 0 11 -11t-11 -11q-4 0 -7.5 3.5t-3.5 7.5zM75 -24q0 7 5 12t12 5t12 -5t5 -12t-5 -12t-12 -5t-12 5t-5 12zM83 56q0 10 6.5 16t15.5 6t15.5 -6t6.5 -16q0 -9 -6.5 -15.5t-15.5 -6.5t-15.5 6.5t-6.5 15.5zM91 137q0 11 8 18.5t19 7.5
q10 0 18 -7.5t8 -18.5t-7.5 -19t-18.5 -8t-19 8t-8 19zM101 217q0 12 8.5 21t20.5 9q13 0 22 -9t9 -21q0 -13 -9 -21.5t-22 -8.5q-12 0 -20.5 8.5t-8.5 21.5zM112 297q0 13 9 22.5t22 9.5t22.5 -9.5t9.5 -22.5t-9.5 -22.5t-22.5 -9.5t-22 9.5t-9 22.5zM124 377q0 13 9.5 22
t22.5 9t22.5 -9t9.5 -22t-9 -22.5t-23 -9.5q-13 0 -22.5 9.5t-9.5 22.5zM139 457q0 12 9 21t21 9q13 0 21.5 -9t8.5 -21q0 -13 -8.5 -21.5t-21.5 -8.5q-12 0 -21 8.5t-9 21.5zM155 537q0 11 8 19t19 8t19 -8t8 -19t-8 -19t-19 -8t-19 8t-8 19zM173 617q0 9 6.5 15.5
t15.5 6.5t15.5 -6.5t6.5 -15.5t-6.5 -15.5t-15.5 -6.5t-15.5 6.5t-6.5 15.5zM191 697q0 7 4.5 12t11.5 5t12 -5t5 -12t-5 -12t-12 -5t-11.5 5t-4.5 12zM209 777q0 4 3.5 7.5t7.5 3.5q11 0 11 -11t-11 -11q-4 0 -7.5 3.5t-3.5 7.5z" />
    <glyph glyph-name="braceright" unicode="}" horiz-adv-x="319" 
d="M295 358l-6 -42h-13q-27 0 -43.5 -11t-23.5 -27t-7 -45.5t3.5 -54t10.5 -64.5q46 -258 -240 -266l4 58q66 5 87 49.5t23 168.5q1 40 4 67.5t12 55t24.5 45t41 29.5t61.5 16q-35 3 -57 16t-31 32t-8 49.5t7 59t18 69.5q25 84 26.5 128.5t-14 59.5t-52.5 16l6 58
q132 3 178 -67.5t-17 -198.5q-13 -25 -21.5 -43.5t-19 -44.5t-13 -43.5t-1 -35t13.5 -26t34 -8.5h13z" />
    <glyph glyph-name="asciitilde" unicode="~" horiz-adv-x="532" 
d="M457 676l32 1q13 -82 -24 -120t-101 -36q-44 3 -68 21.5t-47 57.5q-18 30 -28 39.5t-28 9.5q-21 0 -33 -23t-6 -71l-32 -2q-13 84 22.5 121.5t102.5 35.5q40 -1 65 -19t49 -58q16 -29 27.5 -40t28.5 -11q49 0 40 94z" />
    <glyph glyph-name="exclamdown" unicode="&#xa1;" horiz-adv-x="367" 
d="M120 400q2 39 25.5 61t66.5 22q40 0 62.5 -21.5t20.5 -63.5q-1 -38 -26 -61.5t-64 -23.5q-42 0 -64.5 24t-20.5 63zM172 241q1 11 5.5 15.5t12.5 3.5q16 -1 13 -24q-14 -118 -10 -166.5t29 -144.5q21 -77 -6.5 -123.5t-94.5 -46.5q-48 0 -76 29.5t-26 76.5t35 94
q42 61 57.5 87.5t32.5 76t28 122.5z" />
    <glyph glyph-name="cent" unicode="&#xa2;" horiz-adv-x="541" 
d="M307 348l-44 -181q16 -2 26 -2q49 0 85 18q-41 10 -36 58q2 27 21.5 44.5t52.5 17.5q36 0 52.5 -21.5t10.5 -57.5q-10 -60 -74 -98.5t-156 -38.5h-1l-28 -119h-47l36 121q-96 11 -138 74.5t-22 170.5q22 120 98.5 186.5t193.5 66.5h1l28 118h47l-36 -121q66 -8 101 -41
t30 -78q-4 -33 -25.5 -52t-54.5 -19q-31 0 -46 16.5t-11 42.5q6 37 39 53q-22 8 -54 9zM209 338q-22 -124 23 -158l50 168l38 164q-43 -9 -69.5 -49t-41.5 -125z" />
    <glyph glyph-name="sterling" unicode="&#xa3;" 
d="M132 240l5 58q15 -1 58 -1q-28 126 -11 201q20 90 94 147.5t184 57.5q94 0 137 -46t29 -122q-9 -48 -39.5 -72t-72.5 -24q-34 0 -53 20t-12 52q6 29 28.5 46t55.5 17q17 0 31 -8q-2 26 -22.5 41.5t-53.5 15.5q-54 0 -88 -35t-51 -111q-3 -14 -31 -178q77 4 105 6l-6 -58
q-7 0 -45.5 0.5t-62.5 0.5q-9 -43 -23 -86q66 -19 114 -19q85 0 114 43l49 -8q-5 -88 -54.5 -142.5t-137.5 -54.5q-89 0 -158 50q-49 -47 -123 -47q-55 0 -80.5 28.5t-14.5 77.5q10 41 50 68t100 27q27 0 65 -6q0 27 -7 67zM92 24q54 0 82 39q-46 39 -78 39q-46 0 -53 -33
q-4 -20 8.5 -32.5t40.5 -12.5z" />
    <glyph glyph-name="yen" unicode="&#xa5;" 
d="M100 404l70 -2q-11 69 -23 116q-11 45 -26 61t-42 16h-14q11 57 13 95q100 -3 158 -3l157 3q-11 -56 -13 -95h-15q-55 0 -45 -68q13 -83 43 -178q69 117 93 179q26 67 -21 67h-13q11 57 13 95q85 -3 125 -3l107 3q-11 -56 -13 -95h-13q-36 0 -57 -15t-51 -64
q-22 -36 -64 -114l75 2q-9 -46 -11 -74l-101 4l-30 -58l123 4q-8 -39 -10 -75l-136 5l-9 -61q-4 -30 5.5 -42t45.5 -12h28q-11 -43 -14 -96q-99 3 -175 3l-179 -3q11 43 14 96h29q35 0 46.5 11.5t16.5 42.5l9 61l-126 -5q8 33 11 75l110 -4q-1 5 -4 25t-5 32l-93 -3
q9 46 11 74z" />
    <glyph glyph-name="brokenbar" unicode="&#xa6;" horiz-adv-x="300" 
d="M68 -104q0 4 3.5 7.5t7.5 3.5q11 0 11 -11t-11 -11q-4 0 -7.5 3.5t-3.5 7.5zM75 -24q0 7 5 12t12 5t12 -5t5 -12t-5 -12t-12 -5t-12 5t-5 12zM83 56q0 10 6.5 16t15.5 6t15.5 -6t6.5 -16q0 -9 -6.5 -15.5t-15.5 -6.5t-15.5 6.5t-6.5 15.5zM91 137q0 11 8 18.5t19 7.5
q10 0 18 -7.5t8 -18.5t-7.5 -19t-18.5 -8t-19 8t-8 19zM101 217q0 12 8.5 21t20.5 9q13 0 22 -9t9 -21q0 -13 -9 -21.5t-22 -8.5q-12 0 -20.5 8.5t-8.5 21.5zM139 457q0 12 9 21t21 9q13 0 21.5 -9t8.5 -21q0 -13 -8.5 -21.5t-21.5 -8.5q-12 0 -21 8.5t-9 21.5zM155 537
q0 11 8 19t19 8t19 -8t8 -19t-8 -19t-19 -8t-19 8t-8 19zM173 617q0 9 6.5 15.5t15.5 6.5t15.5 -6.5t6.5 -15.5t-6.5 -15.5t-15.5 -6.5t-15.5 6.5t-6.5 15.5zM191 697q0 7 4.5 12t11.5 5t12 -5t5 -12t-5 -12t-12 -5t-11.5 5t-4.5 12zM209 777q0 4 3.5 7.5t7.5 3.5
q11 0 11 -11t-11 -11q-4 0 -7.5 3.5t-3.5 7.5z" />
    <glyph glyph-name="section" unicode="&#xa7;" horiz-adv-x="725" 
d="M470 658l5 -12q-40 -39 -63 -78.5t-46 -125t-46 -236.5q-16 -105 -41.5 -183t-51.5 -120t-59.5 -67t-59.5 -32t-57 -7q-61 0 -91.5 34t-22.5 83q5 33 26.5 56t57.5 23q32 0 48 -17t12 -47q-5 -29 -30 -44t-63 -5q13 -35 59 -35q39 0 63 27t46.5 110t45.5 244
q16 109 45 189t68.5 127t74.5 72t80 44zM234 -152l-5 12q40 40 63 79t46 125t46 236q16 106 41.5 184t51.5 120t59.5 67t59.5 31.5t58 6.5q63 0 91 -34.5t21 -82.5q-5 -33 -26.5 -56t-56.5 -23q-31 0 -48 16.5t-13 47.5q4 29 29 44t64 5q-12 35 -56 35q-39 0 -64 -27
t-48 -110.5t-46 -243.5q-12 -88 -35 -158t-48 -113.5t-59 -77.5t-62 -51t-63 -32z" />
    <glyph glyph-name="dieresis" unicode="&#xa8;" horiz-adv-x="534" 
d="M231 606q-3 -28 -21.5 -44t-44.5 -16t-41.5 16t-12.5 44t21.5 44.5t44.5 16.5t41.5 -16.5t12.5 -44.5zM416 606q-3 -28 -22 -44t-45 -16t-41.5 16t-12.5 44t21.5 44.5t44.5 16.5t42 -16.5t13 -44.5z" />
    <glyph glyph-name="copyright" unicode="&#xa9;" horiz-adv-x="842" 
d="M384 37q153 0 237 84.5t101 222.5q17 140 -45 224t-218 84q-147 0 -234 -85.5t-104 -222.5q-17 -139 45 -223t218 -84zM377 -16q-177 0 -260 97.5t-63 262.5q20 161 134.5 261t277.5 100q170 0 256.5 -99t65.5 -262q-20 -165 -127 -262.5t-284 -97.5zM444 563
q60 0 99 -27q29 -18 36 16q40 -3 59 0q-28 -75 -37 -150q-20 1 -34 1l-39 -1q14 91 -63 91q-45 0 -71 -31t-39 -113q-13 -85 2 -114.5t56 -29.5q43 0 67 24.5t32 75.5h3q3 0 7.5 -0.5t9.5 -1t11 -0.5h11h12t11 0.5t9 1t6 0.5h3q-15 -87 -61.5 -129t-135.5 -42
q-100 0 -146.5 52.5t-29.5 162.5q16 105 75 159.5t147 54.5z" />
    <glyph glyph-name="ordfeminine" unicode="&#xaa;" horiz-adv-x="494" 
d="M45 207q10 41 16 89q187 -3 375 0q-10 -42 -16 -89q-187 3 -375 0zM466 494q-5 -68 -35.5 -109t-80.5 -41q-37 0 -55 17t-17 55q-36 -72 -109 -72q-98 0 -79 146q13 105 58.5 157.5t102.5 52.5q72 0 82 -64q33 27 45 50q8 -1 31 -1t31 1q-27 -117 -44 -220q-11 -67 5 -67
q24 0 38 96zM225 400q22 0 42 37.5t34 113.5q10 51 6 72t-24 21q-46 0 -73 -153q-10 -54 -6.5 -72.5t21.5 -18.5z" />
    <glyph glyph-name="guillemotleft" unicode="&#xab;" horiz-adv-x="439" 
d="M249 429l10 -10q-15 -38 -50 -86.5t-73 -80.5q21 -32 39.5 -81t23.5 -87l-15 -10q-24 27 -72.5 74.5t-79.5 75.5q8 27 12 67q43 28 205 138zM419 429l10 -10q-15 -38 -50 -86.5t-73 -80.5q21 -32 39.5 -81t23.5 -87l-15 -10q-24 27 -72.5 74.5t-79.5 75.5q8 27 12 67
q43 28 205 138z" />
    <glyph glyph-name="registered" unicode="&#xae;" horiz-adv-x="842" 
d="M384 37q153 0 237 84.5t101 222.5q17 140 -45 224t-218 84q-147 0 -234 -85.5t-104 -222.5q-17 -139 45 -223t218 -84zM377 -16q-177 0 -260 97.5t-63 262.5q20 161 134.5 261t277.5 100q170 0 256.5 -99t65.5 -262q-20 -165 -127 -262.5t-284 -97.5zM579 259
q0 -56 19 -56q12 0 16.5 20.5t1.5 46.5l34 3q5 -56 -20 -94.5t-84 -38.5q-61 0 -81 26.5t-15 80.5q4 46 -9.5 64t-47.5 18h-12q-10 -67 -10 -81q-3 -33 27 -33h19q-6 -30 -9 -63q-72 2 -111 2l-114 -2l10 63h20q28 0 36 30q5 18 19 106.5t15 105.5q1 18 -4 25t-20 7h-22
q2 8 5.5 34.5t3.5 27.5q9 0 55.5 -1t59.5 -1h112q89 0 126.5 -25.5t30.5 -80.5q-11 -80 -105 -102q54 -15 54 -82zM405 464q-5 -9 -18 -103h33q70 0 80 66q10 64 -50 64h-12q-26 0 -33 -27z" />
    <glyph glyph-name="macron" unicode="&#xaf;" horiz-adv-x="532" 
d="M119 557q12 37 15 84q46 -1 138 -1t138 1q-10 -37 -15 -84q-46 1 -138 1t-138 -1z" />
    <glyph glyph-name="degree" unicode="&#xb0;" horiz-adv-x="350" 
d="M198 411q86 0 106 122q20 123 -67 123t-107 -123q-11 -67 7 -94.5t61 -27.5zM192 374q-65 0 -96.5 40.5t-19.5 118.5q12 80 55.5 120t111.5 40q65 0 97 -40.5t19 -119.5t-56.5 -119t-110.5 -40z" />
    <glyph glyph-name="plusminus" unicode="&#xb1;" 
d="M31 0q10 42 15 80q88 -2 170 -2q22 95 38 142q-91 -12 -195 -12l15 86q106 0 190 -13q3 82 22 192h86q-19 -104 -47 -192q88 13 195 13l-15 -86q-105 0 -191 12q-2 -39 -16 -142q90 0 188 2q-11 -45 -15 -80q-219 4 -440 0z" />
    <glyph glyph-name="acute" unicode="&#xb4;" horiz-adv-x="532" 
d="M165 537l-8 12q70 95 127 130q34 15 58 6t23.5 -35.5t-32.5 -45.5q-66 -43 -168 -67z" />
    <glyph glyph-name="paragraph" unicode="&#xb6;" horiz-adv-x="563" 
d="M245 31q0 3 7 36.5t16 76t13 63.5q-115 2 -169 67t-33 174q24 125 109.5 183t231.5 58h177l-15 -77h-22q-49 0 -58 -49l-99 -522q-25 -132 -85.5 -189t-178.5 -57q-73 0 -105.5 29.5t-27.5 71.5q9 70 76 70q29 0 43.5 -15.5t12.5 -39.5q-3 -33 -29.5 -46t-60.5 -2
q13 -35 60 -35q51 0 81.5 43.5t55.5 159.5z" />
    <glyph glyph-name="periodcentered" unicode="&#xb7;" horiz-adv-x="295" 
d="M245 245q-3 -41 -29.5 -64.5t-70.5 -23.5q-42 0 -65 22.5t-19 66.5q4 39 31.5 63.5t68.5 24.5q43 0 65.5 -25t18.5 -64z" />
    <glyph glyph-name="cedilla" unicode="&#xb8;" horiz-adv-x="532" 
d="M213 -110l-11 23q65 28 75 94l27 -7q3 -39 -29 -70q46 3 78 -17.5t30 -62.5q-1 -44 -35 -69t-90 -25q-75 0 -108 59l24 20q26 -34 65 -34q53 0 56 49q1 31 -24 42t-58 -2z" />
    <glyph glyph-name="ordmasculine" unicode="&#xba;" horiz-adv-x="441" 
d="M42 207q10 41 16 89q167 -3 335 0q-10 -42 -16 -89q-167 3 -335 0zM236 398q46 0 72 169q7 48 2 63.5t-23 15.5q-48 0 -72 -156q-7 -52 -2 -72t23 -20zM232 344q-71 0 -106.5 41t-25.5 121q9 90 59.5 142t129.5 52q146 0 133 -154q-6 -89 -55.5 -145.5t-134.5 -56.5z" />
    <glyph glyph-name="guillemotright" unicode="&#xbb;" horiz-adv-x="439" 
d="M75 419l14 10q91 -91 153 -148q-9 -32 -12 -68q-117 -73 -204 -139l-11 10q16 38 51 88t70 82q-22 34 -39.5 81t-21.5 84zM246 419l14 10q91 -91 153 -148q-9 -32 -12 -68q-117 -73 -204 -139l-11 10q16 38 51 88t70 82q-22 34 -39.5 81t-21.5 84z" />
    <glyph glyph-name="onequarter" unicode="&#xbc;" horiz-adv-x="378" 
d="M9 344q0 9 6.5 15.5t16.5 6.5q9 0 15.5 -6.5t6.5 -15.5q0 -10 -6.5 -16.5t-15.5 -6.5q-23 0 -23 23zM75 344q0 20 20 20q8 0 14 -6t6 -14q0 -20 -20 -20t-20 20zM140 344q0 18 18 18q8 0 13 -5t5 -13q0 -18 -18 -18t-18 18zM203 344q0 18 18 18q7 0 12.5 -5t5.5 -13
q0 -18 -18 -18t-18 18zM264 344q0 20 20 20q8 0 14 -6t6 -14q0 -20 -20 -20t-20 20zM324 344q0 9 6.5 15.5t16.5 6.5q9 0 15.5 -6.5t6.5 -15.5q0 -10 -6.5 -16.5t-15.5 -6.5q-23 0 -23 23zM184 480l21 126l-58 -1q8 32 8 51h19q77 0 96 58q8 -1 30 -1t30 1q-19 -71 -28 -129
l-16 -105q-4 -27 25 -27h31l-9 -48q-72 1 -112 1l-114 -1q8 32 8 48h34q31 0 35 27zM127 46q0 1 1 7t2 10q-29 0 -71 -0.5t-45 -0.5l4 23l177 201q12 -1 43.5 -1t43.5 1q-10 -39 -35 -198l48 1l-5 -29l-47 1q-2 -12 -2 -14q-3 -21 21 -21h22q-8 -24 -8 -48q-71 2 -108 2
l-103 -2q8 28 8 48h25q25 0 29 20zM134 86q9 44 20 115l-91 -115h71z" />
    <glyph glyph-name="onehalf" unicode="&#xbd;" horiz-adv-x="378" 
d="M9 344q0 9 6.5 15.5t16.5 6.5q9 0 15.5 -6.5t6.5 -15.5q0 -10 -6.5 -16.5t-15.5 -6.5q-23 0 -23 23zM75 344q0 20 20 20q8 0 14 -6t6 -14q0 -20 -20 -20t-20 20zM140 344q0 18 18 18q8 0 13 -5t5 -13q0 -18 -18 -18t-18 18zM203 344q0 18 18 18q7 0 12.5 -5t5.5 -13
q0 -18 -18 -18t-18 18zM264 344q0 20 20 20q8 0 14 -6t6 -14q0 -20 -20 -20t-20 20zM324 344q0 9 6.5 15.5t16.5 6.5q9 0 15.5 -6.5t6.5 -15.5q0 -10 -6.5 -16.5t-15.5 -6.5q-23 0 -23 23zM292 89q14 -39 -7 -78.5t-79 -39.5q-38 0 -87 33q-23 16 -40 16q-16 0 -15 -7
q0 -3 4 -6q13 -7 11 -22t-19 -15q-28 0 -28 37q0 55 88 98q85 40 92 90q4 24 -7.5 39.5t-39.5 15.5q-31 0 -57 -21q11 3 21 3q20 -1 29 -11.5t6 -23.5q-2 -15 -16 -24.5t-35 -9.5q-22 0 -34 12t-8 33q5 35 44.5 58.5t92.5 23.5q62 0 87.5 -25t19.5 -64q-14 -87 -176 -118
q-42 -9 -58 -31q7 4 16 6t15.5 3t19 0.5t17.5 -0.5t20 -1.5t19 -1.5q19 -1 36 -0.5t28.5 7.5t11.5 21zM184 480l21 126l-58 -1q8 32 8 51h19q77 0 96 58q8 -1 30 -1t30 1q-19 -71 -28 -129l-16 -105q-4 -27 25 -27h31l-9 -48q-72 1 -112 1l-114 -1q8 32 8 48h34q31 0 35 27z
" />
    <glyph glyph-name="threequarters" unicode="&#xbe;" horiz-adv-x="378" 
d="M9 344q0 9 6.5 15.5t16.5 6.5q9 0 15.5 -6.5t6.5 -15.5q0 -10 -6.5 -16.5t-15.5 -6.5q-23 0 -23 23zM75 344q0 20 20 20q8 0 14 -6t6 -14q0 -20 -20 -20t-20 20zM140 344q0 18 18 18q8 0 13 -5t5 -13q0 -18 -18 -18t-18 18zM203 344q0 18 18 18q7 0 12.5 -5t5.5 -13
q0 -18 -18 -18t-18 18zM264 344q0 20 20 20q8 0 14 -6t6 -14q0 -20 -20 -20t-20 20zM324 344q0 9 6.5 15.5t16.5 6.5q9 0 15.5 -6.5t6.5 -15.5q0 -10 -6.5 -16.5t-15.5 -6.5q-23 0 -23 23zM369 641q-4 -56 -70 -77q62 -16 59 -68q-7 -98 -163 -98q-54 0 -84.5 20t-27.5 53
q2 24 18.5 38.5t41.5 14.5q22 0 32.5 -9.5t9.5 -24.5q-1 -19 -15.5 -29.5t-36.5 -8.5q-7 0 -11 1q18 -21 52 -21q69 0 75 64q2 25 -12.5 38t-43.5 13h-16l6 29h12q64 2 69 56q2 20 -9 32.5t-37 12.5q-34 0 -56 -17q10 2 14 2q20 0 30.5 -9t9.5 -23q-3 -37 -48 -37
q-22 0 -34 10.5t-11 30.5q3 36 43 59.5t97 23.5q56 0 82.5 -20.5t23.5 -55.5zM127 46q0 1 1 7t2 10q-29 0 -71 -0.5t-45 -0.5l4 23l177 201q12 -1 43.5 -1t43.5 1q-10 -39 -35 -198l48 1l-5 -29l-47 1q-2 -12 -2 -14q-3 -21 21 -21h22q-8 -24 -8 -48q-71 2 -108 2l-103 -2
q8 28 8 48h25q25 0 29 20zM134 86q9 44 20 115l-91 -115h71z" />
    <glyph glyph-name="questiondown" unicode="&#xbf;" horiz-adv-x="597" 
d="M218 185l-10 28q71 50 149 47q36 -1 55.5 -19t17.5 -46q-2 -26 -23 -46t-65 -43q-103 -52 -115 -144q-8 -60 17.5 -91.5t79.5 -33.5q39 0 72.5 15.5t53.5 42.5q-24 -9 -50 -9q-36 2 -53.5 23t-10.5 60q5 33 31.5 54t67.5 20q40 -1 61.5 -31.5t12.5 -82.5
q-15 -80 -87 -127t-172 -47q-120 0 -171 51.5t-39 133.5q11 77 69.5 127t163.5 85q48 16 63.5 26.5t15.5 22.5q0 19 -27 20q-47 3 -107 -36zM271 400q2 39 26 61t67 22q40 0 62 -21.5t21 -63.5q-1 -38 -26.5 -61.5t-64.5 -23.5q-42 0 -64.5 24t-20.5 63z" />
    <glyph glyph-name="Agrave" unicode="&#xc0;" horiz-adv-x="878" 
d="M500 213q-98 3 -238 1l-12 -25q-23 -48 -16 -71t47 -23h37q-8 -38 -15 -97q-100 2 -157 2l-159 -2q9 46 15 97h25q41 0 65.5 19.5t51.5 68.5q137 248 269 514q60 -2 93 -2l92 2q50 -245 122 -514q13 -50 30.5 -69t47.5 -19h32q-6 -23 -15 -97q-134 2 -209 2l-209 -2
q9 46 15 97h40q36 0 48 23t4 72l-2 9q-1 9 -2 14zM290 269q102 -2 198 0q-33 158 -59 270q-8 -15 -61.5 -118.5t-77.5 -151.5zM576 759l-8 -12q-103 24 -168 67q-32 19 -32.5 45.5t23.5 35.5t58 -6q57 -35 127 -130z" />
    <glyph glyph-name="Aacute" unicode="&#xc1;" horiz-adv-x="878" 
d="M500 213q-98 3 -238 1l-12 -25q-23 -48 -16 -71t47 -23h37q-8 -38 -15 -97q-100 2 -157 2l-159 -2q9 46 15 97h25q41 0 65.5 19.5t51.5 68.5q137 248 269 514q60 -2 93 -2l92 2q50 -245 122 -514q13 -50 30.5 -69t47.5 -19h32q-6 -23 -15 -97q-134 2 -209 2l-209 -2
q9 46 15 97h40q36 0 48 23t4 72l-2 9q-1 9 -2 14zM290 269q102 -2 198 0q-33 158 -59 270q-8 -15 -61.5 -118.5t-77.5 -151.5zM480 747l-8 12q70 95 127 130q34 15 58 6t23.5 -35.5t-32.5 -45.5q-66 -43 -168 -67z" />
    <glyph glyph-name="Acircumflex" unicode="&#xc2;" horiz-adv-x="878" 
d="M500 213q-98 3 -238 1l-12 -25q-23 -48 -16 -71t47 -23h37q-8 -38 -15 -97q-100 2 -157 2l-159 -2q9 46 15 97h25q41 0 65.5 19.5t51.5 68.5q137 248 269 514q60 -2 93 -2l92 2q50 -245 122 -514q13 -50 30.5 -69t47.5 -19h32q-6 -23 -15 -97q-134 2 -209 2l-209 -2
q9 46 15 97h40q36 0 48 23t4 72l-2 9q-1 9 -2 14zM290 269q102 -2 198 0q-33 158 -59 270q-8 -15 -61.5 -118.5t-77.5 -151.5zM656 757l-12 -10q-66 27 -118 82q-26 -22 -72 -47.5t-75 -34.5l-9 11q19 39 57.5 79t76.5 67h68q53 -50 84 -147z" />
    <glyph glyph-name="Atilde" unicode="&#xc3;" horiz-adv-x="878" 
d="M500 213q-98 3 -238 1l-12 -25q-23 -48 -16 -71t47 -23h37q-8 -38 -15 -97q-100 2 -157 2l-159 -2q9 46 15 97h25q41 0 65.5 19.5t51.5 68.5q137 248 269 514q60 -2 93 -2l92 2q50 -245 122 -514q13 -50 30.5 -69t47.5 -19h32q-6 -23 -15 -97q-134 2 -209 2l-209 -2
q9 46 15 97h40q36 0 48 23t4 72l-2 9q-1 9 -2 14zM290 269q102 -2 198 0q-33 158 -59 270q-8 -15 -61.5 -118.5t-77.5 -151.5zM641 864l27 1q10 -69 -21 -101t-85 -30q-37 2 -57 17.5t-40 48.5q-15 25 -23.5 33.5t-23.5 8.5q-41 0 -33 -80l-27 -1q-11 71 19 102.5t87 29.5
q33 -1 54.5 -16t41.5 -49q14 -24 23.5 -33.5t23.5 -9.5q42 0 34 79z" />
    <glyph glyph-name="Adieresis" unicode="&#xc4;" horiz-adv-x="878" 
d="M500 213q-98 3 -238 1l-12 -25q-23 -48 -16 -71t47 -23h37q-8 -38 -15 -97q-100 2 -157 2l-159 -2q9 46 15 97h25q41 0 65.5 19.5t51.5 68.5q137 248 269 514q60 -2 93 -2l92 2q50 -245 122 -514q13 -50 30.5 -69t47.5 -19h32q-6 -23 -15 -97q-134 2 -209 2l-209 -2
q9 46 15 97h40q36 0 48 23t4 72l-2 9q-1 9 -2 14zM290 269q102 -2 198 0q-33 158 -59 270q-8 -15 -61.5 -118.5t-77.5 -151.5zM486 816q-3 -28 -21.5 -44t-44.5 -16t-41.5 16t-12.5 44t21.5 44.5t44.5 16.5t41.5 -16.5t12.5 -44.5zM671 816q-3 -28 -22 -44t-45 -16t-41.5 16
t-12.5 44t21.5 44.5t44.5 16.5t42 -16.5t13 -44.5z" />
    <glyph glyph-name="Aring" unicode="&#xc5;" horiz-adv-x="878" 
d="M500 213q-98 3 -238 1l-12 -25q-23 -48 -16 -71t47 -23h37q-8 -38 -15 -97q-100 2 -157 2l-159 -2q9 46 15 97h25q41 0 65.5 19.5t51.5 68.5q137 248 269 514q60 -2 93 -2l92 2q50 -245 122 -514q13 -50 30.5 -69t47.5 -19h32q-6 -23 -15 -97q-134 2 -209 2l-209 -2
q9 46 15 97h40q36 0 48 23t4 72l-2 9q-1 9 -2 14zM290 269q102 -2 198 0q-33 158 -59 270q-8 -15 -61.5 -118.5t-77.5 -151.5zM468 842q-2 -24 9 -36.5t32 -12.5q46 0 52 49q2 24 -9 37t-32 13t-35 -13t-17 -37zM424 842q5 40 31.5 65t67.5 25q40 0 62.5 -25t18.5 -65
q-5 -40 -31 -65t-67 -25q-40 0 -63 25t-19 65z" />
    <glyph glyph-name="AE" unicode="&#xc6;" horiz-adv-x="1087" 
d="M1061 273q-23 -90 -47 -277q-46 4 -212 4q-239 1 -276 1l-179 -2q12 47 15 96h31q33 0 49 16t22 49l10 54q-90 2 -178 0q-9 -13 -16 -25q-58 -94 13 -94h30q-13 -49 -16 -96q-103 3 -161 3l-160 -3q13 52 16 96h25q41 0 71 20t68 68q164 206 266 349q21 28 14.5 47.5
t-39.5 19.5h-19q11 45 16 95q55 -6 238 -6h251q172 0 228 7q-27 -110 -45 -259q-39 2 -95 -1l2 12q5 48 5.5 77t-15.5 44.5t-37 20t-59 4.5h-103q-31 0 -45 -12.5t-21 -43.5q-10 -48 -28 -158h41q48 0 70.5 22t30.5 73l4 27h76q-21 -88 -31 -153q-12 -73 -15 -155h-76l4 24
q8 52 -7.5 76t-65.5 24h-41q-21 -135 -23 -161q-6 -61 51 -61h100q80 0 113 34.5t46 133.5l1 10q14 -1 52 -1t51 1zM335 271q103 0 149 1q28 167 37 253q-94 -121 -186 -254z" />
    <glyph glyph-name="Ccedilla" unicode="&#xc7;" horiz-adv-x="714" 
d="M248 -110l-11 23q50 22 67 63q-308 17 -257 370q29 184 124.5 274t245.5 90q87 0 168 -44q54 -29 64 29q13 -1 41 -1t41 1q-19 -44 -34 -119.5t-20 -140.5q-1 0 -24 1t-32 1q-8 0 -33.5 -1t-26.5 -1q26 173 -122 173q-78 0 -122.5 -58.5t-66.5 -203.5q-12 -65 -9 -111.5
t10.5 -76t25.5 -46t37.5 -23t46.5 -6.5q82 0 127 46.5t62 139.5q8 -2 61 -2q55 0 63 2q-25 -149 -105 -221.5t-231 -72.5h-1q-6 -24 -27 -45q46 3 78 -17.5t30 -62.5q-1 -44 -35 -69t-90 -25q-75 0 -108 59l24 20q26 -34 65 -34q53 0 56 49q1 31 -24 42t-58 -2z" />
    <glyph glyph-name="Egrave" unicode="&#xc8;" horiz-adv-x="724" 
d="M458 474l4 27h76q-19 -84 -29 -152q-11 -76 -16 -156h-75l3 24q7 51 -8 74.5t-62 25.5h-45q-20 -127 -22 -166q-2 -31 11.5 -43.5t41.5 -12.5h99q78 0 110 33.5t48 134.5l1 10q13 -1 51 -1t51 1q-22 -92 -46 -277q-57 4 -204 4h-262l-197 -2q13 82 15 97h36q30 0 40 12.5
t19 46.5q8 31 33.5 193.5t27.5 192.5q2 29 -8.5 42t-35.5 13h-41q11 43 14 95q2 0 41 -1t86.5 -1.5t69.5 -0.5h240q168 0 232 8q-30 -123 -45 -258q-14 1 -49 1t-46 -1l2 13q13 91 -9.5 117.5t-99.5 26.5h-101q-29 0 -43.5 -11.5t-21.5 -43.5q-7 -27 -29 -160h36
q52 0 75.5 21.5t31.5 73.5zM504 759l-8 -12q-103 24 -168 67q-32 19 -32.5 45.5t23.5 35.5t58 -6q57 -35 127 -130z" />
    <glyph glyph-name="Eacute" unicode="&#xc9;" horiz-adv-x="724" 
d="M405 747l-8 12q70 95 127 130q34 15 58 6t23.5 -35.5t-32.5 -45.5q-66 -43 -168 -67zM458 474l4 27h76q-19 -84 -29 -152q-11 -76 -16 -156h-75l3 24q7 51 -8 74.5t-62 25.5h-45q-20 -127 -22 -166q-2 -31 11.5 -43.5t41.5 -12.5h99q78 0 110 33.5t48 134.5l1 10
q13 -1 51 -1t51 1q-22 -92 -46 -277q-57 4 -204 4h-262l-197 -2q13 82 15 97h36q30 0 40 12.5t19 46.5q8 31 33.5 193.5t27.5 192.5q2 29 -8.5 42t-35.5 13h-41q11 43 14 95q2 0 41 -1t86.5 -1.5t69.5 -0.5h240q168 0 232 8q-30 -123 -45 -258q-14 1 -49 1t-46 -1l2 13
q13 91 -9.5 117.5t-99.5 26.5h-101q-29 0 -43.5 -11.5t-21.5 -43.5q-7 -27 -29 -160h36q52 0 75.5 21.5t31.5 73.5z" />
    <glyph glyph-name="Ecircumflex" unicode="&#xca;" horiz-adv-x="724" 
d="M598 757l-12 -10q-66 27 -118 82q-26 -22 -72 -47.5t-75 -34.5l-9 11q19 39 57.5 79t76.5 67h68q53 -50 84 -147zM458 474l4 27h76q-19 -84 -29 -152q-11 -76 -16 -156h-75l3 24q7 51 -8 74.5t-62 25.5h-45q-20 -127 -22 -166q-2 -31 11.5 -43.5t41.5 -12.5h99
q78 0 110 33.5t48 134.5l1 10q13 -1 51 -1t51 1q-22 -92 -46 -277q-57 4 -204 4h-262l-197 -2q13 82 15 97h36q30 0 40 12.5t19 46.5q8 31 33.5 193.5t27.5 192.5q2 29 -8.5 42t-35.5 13h-41q11 43 14 95q2 0 41 -1t86.5 -1.5t69.5 -0.5h240q168 0 232 8q-30 -123 -45 -258
q-14 1 -49 1t-46 -1l2 13q13 91 -9.5 117.5t-99.5 26.5h-101q-29 0 -43.5 -11.5t-21.5 -43.5q-7 -27 -29 -160h36q52 0 75.5 21.5t31.5 73.5z" />
    <glyph glyph-name="Edieresis" unicode="&#xcb;" horiz-adv-x="724" 
d="M427 816q-3 -28 -21.5 -44t-44.5 -16t-41.5 16t-12.5 44t21.5 44.5t44.5 16.5t41.5 -16.5t12.5 -44.5zM612 816q-3 -28 -22 -44t-45 -16t-41.5 16t-12.5 44t21.5 44.5t44.5 16.5t42 -16.5t13 -44.5zM458 474l4 27h76q-19 -84 -29 -152q-11 -76 -16 -156h-75l3 24
q7 51 -8 74.5t-62 25.5h-45q-20 -127 -22 -166q-2 -31 11.5 -43.5t41.5 -12.5h99q78 0 110 33.5t48 134.5l1 10q13 -1 51 -1t51 1q-22 -92 -46 -277q-57 4 -204 4h-262l-197 -2q13 82 15 97h36q30 0 40 12.5t19 46.5q8 31 33.5 193.5t27.5 192.5q2 29 -8.5 42t-35.5 13h-41
q11 43 14 95q2 0 41 -1t86.5 -1.5t69.5 -0.5h240q168 0 232 8q-30 -123 -45 -258q-14 1 -49 1t-46 -1l2 13q13 91 -9.5 117.5t-99.5 26.5h-101q-29 0 -43.5 -11.5t-21.5 -43.5q-7 -27 -29 -160h36q52 0 75.5 21.5t31.5 73.5z" />
    <glyph glyph-name="Igrave" unicode="&#xcc;" horiz-adv-x="422" 
d="M-14 -2q2 9 14 97h37q31 0 41 9t18 40q8 29 34.5 198t28.5 199t-7 42t-36 12h-41q3 13 14 94q118 -2 184 -2q39 0 110 1t73 1q-10 -52 -13 -94h-36q-27 0 -41.5 -12.5t-22.5 -41.5q-7 -28 -33.5 -199.5t-28.5 -197.5q-2 -27 7.5 -38t42.5 -11h36q-10 -55 -13 -97
q-118 2 -184 2zM347 759l-8 -12q-103 24 -168 67q-32 19 -32.5 45.5t23.5 35.5t58 -6q57 -35 127 -130z" />
    <glyph glyph-name="Iacute" unicode="&#xcd;" horiz-adv-x="422" 
d="M-14 -2q2 9 14 97h37q31 0 41 9t18 40q8 29 34.5 198t28.5 199t-7 42t-36 12h-41q3 13 14 94q118 -2 184 -2q39 0 110 1t73 1q-10 -52 -13 -94h-36q-27 0 -41.5 -12.5t-22.5 -41.5q-7 -28 -33.5 -199.5t-28.5 -197.5q-2 -27 7.5 -38t42.5 -11h36q-10 -55 -13 -97
q-118 2 -184 2zM247 747l-8 12q70 95 127 130q34 15 58 6t23.5 -35.5t-32.5 -45.5q-66 -43 -168 -67z" />
    <glyph glyph-name="Icircumflex" unicode="&#xce;" horiz-adv-x="422" 
d="M-14 -2q2 9 14 97h37q31 0 41 9t18 40q8 29 34.5 198t28.5 199t-7 42t-36 12h-41q3 13 14 94q118 -2 184 -2q39 0 110 1t73 1q-10 -52 -13 -94h-36q-27 0 -41.5 -12.5t-22.5 -41.5q-7 -28 -33.5 -199.5t-28.5 -197.5q-2 -27 7.5 -38t42.5 -11h36q-10 -55 -13 -97
q-118 2 -184 2zM422 757l-12 -10q-66 27 -118 82q-26 -22 -72 -47.5t-75 -34.5l-9 11q19 39 57.5 79t76.5 67h68q53 -50 84 -147z" />
    <glyph glyph-name="Idieresis" unicode="&#xcf;" horiz-adv-x="422" 
d="M-14 -2q2 9 14 97h37q31 0 41 9t18 40q8 29 34.5 198t28.5 199t-7 42t-36 12h-41q3 13 14 94q118 -2 184 -2q39 0 110 1t73 1q-10 -52 -13 -94h-36q-27 0 -41.5 -12.5t-22.5 -41.5q-7 -28 -33.5 -199.5t-28.5 -197.5q-2 -27 7.5 -38t42.5 -11h36q-10 -55 -13 -97
q-118 2 -184 2zM260 816q-3 -28 -21.5 -44t-44.5 -16t-41.5 16t-12.5 44t21.5 44.5t44.5 16.5t41.5 -16.5t12.5 -44.5zM445 816q-3 -28 -22 -44t-45 -16t-41.5 16t-12.5 44t21.5 44.5t44.5 16.5t42 -16.5t13 -44.5z" />
    <glyph glyph-name="Eth" unicode="&#xd0;" horiz-adv-x="801" 
d="M473 688q171 0 244 -86.5t49 -266.5q-47 -336 -392 -336q-130 1 -195 1l-192 -2q12 47 15 97h37q30 0 41.5 12.5t19.5 46.5q4 18 25 154q-15 0 -36.5 -0.5t-26.5 -0.5q11 33 14 83q13 -1 62 -1q19 135 20 152q2 30 -7.5 42t-35.5 12h-42q11 43 14 95q105 -3 193 -3
q44 0 111 0.5t82 0.5zM285 142q-3 -51 44 -51h26q96 0 147.5 53t72.5 193q22 150 -9 206t-132 56h-32q-41 0 -54 -42q-5 -14 -29 -169q79 0 123 2q-8 -31 -14 -83q-7 0 -49 0.5t-72 0.5q-20 -130 -22 -166z" />
    <glyph glyph-name="Ntilde" unicode="&#xd1;" horiz-adv-x="826" 
d="M376 689q28 -66 222 -430q32 194 39 272q3 35 -9.5 49.5t-40.5 14.5h-54q11 42 14 94q10 0 68 -1t90 -1l157 2q-11 -40 -14 -94h-42q-28 0 -44.5 -14.5t-24.5 -49.5q-12 -56 -39.5 -242.5t-39.5 -289.5q-22 1 -79 1t-79 -1q-22 48 -244 475q-36 -210 -47 -315
q-5 -64 62 -64h44q-12 -58 -14 -97q-102 2 -159 2l-158 -2q6 30 14 97h34q64 0 79 64q10 45 33 193t24 184q2 31 -10 45t-44 14h-41q5 27 14 94q143 -4 289 0zM634 869l27 1q10 -69 -21 -101t-85 -30q-37 2 -57 17.5t-40 48.5q-15 25 -23.5 33.5t-23.5 8.5q-41 0 -33 -80
l-27 -1q-11 71 19 102.5t87 29.5q33 -1 54.5 -16t41.5 -49q14 -24 23.5 -33.5t23.5 -9.5q42 0 34 79z" />
    <glyph glyph-name="Ograve" unicode="&#xd2;" horiz-adv-x="794" 
d="M366 77q82 0 125 62t65 208q23 148 -2 204.5t-105 56.5q-79 0 -124 -59t-66 -203q-22 -149 2.5 -209t104.5 -60zM352 -25q-166 0 -247 95.5t-54 275.5q28 182 137 273t275 91q176 0 251.5 -92t48.5 -271q-27 -185 -139 -278.5t-272 -93.5zM519 759l-8 -12
q-103 24 -168 67q-32 19 -32.5 45.5t23.5 35.5t58 -6q57 -35 127 -130z" />
    <glyph glyph-name="Oacute" unicode="&#xd3;" horiz-adv-x="794" 
d="M445 747l-8 12q70 95 127 130q34 15 58 6t23.5 -35.5t-32.5 -45.5q-66 -43 -168 -67zM366 77q82 0 125 62t65 208q23 148 -2 204.5t-105 56.5q-79 0 -124 -59t-66 -203q-22 -149 2.5 -209t104.5 -60zM352 -25q-166 0 -247 95.5t-54 275.5q28 182 137 273t275 91
q176 0 251.5 -92t48.5 -271q-27 -185 -139 -278.5t-272 -93.5z" />
    <glyph glyph-name="Ocircumflex" unicode="&#xd4;" horiz-adv-x="794" 
d="M621 757l-12 -10q-66 27 -118 82q-26 -22 -72 -47.5t-75 -34.5l-9 11q19 39 57.5 79t76.5 67h68q53 -50 84 -147zM366 77q82 0 125 62t65 208q23 148 -2 204.5t-105 56.5q-79 0 -124 -59t-66 -203q-22 -149 2.5 -209t104.5 -60zM352 -25q-166 0 -247 95.5t-54 275.5
q28 182 137 273t275 91q176 0 251.5 -92t48.5 -271q-27 -185 -139 -278.5t-272 -93.5z" />
    <glyph glyph-name="Otilde" unicode="&#xd5;" horiz-adv-x="794" 
d="M366 77q82 0 125 62t65 208q23 148 -2 204.5t-105 56.5q-79 0 -124 -59t-66 -203q-22 -149 2.5 -209t104.5 -60zM352 -25q-166 0 -247 95.5t-54 275.5q28 182 137 273t275 91q176 0 251.5 -92t48.5 -271q-27 -185 -139 -278.5t-272 -93.5zM619 869l27 1q10 -69 -21 -101
t-85 -30q-37 2 -57 17.5t-40 48.5q-15 25 -23.5 33.5t-23.5 8.5q-41 0 -33 -80l-27 -1q-11 71 19 102.5t87 29.5q33 -1 54.5 -16t41.5 -49q14 -24 23.5 -33.5t23.5 -9.5q42 0 34 79z" />
    <glyph glyph-name="Odieresis" unicode="&#xd6;" horiz-adv-x="794" 
d="M449 816q-3 -28 -21.5 -44t-44.5 -16t-41.5 16t-12.5 44t21.5 44.5t44.5 16.5t41.5 -16.5t12.5 -44.5zM634 816q-3 -28 -22 -44t-45 -16t-41.5 16t-12.5 44t21.5 44.5t44.5 16.5t42 -16.5t13 -44.5zM366 77q82 0 125 62t65 208q23 148 -2 204.5t-105 56.5q-79 0 -124 -59
t-66 -203q-22 -149 2.5 -209t104.5 -60zM352 -25q-166 0 -247 95.5t-54 275.5q28 182 137 273t275 91q176 0 251.5 -92t48.5 -271q-27 -185 -139 -278.5t-272 -93.5z" />
    <glyph glyph-name="multiply" unicode="&#xd7;" 
d="M464 122l-73 -61q-58 73 -100 146q-42 -45 -145 -135l-49 61q79 65 159 117q-60 53 -121 127l72 61q65 -83 100 -145q63 68 145 137l49 -61q-79 -67 -160 -120q47 -42 123 -127z" />
    <glyph glyph-name="Oslash" unicode="&#xd8;" horiz-adv-x="794" 
d="M352 -25q-114 0 -188 45l-62 -62l-24 19l49 71q-105 96 -76 298q28 182 137 273t275 91q109 0 181 -37l62 64l22 -18l-47 -69q114 -88 82 -303q-27 -185 -139 -278.5t-272 -93.5zM366 77q82 0 125 62t65 208q16 108 9 160l-151 -171l-153 -198q24 -61 105 -61zM259 346
q-15 -92 -10 -152l149 170l5 6l147 190q-26 48 -101 48q-79 0 -124 -59t-66 -203z" />
    <glyph glyph-name="Ugrave" unicode="&#xd9;" horiz-adv-x="822" 
d="M110 270q5 25 21.5 132t18.5 134q2 32 -7.5 45.5t-36.5 13.5h-31q5 27 14 94q121 -2 188 -2q40 0 112 1t74 1q-6 -23 -15 -94h-39q-28 0 -43.5 -13.5t-24.5 -45.5q-6 -23 -39 -266q-14 -97 13.5 -138t99.5 -41t111 40t56 139q36 218 40 266q5 59 -49 59h-35q11 42 14 94
q99 -2 155 -2q32 0 91 1t62 1q-6 -30 -14 -94h-31q-49 0 -61 -59q-3 -14 -39 -267q-46 -292 -337 -292q-158 0 -225.5 67.5t-42.5 225.5zM562 759l-8 -12q-103 24 -168 67q-32 19 -32.5 45.5t23.5 35.5t58 -6q57 -35 127 -130z" />
    <glyph glyph-name="Uacute" unicode="&#xda;" horiz-adv-x="822" 
d="M479 747l-8 12q70 95 127 130q34 15 58 6t23.5 -35.5t-32.5 -45.5q-66 -43 -168 -67zM110 270q5 25 21.5 132t18.5 134q2 32 -7.5 45.5t-36.5 13.5h-31q5 27 14 94q121 -2 188 -2q40 0 112 1t74 1q-6 -23 -15 -94h-39q-28 0 -43.5 -13.5t-24.5 -45.5q-6 -23 -39 -266
q-14 -97 13.5 -138t99.5 -41t111 40t56 139q36 218 40 266q5 59 -49 59h-35q11 42 14 94q99 -2 155 -2q32 0 91 1t62 1q-6 -30 -14 -94h-31q-49 0 -61 -59q-3 -14 -39 -267q-46 -292 -337 -292q-158 0 -225.5 67.5t-42.5 225.5z" />
    <glyph glyph-name="Ucircumflex" unicode="&#xdb;" horiz-adv-x="822" 
d="M661 757l-12 -10q-66 27 -118 82q-26 -22 -72 -47.5t-75 -34.5l-9 11q19 39 57.5 79t76.5 67h68q53 -50 84 -147zM110 270q5 25 21.5 132t18.5 134q2 32 -7.5 45.5t-36.5 13.5h-31q5 27 14 94q121 -2 188 -2q40 0 112 1t74 1q-6 -23 -15 -94h-39q-28 0 -43.5 -13.5
t-24.5 -45.5q-6 -23 -39 -266q-14 -97 13.5 -138t99.5 -41t111 40t56 139q36 218 40 266q5 59 -49 59h-35q11 42 14 94q99 -2 155 -2q32 0 91 1t62 1q-6 -30 -14 -94h-31q-49 0 -61 -59q-3 -14 -39 -267q-46 -292 -337 -292q-158 0 -225.5 67.5t-42.5 225.5z" />
    <glyph glyph-name="Udieresis" unicode="&#xdc;" horiz-adv-x="822" 
d="M490 816q-3 -28 -21.5 -44t-44.5 -16t-41.5 16t-12.5 44t21.5 44.5t44.5 16.5t41.5 -16.5t12.5 -44.5zM675 816q-3 -28 -22 -44t-45 -16t-41.5 16t-12.5 44t21.5 44.5t44.5 16.5t42 -16.5t13 -44.5zM110 270q5 25 21.5 132t18.5 134q2 32 -7.5 45.5t-36.5 13.5h-31
q5 27 14 94q121 -2 188 -2q40 0 112 1t74 1q-6 -23 -15 -94h-39q-28 0 -43.5 -13.5t-24.5 -45.5q-6 -23 -39 -266q-14 -97 13.5 -138t99.5 -41t111 40t56 139q36 218 40 266q5 59 -49 59h-35q11 42 14 94q99 -2 155 -2q32 0 91 1t62 1q-6 -30 -14 -94h-31q-49 0 -61 -59
q-3 -14 -39 -267q-46 -292 -337 -292q-158 0 -225.5 67.5t-42.5 225.5z" />
    <glyph glyph-name="Yacute" unicode="&#xdd;" horiz-adv-x="839" 
d="M696 521q-76 -103 -188 -278l-13 -91q-5 -31 5 -44t46 -13h47q-6 -30 -14 -97q-133 2 -208 2l-209 -2q11 42 14 97h44q37 0 50.5 12t17.5 43l13 88q-48 143 -109 295q-14 34 -37 48t-70 14h-16q11 42 14 94q136 -2 213 -2l214 2q-11 -43 -14 -94h-30q-69 0 -47 -85
q14 -50 66 -174q83 121 112 174q23 38 21 61.5t-39 23.5h-25q11 42 14 94q101 -2 158 -2l156 2q-11 -40 -14 -94h-20q-62 0 -92.5 -17t-59.5 -57zM534 747l-8 12q70 95 127 130q34 15 58 6t23.5 -35.5t-32.5 -45.5q-66 -43 -168 -67z" />
    <glyph glyph-name="Thorn" unicode="&#xde;" horiz-adv-x="673" 
d="M-12 -2q2 9 14 97h37q31 0 41 9t18 40q8 29 34.5 198t28.5 199t-7 42t-36 12h-41q3 13 14 94q118 -2 184 -2q39 0 110 1t73 1q-10 -52 -13 -94h-36q-27 0 -41.5 -12.5t-22.5 -41.5l-3 -10q59 7 110 7q129 0 193 -53t44 -155q-20 -98 -97 -137t-230 -39q-40 0 -78 5
q-4 -39 6 -51.5t43 -12.5h36q-10 -55 -13 -97q-118 2 -184 2zM379 452q-19 0 -51 -2l-33 -210q24 -2 38 -2q73 0 106 21t43 79q21 114 -103 114z" />
    <glyph glyph-name="germandbls" unicode="&#xdf;" horiz-adv-x="604" 
d="M48 414l7 48l69 -1q91 248 282 248q100 0 140.5 -57.5t27.5 -140.5q-19 -117 -123 -145q82 -9 113.5 -65t16.5 -144q-29 -173 -210 -173q-80 0 -108.5 48t3.5 138l37 -3q-43 -116 27 -116q28 0 46.5 29.5t32.5 97.5q18 88 -7 125.5t-90 33.5q6 20 9 43q37 0 60 27.5
t37 99.5q29 148 -34 148q-30 0 -50 -18.5t-42 -86t-39 -190.5q-43 -306 -120 -434.5t-197 -128.5q-57 0 -84 26t-18 65q11 51 64 51q26 0 40 -16t8 -41q-5 -21 -24 -31t-42 -8q10 -9 33 -9q64 0 93 78t58 291q16 120 44 212z" />
    <glyph glyph-name="agrave" unicode="&#xe0;" horiz-adv-x="576" 
d="M568 187q-8 -96 -51 -152t-112 -56q-56 0 -80.5 26t-20.5 85q-52 -111 -157 -111q-64 0 -95.5 49.5t-17.5 157.5q19 147 84 222t145 75q103 0 117 -92q48 43 64 74q11 -1 43 -1t43 1q-40 -170 -63 -314q-8 -55 -7 -77.5t14 -22.5q36 0 55 138zM224 52q32 0 62 55.5
t49 164.5q14 74 8.5 106t-35.5 32q-67 0 -106 -222q-14 -81 -9.5 -108.5t31.5 -27.5zM402 539l-8 -12q-103 24 -168 67q-32 19 -32.5 45.5t23.5 35.5t58 -6q57 -35 127 -130z" />
    <glyph glyph-name="aacute" unicode="&#xe1;" horiz-adv-x="576" 
d="M568 187q-8 -96 -51 -152t-112 -56q-56 0 -80.5 26t-20.5 85q-52 -111 -157 -111q-64 0 -95.5 49.5t-17.5 157.5q19 147 84 222t145 75q103 0 117 -92q48 43 64 74q11 -1 43 -1t43 1q-40 -170 -63 -314q-8 -55 -7 -77.5t14 -22.5q36 0 55 138zM224 52q32 0 62 55.5
t49 164.5q14 74 8.5 106t-35.5 32q-67 0 -106 -222q-14 -81 -9.5 -108.5t31.5 -27.5zM312 527l-8 12q70 95 127 130q34 15 58 6t23.5 -35.5t-32.5 -45.5q-66 -43 -168 -67z" />
    <glyph glyph-name="acircumflex" unicode="&#xe2;" horiz-adv-x="576" 
d="M568 187q-8 -96 -51 -152t-112 -56q-56 0 -80.5 26t-20.5 85q-52 -111 -157 -111q-64 0 -95.5 49.5t-17.5 157.5q19 147 84 222t145 75q103 0 117 -92q48 43 64 74q11 -1 43 -1t43 1q-40 -170 -63 -314q-8 -55 -7 -77.5t14 -22.5q36 0 55 138zM224 52q32 0 62 55.5
t49 164.5q14 74 8.5 106t-35.5 32q-67 0 -106 -222q-14 -81 -9.5 -108.5t31.5 -27.5zM507 537l-12 -10q-66 27 -118 82q-26 -22 -72 -47.5t-75 -34.5l-9 11q19 39 57.5 79t76.5 67h68q53 -50 84 -147z" />
    <glyph glyph-name="atilde" unicode="&#xe3;" horiz-adv-x="576" 
d="M568 187q-8 -96 -51 -152t-112 -56q-56 0 -80.5 26t-20.5 85q-52 -111 -157 -111q-64 0 -95.5 49.5t-17.5 157.5q19 147 84 222t145 75q103 0 117 -92q48 43 64 74q11 -1 43 -1t43 1q-40 -170 -63 -314q-8 -55 -7 -77.5t14 -22.5q36 0 55 138zM224 52q32 0 62 55.5
t49 164.5q14 74 8.5 106t-35.5 32q-67 0 -106 -222q-14 -81 -9.5 -108.5t31.5 -27.5zM498 649l27 1q10 -69 -21 -101t-85 -30q-37 2 -57 17.5t-40 48.5q-15 25 -23.5 33.5t-23.5 8.5q-41 0 -33 -80l-27 -1q-11 71 19 102.5t87 29.5q33 -1 54.5 -16t41.5 -49
q14 -24 23.5 -33.5t23.5 -9.5q42 0 34 79z" />
    <glyph glyph-name="adieresis" unicode="&#xe4;" horiz-adv-x="576" 
d="M568 187q-8 -96 -51 -152t-112 -56q-56 0 -80.5 26t-20.5 85q-52 -111 -157 -111q-64 0 -95.5 49.5t-17.5 157.5q19 147 84 222t145 75q103 0 117 -92q48 43 64 74q11 -1 43 -1t43 1q-40 -170 -63 -314q-8 -55 -7 -77.5t14 -22.5q36 0 55 138zM224 52q32 0 62 55.5
t49 164.5q14 74 8.5 106t-35.5 32q-67 0 -106 -222q-14 -81 -9.5 -108.5t31.5 -27.5zM334 591q-3 -28 -21.5 -44t-44.5 -16t-41.5 16t-12.5 44t21.5 44.5t44.5 16.5t41.5 -16.5t12.5 -44.5zM519 591q-3 -28 -22 -44t-45 -16t-41.5 16t-12.5 44t21.5 44.5t44.5 16.5t42 -16.5
t13 -44.5z" />
    <glyph glyph-name="aring" unicode="&#xe5;" horiz-adv-x="576" 
d="M568 187q-8 -96 -51 -152t-112 -56q-56 0 -80.5 26t-20.5 85q-52 -111 -157 -111q-64 0 -95.5 49.5t-17.5 157.5q19 147 84 222t145 75q103 0 117 -92q48 43 64 74q11 -1 43 -1t43 1q-40 -170 -63 -314q-8 -55 -7 -77.5t14 -22.5q36 0 55 138zM224 52q32 0 62 55.5
t49 164.5q14 74 8.5 106t-35.5 32q-67 0 -106 -222q-14 -81 -9.5 -108.5t31.5 -27.5zM306 614q-2 -24 9 -36.5t32 -12.5q46 0 52 49q2 24 -9 37t-32 13t-35 -13t-17 -37zM262 614q5 40 31.5 65t67.5 25q40 0 62.5 -25t18.5 -65q-5 -40 -31 -65t-67 -25q-40 0 -63 25t-19 65z
" />
    <glyph glyph-name="ae" unicode="&#xe6;" horiz-adv-x="769" 
d="M633 169q83 -5 87 -5q-19 -91 -69 -138t-149 -47q-84 0 -127.5 33t-50.5 102q-27 -66 -73.5 -100.5t-102.5 -34.5q-65 0 -97 50t-18 157q19 147 84 222t145 75q117 0 119 -115q72 115 210 115q88 0 124.5 -41t26.5 -109q-22 -135 -251 -129q-14 -76 -3 -107t49 -31
q37 0 60 23t36 80zM223 52q32 0 62 55.5t49 164.5q14 74 8.5 106t-35.5 32q-32 0 -58 -51.5t-48 -170.5q-14 -81 -9.5 -108.5t31.5 -27.5zM585 421q-28 0 -45.5 -34.5t-42.5 -149.5q50 1 73.5 17.5t35.5 69.5q22 97 -21 97z" />
    <glyph glyph-name="ccedilla" unicode="&#xe7;" horiz-adv-x="474" 
d="M125 -110l-11 23q54 25 68 67q-94 7 -129 68t-13 183q24 125 92 188.5t169 63.5q79 0 116.5 -32.5t35.5 -88.5q-2 -47 -25 -71.5t-63 -24.5q-32 0 -52 20.5t-12 57.5q6 28 28.5 40.5t49.5 10.5q-13 27 -51 27q-44 0 -70 -36.5t-51 -151.5q-19 -101 -8.5 -134.5
t52.5 -33.5q34 0 56 24.5t34 78.5q85 -5 87 -5q-38 -181 -213 -185q-6 -27 -28 -49q46 3 78 -17.5t30 -62.5q-1 -44 -35 -69t-90 -25q-75 0 -108 59l24 20q26 -34 65 -34q53 0 56 49q1 31 -24 42t-58 -2z" />
    <glyph glyph-name="egrave" unicode="&#xe8;" horiz-adv-x="478" 
d="M342 169q82 -5 87 -5q-19 -90 -68.5 -137.5t-148.5 -47.5q-113 0 -154.5 60t-17.5 192q24 125 91.5 188.5t168.5 63.5q88 0 125 -42.5t26 -110.5q-6 -40 -29 -66.5t-59.5 -39.5t-74.5 -17t-87 -3q-14 -76 -3.5 -107t49.5 -31q37 0 59.5 22.5t35.5 80.5zM294 421
q-28 0 -45.5 -34.5t-41.5 -149.5q49 0 72.5 16.5t35.5 67.5q10 39 5.5 69.5t-26.5 30.5zM393 539l-8 -12q-103 24 -168 67q-32 19 -32.5 45.5t23.5 35.5t58 -6q57 -35 127 -130z" />
    <glyph glyph-name="eacute" unicode="&#xe9;" horiz-adv-x="478" 
d="M267 527l-8 12q70 95 127 130q34 15 58 6t23.5 -35.5t-32.5 -45.5q-66 -43 -168 -67zM342 169q82 -5 87 -5q-19 -90 -68.5 -137.5t-148.5 -47.5q-113 0 -154.5 60t-17.5 192q24 125 91.5 188.5t168.5 63.5q88 0 125 -42.5t26 -110.5q-6 -40 -29 -66.5t-59.5 -39.5
t-74.5 -17t-87 -3q-14 -76 -3.5 -107t49.5 -31q37 0 59.5 22.5t35.5 80.5zM294 421q-28 0 -45.5 -34.5t-41.5 -149.5q49 0 72.5 16.5t35.5 67.5q10 39 5.5 69.5t-26.5 30.5z" />
    <glyph glyph-name="ecircumflex" unicode="&#xea;" horiz-adv-x="478" 
d="M444 537l-12 -10q-66 27 -118 82q-26 -22 -72 -47.5t-75 -34.5l-9 11q19 39 57.5 79t76.5 67h68q53 -50 84 -147zM342 169q82 -5 87 -5q-19 -90 -68.5 -137.5t-148.5 -47.5q-113 0 -154.5 60t-17.5 192q24 125 91.5 188.5t168.5 63.5q88 0 125 -42.5t26 -110.5
q-6 -40 -29 -66.5t-59.5 -39.5t-74.5 -17t-87 -3q-14 -76 -3.5 -107t49.5 -31q37 0 59.5 22.5t35.5 80.5zM294 421q-28 0 -45.5 -34.5t-41.5 -149.5q49 0 72.5 16.5t35.5 67.5q10 39 5.5 69.5t-26.5 30.5z" />
    <glyph glyph-name="edieresis" unicode="&#xeb;" horiz-adv-x="478" 
d="M282 596q-3 -28 -21.5 -44t-44.5 -16t-41.5 16t-12.5 44t21.5 44.5t44.5 16.5t41.5 -16.5t12.5 -44.5zM467 596q-3 -28 -22 -44t-45 -16t-41.5 16t-12.5 44t21.5 44.5t44.5 16.5t42 -16.5t13 -44.5zM342 169q82 -5 87 -5q-19 -90 -68.5 -137.5t-148.5 -47.5
q-113 0 -154.5 60t-17.5 192q24 125 91.5 188.5t168.5 63.5q88 0 125 -42.5t26 -110.5q-6 -40 -29 -66.5t-59.5 -39.5t-74.5 -17t-87 -3q-14 -76 -3.5 -107t49.5 -31q37 0 59.5 22.5t35.5 80.5zM294 421q-28 0 -45.5 -34.5t-41.5 -149.5q49 0 72.5 16.5t35.5 67.5
q10 39 5.5 69.5t-26.5 30.5z" />
    <glyph glyph-name="igrave" unicode="&#xec;" horiz-adv-x="355" 
d="M276 296l-41 -159q-20 -85 10 -85q36 0 55 137l39 -2q-8 -88 -48 -148t-114 -60q-151 0 -101 181l46 167q24 83 -2 83q-46 0 -62 -140l-39 2q10 90 49 150.5t108 60.5q74 0 98.5 -49t1.5 -138zM277 539l-8 -12q-103 24 -168 67q-32 19 -32.5 45.5t23.5 35.5t58 -6
q57 -35 127 -130z" />
    <glyph glyph-name="iacute" unicode="&#xed;" horiz-adv-x="355" 
d="M182 527l-8 12q70 95 127 130q34 15 58 6t23.5 -35.5t-32.5 -45.5q-66 -43 -168 -67zM276 296l-41 -159q-20 -85 10 -85q36 0 55 137l39 -2q-8 -88 -48 -148t-114 -60q-151 0 -101 181l46 167q24 83 -2 83q-46 0 -62 -140l-39 2q10 90 49 150.5t108 60.5q74 0 98.5 -49
t1.5 -138z" />
    <glyph glyph-name="icircumflex" unicode="&#xee;" horiz-adv-x="355" 
d="M351 537l-12 -10q-66 27 -118 82q-26 -22 -72 -47.5t-75 -34.5l-9 11q19 39 57.5 79t76.5 67h68q53 -50 84 -147zM276 296l-41 -159q-20 -85 10 -85q36 0 55 137l39 -2q-8 -88 -48 -148t-114 -60q-151 0 -101 181l46 167q24 83 -2 83q-46 0 -62 -140l-39 2
q10 90 49 150.5t108 60.5q74 0 98.5 -49t1.5 -138z" />
    <glyph glyph-name="idieresis" unicode="&#xef;" horiz-adv-x="355" 
d="M191 596q-3 -28 -21.5 -44t-44.5 -16t-41.5 16t-12.5 44t21.5 44.5t44.5 16.5t41.5 -16.5t12.5 -44.5zM376 596q-3 -28 -22 -44t-45 -16t-41.5 16t-12.5 44t21.5 44.5t44.5 16.5t42 -16.5t13 -44.5zM276 296l-41 -159q-20 -85 10 -85q36 0 55 137l39 -2q-8 -88 -48 -148
t-114 -60q-151 0 -101 181l46 167q24 83 -2 83q-46 0 -62 -140l-39 2q10 90 49 150.5t108 60.5q74 0 98.5 -49t1.5 -138z" />
    <glyph glyph-name="eth" unicode="&#xf0;" horiz-adv-x="529" 
d="M260 524l-17 26l63 40q-43 25 -136 21l11 78q127 6 203 -44q33 28 60 47l17 -26q-4 -3 -56 -36q121 -99 90 -341q-20 -160 -91 -235t-179 -75q-102 0 -154.5 57t-34.5 181q19 128 79.5 192t137.5 64t99 -52q12 112 -26 153q-64 -48 -66 -50zM197 193q-12 -77 -5.5 -111
t34.5 -34q31 0 55 51.5t45 169.5q15 74 9.5 109.5t-35.5 35.5q-32 0 -59 -55t-44 -166z" />
    <glyph glyph-name="ntilde" unicode="&#xf1;" horiz-adv-x="614" 
d="M51 270l-39 2q9 89 48.5 150t110.5 61q99 0 97 -117q58 117 168 117q149 0 96 -203l-35 -132q-14 -52 -12.5 -74.5t19.5 -22.5q34 0 53 138l39 -2q-8 -88 -49 -148t-116 -60q-74 0 -98 53t2 137l33 112q38 129 -9 129q-37 0 -68.5 -61t-63.5 -219l-27 -131q-49 3 -77 3
l-77 -3q40 167 67 314q11 54 10.5 75.5t-14.5 21.5q-20 0 -35.5 -38.5t-22.5 -101.5zM504 649l27 1q10 -69 -21 -101t-85 -30q-37 2 -57 17.5t-40 48.5q-15 25 -23.5 33.5t-23.5 8.5q-41 0 -33 -80l-27 -1q-11 71 19 102.5t87 29.5q33 -1 54.5 -16t41.5 -49
q14 -24 23.5 -33.5t23.5 -9.5q42 0 34 79z" />
    <glyph glyph-name="ograve" unicode="&#xf2;" horiz-adv-x="513" 
d="M220 48q68 0 106 250q9 72 1.5 94t-34.5 22q-69 0 -105 -236q-10 -76 -2 -103t34 -27zM216 -21q-101 0 -151 57t-37 171q14 119 86 197.5t182 78.5q99 0 148.5 -53t40.5 -160q-10 -125 -80 -208t-189 -83zM385 539l-8 -12q-103 24 -168 67q-32 19 -32.5 45.5t23.5 35.5
t58 -6q57 -35 127 -130z" />
    <glyph glyph-name="oacute" unicode="&#xf3;" horiz-adv-x="513" 
d="M279 527l-8 12q70 95 127 130q34 15 58 6t23.5 -35.5t-32.5 -45.5q-66 -43 -168 -67zM220 48q68 0 106 250q9 72 1.5 94t-34.5 22q-69 0 -105 -236q-10 -76 -2 -103t34 -27zM216 -21q-101 0 -151 57t-37 171q14 119 86 197.5t182 78.5q99 0 148.5 -53t40.5 -160
q-10 -125 -80 -208t-189 -83z" />
    <glyph glyph-name="ocircumflex" unicode="&#xf4;" horiz-adv-x="513" 
d="M459 537l-12 -10q-66 27 -118 82q-26 -22 -72 -47.5t-75 -34.5l-9 11q19 39 57.5 79t76.5 67h68q53 -50 84 -147zM220 48q68 0 106 250q9 72 1.5 94t-34.5 22q-69 0 -105 -236q-10 -76 -2 -103t34 -27zM216 -21q-101 0 -151 57t-37 171q14 119 86 197.5t182 78.5
q99 0 148.5 -53t40.5 -160q-10 -125 -80 -208t-189 -83z" />
    <glyph glyph-name="otilde" unicode="&#xf5;" horiz-adv-x="513" 
d="M220 48q68 0 106 250q9 72 1.5 94t-34.5 22q-69 0 -105 -236q-10 -76 -2 -103t34 -27zM216 -21q-101 0 -151 57t-37 171q14 119 86 197.5t182 78.5q99 0 148.5 -53t40.5 -160q-10 -125 -80 -208t-189 -83zM461 649l27 1q10 -69 -21 -101t-85 -30q-37 2 -57 17.5t-40 48.5
q-15 25 -23.5 33.5t-23.5 8.5q-41 0 -33 -80l-27 -1q-11 71 19 102.5t87 29.5q33 -1 54.5 -16t41.5 -49q14 -24 23.5 -33.5t23.5 -9.5q42 0 34 79z" />
    <glyph glyph-name="odieresis" unicode="&#xf6;" horiz-adv-x="513" 
d="M294 596q-3 -28 -21.5 -44t-44.5 -16t-41.5 16t-12.5 44t21.5 44.5t44.5 16.5t41.5 -16.5t12.5 -44.5zM479 596q-3 -28 -22 -44t-45 -16t-41.5 16t-12.5 44t21.5 44.5t44.5 16.5t42 -16.5t13 -44.5zM220 48q68 0 106 250q9 72 1.5 94t-34.5 22q-69 0 -105 -236
q-10 -76 -2 -103t34 -27zM216 -21q-101 0 -151 57t-37 171q14 119 86 197.5t182 78.5q99 0 148.5 -53t40.5 -160q-10 -125 -80 -208t-189 -83z" />
    <glyph glyph-name="divide" unicode="&#xf7;" 
d="M341 110q0 -29 -17.5 -45t-48.5 -16q-66 0 -66 62q0 27 19 45t47 18q31 0 48.5 -18.5t17.5 -45.5zM79 208l16 86q139 0 209 -19q77 19 217 19l-16 -86q-138 0 -210 18q-80 -18 -216 -18zM391 389q0 -28 -17.5 -44.5t-48.5 -16.5q-30 0 -48 15.5t-18 46.5q0 27 19 45
t47 18q31 0 48.5 -18t17.5 -46z" />
    <glyph glyph-name="oslash" unicode="&#xf8;" horiz-adv-x="513" 
d="M216 -21q-57 0 -97 18l-44 -55l-15 11l32 58q-80 55 -64 196q14 119 86 197.5t182 78.5q60 0 99 -19l55 70l13 -9l-40 -76q72 -53 62 -179q-10 -125 -80 -208t-189 -83zM188 178q-4 -27 -5 -36l74 104l74 119q-1 28 -10 38.5t-28 10.5q-69 0 -105 -236zM220 48
q34 0 62.5 71t45.5 191l-59 -81l-86 -137q4 -44 37 -44z" />
    <glyph glyph-name="ugrave" unicode="&#xf9;" horiz-adv-x="615" 
d="M562 189l39 -2q-8 -86 -48 -147t-107 -61q-57 0 -81.5 26t-22.5 87q-55 -113 -162 -113q-145 0 -96 204l33 128q25 99 0 99q-45 0 -61 -140l-39 2q9 89 48.5 150t110.5 61q52 0 79.5 -26t29 -68.5t-10.5 -95.5l-28 -111q-32 -130 10 -130q71 0 119 229l39 185
q50 -2 78 -2l77 2q-28 -123 -66 -311q-6 -31 -8.5 -48t-3 -31t3 -19.5t10.5 -5.5q38 0 57 138zM400 539l-8 -12q-103 24 -168 67q-32 19 -32.5 45.5t23.5 35.5t58 -6q57 -35 127 -130z" />
    <glyph glyph-name="uacute" unicode="&#xfa;" horiz-adv-x="615" 
d="M302 527l-8 12q70 95 127 130q34 15 58 6t23.5 -35.5t-32.5 -45.5q-66 -43 -168 -67zM562 189l39 -2q-8 -86 -48 -147t-107 -61q-57 0 -81.5 26t-22.5 87q-55 -113 -162 -113q-145 0 -96 204l33 128q25 99 0 99q-45 0 -61 -140l-39 2q9 89 48.5 150t110.5 61
q52 0 79.5 -26t29 -68.5t-10.5 -95.5l-28 -111q-32 -130 10 -130q71 0 119 229l39 185q50 -2 78 -2l77 2q-28 -123 -66 -311q-6 -31 -8.5 -48t-3 -31t3 -19.5t10.5 -5.5q38 0 57 138z" />
    <glyph glyph-name="ucircumflex" unicode="&#xfb;" horiz-adv-x="615" 
d="M494 537l-12 -10q-66 27 -118 82q-26 -22 -72 -47.5t-75 -34.5l-9 11q19 39 57.5 79t76.5 67h68q53 -50 84 -147zM562 189l39 -2q-8 -86 -48 -147t-107 -61q-57 0 -81.5 26t-22.5 87q-55 -113 -162 -113q-145 0 -96 204l33 128q25 99 0 99q-45 0 -61 -140l-39 2
q9 89 48.5 150t110.5 61q52 0 79.5 -26t29 -68.5t-10.5 -95.5l-28 -111q-32 -130 10 -130q71 0 119 229l39 185q50 -2 78 -2l77 2q-28 -123 -66 -311q-6 -31 -8.5 -48t-3 -31t3 -19.5t10.5 -5.5q38 0 57 138z" />
    <glyph glyph-name="udieresis" unicode="&#xfc;" horiz-adv-x="615" 
d="M330 596q-3 -28 -21.5 -44t-44.5 -16t-41.5 16t-12.5 44t21.5 44.5t44.5 16.5t41.5 -16.5t12.5 -44.5zM515 596q-3 -28 -22 -44t-45 -16t-41.5 16t-12.5 44t21.5 44.5t44.5 16.5t42 -16.5t13 -44.5zM562 189l39 -2q-8 -86 -48 -147t-107 -61q-57 0 -81.5 26t-22.5 87
q-55 -113 -162 -113q-145 0 -96 204l33 128q25 99 0 99q-45 0 -61 -140l-39 2q9 89 48.5 150t110.5 61q52 0 79.5 -26t29 -68.5t-10.5 -95.5l-28 -111q-32 -130 10 -130q71 0 119 229l39 185q50 -2 78 -2l77 2q-28 -123 -66 -311q-6 -31 -8.5 -48t-3 -31t3 -19.5t10.5 -5.5
q38 0 57 138z" />
    <glyph glyph-name="yacute" unicode="&#xfd;" horiz-adv-x="578" 
d="M56 270l-39 2q9 89 48.5 150t110.5 61q147 0 98 -190l-29 -111q-16 -62 -13 -96t24 -34q18 0 36.5 16.5t41.5 69.5t40 138l39 191q20 -2 76 -2l76 2q-7 -28 -41 -200t-42 -215q-23 -132 -100 -193.5t-189 -61.5q-77 0 -114 30.5t-30 73.5q4 30 23.5 46.5t48.5 16.5
q26 0 41.5 -14.5t14.5 -39.5q-2 -30 -25 -44.5t-52 -8.5q26 -28 81 -28q30 0 52.5 12.5t35.5 24.5t25.5 48.5t16.5 52.5t14 67q3 15 5 23l4 20q-55 -98 -154 -98q-54 0 -81.5 26.5t-28 72t13.5 105.5l32 128q25 99 0 99q-44 0 -60 -140zM308 527l-8 12q70 95 127 130
q34 15 58 6t23.5 -35.5t-32.5 -45.5q-66 -43 -168 -67z" />
    <glyph glyph-name="thorn" unicode="&#xfe;" horiz-adv-x="546" 
d="M274 547l-33 -166q52 102 148 102q65 0 97.5 -52.5t19.5 -153.5q-21 -154 -83.5 -226t-147.5 -72q-77 0 -105 51q-14 -71 -15 -77q-4 -28 4 -38.5t34 -10.5h29q-14 -61 -17 -80q-94 2 -146 2l-147 -2q7 24 16 80h17q45 0 56 49q19 81 63.5 297.5t59.5 306.5q4 27 -2 40.5
t-32 13.5h-19l5 79q108 -4 216 0q-1 -53 -18 -143zM315 410q-33 0 -63 -55.5t-49 -164.5q-9 -51 -10 -80t8 -43.5t29 -14.5q67 0 106 223q14 80 9.5 107.5t-30.5 27.5z" />
    <glyph glyph-name="ydieresis" unicode="&#xff;" horiz-adv-x="578" 
d="M56 270l-39 2q9 89 48.5 150t110.5 61q147 0 98 -190l-29 -111q-16 -62 -13 -96t24 -34q18 0 36.5 16.5t41.5 69.5t40 138l39 191q20 -2 76 -2l76 2q-7 -28 -41 -200t-42 -215q-23 -132 -100 -193.5t-189 -61.5q-77 0 -114 30.5t-30 73.5q4 30 23.5 46.5t48.5 16.5
q26 0 41.5 -14.5t14.5 -39.5q-2 -30 -25 -44.5t-52 -8.5q26 -28 81 -28q30 0 52.5 12.5t35.5 24.5t25.5 48.5t16.5 52.5t14 67q3 15 5 23l4 20q-55 -98 -154 -98q-54 0 -81.5 26.5t-28 72t13.5 105.5l32 128q25 99 0 99q-44 0 -60 -140zM323 596q-3 -28 -21.5 -44t-44.5 -16
t-41.5 16t-12.5 44t21.5 44.5t44.5 16.5t41.5 -16.5t12.5 -44.5zM508 596q-3 -28 -22 -44t-45 -16t-41.5 16t-12.5 44t21.5 44.5t44.5 16.5t42 -16.5t13 -44.5z" />
    <glyph glyph-name="Amacron" unicode="&#x100;" horiz-adv-x="878" 
d="M500 213q-98 3 -238 1l-12 -25q-23 -48 -16 -71t47 -23h37q-8 -38 -15 -97q-100 2 -157 2l-159 -2q9 46 15 97h25q41 0 65.5 19.5t51.5 68.5q137 248 269 514q60 -2 93 -2l92 2q50 -245 122 -514q13 -50 30.5 -69t47.5 -19h32q-6 -23 -15 -97q-134 2 -209 2l-209 -2
q9 46 15 97h40q36 0 48 23t4 72l-2 9q-1 9 -2 14zM290 269q102 -2 198 0q-33 158 -59 270q-8 -15 -61.5 -118.5t-77.5 -151.5zM375 767q12 37 15 84q46 -1 138 -1t138 1q-10 -37 -15 -84q-46 1 -138 1t-138 -1z" />
    <glyph glyph-name="amacron" unicode="&#x101;" horiz-adv-x="576" 
d="M568 187q-8 -96 -51 -152t-112 -56q-56 0 -80.5 26t-20.5 85q-52 -111 -157 -111q-64 0 -95.5 49.5t-17.5 157.5q19 147 84 222t145 75q103 0 117 -92q48 43 64 74q11 -1 43 -1t43 1q-40 -170 -63 -314q-8 -55 -7 -77.5t14 -22.5q36 0 55 138zM224 52q32 0 62 55.5
t49 164.5q14 74 8.5 106t-35.5 32q-67 0 -106 -222q-14 -81 -9.5 -108.5t31.5 -27.5zM204 538q12 37 15 84q46 -2 138 -2t138 2q-10 -37 -15 -84q-46 2 -138 2t-138 -2z" />
    <glyph glyph-name="Abreve" unicode="&#x102;" horiz-adv-x="878" 
d="M500 213q-98 3 -238 1l-12 -25q-23 -48 -16 -71t47 -23h37q-8 -38 -15 -97q-100 2 -157 2l-159 -2q9 46 15 97h25q41 0 65.5 19.5t51.5 68.5q137 248 269 514q60 -2 93 -2l92 2q50 -245 122 -514q13 -50 30.5 -69t47.5 -19h32q-6 -23 -15 -97q-134 2 -209 2l-209 -2
q9 46 15 97h40q36 0 48 23t4 72l-2 9q-1 9 -2 14zM290 269q102 -2 198 0q-33 158 -59 270q-8 -15 -61.5 -118.5t-77.5 -151.5zM503 748q-73 0 -99 40.5t-8 104.5l24 2q-1 -34 21.5 -47.5t73.5 -13.5t77 13.5t33 47.5l25 -2q0 -64 -37 -104.5t-110 -40.5z" />
    <glyph glyph-name="abreve" unicode="&#x103;" horiz-adv-x="576" 
d="M568 187q-8 -96 -51 -152t-112 -56q-56 0 -80.5 26t-20.5 85q-52 -111 -157 -111q-64 0 -95.5 49.5t-17.5 157.5q19 147 84 222t145 75q103 0 117 -92q48 43 64 74q11 -1 43 -1t43 1q-40 -170 -63 -314q-8 -55 -7 -77.5t14 -22.5q36 0 55 138zM224 52q32 0 62 55.5
t49 164.5q14 74 8.5 106t-35.5 32q-67 0 -106 -222q-14 -81 -9.5 -108.5t31.5 -27.5zM348 535q-73 0 -99 40.5t-8 104.5l24 2q-1 -34 21.5 -47.5t73.5 -13.5t77 13.5t33 47.5l25 -2q0 -64 -37 -104.5t-110 -40.5z" />
    <glyph glyph-name="Aogonek" unicode="&#x104;" horiz-adv-x="878" 
d="M764 -69q-12 -137 -137 -137q-48 0 -76 23.5t-24 68.5q4 38 30 68t67 46h-18l-209 -2q9 46 15 97h40q36 0 48 23t4 72l-2 9q-1 9 -2 14q-98 3 -238 1l-12 -25q-23 -48 -16 -71t47 -23h37q-8 -38 -15 -97q-100 2 -157 2l-159 -2q9 46 15 97h25q41 0 65.5 19.5t51.5 68.5
q137 248 269 514q60 -2 93 -2l92 2q50 -245 122 -514q13 -50 30.5 -69t47.5 -19h32q-6 -23 -15 -97q-71 2 -138 2q-63 -26 -66 -78q-1 -24 12.5 -36t36.5 -12q55 0 72 62zM290 269q102 -2 198 0q-33 158 -59 270q-8 -15 -61.5 -118.5t-77.5 -151.5z" />
    <glyph glyph-name="aogonek" unicode="&#x105;" horiz-adv-x="576" 
d="M595 -69q-12 -137 -138 -137q-47 0 -75 24t-24 68q5 57 68 95q-14 -2 -21 -2q-56 0 -80.5 26t-20.5 85q-52 -111 -157 -111q-64 0 -95.5 49.5t-17.5 157.5q19 147 84 222t145 75q103 0 117 -92q48 43 64 74q11 -1 43 -1t43 1q-40 -170 -63 -314q-8 -55 -7 -77.5t14 -22.5
q36 0 55 138l39 -2q-9 -110 -69 -170q-54 -54 -55 -95q-3 -48 47 -48q54 0 71 62zM224 52q32 0 62 55.5t49 164.5q14 74 8.5 106t-35.5 32q-67 0 -106 -222q-14 -81 -9.5 -108.5t31.5 -27.5z" />
    <glyph glyph-name="Cacute" unicode="&#x106;" horiz-adv-x="714" 
d="M428 747l-8 12q70 95 127 130q34 15 58 6t23.5 -35.5t-32.5 -45.5q-66 -43 -168 -67zM417 710q87 0 168 -44q54 -29 64 29q13 -1 41 -1t41 1q-19 -44 -34 -119.5t-20 -140.5q-1 0 -24 1t-32 1q-8 0 -33.5 -1t-26.5 -1q26 173 -122 173q-78 0 -122.5 -58.5t-66.5 -203.5
q-12 -65 -9 -111.5t10.5 -76t25.5 -46t37.5 -23t46.5 -6.5q82 0 127 46.5t62 139.5q8 -2 61 -2q55 0 63 2q-25 -149 -105 -221.5t-231 -72.5q-345 0 -291 371q29 184 124.5 274t245.5 90z" />
    <glyph glyph-name="cacute" unicode="&#x107;" horiz-adv-x="474" 
d="M280 527l-8 12q70 95 127 130q34 15 58 6t23.5 -35.5t-32.5 -45.5q-66 -43 -168 -67zM208 -21q-108 0 -149.5 61t-18.5 191q24 125 92 188.5t169 63.5q79 0 116.5 -32.5t35.5 -88.5q-2 -47 -25 -71.5t-63 -24.5q-32 0 -52 20.5t-12 57.5q6 28 28.5 40.5t49.5 10.5
q-13 27 -51 27q-44 0 -70 -36.5t-51 -151.5q-19 -101 -8.5 -134.5t52.5 -33.5q34 0 56 24.5t34 78.5q85 -5 87 -5q-38 -185 -220 -185z" />
    <glyph glyph-name="Ccircumflex" unicode="&#x108;" horiz-adv-x="714" 
d="M590 757l-12 -10q-66 27 -118 82q-26 -22 -72 -47.5t-75 -34.5l-9 11q19 39 57.5 79t76.5 67h68q53 -50 84 -147zM417 710q87 0 168 -44q54 -29 64 29q13 -1 41 -1t41 1q-19 -44 -34 -119.5t-20 -140.5q-1 0 -24 1t-32 1q-8 0 -33.5 -1t-26.5 -1q26 173 -122 173
q-78 0 -122.5 -58.5t-66.5 -203.5q-12 -65 -9 -111.5t10.5 -76t25.5 -46t37.5 -23t46.5 -6.5q82 0 127 46.5t62 139.5q8 -2 61 -2q55 0 63 2q-25 -149 -105 -221.5t-231 -72.5q-345 0 -291 371q29 184 124.5 274t245.5 90z" />
    <glyph glyph-name="ccircumflex" unicode="&#x109;" horiz-adv-x="474" 
d="M450 537l-12 -10q-66 27 -118 82q-26 -22 -72 -47.5t-75 -34.5l-9 11q19 39 57.5 79t76.5 67h68q53 -50 84 -147zM208 -21q-108 0 -149.5 61t-18.5 191q24 125 92 188.5t169 63.5q79 0 116.5 -32.5t35.5 -88.5q-2 -47 -25 -71.5t-63 -24.5q-32 0 -52 20.5t-12 57.5
q6 28 28.5 40.5t49.5 10.5q-13 27 -51 27q-44 0 -70 -36.5t-51 -151.5q-19 -101 -8.5 -134.5t52.5 -33.5q34 0 56 24.5t34 78.5q85 -5 87 -5q-38 -185 -220 -185z" />
    <glyph glyph-name="Cdotaccent" unicode="&#x10a;" horiz-adv-x="714" 
d="M417 710q87 0 168 -44q54 -29 64 29q13 -1 41 -1t41 1q-19 -44 -34 -119.5t-20 -140.5q-1 0 -24 1t-32 1q-8 0 -33.5 -1t-26.5 -1q26 173 -122 173q-78 0 -122.5 -58.5t-66.5 -203.5q-12 -65 -9 -111.5t10.5 -76t25.5 -46t37.5 -23t46.5 -6.5q82 0 127 46.5t62 139.5
q8 -2 61 -2q55 0 63 2q-25 -149 -105 -221.5t-231 -72.5q-345 0 -291 371q29 184 124.5 274t245.5 90zM518 823q-2 -27 -20.5 -46t-47.5 -19t-46 19t-15 46q1 28 20.5 46.5t46.5 18.5q29 0 46.5 -18t15.5 -47z" />
    <glyph glyph-name="cdotaccent" unicode="&#x10b;" horiz-adv-x="474" 
d="M208 -21q-108 0 -149.5 61t-18.5 191q24 125 92 188.5t169 63.5q79 0 116.5 -32.5t35.5 -88.5q-2 -47 -25 -71.5t-63 -24.5q-32 0 -52 20.5t-12 57.5q6 28 28.5 40.5t49.5 10.5q-13 27 -51 27q-44 0 -70 -36.5t-51 -151.5q-19 -101 -8.5 -134.5t52.5 -33.5q34 0 56 24.5
t34 78.5q85 -5 87 -5q-38 -185 -220 -185zM370 603q-2 -27 -20.5 -46t-47.5 -19t-46 19t-15 46q1 28 20.5 46.5t46.5 18.5q29 0 46.5 -18t15.5 -47z" />
    <glyph glyph-name="Ccaron" unicode="&#x10c;" horiz-adv-x="714" 
d="M324 899l12 11q62 -27 124 -87q29 25 71.5 51t69.5 35l9 -10q-20 -41 -56 -81.5t-71 -65.5h-69q-25 24 -51 65.5t-39 81.5zM417 710q87 0 168 -44q54 -29 64 29q13 -1 41 -1t41 1q-19 -44 -34 -119.5t-20 -140.5q-1 0 -24 1t-32 1q-8 0 -33.5 -1t-26.5 -1
q26 173 -122 173q-78 0 -122.5 -58.5t-66.5 -203.5q-12 -65 -9 -111.5t10.5 -76t25.5 -46t37.5 -23t46.5 -6.5q82 0 127 46.5t62 139.5q8 -2 61 -2q55 0 63 2q-25 -149 -105 -221.5t-231 -72.5q-345 0 -291 371q29 184 124.5 274t245.5 90z" />
    <glyph glyph-name="ccaron" unicode="&#x10d;" horiz-adv-x="474" 
d="M186 679l12 11q62 -27 124 -87q29 25 71.5 51t69.5 35l9 -10q-20 -41 -56 -81.5t-71 -65.5h-69q-25 24 -51 65.5t-39 81.5zM208 -21q-108 0 -149.5 61t-18.5 191q24 125 92 188.5t169 63.5q79 0 116.5 -32.5t35.5 -88.5q-2 -47 -25 -71.5t-63 -24.5q-32 0 -52 20.5
t-12 57.5q6 28 28.5 40.5t49.5 10.5q-13 27 -51 27q-44 0 -70 -36.5t-51 -151.5q-19 -101 -8.5 -134.5t52.5 -33.5q34 0 56 24.5t34 78.5q85 -5 87 -5q-38 -185 -220 -185z" />
    <glyph glyph-name="Dcaron" unicode="&#x10e;" horiz-adv-x="801" 
d="M310 899l12 11q62 -27 124 -87q29 25 71.5 51t69.5 35l9 -10q-20 -41 -56 -81.5t-71 -65.5h-69q-25 24 -51 65.5t-39 81.5zM473 688q171 0 244 -86.5t49 -266.5q-47 -336 -392 -336q-130 1 -195 1l-192 -2q12 47 15 97h37q30 0 41.5 12.5t19.5 46.5q7 34 32 196.5
t26 190.5q2 30 -7.5 42t-35.5 12h-42q11 43 14 95q105 -3 193 -3q44 0 111 0.5t82 0.5zM285 142q-3 -51 44 -51h26q96 0 147.5 53t72.5 193q22 150 -9 206t-132 56h-32q-41 0 -54 -42q-6 -19 -33.5 -202.5t-29.5 -212.5z" />
    <glyph glyph-name="dcaron" unicode="&#x10f;" horiz-adv-x="719" 
d="M653 574q-47 0 -44 56q2 27 20.5 44t47.5 17q64 0 59 -77q-4 -55 -47 -93.5t-110 -51.5l-4 20q113 24 127 110q-13 -25 -49 -25zM546 564q-62 -281 -83 -412q-10 -59 -9 -80t17 -21q36 0 53 138l39 -2q-8 -93 -49.5 -150.5t-112.5 -57.5q-51 0 -75 25.5t-22 82.5
q-51 -108 -153 -108q-65 0 -98 50t-19 157q19 147 84.5 222t146.5 75q83 0 98 -71l29 145q5 26 -1 39.5t-32 13.5h-20q7 32 11 79q105 -4 209 0q0 -63 -13 -125zM225 52q32 0 62 55.5t49 164.5q14 74 9 106t-36 32q-66 0 -105 -222q-10 -55 -11 -83.5t6.5 -40.5t25.5 -12z
" />
    <glyph glyph-name="Dcroat" unicode="&#x110;" horiz-adv-x="801" 
d="M473 688q171 0 244 -86.5t49 -266.5q-47 -336 -392 -336q-130 1 -195 1l-192 -2q12 47 15 97h37q30 0 41.5 12.5t19.5 46.5q4 18 25 154q-15 0 -36.5 -0.5t-26.5 -0.5q11 33 14 83q13 -1 62 -1q19 135 20 152q2 30 -7.5 42t-35.5 12h-42q11 43 14 95q105 -3 193 -3
q44 0 111 0.5t82 0.5zM285 142q-3 -51 44 -51h26q96 0 147.5 53t72.5 193q22 150 -9 206t-132 56h-32q-41 0 -54 -42q-5 -14 -29 -169q79 0 123 2q-8 -31 -14 -83q-7 0 -49 0.5t-72 0.5q-20 -130 -22 -166z" />
    <glyph glyph-name="dcroat" unicode="&#x111;" horiz-adv-x="575" 
d="M559 689q0 -66 -15 -134q28 0 58 2q-4 -14 -9 -49q-7 0 -27 0.5t-32 0.5q-52 -237 -71 -357q-10 -59 -9 -80t17 -21q36 0 53 138l39 -2q-8 -93 -49.5 -150.5t-112.5 -57.5q-51 0 -75 25.5t-22 82.5q-51 -108 -153 -108q-65 0 -98 50t-19 157q19 147 84.5 222t146.5 75
q83 0 98 -71l19 97q-14 0 -35.5 -0.5t-28.5 -0.5q6 24 8 49q32 -2 66 -2q5 27 -1 41t-32 14h-20q7 32 11 79q105 -4 209 0zM225 52q32 0 62 55.5t49 164.5q14 74 9 106t-36 32q-66 0 -105 -222q-10 -55 -11 -83.5t6.5 -40.5t25.5 -12z" />
    <glyph glyph-name="Emacron" unicode="&#x112;" horiz-adv-x="724" 
d="M458 474l4 27h76q-19 -84 -29 -152q-11 -76 -16 -156h-75l3 24q7 51 -8 74.5t-62 25.5h-45q-20 -127 -22 -166q-2 -31 11.5 -43.5t41.5 -12.5h99q78 0 110 33.5t48 134.5l1 10q13 -1 51 -1t51 1q-22 -92 -46 -277q-57 4 -204 4h-262l-197 -2q13 82 15 97h36q30 0 40 12.5
t19 46.5q8 31 33.5 193.5t27.5 192.5q2 29 -8.5 42t-35.5 13h-41q11 43 14 95q2 0 41 -1t86.5 -1.5t69.5 -0.5h240q168 0 232 8q-30 -123 -45 -258q-14 1 -49 1t-46 -1l2 13q13 91 -9.5 117.5t-99.5 26.5h-101q-29 0 -43.5 -11.5t-21.5 -43.5q-7 -27 -29 -160h36
q52 0 75.5 21.5t31.5 73.5zM318 767q12 37 15 84q46 -1 138 -1t138 1q-10 -37 -15 -84q-46 1 -138 1t-138 -1z" />
    <glyph glyph-name="emacron" unicode="&#x113;" horiz-adv-x="478" 
d="M342 169q82 -5 87 -5q-19 -90 -68.5 -137.5t-148.5 -47.5q-113 0 -154.5 60t-17.5 192q24 125 91.5 188.5t168.5 63.5q88 0 125 -42.5t26 -110.5q-6 -40 -29 -66.5t-59.5 -39.5t-74.5 -17t-87 -3q-14 -76 -3.5 -107t49.5 -31q37 0 59.5 22.5t35.5 80.5zM294 421
q-28 0 -45.5 -34.5t-41.5 -149.5q49 0 72.5 16.5t35.5 67.5q10 39 5.5 69.5t-26.5 30.5zM168 538q12 37 15 84q46 -2 138 -2t138 2q-10 -37 -15 -84q-46 2 -138 2t-138 -2z" />
    <glyph glyph-name="Ebreve" unicode="&#x114;" horiz-adv-x="724" 
d="M458 474l4 27h76q-19 -84 -29 -152q-11 -76 -16 -156h-75l3 24q7 51 -8 74.5t-62 25.5h-45q-20 -127 -22 -166q-2 -31 11.5 -43.5t41.5 -12.5h99q78 0 110 33.5t48 134.5l1 10q13 -1 51 -1t51 1q-22 -92 -46 -277q-57 4 -204 4h-262l-197 -2q13 82 15 97h36q30 0 40 12.5
t19 46.5q8 31 33.5 193.5t27.5 192.5q2 29 -8.5 42t-35.5 13h-41q11 43 14 95q2 0 41 -1t86.5 -1.5t69.5 -0.5h240q168 0 232 8q-30 -123 -45 -258q-14 1 -49 1t-46 -1l2 13q13 91 -9.5 117.5t-99.5 26.5h-101q-29 0 -43.5 -11.5t-21.5 -43.5q-7 -27 -29 -160h36
q52 0 75.5 21.5t31.5 73.5zM455 748q-73 0 -99 40.5t-8 104.5l24 2q-1 -34 21.5 -47.5t73.5 -13.5t77 13.5t33 47.5l25 -2q0 -64 -37 -104.5t-110 -40.5z" />
    <glyph glyph-name="ebreve" unicode="&#x115;" horiz-adv-x="478" 
d="M342 169q82 -5 87 -5q-19 -90 -68.5 -137.5t-148.5 -47.5q-113 0 -154.5 60t-17.5 192q24 125 91.5 188.5t168.5 63.5q88 0 125 -42.5t26 -110.5q-6 -40 -29 -66.5t-59.5 -39.5t-74.5 -17t-87 -3q-14 -76 -3.5 -107t49.5 -31q37 0 59.5 22.5t35.5 80.5zM294 421
q-28 0 -45.5 -34.5t-41.5 -149.5q49 0 72.5 16.5t35.5 67.5q10 39 5.5 69.5t-26.5 30.5zM314 535q-73 0 -99 40.5t-8 104.5l24 2q-1 -34 21.5 -47.5t73.5 -13.5t77 13.5t33 47.5l25 -2q0 -64 -37 -104.5t-110 -40.5z" />
    <glyph glyph-name="Edotaccent" unicode="&#x116;" horiz-adv-x="724" 
d="M458 474l4 27h76q-19 -84 -29 -152q-11 -76 -16 -156h-75l3 24q7 51 -8 74.5t-62 25.5h-45q-20 -127 -22 -166q-2 -31 11.5 -43.5t41.5 -12.5h99q78 0 110 33.5t48 134.5l1 10q13 -1 51 -1t51 1q-22 -92 -46 -277q-57 4 -204 4h-262l-197 -2q13 82 15 97h36q30 0 40 12.5
t19 46.5q8 31 33.5 193.5t27.5 192.5q2 29 -8.5 42t-35.5 13h-41q11 43 14 95q2 0 41 -1t86.5 -1.5t69.5 -0.5h240q168 0 232 8q-30 -123 -45 -258q-14 1 -49 1t-46 -1l2 13q13 91 -9.5 117.5t-99.5 26.5h-101q-29 0 -43.5 -11.5t-21.5 -43.5q-7 -27 -29 -160h36
q52 0 75.5 21.5t31.5 73.5zM501 823q-2 -27 -20.5 -46t-47.5 -19t-46 19t-15 46q1 28 20.5 46.5t46.5 18.5q29 0 46.5 -18t15.5 -47z" />
    <glyph glyph-name="edotaccent" unicode="&#x117;" horiz-adv-x="478" 
d="M342 169q82 -5 87 -5q-19 -90 -68.5 -137.5t-148.5 -47.5q-113 0 -154.5 60t-17.5 192q24 125 91.5 188.5t168.5 63.5q88 0 125 -42.5t26 -110.5q-6 -40 -29 -66.5t-59.5 -39.5t-74.5 -17t-87 -3q-14 -76 -3.5 -107t49.5 -31q37 0 59.5 22.5t35.5 80.5zM294 421
q-28 0 -45.5 -34.5t-41.5 -149.5q49 0 72.5 16.5t35.5 67.5q10 39 5.5 69.5t-26.5 30.5zM369 603q-2 -27 -20.5 -46t-47.5 -19t-46 19t-15 46q1 28 20.5 46.5t46.5 18.5q29 0 46.5 -18t15.5 -47z" />
    <glyph glyph-name="Eogonek" unicode="&#x118;" horiz-adv-x="724" 
d="M458 474l4 27h76q-19 -84 -29 -152q-11 -76 -16 -156h-75l3 24q7 51 -8 74.5t-62 25.5h-45q-20 -127 -22 -166q-2 -31 11.5 -43.5t41.5 -12.5h99q78 0 110 33.5t48 134.5l1 10q13 -1 51 -1t51 1q-22 -92 -46 -277q-24 2 -91 4q-61 -27 -64 -78q-1 -24 12.5 -36t36.5 -12
q55 0 72 62l32 -5q-12 -137 -137 -137q-48 0 -76 23.5t-24 68.5q4 38 30 68t67 46h-324l-197 -2q13 82 15 97h36q30 0 40 12.5t19 46.5q8 31 33.5 193.5t27.5 192.5q2 29 -8.5 42t-35.5 13h-41q11 43 14 95q2 0 41 -1t86.5 -1.5t69.5 -0.5h240q168 0 232 8
q-30 -123 -45 -258q-14 1 -49 1t-46 -1l2 13q13 91 -9.5 117.5t-99.5 26.5h-101q-29 0 -43.5 -11.5t-21.5 -43.5q-7 -27 -29 -160h36q52 0 75.5 21.5t31.5 73.5z" />
    <glyph glyph-name="eogonek" unicode="&#x119;" horiz-adv-x="479" 
d="M434 -69q-12 -137 -138 -137q-47 0 -75 24t-24 68q6 61 73 98q-28 -5 -58 -5q-113 0 -155 60.5t-17 191.5q24 125 92 188.5t169 63.5q88 0 124.5 -42.5t26.5 -110.5q-22 -134 -251 -126q-14 -76 -3 -107t49 -31t60.5 22.5t35.5 80.5q83 -5 87 -5q-12 -56 -31.5 -88
t-57.5 -64q-55 -47 -58 -90q-3 -48 47 -48q54 0 71 62zM295 421q-28 0 -45.5 -34.5t-42.5 -149.5q50 0 73.5 16t35.5 68q10 39 5.5 69.5t-26.5 30.5z" />
    <glyph glyph-name="Ecaron" unicode="&#x11a;" horiz-adv-x="724" 
d="M298 899l12 11q62 -27 124 -87q29 25 71.5 51t69.5 35l9 -10q-20 -41 -56 -81.5t-71 -65.5h-69q-25 24 -51 65.5t-39 81.5zM458 474l4 27h76q-19 -84 -29 -152q-11 -76 -16 -156h-75l3 24q7 51 -8 74.5t-62 25.5h-45q-20 -127 -22 -166q-2 -31 11.5 -43.5t41.5 -12.5h99
q78 0 110 33.5t48 134.5l1 10q13 -1 51 -1t51 1q-22 -92 -46 -277q-57 4 -204 4h-262l-197 -2q13 82 15 97h36q30 0 40 12.5t19 46.5q8 31 33.5 193.5t27.5 192.5q2 29 -8.5 42t-35.5 13h-41q11 43 14 95q2 0 41 -1t86.5 -1.5t69.5 -0.5h240q168 0 232 8q-30 -123 -45 -258
q-14 1 -49 1t-46 -1l2 13q13 91 -9.5 117.5t-99.5 26.5h-101q-29 0 -43.5 -11.5t-21.5 -43.5q-7 -27 -29 -160h36q52 0 75.5 21.5t31.5 73.5z" />
    <glyph glyph-name="ecaron" unicode="&#x11b;" horiz-adv-x="478" 
d="M181 679l12 11q62 -27 124 -87q29 25 71.5 51t69.5 35l9 -10q-20 -41 -56 -81.5t-71 -65.5h-69q-25 24 -51 65.5t-39 81.5zM342 169q82 -5 87 -5q-19 -90 -68.5 -137.5t-148.5 -47.5q-113 0 -154.5 60t-17.5 192q24 125 91.5 188.5t168.5 63.5q88 0 125 -42.5t26 -110.5
q-6 -40 -29 -66.5t-59.5 -39.5t-74.5 -17t-87 -3q-14 -76 -3.5 -107t49.5 -31q37 0 59.5 22.5t35.5 80.5zM294 421q-28 0 -45.5 -34.5t-41.5 -149.5q49 0 72.5 16.5t35.5 67.5q10 39 5.5 69.5t-26.5 30.5z" />
    <glyph glyph-name="Gcircumflex" unicode="&#x11c;" horiz-adv-x="797" 
d="M584 757l-12 -10q-66 27 -118 82q-26 -22 -72 -47.5t-75 -34.5l-9 11q19 39 57.5 79t76.5 67h68q53 -50 84 -147zM363 81q133 0 154 137q5 39 -5 56.5t-42 17.5h-32l11 76q106 -2 166 -2l165 2l-11 -76h-26q-21 0 -31 -12t-14 -41q-23 -151 -24 -239q-15 2 -57.5 2
t-57.5 -2q-6 48 -15 95q-35 -54 -96 -87t-137 -33q-68 0 -120.5 19t-92.5 63t-51.5 114.5t1.5 174.5q28 182 127 273t246 91q101 0 170 -42q24 -15 42.5 -8.5t23.5 35.5q13 -1 41 -1t41 1q-19 -44 -34 -119.5t-20 -140.5q-34 1 -55 1l-61 -1q16 84 -16 128.5t-111 44.5
q-80 0 -125 -58.5t-67 -203.5q-9 -82 -7.5 -133.5t21 -81t42.5 -40t57 -10.5z" />
    <glyph glyph-name="gcircumflex" unicode="&#x11d;" horiz-adv-x="534" 
d="M482 537l-12 -10q-66 27 -118 82q-26 -22 -72 -47.5t-75 -34.5l-9 11q19 39 57.5 79t76.5 67h68q53 -50 84 -147zM292 57l5 25q-51 -103 -148 -103q-65 0 -97 50t-18 157q19 147 84 222t145 75q61 0 88.5 -26.5t30.5 -76.5q62 43 80 100q8 -1 33.5 -1t34.5 1
q-46 -196 -86 -428q-23 -133 -98 -194t-187 -61q-83 0 -119.5 34t-23.5 80q14 53 71 53q28 0 44 -16.5t11 -42.5t-26 -40t-50 -8q26 -28 81 -28q16 0 30 3.5t24.5 7.5t20 15t16 17.5t13 23.5t10.5 26t9 31t7 31.5t7.5 36t7.5 36.5zM224 52q32 0 62 55.5t49 164.5
q14 74 8.5 106t-35.5 32q-67 0 -106 -222q-14 -81 -9.5 -108.5t31.5 -27.5z" />
    <glyph glyph-name="Gbreve" unicode="&#x11e;" horiz-adv-x="797" 
d="M363 81q133 0 154 137q5 39 -5 56.5t-42 17.5h-32l11 76q106 -2 166 -2l165 2l-11 -76h-26q-21 0 -31 -12t-14 -41q-23 -151 -24 -239q-15 2 -57.5 2t-57.5 -2q-6 48 -15 95q-35 -54 -96 -87t-137 -33q-68 0 -120.5 19t-92.5 63t-51.5 114.5t1.5 174.5q28 182 127 273
t246 91q101 0 170 -42q24 -15 42.5 -8.5t23.5 35.5q13 -1 41 -1t41 1q-19 -44 -34 -119.5t-20 -140.5q-34 1 -55 1l-61 -1q16 84 -16 128.5t-111 44.5q-80 0 -125 -58.5t-67 -203.5q-9 -82 -7.5 -133.5t21 -81t42.5 -40t57 -10.5zM434 748q-73 0 -99 40.5t-8 104.5l24 2
q-1 -34 21.5 -47.5t73.5 -13.5t77 13.5t33 47.5l25 -2q0 -64 -37 -104.5t-110 -40.5z" />
    <glyph glyph-name="gbreve" unicode="&#x11f;" horiz-adv-x="534" 
d="M292 57l5 25q-51 -103 -148 -103q-65 0 -97 50t-18 157q19 147 84 222t145 75q61 0 88.5 -26.5t30.5 -76.5q62 43 80 100q8 -1 33.5 -1t34.5 1q-46 -196 -86 -428q-23 -133 -98 -194t-187 -61q-83 0 -119.5 34t-23.5 80q14 53 71 53q28 0 44 -16.5t11 -42.5t-26 -40
t-50 -8q26 -28 81 -28q16 0 30 3.5t24.5 7.5t20 15t16 17.5t13 23.5t10.5 26t9 31t7 31.5t7.5 36t7.5 36.5zM224 52q32 0 62 55.5t49 164.5q14 74 8.5 106t-35.5 32q-67 0 -106 -222q-14 -81 -9.5 -108.5t31.5 -27.5zM342 535q-73 0 -99 40.5t-8 104.5l24 2
q-1 -34 21.5 -47.5t73.5 -13.5t77 13.5t33 47.5l25 -2q0 -64 -37 -104.5t-110 -40.5z" />
    <glyph glyph-name="Gdotaccent" unicode="&#x120;" horiz-adv-x="797" 
d="M363 81q133 0 154 137q5 39 -5 56.5t-42 17.5h-32l11 76q106 -2 166 -2l165 2l-11 -76h-26q-21 0 -31 -12t-14 -41q-23 -151 -24 -239q-15 2 -57.5 2t-57.5 -2q-6 48 -15 95q-35 -54 -96 -87t-137 -33q-68 0 -120.5 19t-92.5 63t-51.5 114.5t1.5 174.5q28 182 127 273
t246 91q101 0 170 -42q24 -15 42.5 -8.5t23.5 35.5q13 -1 41 -1t41 1q-19 -44 -34 -119.5t-20 -140.5q-34 1 -55 1l-61 -1q16 84 -16 128.5t-111 44.5q-80 0 -125 -58.5t-67 -203.5q-9 -82 -7.5 -133.5t21 -81t42.5 -40t57 -10.5zM525 824q-2 -27 -20.5 -46t-47.5 -19
t-46 19t-15 46q1 28 20.5 46.5t46.5 18.5q29 0 46.5 -18t15.5 -47z" />
    <glyph glyph-name="gdotaccent" unicode="&#x121;" horiz-adv-x="534" 
d="M292 57l5 25q-51 -103 -148 -103q-65 0 -97 50t-18 157q19 147 84 222t145 75q61 0 88.5 -26.5t30.5 -76.5q62 43 80 100q8 -1 33.5 -1t34.5 1q-46 -196 -86 -428q-23 -133 -98 -194t-187 -61q-83 0 -119.5 34t-23.5 80q14 53 71 53q28 0 44 -16.5t11 -42.5t-26 -40
t-50 -8q26 -28 81 -28q16 0 30 3.5t24.5 7.5t20 15t16 17.5t13 23.5t10.5 26t9 31t7 31.5t7.5 36t7.5 36.5zM224 52q32 0 62 55.5t49 164.5q14 74 8.5 106t-35.5 32q-67 0 -106 -222q-14 -81 -9.5 -108.5t31.5 -27.5zM394 603q-2 -27 -20.5 -46t-47.5 -19t-46 19t-15 46
q1 28 20.5 46.5t46.5 18.5q29 0 46.5 -18t15.5 -47z" />
    <glyph glyph-name="Gcommaaccent" unicode="&#x122;" horiz-adv-x="797" 
d="M333 -170q-47 0 -44 56q2 27 20.5 44t47.5 17q64 0 59 -77q-4 -55 -47 -93.5t-110 -51.5l-4 20q113 24 127 110q-13 -25 -49 -25zM363 81q133 0 154 137q5 39 -5 56.5t-42 17.5h-32l11 76q106 -2 166 -2l165 2l-11 -76h-26q-21 0 -31 -12t-14 -41q-23 -151 -24 -239
q-15 2 -57.5 2t-57.5 -2q-6 48 -15 95q-35 -54 -96 -87t-137 -33q-68 0 -120.5 19t-92.5 63t-51.5 114.5t1.5 174.5q28 182 127 273t246 91q101 0 170 -42q24 -15 42.5 -8.5t23.5 35.5q13 -1 41 -1t41 1q-19 -44 -34 -119.5t-20 -140.5q-34 1 -55 1l-61 -1q16 84 -16 128.5
t-111 44.5q-80 0 -125 -58.5t-67 -203.5q-9 -82 -7.5 -133.5t21 -81t42.5 -40t57 -10.5z" />
    <glyph glyph-name="gcommaaccent" unicode="&#x123;" horiz-adv-x="534" 
d="M349 641q47 0 44 -56q-2 -27 -20.5 -44t-47.5 -17q-64 0 -59 77q4 55 47 93.5t110 51.5l4 -20q-113 -24 -127 -110q13 25 49 25zM292 57l5 25q-51 -103 -148 -103q-65 0 -97 50t-18 157q19 147 84 222t145 75q61 0 88.5 -26.5t30.5 -76.5q62 43 80 100q8 -1 33.5 -1
t34.5 1q-46 -196 -86 -428q-23 -133 -98 -194t-187 -61q-83 0 -119.5 34t-23.5 80q14 53 71 53q28 0 44 -16.5t11 -42.5t-26 -40t-50 -8q26 -28 81 -28q16 0 30 3.5t24.5 7.5t20 15t16 17.5t13 23.5t10.5 26t9 31t7 31.5t7.5 36t7.5 36.5zM224 52q32 0 62 55.5t49 164.5
q14 74 8.5 106t-35.5 32q-67 0 -106 -222q-14 -81 -9.5 -108.5t31.5 -27.5z" />
    <glyph glyph-name="Hcircumflex" unicode="&#x124;" horiz-adv-x="851" 
d="M646 757l-12 -10q-66 27 -118 82q-26 -22 -72 -47.5t-75 -34.5l-9 11q19 39 57.5 79t76.5 67h68q53 -50 84 -147zM-13 -2q2 9 14 97h37q31 0 40.5 9t18.5 40q9 34 36 204.5t27 198.5q0 27 -9 37.5t-34 10.5h-41q11 42 14 94q118 -2 184 -2q39 0 110 1t73 1
q-10 -52 -13 -94h-36q-27 0 -41.5 -12.5t-22.5 -41.5q-9 -31 -30 -175q118 -2 248 0q23 151 24 175q2 29 -9.5 41.5t-38.5 12.5h-36q13 52 13 94q119 -2 186 -2q39 0 111 1t74 1q-11 -40 -14 -94h-41q-26 0 -39.5 -12t-21.5 -42q-7 -28 -33.5 -197.5t-28.5 -199.5
q-2 -28 9 -38.5t43 -10.5h37q-3 -11 -8 -48t-5 -49q-119 2 -185 2l-186 -2q10 54 13 97h35q32 0 43.5 10.5t19.5 38.5q7 24 28 158q-95 1 -248 -1q-19 -122 -22 -157q-2 -27 8 -38t42 -11h36q-3 -11 -8 -48t-5 -49q-118 2 -184 2z" />
    <glyph glyph-name="hcircumflex" unicode="&#x125;" horiz-adv-x="577" 
d="M346 728l-12 -10q-66 27 -118 82q-26 -22 -72 -47.5t-75 -34.5l-9 11q19 39 57.5 79t76.5 67h68q53 -50 84 -147zM523 189l39 -2q-9 -89 -50 -148.5t-116 -59.5q-148 0 -95 190l31 112q36 129 -8 129q-35 0 -64.5 -56t-63.5 -204l-30 -151q-50 3 -77 3l-78 -3
q75 335 113 558q4 27 -2.5 40t-31.5 13h-20q6 39 6 79q108 -4 216 0q-1 -50 -18 -143l-32 -163q56 100 159 100q144 0 94 -203l-32 -128q-7 -27 -10.5 -43.5t-4 -31t4 -20.5t14.5 -6q34 0 56 138z" />
    <glyph glyph-name="Hbar" unicode="&#x126;" horiz-adv-x="851" 
d="M-13 -2q2 9 14 97h37q31 0 40.5 9t18.5 40q18 75 51 301h-54q8 25 11 62q8 -1 51 -1q4 38 4 41q0 27 -9 37.5t-34 10.5h-41q11 42 14 94q118 -2 184 -2q39 0 110 1t73 1q-10 -52 -13 -94h-36q-27 0 -41.5 -12.5t-22.5 -41.5q-3 -11 -8 -36h246l4 36q6 54 -48 54h-36
q13 52 13 94q119 -2 186 -2q39 0 111 1t74 1q-11 -40 -14 -94h-41q-26 0 -39.5 -12t-21.5 -42q-2 -5 -7 -35q48 0 57 1q-5 -12 -12 -62h-56q-39 -240 -44 -301q-2 -28 9 -38.5t43 -10.5h37q-3 -11 -8 -48t-5 -49q-119 2 -185 2l-186 -2q10 54 13 97h35q32 0 43.5 10.5
t19.5 38.5q7 24 28 158q-95 1 -248 -1q-19 -122 -22 -157q-2 -27 8 -38t42 -11h36q-3 -11 -8 -48t-5 -49q-118 2 -184 2zM574 446h-248l-12 -80q118 -2 248 0z" />
    <glyph glyph-name="hbar" unicode="&#x127;" horiz-adv-x="577" 
d="M52 508q6 24 8 49q32 -2 64 -2v2q4 27 -2.5 40t-31.5 13h-20q6 39 6 79q108 -4 216 0q-1 -55 -16 -134q30 0 60 2q-4 -14 -9 -49q-7 0 -27 0.5t-33 0.5l-25 -126q56 100 159 100q144 0 94 -203l-32 -128q-7 -27 -10.5 -43.5t-4 -31t4 -20.5t14.5 -6q34 0 56 138l39 -2
q-9 -89 -50 -148.5t-116 -59.5q-148 0 -95 190l31 112q36 129 -8 129q-35 0 -64.5 -56t-63.5 -204l-30 -151q-50 3 -77 3l-78 -3q54 242 104 510q-14 0 -35 -0.5t-28 -0.5z" />
    <glyph glyph-name="Itilde" unicode="&#x128;" horiz-adv-x="422" 
d="M-14 -2q2 9 14 97h37q31 0 41 9t18 40q8 29 34.5 198t28.5 199t-7 42t-36 12h-41q3 13 14 94q118 -2 184 -2q39 0 110 1t73 1q-10 -52 -13 -94h-36q-27 0 -41.5 -12.5t-22.5 -41.5q-7 -28 -33.5 -199.5t-28.5 -197.5q-2 -27 7.5 -38t42.5 -11h36q-10 -55 -13 -97
q-118 2 -184 2zM411 869l27 1q10 -69 -21 -101t-85 -30q-37 2 -57 17.5t-40 48.5q-15 25 -23.5 33.5t-23.5 8.5q-41 0 -33 -80l-27 -1q-11 71 19 102.5t87 29.5q33 -1 54.5 -16t41.5 -49q14 -24 23.5 -33.5t23.5 -9.5q42 0 34 79z" />
    <glyph glyph-name="itilde" unicode="&#x129;" horiz-adv-x="355" 
d="M276 296l-41 -159q-20 -85 10 -85q36 0 55 137l39 -2q-8 -88 -48 -148t-114 -60q-151 0 -101 181l46 167q24 83 -2 83q-46 0 -62 -140l-39 2q10 90 49 150.5t108 60.5q74 0 98.5 -49t1.5 -138zM347 649l27 1q10 -69 -21 -101t-85 -30q-37 2 -57 17.5t-40 48.5
q-15 25 -23.5 33.5t-23.5 8.5q-41 0 -33 -80l-27 -1q-11 71 19 102.5t87 29.5q33 -1 54.5 -16t41.5 -49q14 -24 23.5 -33.5t23.5 -9.5q42 0 34 79z" />
    <glyph glyph-name="Imacron" unicode="&#x12a;" horiz-adv-x="422" 
d="M-14 -2q2 9 14 97h37q31 0 41 9t18 40q8 29 34.5 198t28.5 199t-7 42t-36 12h-41q3 13 14 94q118 -2 184 -2q39 0 110 1t73 1q-10 -52 -13 -94h-36q-27 0 -41.5 -12.5t-22.5 -41.5q-7 -28 -33.5 -199.5t-28.5 -197.5q-2 -27 7.5 -38t42.5 -11h36q-10 -55 -13 -97
q-118 2 -184 2zM145 767q12 37 15 84q46 -1 138 -1t138 1q-10 -37 -15 -84q-46 1 -138 1t-138 -1z" />
    <glyph glyph-name="imacron" unicode="&#x12b;" horiz-adv-x="355" 
d="M276 296l-41 -159q-20 -85 10 -85q36 0 55 137l39 -2q-8 -88 -48 -148t-114 -60q-151 0 -101 181l46 167q24 83 -2 83q-46 0 -62 -140l-39 2q10 90 49 150.5t108 60.5q74 0 98.5 -49t1.5 -138zM80 538q12 37 15 84q46 -2 138 -2t138 2q-10 -37 -15 -84q-46 2 -138 2
t-138 -2z" />
    <glyph glyph-name="Ibreve" unicode="&#x12c;" horiz-adv-x="422" 
d="M-14 -2q2 9 14 97h37q31 0 41 9t18 40q8 29 34.5 198t28.5 199t-7 42t-36 12h-41q3 13 14 94q118 -2 184 -2q39 0 110 1t73 1q-10 -52 -13 -94h-36q-27 0 -41.5 -12.5t-22.5 -41.5q-7 -28 -33.5 -199.5t-28.5 -197.5q-2 -27 7.5 -38t42.5 -11h36q-10 -55 -13 -97
q-118 2 -184 2zM273 748q-73 0 -99 40.5t-8 104.5l24 2q-1 -34 21.5 -47.5t73.5 -13.5t77 13.5t33 47.5l25 -2q0 -64 -37 -104.5t-110 -40.5z" />
    <glyph glyph-name="ibreve" unicode="&#x12d;" horiz-adv-x="355" 
d="M276 296l-41 -159q-20 -85 10 -85q36 0 55 137l39 -2q-8 -88 -48 -148t-114 -60q-151 0 -101 181l46 167q24 83 -2 83q-46 0 -62 -140l-39 2q10 90 49 150.5t108 60.5q74 0 98.5 -49t1.5 -138zM217 535q-73 0 -99 40.5t-8 104.5l24 2q-1 -34 21.5 -47.5t73.5 -13.5
t77 13.5t33 47.5l25 -2q0 -64 -37 -104.5t-110 -40.5z" />
    <glyph glyph-name="Iogonek" unicode="&#x12e;" horiz-adv-x="422" 
d="M302 -69q-12 -137 -137 -137q-48 0 -76 23.5t-24 68.5q4 38 30 68t67 46l-176 -2q2 9 14 97h37q31 0 41 9t18 40q8 29 34.5 198t28.5 199t-7 42t-36 12h-41q3 13 14 94q118 -2 184 -2q39 0 110 1t73 1q-10 -52 -13 -94h-36q-27 0 -41.5 -12.5t-22.5 -41.5
q-7 -28 -33.5 -199.5t-28.5 -197.5q-2 -27 7.5 -38t42.5 -11h36q-10 -55 -13 -97q-75 2 -139 2q-63 -26 -66 -78q-1 -24 12.5 -36t36.5 -12q55 0 72 62z" />
    <glyph glyph-name="iogonek" unicode="&#x12f;" horiz-adv-x="355" 
d="M363 -69q-12 -137 -137 -137q-48 0 -76 23.5t-24 68.5q6 59 71 96q-13 -3 -27 -3q-144 0 -94 181l46 167q23 83 -2 83q-46 0 -62 -140l-39 2q10 90 49 150.5t108 60.5q74 0 98.5 -49t1.5 -138l-41 -159q-8 -32 -9.5 -50.5t3.5 -26.5t16 -8q35 0 53 137l39 -2
q-10 -109 -70 -170q-52 -52 -55 -95q-1 -23 11.5 -35.5t35.5 -12.5q55 0 72 62zM328 629q-5 -38 -33 -63.5t-73 -25.5q-38 0 -59.5 25.5t-17.5 63.5t31.5 64t72.5 26q40 0 61.5 -26t17.5 -64z" />
    <glyph glyph-name="Idotaccent" unicode="&#x130;" horiz-adv-x="422" 
d="M-14 -2q2 9 14 97h37q31 0 41 9t18 40q8 29 34.5 198t28.5 199t-7 42t-36 12h-41q3 13 14 94q118 -2 184 -2q39 0 110 1t73 1q-10 -52 -13 -94h-36q-27 0 -41.5 -12.5t-22.5 -41.5q-7 -28 -33.5 -199.5t-28.5 -197.5q-2 -27 7.5 -38t42.5 -11h36q-10 -55 -13 -97
q-118 2 -184 2zM354 823q-2 -27 -20.5 -46t-47.5 -19t-46 19t-15 46q1 28 20.5 46.5t46.5 18.5q29 0 46.5 -18t15.5 -47z" />
    <glyph glyph-name="dotlessi" unicode="&#x131;" horiz-adv-x="355" 
d="M276 296l-41 -159q-20 -85 10 -85q36 0 55 137l39 -2q-8 -88 -48 -148t-114 -60q-151 0 -101 181l46 167q24 83 -2 83q-46 0 -62 -140l-39 2q10 90 49 150.5t108 60.5q74 0 98.5 -49t1.5 -138z" />
    <glyph glyph-name="IJ" unicode="&#x132;" horiz-adv-x="986" 
d="M-14 -2q2 9 14 97h37q31 0 41 9t18 40q8 29 34.5 198t28.5 199t-7 42t-36 12h-41q3 13 14 94q118 -2 184 -2q39 0 110 1t73 1q-10 -52 -13 -94h-36q-27 0 -41.5 -12.5t-22.5 -41.5q-7 -28 -33.5 -199.5t-28.5 -197.5q-2 -27 7.5 -38t42.5 -11h36q-10 -55 -13 -97
q-118 2 -184 2zM470 71h-9q32 -30 82 -30q55 0 87 34.5t47 116.5q55 303 56 349q2 30 -7 42t-36 12h-40q12 64 14 94q116 -2 181 -2q39 0 108.5 1t71.5 1q-11 -40 -14 -94h-34q-26 0 -39.5 -11t-19.5 -43q-5 -26 -56 -344q-34 -222 -285 -222q-99 0 -147 45.5t-38 118.5
q7 44 37.5 71t74.5 27q40 0 60.5 -23.5t14.5 -62.5q-7 -46 -39.5 -64t-69.5 -16z" />
    <glyph glyph-name="ij" unicode="&#x133;" horiz-adv-x="592" 
d="M333 624q-4 -36 -30 -61t-68 -25q-36 0 -56.5 24.5t-16.5 61.5q4 36 30 61.5t67 25.5q38 0 58.5 -25.5t15.5 -61.5zM560 624q-4 -36 -30 -61t-68 -25q-36 0 -56.5 24.5t-16.5 61.5q4 36 30 61.5t67 25.5q38 0 58.5 -25.5t15.5 -61.5zM56 270l-39 2q9 89 48.5 150
t110.5 61q147 0 98 -190l-29 -111q-16 -62 -13 -96t24 -34q18 0 36.5 16.5t41.5 69.5t40 138l39 191q20 -2 76 -2l76 2q-7 -28 -41 -200t-42 -215q-23 -132 -100 -193.5t-189 -61.5q-77 0 -114 30.5t-30 73.5q4 30 23.5 46.5t48.5 16.5q26 0 41.5 -14.5t14.5 -39.5
q-2 -30 -25 -44.5t-52 -8.5q26 -28 81 -28q30 0 52.5 12.5t35.5 24.5t25.5 48.5t16.5 52.5t14 67q3 15 5 23l4 20q-55 -98 -154 -98q-54 0 -81.5 26.5t-28 72t13.5 105.5l32 128q25 99 0 99q-44 0 -60 -140z" />
    <glyph glyph-name="Jcircumflex" unicode="&#x134;" horiz-adv-x="584" 
d="M593 757l-12 -10q-66 27 -118 82q-26 -22 -72 -47.5t-75 -34.5l-9 11q19 39 57.5 79t76.5 67h68q53 -50 84 -147zM68 71h-9q32 -30 82 -30q55 0 87 34.5t47 116.5q55 303 56 349q2 30 -7 42t-36 12h-40q12 64 14 94q116 -2 181 -2q39 0 108.5 1t71.5 1q-11 -40 -14 -94
h-34q-26 0 -39.5 -11t-19.5 -43q-5 -26 -56 -344q-34 -222 -285 -222q-99 0 -147 45.5t-38 118.5q7 44 37.5 71t74.5 27q40 0 60.5 -23.5t14.5 -62.5q-7 -46 -39.5 -64t-69.5 -16z" />
    <glyph glyph-name="jcircumflex" unicode="&#x135;" horiz-adv-x="306" 
d="M265 296l-51 -266q-25 -126 -87 -179.5t-169 -53.5q-63 0 -94.5 24.5t-25.5 65.5q4 29 23 45t47 16q29 0 42 -16t9 -41q-4 -26 -27 -37t-49 -6q15 -17 48 -17q59 0 84.5 49.5t49.5 179.5l47 251q19 99 -1 99q-44 0 -60 -140l-39 2q10 95 50.5 153t109.5 58q131 0 93 -187
zM336 537l-12 -10q-66 27 -118 82q-26 -22 -72 -47.5t-75 -34.5l-9 11q19 39 57.5 79t76.5 67h68q53 -50 84 -147z" />
    <glyph glyph-name="Kcommaaccent" unicode="&#x136;" horiz-adv-x="829" 
d="M334 -170q-47 0 -44 56q2 27 20.5 44t47.5 17q64 0 59 -77q-4 -55 -47 -93.5t-110 -51.5l-4 20q113 24 127 110q-13 -25 -49 -25zM-13 -2q4 18 15 97h36q30 0 41 11t20 45q7 29 33.5 196t27.5 193q2 29 -8.5 42t-39.5 13h-36q5 27 14 94q118 -2 185 -2q39 0 110.5 1
t73.5 1q-6 -30 -14 -94h-40q-46 0 -60 -55q-8 -28 -32 -188l227 174q27 20 20 44.5t-40 24.5h-33q5 21 15 94q117 -2 182 -2q39 0 109 1t72 1q-6 -23 -15 -94h-36q-50 0 -89 -16t-89 -53l-102 -76q76 -162 151 -293q21 -37 35 -49.5t44 -12.5h22q-12 -63 -14 -97
q-119 2 -186 2l-187 -2q12 62 14 97h26q31 0 39 21t-8 56q-25 56 -88 165l-80 -59q-17 -107 -17 -127q-2 -56 41 -56h37q-12 -58 -14 -97q-113 2 -180 2z" />
    <glyph glyph-name="kcommaaccent" unicode="&#x137;" horiz-adv-x="563" 
d="M506 189l40 -2q-8 -91 -48 -149.5t-116 -58.5q-66 0 -96 36.5t-12 102.5q14 56 0.5 75t-64.5 17l-10 -44l-33 -169q-50 3 -77 3q-46 0 -79 -3q94 417 114 560q4 27 -2.5 40t-31.5 13h-20q6 39 6 79q111 -4 221 0q-4 -48 -23 -143l-32 -162q53 99 150 99q69 0 94 -36.5
t12 -93.5q-11 -43 -49 -73.5t-89 -43.5q86 -15 74 -124q-7 -61 19 -61q38 0 52 138zM215 -170q-47 0 -44 56q2 27 20.5 44t47.5 17q64 0 59 -77q-4 -55 -47 -93.5t-110 -51.5l-4 20q113 24 127 110q-13 -25 -49 -25zM320 407q-30 0 -53.5 -36.5t-48.5 -131.5q100 7 124 103
q7 31 0.5 48t-22.5 17z" />
    <glyph glyph-name="kgreenlandic" unicode="&#x138;" horiz-adv-x="598" 
d="M51 270l-39 2q9 89 48.5 150t110.5 61q99 0 97 -117q53 117 159 117q70 0 94.5 -36.5t11.5 -93.5q-11 -43 -48.5 -73.5t-88.5 -43.5q87 -15 74 -124q-7 -61 18 -61q37 0 53 138l39 -2q-8 -91 -48 -149.5t-115 -58.5q-67 0 -96.5 36.5t-12.5 102.5q14 56 0.5 75t-64.5 17
l-44 -211q-49 3 -77 3l-77 -3q27 114 67 314q11 54 10.5 75.5t-14.5 21.5q-20 0 -35.5 -38.5t-22.5 -101.5zM354 407q-30 0 -53.5 -36.5t-48.5 -131.5q102 7 124 103q7 32 0.5 48.5t-22.5 16.5z" />
    <glyph glyph-name="Lacute" unicode="&#x139;" horiz-adv-x="671" 
d="M244 747l-8 12q70 95 127 130q34 15 58 6t23.5 -35.5t-32.5 -45.5q-66 -43 -168 -67zM468 689l-14 -94h-40q-31 0 -47.5 -13.5t-23.5 -45.5q-8 -35 -33.5 -196t-26.5 -192t11 -42t41 -11h52q64 0 101.5 35t54.5 123l8 40q11 -1 46.5 -1t46.5 1q-32 -165 -49 -297
q-47 4 -197 4h-267q-13 0 -75 -1t-69 -1q4 18 15 97h38q30 0 40.5 12t18.5 47q8 33 34 193.5t27 188.5q2 32 -6.5 45.5t-35.5 13.5h-42q3 13 14 94q121 -2 189 -2q30 0 74.5 0.5t78 1t36.5 0.5z" />
    <glyph glyph-name="lacute" unicode="&#x13a;" horiz-adv-x="307" 
d="M168 722l-8 12q70 95 127 130q34 15 58 6t23.5 -35.5t-32.5 -45.5q-66 -43 -168 -67zM277 564q-52 -255 -83 -418q-10 -56 -8.5 -75.5t17.5 -19.5q37 0 54 138l39 -2q-7 -87 -48 -147.5t-112 -60.5q-70 0 -91 43.5t2 147.5q38 158 77 387q11 53 -34 53h-19q6 26 10 79
q104 -4 209 0q1 -57 -13 -125z" />
    <glyph glyph-name="Lcommaaccent" unicode="&#x13b;" horiz-adv-x="672" 
d="M237 -170q-47 0 -44 56q2 27 20.5 44t47.5 17q64 0 59 -77q-4 -55 -47 -93.5t-110 -51.5l-4 20q113 24 127 110q-13 -25 -49 -25zM469 689l-14 -94h-40q-31 0 -47.5 -13.5t-23.5 -45.5q-8 -35 -33.5 -196t-26.5 -192t11 -42t41 -11h52q64 0 101.5 35t54.5 123l8 40
q11 -1 46.5 -1t46.5 1q-32 -165 -49 -297q-47 4 -197 4h-267q-14 0 -75.5 -1t-68.5 -1q4 18 15 97h38q30 0 40.5 12t18.5 47q8 33 34 193.5t27 188.5q2 32 -6.5 45.5t-35.5 13.5h-42q3 13 14 94q121 -2 189 -2q30 0 74.5 0.5t78 1t36.5 0.5z" />
    <glyph glyph-name="lcommaaccent" unicode="&#x13c;" horiz-adv-x="307" 
d="M92 -170q-47 0 -44 56q2 27 20.5 44t47.5 17q64 0 59 -77q-4 -55 -47 -93.5t-110 -51.5l-4 20q113 24 127 110q-13 -25 -49 -25zM277 564q-52 -255 -83 -418q-10 -56 -8.5 -75.5t17.5 -19.5q37 0 54 138l39 -2q-7 -87 -48 -147.5t-112 -60.5q-70 0 -91 43.5t2 147.5
q38 158 77 387q11 53 -34 53h-19q6 26 10 79q104 -4 209 0q1 -57 -13 -125z" />
    <glyph glyph-name="Lcaron" unicode="&#x13d;" horiz-adv-x="671" 
d="M590 587q-47 0 -44 56q2 27 20.5 44t47.5 17q64 0 59 -77q-4 -55 -47 -93.5t-110 -51.5l-4 20q113 24 127 110q-13 -25 -49 -25zM468 689l-14 -94h-40q-31 0 -47.5 -13.5t-23.5 -45.5q-8 -35 -33.5 -196t-26.5 -192t11 -42t41 -11h52q64 0 101.5 35t54.5 123l8 40
q11 -1 46.5 -1t46.5 1q-32 -165 -49 -297q-47 4 -197 4h-267q-13 0 -75 -1t-69 -1q4 18 15 97h38q30 0 40.5 12t18.5 47q8 33 34 193.5t27 188.5q2 32 -6.5 45.5t-35.5 13.5h-42q3 13 14 94q121 -2 189 -2q30 0 74.5 0.5t78 1t36.5 0.5z" />
    <glyph glyph-name="lcaron" unicode="&#x13e;" horiz-adv-x="450" 
d="M384 574q-47 0 -44 56q2 27 20.5 44t47.5 17q64 0 59 -77q-4 -55 -47 -93.5t-110 -51.5l-4 20q113 24 127 110q-13 -25 -49 -25zM277 564q-52 -255 -83 -418q-10 -56 -8.5 -75.5t17.5 -19.5q37 0 54 138l39 -2q-7 -87 -48 -147.5t-112 -60.5q-70 0 -91 43.5t2 147.5
q38 158 77 387q11 53 -34 53h-19q6 26 10 79q104 -4 209 0q1 -57 -13 -125z" />
    <glyph glyph-name="Ldot" unicode="&#x13f;" horiz-adv-x="671" 
d="M468 689l-14 -94h-40q-31 0 -47.5 -13.5t-23.5 -45.5q-8 -35 -33.5 -196t-26.5 -192t11 -42t41 -11h52q64 0 101.5 35t54.5 123l8 40q11 -1 46.5 -1t46.5 1q-32 -165 -49 -297q-47 4 -197 4h-267q-13 0 -75 -1t-69 -1q4 18 15 97h38q30 0 40.5 12t18.5 47q8 33 34 193.5
t27 188.5q2 32 -6.5 45.5t-35.5 13.5h-42q3 13 14 94q121 -2 189 -2q30 0 74.5 0.5t78 1t36.5 0.5zM540 388q-2 -27 -20.5 -46t-47.5 -19t-46 19t-15 46q1 28 20.5 46.5t46.5 18.5q29 0 46.5 -18t15.5 -47z" />
    <glyph glyph-name="ldot" unicode="&#x140;" horiz-adv-x="438" 
d="M277 564q-52 -255 -83 -418q-10 -56 -8.5 -75.5t17.5 -19.5q37 0 54 138l39 -2q-7 -87 -48 -147.5t-112 -60.5q-70 0 -91 43.5t2 147.5q38 158 77 387q11 53 -34 53h-19q6 26 10 79q104 -4 209 0q1 -57 -13 -125zM439 336q-2 -27 -20.5 -46t-47.5 -19t-46 19t-15 46
q1 28 20.5 46.5t46.5 18.5q29 0 46.5 -18t15.5 -47z" />
    <glyph glyph-name="Lslash" unicode="&#x141;" horiz-adv-x="671" 
d="M468 689l-14 -94h-40q-31 0 -47.5 -13.5t-23.5 -45.5q-5 -19 -21 -118q51 21 59 25l19 -55q-6 -2 -88 -34q-28 -178 -29 -206q-1 -31 11 -42t41 -11h52q64 0 101.5 35t54.5 123l8 40q11 -1 46.5 -1t46.5 1q-32 -165 -49 -297q-47 4 -197 4h-267q-13 0 -75 -1t-69 -1
q4 18 15 97h38q31 0 42 12.5t17 46.5l22 122l-32 -13l-19 54q6 2 61 24q28 174 29 195q2 32 -6.5 45.5t-35.5 13.5h-42q3 13 14 94q121 -2 189 -2q30 0 74.5 0.5t78 1t36.5 0.5z" />
    <glyph glyph-name="lslash" unicode="&#x142;" horiz-adv-x="307" 
d="M277 564l-29 -140q9 4 23.5 10.5t19.5 9.5l20 -53q-9 -3 -34.5 -14t-41.5 -18l-41 -213q-10 -56 -8.5 -75.5t17.5 -19.5q37 0 54 138l39 -2q-7 -87 -48 -147.5t-112 -60.5q-70 0 -91 43.5t2 147.5q12 49 26 118q-5 -2 -14 -6t-13 -6l-20 53l60 24q17 86 38 204
q11 53 -34 53h-19q6 26 10 79q104 -4 209 0q1 -57 -13 -125z" />
    <glyph glyph-name="Nacute" unicode="&#x143;" horiz-adv-x="826" 
d="M463 747l-8 12q70 95 127 130q34 15 58 6t23.5 -35.5t-32.5 -45.5q-66 -43 -168 -67zM376 689q28 -66 222 -430q32 194 39 272q3 35 -9.5 49.5t-40.5 14.5h-54q11 42 14 94q10 0 68 -1t90 -1l157 2q-11 -40 -14 -94h-42q-28 0 -44.5 -14.5t-24.5 -49.5
q-12 -56 -39.5 -242.5t-39.5 -289.5q-22 1 -79 1t-79 -1q-22 48 -244 475q-36 -210 -47 -315q-5 -64 62 -64h44q-12 -58 -14 -97q-102 2 -159 2l-158 -2q6 30 14 97h34q64 0 79 64q10 45 33 193t24 184q2 31 -10 45t-44 14h-41q5 27 14 94q143 -4 289 0z" />
    <glyph glyph-name="nacute" unicode="&#x144;" horiz-adv-x="614" 
d="M326 527l-8 12q70 95 127 130q34 15 58 6t23.5 -35.5t-32.5 -45.5q-66 -43 -168 -67zM51 270l-39 2q9 89 48.5 150t110.5 61q99 0 97 -117q58 117 168 117q149 0 96 -203l-35 -132q-14 -52 -12.5 -74.5t19.5 -22.5q34 0 53 138l39 -2q-8 -88 -49 -148t-116 -60
q-74 0 -98 53t2 137l33 112q38 129 -9 129q-37 0 -68.5 -61t-63.5 -219l-27 -131q-49 3 -77 3l-77 -3q40 167 67 314q11 54 10.5 75.5t-14.5 21.5q-20 0 -35.5 -38.5t-22.5 -101.5z" />
    <glyph glyph-name="Ncommaaccent" unicode="&#x145;" horiz-adv-x="826" 
d="M345 -170q-47 0 -44 56q2 27 20.5 44t47.5 17q64 0 59 -77q-4 -55 -47 -93.5t-110 -51.5l-4 20q113 24 127 110q-13 -25 -49 -25zM376 689q28 -66 222 -430q32 194 39 272q3 35 -9.5 49.5t-40.5 14.5h-54q11 42 14 94q10 0 68 -1t90 -1l157 2q-11 -40 -14 -94h-42
q-28 0 -44.5 -14.5t-24.5 -49.5q-12 -56 -39.5 -242.5t-39.5 -289.5q-22 1 -79 1t-79 -1q-22 48 -244 475q-36 -210 -47 -315q-5 -64 62 -64h44q-12 -58 -14 -97q-102 2 -159 2l-158 -2q6 30 14 97h34q64 0 79 64q10 45 33 193t24 184q2 31 -10 45t-44 14h-41q5 27 14 94
q143 -4 289 0z" />
    <glyph glyph-name="ncommaaccent" unicode="&#x146;" horiz-adv-x="614" 
d="M244 -170q-47 0 -44 56q2 27 20.5 44t47.5 17q64 0 59 -77q-4 -55 -47 -93.5t-110 -51.5l-4 20q113 24 127 110q-13 -25 -49 -25zM51 270l-39 2q9 89 48.5 150t110.5 61q99 0 97 -117q58 117 168 117q149 0 96 -203l-35 -132q-14 -52 -12.5 -74.5t19.5 -22.5q34 0 53 138
l39 -2q-8 -88 -49 -148t-116 -60q-74 0 -98 53t2 137l33 112q38 129 -9 129q-37 0 -68.5 -61t-63.5 -219l-27 -131q-49 3 -77 3l-77 -3q40 167 67 314q11 54 10.5 75.5t-14.5 21.5q-20 0 -35.5 -38.5t-22.5 -101.5z" />
    <glyph glyph-name="Ncaron" unicode="&#x147;" horiz-adv-x="826" 
d="M360 899l12 11q62 -27 124 -87q29 25 71.5 51t69.5 35l9 -10q-20 -41 -56 -81.5t-71 -65.5h-69q-25 24 -51 65.5t-39 81.5zM376 689q28 -66 222 -430q32 194 39 272q3 35 -9.5 49.5t-40.5 14.5h-54q11 42 14 94q10 0 68 -1t90 -1l157 2q-11 -40 -14 -94h-42
q-28 0 -44.5 -14.5t-24.5 -49.5q-12 -56 -39.5 -242.5t-39.5 -289.5q-22 1 -79 1t-79 -1q-22 48 -244 475q-36 -210 -47 -315q-5 -64 62 -64h44q-12 -58 -14 -97q-102 2 -159 2l-158 -2q6 30 14 97h34q64 0 79 64q10 45 33 193t24 184q2 31 -10 45t-44 14h-41q5 27 14 94
q143 -4 289 0z" />
    <glyph glyph-name="ncaron" unicode="&#x148;" horiz-adv-x="614" 
d="M225 679l12 11q62 -27 124 -87q29 25 71.5 51t69.5 35l9 -10q-20 -41 -56 -81.5t-71 -65.5h-69q-25 24 -51 65.5t-39 81.5zM51 270l-39 2q9 89 48.5 150t110.5 61q99 0 97 -117q58 117 168 117q149 0 96 -203l-35 -132q-14 -52 -12.5 -74.5t19.5 -22.5q34 0 53 138l39 -2
q-8 -88 -49 -148t-116 -60q-74 0 -98 53t2 137l33 112q38 129 -9 129q-37 0 -68.5 -61t-63.5 -219l-27 -131q-49 3 -77 3l-77 -3q40 167 67 314q11 54 10.5 75.5t-14.5 21.5q-20 0 -35.5 -38.5t-22.5 -101.5z" />
    <glyph glyph-name="napostrophe" unicode="&#x149;" horiz-adv-x="614" 
d="M147 604q-47 0 -44 56q2 27 20.5 44t47.5 17q64 0 59 -77q-4 -55 -47 -93.5t-110 -51.5l-4 20q113 24 127 110q-13 -25 -49 -25zM51 270l-39 2q9 89 48.5 150t110.5 61q99 0 97 -117q58 117 168 117q149 0 96 -203l-35 -132q-14 -52 -12.5 -74.5t19.5 -22.5q34 0 53 138
l39 -2q-8 -88 -49 -148t-116 -60q-74 0 -98 53t2 137l33 112q38 129 -9 129q-37 0 -68.5 -61t-63.5 -219l-27 -131q-49 3 -77 3l-77 -3q40 167 67 314q11 54 10.5 75.5t-14.5 21.5q-20 0 -35.5 -38.5t-22.5 -101.5z" />
    <glyph glyph-name="Eng" unicode="&#x14a;" horiz-adv-x="826" 
d="M376 689q28 -66 222 -430q32 194 39 272q3 35 -9.5 49.5t-40.5 14.5h-54q11 42 14 94q10 0 68 -1t90 -1l157 2q-11 -40 -14 -94h-42q-28 0 -44.5 -14.5t-24.5 -49.5q-12 -54 -38.5 -236.5t-40.5 -295.5q-25 -202 -238 -202q-66 0 -98.5 24.5t-25.5 65.5q11 61 71 61
q29 0 42 -16t9 -41q-4 -24 -24.5 -35t-44.5 -8q20 -17 62 -17q134 0 143 169q-44 0 -54 -1q-22 48 -244 475q-36 -210 -47 -315q-5 -64 62 -64h44q-12 -58 -14 -97q-102 2 -159 2l-158 -2q6 30 14 97h34q64 0 79 64q10 45 33 193t24 184q2 31 -10 45t-44 14h-41q5 27 14 94
q143 -4 289 0z" />
    <glyph glyph-name="eng" unicode="&#x14b;" horiz-adv-x="571" 
d="M51 270l-39 2q9 89 48.5 150t110.5 61q99 0 97 -117q58 117 168 117q141 0 93 -205l-61 -264q-27 -115 -91 -166t-167 -51q-63 0 -94.5 24.5t-25.5 65.5q4 29 23.5 45t47.5 16q29 0 42.5 -16t8.5 -41q-4 -26 -27.5 -37t-49.5 -5q16 -18 49 -18q50 0 75.5 43t45.5 129
l62 265q12 55 14.5 86.5t-3 43.5t-19.5 12q-75 0 -124 -239l-35 -172q-49 3 -77 3l-77 -3q27 114 67 314q11 54 10.5 75.5t-14.5 21.5q-20 0 -35.5 -38.5t-22.5 -101.5z" />
    <glyph glyph-name="Omacron" unicode="&#x14c;" horiz-adv-x="794" 
d="M344 767q12 37 15 84q46 -1 138 -1t138 1q-10 -37 -15 -84q-46 1 -138 1t-138 -1zM366 77q82 0 125 62t65 208q23 148 -2 204.5t-105 56.5q-79 0 -124 -59t-66 -203q-22 -149 2.5 -209t104.5 -60zM352 -25q-166 0 -247 95.5t-54 275.5q28 182 137 273t275 91
q176 0 251.5 -92t48.5 -271q-27 -185 -139 -278.5t-272 -93.5z" />
    <glyph glyph-name="omacron" unicode="&#x14d;" horiz-adv-x="513" 
d="M181 538q12 37 15 84q46 -2 138 -2t138 2q-10 -37 -15 -84q-46 2 -138 2t-138 -2zM220 48q68 0 106 250q9 72 1.5 94t-34.5 22q-69 0 -105 -236q-10 -76 -2 -103t34 -27zM216 -21q-101 0 -151 57t-37 171q14 119 86 197.5t182 78.5q99 0 148.5 -53t40.5 -160
q-10 -125 -80 -208t-189 -83z" />
    <glyph glyph-name="Obreve" unicode="&#x14e;" horiz-adv-x="794" 
d="M366 77q82 0 125 62t65 208q23 148 -2 204.5t-105 56.5q-79 0 -124 -59t-66 -203q-22 -149 2.5 -209t104.5 -60zM352 -25q-166 0 -247 95.5t-54 275.5q28 182 137 273t275 91q176 0 251.5 -92t48.5 -271q-27 -185 -139 -278.5t-272 -93.5zM482 748q-73 0 -99 40.5
t-8 104.5l24 2q-1 -34 21.5 -47.5t73.5 -13.5t77 13.5t33 47.5l25 -2q0 -64 -37 -104.5t-110 -40.5z" />
    <glyph glyph-name="obreve" unicode="&#x14f;" horiz-adv-x="513" 
d="M220 48q68 0 106 250q9 72 1.5 94t-34.5 22q-69 0 -105 -236q-10 -76 -2 -103t34 -27zM216 -21q-101 0 -151 57t-37 171q14 119 86 197.5t182 78.5q99 0 148.5 -53t40.5 -160q-10 -125 -80 -208t-189 -83zM332 535q-73 0 -99 40.5t-8 104.5l24 2q-1 -34 21.5 -47.5
t73.5 -13.5t77 13.5t33 47.5l25 -2q0 -64 -37 -104.5t-110 -40.5z" />
    <glyph glyph-name="Ohungarumlaut" unicode="&#x150;" horiz-adv-x="794" 
d="M365 746l-10 8q45 102 91 147q25 24 50.5 20t29.5 -26t-18 -49q-56 -59 -143 -100zM529 746l-10 8q45 102 91 147q25 24 51 20t29.5 -26t-18.5 -49q-56 -59 -143 -100zM366 77q82 0 125 62t65 208q23 148 -2 204.5t-105 56.5q-79 0 -124 -59t-66 -203q-22 -149 2.5 -209
t104.5 -60zM352 -25q-166 0 -247 95.5t-54 275.5q28 182 137 273t275 91q176 0 251.5 -92t48.5 -271q-27 -185 -139 -278.5t-272 -93.5z" />
    <glyph glyph-name="ohungarumlaut" unicode="&#x151;" horiz-adv-x="513" 
d="M222 526l-10 8q45 102 91 147q25 24 50.5 20t29.5 -26t-18 -49q-56 -59 -143 -100zM386 526l-10 8q45 102 91 147q25 24 51 20t29.5 -26t-18.5 -49q-56 -59 -143 -100zM220 48q68 0 106 250q9 72 1.5 94t-34.5 22q-69 0 -105 -236q-10 -76 -2 -103t34 -27zM216 -21
q-101 0 -151 57t-37 171q14 119 86 197.5t182 78.5q99 0 148.5 -53t40.5 -160q-10 -125 -80 -208t-189 -83z" />
    <glyph glyph-name="OE" unicode="&#x152;" horiz-adv-x="1120" 
d="M854 474l4 27h77q-21 -95 -30 -153q-11 -77 -16 -155h-74l3 24q6 52 -8.5 75t-62.5 25h-44q-22 -136 -23 -166q-3 -56 54 -56h98q79 0 111 33.5t47 134.5l1 10q13 -1 51 -1t52 1q-24 -100 -47 -277q-46 4 -210 4h-331q-71 -25 -154 -25q-166 0 -247 95.5t-54 275.5
q28 182 137 273t275 91q87 0 147 -22h312q175 0 231 7q-32 -140 -45 -259q-43 2 -95 -1l2 15q7 39 6.5 64.5t-6 41.5t-21.5 24.5t-35.5 11t-51.5 2.5h-101q-29 0 -43.5 -11.5t-22.5 -43.5q-5 -17 -28 -160h35q52 0 75.5 21.5t31.5 73.5zM490 110q7 30 38.5 229.5t34.5 231.5
q-30 38 -107 38q-85 0 -130 -58.5t-67 -204.5q-22 -149 2.5 -209t107.5 -60q33 0 68.5 11t52.5 22z" />
    <glyph glyph-name="oe" unicode="&#x153;" horiz-adv-x="756" 
d="M489 -21q-88 0 -137 46q-56 -46 -136 -46q-101 0 -151 57t-37 171q14 119 86 197.5t182 78.5q91 0 143 -49q62 49 139 49q88 0 124.5 -41t26.5 -109q-22 -135 -251 -129q-14 -76 -3 -107t49 -31q37 0 60 23t36 80q83 -5 87 -5q-19 -91 -69 -138t-149 -47zM220 48
q68 0 106 250q9 72 1.5 94t-34.5 22q-69 0 -105 -236q-10 -76 -2 -103t34 -27zM572 421q-28 0 -45.5 -34.5t-42.5 -149.5q50 1 73.5 17.5t35.5 69.5q22 97 -21 97z" />
    <glyph glyph-name="Racute" unicode="&#x154;" horiz-adv-x="805" 
d="M410 747l-8 12q70 95 127 130q34 15 58 6t23.5 -35.5t-32.5 -45.5q-66 -43 -168 -67zM634 184q-1 -60 7 -84t28 -24q21 0 30.5 38.5t5.5 87.5l56 5q7 -97 -33.5 -163t-136.5 -66q-102 0 -134 46t-23 141q8 79 -16 107t-82 28h-34q-20 -133 -20 -152q0 -29 11 -41t39 -12
h39q-12 -58 -14 -97q-120 2 -187 2l-183 -2q6 23 15 97h33q30 0 42 9t21 40q8 29 34.5 198.5t27.5 198.5q2 30 -7 42t-36 12h-41q8 41 13 95q5 0 90 -1.5t107 -1.5q24 0 91 0.5t86 0.5q280 0 258 -189q-8 -71 -57.5 -115.5t-121.5 -59.5q51 -14 71.5 -48.5t20.5 -91.5z
M345 552q-7 -20 -33 -187h66q69 0 103 27.5t43 90.5q8 58 -15 86.5t-81 28.5h-23q-26 0 -39.5 -11t-20.5 -35z" />
    <glyph glyph-name="racute" unicode="&#x155;" horiz-adv-x="471" 
d="M274 527l-8 12q70 95 127 130q34 15 58 6t23.5 -35.5t-32.5 -45.5q-66 -43 -168 -67zM318 343q6 32 31.5 44t54.5 8q-9 29 -39 29q-76 0 -107 -143q-52 -246 -58 -283q-49 2 -77 2l-77 -2q10 41 64 306q17 87 12 99q-3 7 -10 7q-22 0 -38 -39t-23 -101l-39 2
q9 89 48.5 150t110.5 61q86 0 96 -88q39 88 120 88q47 0 70.5 -30.5t16.5 -86.5q-14 -100 -92 -100q-33 0 -52.5 20.5t-11.5 56.5z" />
    <glyph glyph-name="Rcommaaccent" unicode="&#x156;" horiz-adv-x="805" 
d="M297 -170q-47 0 -44 56q2 27 20.5 44t47.5 17q64 0 59 -77q-4 -55 -47 -93.5t-110 -51.5l-4 20q113 24 127 110q-13 -25 -49 -25zM634 184q-1 -60 7 -84t28 -24q21 0 30.5 38.5t5.5 87.5l56 5q7 -97 -33.5 -163t-136.5 -66q-102 0 -134 46t-23 141q8 79 -16 107t-82 28
h-34q-20 -133 -20 -152q0 -29 11 -41t39 -12h39q-12 -58 -14 -97q-120 2 -187 2l-183 -2q6 23 15 97h33q30 0 42 9t21 40q8 29 34.5 198.5t27.5 198.5q2 30 -7 42t-36 12h-41q8 41 13 95q5 0 90 -1.5t107 -1.5q24 0 91 0.5t86 0.5q280 0 258 -189q-8 -71 -57.5 -115.5
t-121.5 -59.5q51 -14 71.5 -48.5t20.5 -91.5zM345 552q-7 -20 -33 -187h66q69 0 103 27.5t43 90.5q8 58 -15 86.5t-81 28.5h-23q-26 0 -39.5 -11t-20.5 -35z" />
    <glyph glyph-name="rcommaaccent" unicode="&#x157;" horiz-adv-x="463" 
d="M83 -170q-47 0 -44 56q2 27 20.5 44t47.5 17q64 0 59 -77q-4 -55 -47 -93.5t-110 -51.5l-4 20q113 24 127 110q-13 -25 -49 -25zM318 343q6 32 31.5 44t54.5 8q-9 29 -39 29q-76 0 -107 -143q-52 -246 -58 -283q-49 2 -77 2l-77 -2q10 41 64 306q17 87 12 99q-3 7 -10 7
q-22 0 -38 -39t-23 -101l-39 2q9 89 48.5 150t110.5 61q86 0 96 -88q39 88 120 88q47 0 70.5 -30.5t16.5 -86.5q-14 -100 -92 -100q-33 0 -52.5 20.5t-11.5 56.5z" />
    <glyph glyph-name="Rcaron" unicode="&#x158;" horiz-adv-x="805" 
d="M311 899l12 11q62 -27 124 -87q29 25 71.5 51t69.5 35l9 -10q-20 -41 -56 -81.5t-71 -65.5h-69q-25 24 -51 65.5t-39 81.5zM634 184q-1 -60 7 -84t28 -24q21 0 30.5 38.5t5.5 87.5l56 5q7 -97 -33.5 -163t-136.5 -66q-102 0 -134 46t-23 141q8 79 -16 107t-82 28h-34
q-20 -133 -20 -152q0 -29 11 -41t39 -12h39q-12 -58 -14 -97q-120 2 -187 2l-183 -2q6 23 15 97h33q30 0 42 9t21 40q8 29 34.5 198.5t27.5 198.5q2 30 -7 42t-36 12h-41q8 41 13 95q5 0 90 -1.5t107 -1.5q24 0 91 0.5t86 0.5q280 0 258 -189q-8 -71 -57.5 -115.5
t-121.5 -59.5q51 -14 71.5 -48.5t20.5 -91.5zM345 552q-7 -20 -33 -187h66q69 0 103 27.5t43 90.5q8 58 -15 86.5t-81 28.5h-23q-26 0 -39.5 -11t-20.5 -35z" />
    <glyph glyph-name="rcaron" unicode="&#x159;" horiz-adv-x="471" 
d="M155 679l12 11q62 -27 124 -87q29 25 71.5 51t69.5 35l9 -10q-20 -41 -56 -81.5t-71 -65.5h-69q-25 24 -51 65.5t-39 81.5zM318 343q6 32 31.5 44t54.5 8q-9 29 -39 29q-76 0 -107 -143q-52 -246 -58 -283q-49 2 -77 2l-77 -2q10 41 64 306q17 87 12 99q-3 7 -10 7
q-22 0 -38 -39t-23 -101l-39 2q9 89 48.5 150t110.5 61q86 0 96 -88q39 88 120 88q47 0 70.5 -30.5t16.5 -86.5q-14 -100 -92 -100q-33 0 -52.5 20.5t-11.5 56.5z" />
    <glyph glyph-name="Sacute" unicode="&#x15a;" horiz-adv-x="682" 
d="M372 747l-8 12q70 95 127 130q34 15 58 6t23.5 -35.5t-32.5 -45.5q-66 -43 -168 -67zM378 624q-140 0 -152 -77q-7 -44 27 -63.5t131 -27.5q145 -9 206 -80.5t42 -189.5q-15 -96 -92.5 -152.5t-204.5 -56.5q-120 0 -201 48q-48 28 -61 -26q-13 1 -42.5 1t-42.5 -1
q42 96 51 234q12 -1 40 -1t39 1q-3 -81 48 -122t164 -41q145 0 155 82q5 46 -30 68t-132 30q-131 8 -194.5 76.5t-45.5 179.5q17 103 95.5 154.5t197.5 49.5q83 -1 166 -41q23 -14 38 -9t23 35q13 -1 39.5 -1t39.5 1q-39 -88 -45 -215q-38 2 -74 0q-2 66 -51 105t-134 39z
" />
    <glyph glyph-name="sacute" unicode="&#x15b;" horiz-adv-x="440" 
d="M247 527l-8 12q70 95 127 130q34 15 58 6t23.5 -35.5t-32.5 -45.5q-66 -43 -168 -67zM295 442q-83 0 -100 -44q-11 -31 6.5 -53t75.5 -41q166 -53 117 -201q-20 -59 -75.5 -91.5t-138.5 -32.5q-91 0 -138.5 32t-34.5 86q5 23 23 37t44 14q29 0 43 -18t7 -45
q-6 -20 -23 -30t-37 -9q32 -23 91 -23q92 0 105 53q7 30 -10 52t-73 41q-155 53 -110 191q17 53 72 88t136 35q83 0 125.5 -31t31.5 -81q-11 -47 -64 -47q-29 0 -43 17t-7 42q9 37 51 41q-33 18 -74 18z" />
    <glyph glyph-name="Scircumflex" unicode="&#x15c;" horiz-adv-x="682" 
d="M536 757l-12 -10q-66 27 -118 82q-26 -22 -72 -47.5t-75 -34.5l-9 11q19 39 57.5 79t76.5 67h68q53 -50 84 -147zM378 624q-140 0 -152 -77q-7 -44 27 -63.5t131 -27.5q145 -9 206 -80.5t42 -189.5q-15 -96 -92.5 -152.5t-204.5 -56.5q-120 0 -201 48q-48 28 -61 -26
q-13 1 -42.5 1t-42.5 -1q42 96 51 234q12 -1 40 -1t39 1q-3 -81 48 -122t164 -41q145 0 155 82q5 46 -30 68t-132 30q-131 8 -194.5 76.5t-45.5 179.5q17 103 95.5 154.5t197.5 49.5q83 -1 166 -41q23 -14 38 -9t23 35q13 -1 39.5 -1t39.5 1q-39 -88 -45 -215q-38 2 -74 0
q-2 66 -51 105t-134 39z" />
    <glyph glyph-name="scircumflex" unicode="&#x15d;" horiz-adv-x="440" 
d="M425 537l-12 -10q-66 27 -118 82q-26 -22 -72 -47.5t-75 -34.5l-9 11q19 39 57.5 79t76.5 67h68q53 -50 84 -147zM295 442q-83 0 -100 -44q-11 -31 6.5 -53t75.5 -41q166 -53 117 -201q-20 -59 -75.5 -91.5t-138.5 -32.5q-91 0 -138.5 32t-34.5 86q5 23 23 37t44 14
q29 0 43 -18t7 -45q-6 -20 -23 -30t-37 -9q32 -23 91 -23q92 0 105 53q7 30 -10 52t-73 41q-155 53 -110 191q17 53 72 88t136 35q83 0 125.5 -31t31.5 -81q-11 -47 -64 -47q-29 0 -43 17t-7 42q9 37 51 41q-33 18 -74 18z" />
    <glyph glyph-name="Scedilla" unicode="&#x15e;" horiz-adv-x="682" 
d="M254 -110l-11 23q53 23 67 65q-105 5 -176 47q-48 28 -61 -26q-13 1 -42.5 1t-42.5 -1q42 96 51 234q12 -1 40 -1t39 1q-3 -81 48 -122t164 -41q145 0 155 82q5 46 -30 68t-132 30q-131 8 -194.5 76.5t-45.5 179.5q17 103 95.5 154.5t197.5 49.5q83 -1 166 -41
q23 -14 38 -9t23 35q13 -1 39.5 -1t39.5 1q-39 -88 -45 -215q-38 2 -74 0q-2 66 -51 105t-134 39q-140 0 -152 -77q-7 -44 27 -63.5t131 -27.5q145 -9 206 -80.5t42 -189.5q-15 -94 -90 -150.5t-199 -58.5q-4 -24 -27 -47q46 3 78 -17.5t30 -62.5q-1 -44 -35 -69t-90 -25
q-75 0 -108 59l24 20q26 -34 65 -34q53 0 56 49q1 31 -24 42t-58 -2z" />
    <glyph glyph-name="scedilla" unicode="&#x15f;" horiz-adv-x="440" 
d="M109 -110l-11 23q52 24 68 67q-85 2 -128 33.5t-31 83.5q5 23 23 37t44 14q29 0 43 -18t7 -45q-6 -20 -23 -30t-37 -9q32 -23 91 -23q92 0 105 53q7 30 -10 52t-73 41q-155 53 -110 191q17 53 72 88t136 35q83 0 125.5 -31t31.5 -81q-11 -47 -64 -47q-28 0 -42.5 16.5
t-7.5 42.5q11 37 51 41q-33 18 -74 18q-83 0 -100 -44q-11 -31 6.5 -53t75.5 -41q166 -53 117 -201q-39 -115 -195 -123q-6 -28 -28 -50q46 3 78 -17.5t30 -62.5q-1 -44 -35 -69t-90 -25q-75 0 -108 59l24 20q26 -34 65 -34q53 0 56 49q1 31 -24 42t-58 -2z" />
    <glyph glyph-name="Scaron" unicode="&#x160;" horiz-adv-x="682" 
d="M284 899l12 11q62 -27 124 -87q29 25 71.5 51t69.5 35l9 -10q-20 -41 -56 -81.5t-71 -65.5h-69q-25 24 -51 65.5t-39 81.5zM378 624q-140 0 -152 -77q-7 -44 27 -63.5t131 -27.5q145 -9 206 -80.5t42 -189.5q-15 -96 -92.5 -152.5t-204.5 -56.5q-120 0 -201 48
q-48 28 -61 -26q-13 1 -42.5 1t-42.5 -1q42 96 51 234q12 -1 40 -1t39 1q-3 -81 48 -122t164 -41q145 0 155 82q5 46 -30 68t-132 30q-131 8 -194.5 76.5t-45.5 179.5q17 103 95.5 154.5t197.5 49.5q83 -1 166 -41q23 -14 38 -9t23 35q13 -1 39.5 -1t39.5 1
q-39 -88 -45 -215q-38 2 -74 0q-2 66 -51 105t-134 39z" />
    <glyph glyph-name="scaron" unicode="&#x161;" horiz-adv-x="440" 
d="M161 679l12 11q62 -27 124 -87q29 25 71.5 51t69.5 35l9 -10q-20 -41 -56 -81.5t-71 -65.5h-69q-25 24 -51 65.5t-39 81.5zM295 442q-83 0 -100 -44q-11 -31 6.5 -53t75.5 -41q166 -53 117 -201q-20 -59 -75.5 -91.5t-138.5 -32.5q-91 0 -138.5 32t-34.5 86q5 23 23 37
t44 14q29 0 43 -18t7 -45q-6 -20 -23 -30t-37 -9q32 -23 91 -23q92 0 105 53q7 30 -10 52t-73 41q-155 53 -110 191q17 53 72 88t136 35q83 0 125.5 -31t31.5 -81q-11 -47 -64 -47q-29 0 -43 17t-7 42q9 37 51 41q-33 18 -74 18z" />
    <glyph glyph-name="Tcommaaccent" unicode="&#x162;" horiz-adv-x="734" 
d="M255 -110l-11 23q33 15 50.5 35.5t23.5 51.5l-191 -2q10 41 14 97h39q33 0 49 12.5t23 41.5q24 100 67 437h-62q-39 0 -61 -23t-32 -70l-17 -78q-46 4 -97 0q25 142 37 277q100 -5 185 -5h310q4 0 184 5q-37 -196 -47 -277q-48 4 -96 0l9 78q10 93 -65 93h-65
q-60 -354 -66 -437q-5 -54 54 -54h40q-4 -13 -14 -97q-99 2 -170 2q3 -39 -29 -70q46 3 78 -17.5t30 -62.5q-1 -44 -35 -69t-90 -25q-75 0 -108 59l24 20q26 -34 65 -34q53 0 56 49q1 31 -24 42t-58 -2z" />
    <glyph glyph-name="tcommaaccent" unicode="&#x163;" horiz-adv-x="364" 
d="M78 -110l-11 23q54 25 68 67q-117 12 -92 163q5 28 26 129.5t28 142.5l-40 -1l5 51q61 0 99 20.5t56 51.5t37 89h52q-16 -59 -35 -163l92 2l-7 -51l-94 1l-44 -242q-12 -68 -9.5 -94.5t22.5 -26.5q17 0 32 37t20 100l39 -2q-15 -201 -154 -208q-6 -27 -28 -49
q46 3 78 -17.5t30 -62.5q-1 -44 -35 -69t-90 -25q-75 0 -108 59l24 20q26 -34 65 -34q53 0 56 49q1 31 -24 42t-58 -2z" />
    <glyph glyph-name="Tcaron" unicode="&#x164;" horiz-adv-x="734" 
d="M305 899l12 11q62 -27 124 -87q29 25 71.5 51t69.5 35l9 -10q-20 -41 -56 -81.5t-71 -65.5h-69q-25 24 -51 65.5t-39 81.5zM567 586h-65q-60 -354 -66 -437q-5 -54 54 -54h40q-4 -13 -14 -97q-124 2 -194 2l-195 -2q10 41 14 97h39q33 0 49 12.5t23 41.5q24 100 67 437
h-62q-39 0 -61 -23t-32 -70l-17 -78q-46 4 -97 0q25 142 37 277q100 -5 185 -5h310q4 0 184 5q-37 -196 -47 -277q-48 4 -96 0l9 78q10 93 -65 93z" />
    <glyph glyph-name="tcaron" unicode="&#x165;" horiz-adv-x="487" 
d="M283 189l39 -2q-15 -208 -164 -208q-142 0 -115 164q5 28 26 129.5t28 142.5l-40 -1l5 51q61 0 99 20.5t56 51.5t37 89h52q-16 -59 -35 -163l92 2l-7 -51l-94 1l-44 -242q-12 -68 -9.5 -94.5t22.5 -26.5q17 0 32 37t20 100zM432 588q-47 0 -44 56q2 27 20.5 44t47.5 17
q64 0 59 -77q-4 -55 -47 -93.5t-110 -51.5l-4 20q113 24 127 110q-13 -25 -49 -25z" />
    <glyph glyph-name="Tbar" unicode="&#x166;" horiz-adv-x="734" 
d="M567 586h-65q-27 -155 -44 -267l113 6l-10 -59q-12 0 -110 4q-14 -91 -15 -121q-5 -54 54 -54h40q-4 -13 -14 -97q-124 2 -194 2l-195 -2q10 41 14 97h39q33 0 49 12.5t23 41.5q7 33 22 122q-85 -5 -115 -5l10 59q14 0 112 -6q22 146 38 267h-62q-39 0 -61 -23t-32 -70
l-17 -78q-46 4 -97 0q25 142 37 277q100 -5 185 -5h310q4 0 184 5q-37 -196 -47 -277q-48 4 -96 0l9 78q10 93 -65 93z" />
    <glyph glyph-name="tbar" unicode="&#x167;" horiz-adv-x="358" 
d="M282 189l39 -2q-15 -208 -164 -208q-142 0 -115 164q3 20 27 134q-32 -2 -41 -2l6 47l43 -3l19 96l-40 -1l5 51q61 0 99 20.5t56 51.5t37 89h52q-16 -59 -35 -163l92 2l-7 -51l-94 1l-18 -98l94 5l-9 -47l-91 5l-20 -107q-12 -68 -9.5 -94.5t22.5 -26.5q17 0 32 37
t20 100z" />
    <glyph glyph-name="Utilde" unicode="&#x168;" horiz-adv-x="822" 
d="M110 270q5 25 21.5 132t18.5 134q2 32 -7.5 45.5t-36.5 13.5h-31q5 27 14 94q121 -2 188 -2q40 0 112 1t74 1q-6 -23 -15 -94h-39q-28 0 -43.5 -13.5t-24.5 -45.5q-6 -23 -39 -266q-14 -97 13.5 -138t99.5 -41t111 40t56 139q36 218 40 266q5 59 -49 59h-35q11 42 14 94
q99 -2 155 -2q32 0 91 1t62 1q-6 -30 -14 -94h-31q-49 0 -61 -59q-3 -14 -39 -267q-46 -292 -337 -292q-158 0 -225.5 67.5t-42.5 225.5zM642 869l27 1q10 -69 -21 -101t-85 -30q-37 2 -57 17.5t-40 48.5q-15 25 -23.5 33.5t-23.5 8.5q-41 0 -33 -80l-27 -1q-11 71 19 102.5
t87 29.5q33 -1 54.5 -16t41.5 -49q14 -24 23.5 -33.5t23.5 -9.5q42 0 34 79z" />
    <glyph glyph-name="utilde" unicode="&#x169;" horiz-adv-x="615" 
d="M562 189l39 -2q-8 -86 -48 -147t-107 -61q-57 0 -81.5 26t-22.5 87q-55 -113 -162 -113q-145 0 -96 204l33 128q25 99 0 99q-45 0 -61 -140l-39 2q9 89 48.5 150t110.5 61q52 0 79.5 -26t29 -68.5t-10.5 -95.5l-28 -111q-32 -130 10 -130q71 0 119 229l39 185
q50 -2 78 -2l77 2q-28 -123 -66 -311q-6 -31 -8.5 -48t-3 -31t3 -19.5t10.5 -5.5q38 0 57 138zM474 649l27 1q10 -69 -21 -101t-85 -30q-37 2 -57 17.5t-40 48.5q-15 25 -23.5 33.5t-23.5 8.5q-41 0 -33 -80l-27 -1q-11 71 19 102.5t87 29.5q33 -1 54.5 -16t41.5 -49
q14 -24 23.5 -33.5t23.5 -9.5q42 0 34 79z" />
    <glyph glyph-name="Umacron" unicode="&#x16a;" horiz-adv-x="822" 
d="M110 270q5 25 21.5 132t18.5 134q2 32 -7.5 45.5t-36.5 13.5h-31q5 27 14 94q121 -2 188 -2q40 0 112 1t74 1q-6 -23 -15 -94h-39q-28 0 -43.5 -13.5t-24.5 -45.5q-6 -23 -39 -266q-14 -97 13.5 -138t99.5 -41t111 40t56 139q36 218 40 266q5 59 -49 59h-35q11 42 14 94
q99 -2 155 -2q32 0 91 1t62 1q-6 -30 -14 -94h-31q-49 0 -61 -59q-3 -14 -39 -267q-46 -292 -337 -292q-158 0 -225.5 67.5t-42.5 225.5zM377 767q12 37 15 84q46 -1 138 -1t138 1q-10 -37 -15 -84q-46 1 -138 1t-138 -1z" />
    <glyph glyph-name="umacron" unicode="&#x16b;" horiz-adv-x="615" 
d="M562 189l39 -2q-8 -86 -48 -147t-107 -61q-57 0 -81.5 26t-22.5 87q-55 -113 -162 -113q-145 0 -96 204l33 128q25 99 0 99q-45 0 -61 -140l-39 2q9 89 48.5 150t110.5 61q52 0 79.5 -26t29 -68.5t-10.5 -95.5l-28 -111q-32 -130 10 -130q71 0 119 229l39 185
q50 -2 78 -2l77 2q-28 -123 -66 -311q-6 -31 -8.5 -48t-3 -31t3 -19.5t10.5 -5.5q38 0 57 138zM215 538q12 37 15 84q46 -2 138 -2t138 2q-10 -37 -15 -84q-46 2 -138 2t-138 -2z" />
    <glyph glyph-name="Ubreve" unicode="&#x16c;" horiz-adv-x="822" 
d="M110 270q5 25 21.5 132t18.5 134q2 32 -7.5 45.5t-36.5 13.5h-31q5 27 14 94q121 -2 188 -2q40 0 112 1t74 1q-6 -23 -15 -94h-39q-28 0 -43.5 -13.5t-24.5 -45.5q-6 -23 -39 -266q-14 -97 13.5 -138t99.5 -41t111 40t56 139q36 218 40 266q5 59 -49 59h-35q11 42 14 94
q99 -2 155 -2q32 0 91 1t62 1q-6 -30 -14 -94h-31q-49 0 -61 -59q-3 -14 -39 -267q-46 -292 -337 -292q-158 0 -225.5 67.5t-42.5 225.5zM502 748q-73 0 -99 40.5t-8 104.5l24 2q-1 -34 21.5 -47.5t73.5 -13.5t77 13.5t33 47.5l25 -2q0 -64 -37 -104.5t-110 -40.5z" />
    <glyph glyph-name="ubreve" unicode="&#x16d;" horiz-adv-x="615" 
d="M562 189l39 -2q-8 -86 -48 -147t-107 -61q-57 0 -81.5 26t-22.5 87q-55 -113 -162 -113q-145 0 -96 204l33 128q25 99 0 99q-45 0 -61 -140l-39 2q9 89 48.5 150t110.5 61q52 0 79.5 -26t29 -68.5t-10.5 -95.5l-28 -111q-32 -130 10 -130q71 0 119 229l39 185
q50 -2 78 -2l77 2q-28 -123 -66 -311q-6 -31 -8.5 -48t-3 -31t3 -19.5t10.5 -5.5q38 0 57 138zM349 535q-73 0 -99 40.5t-8 104.5l24 2q-1 -34 21.5 -47.5t73.5 -13.5t77 13.5t33 47.5l25 -2q0 -64 -37 -104.5t-110 -40.5z" />
    <glyph glyph-name="Uring" unicode="&#x16e;" horiz-adv-x="822" 
d="M481 842q-2 -24 9 -36.5t32 -12.5q46 0 52 49q2 24 -9 37t-32 13t-35 -13t-17 -37zM437 842q5 40 31.5 65t67.5 25q40 0 62.5 -25t18.5 -65q-5 -40 -31 -65t-67 -25q-40 0 -63 25t-19 65zM110 270q5 25 21.5 132t18.5 134q2 32 -7.5 45.5t-36.5 13.5h-31q5 27 14 94
q121 -2 188 -2q40 0 112 1t74 1q-6 -23 -15 -94h-39q-28 0 -43.5 -13.5t-24.5 -45.5q-6 -23 -39 -266q-14 -97 13.5 -138t99.5 -41t111 40t56 139q36 218 40 266q5 59 -49 59h-35q11 42 14 94q99 -2 155 -2q32 0 91 1t62 1q-6 -30 -14 -94h-31q-49 0 -61 -59
q-3 -14 -39 -267q-46 -292 -337 -292q-158 0 -225.5 67.5t-42.5 225.5z" />
    <glyph glyph-name="uring" unicode="&#x16f;" horiz-adv-x="615" 
d="M315 614q-2 -24 9 -36.5t32 -12.5q46 0 52 49q2 24 -9 37t-32 13t-35 -13t-17 -37zM271 614q5 40 31.5 65t67.5 25q40 0 62.5 -25t18.5 -65q-5 -40 -31 -65t-67 -25q-40 0 -63 25t-19 65zM562 189l39 -2q-8 -86 -48 -147t-107 -61q-57 0 -81.5 26t-22.5 87
q-55 -113 -162 -113q-145 0 -96 204l33 128q25 99 0 99q-45 0 -61 -140l-39 2q9 89 48.5 150t110.5 61q52 0 79.5 -26t29 -68.5t-10.5 -95.5l-28 -111q-32 -130 10 -130q71 0 119 229l39 185q50 -2 78 -2l77 2q-28 -123 -66 -311q-6 -31 -8.5 -48t-3 -31t3 -19.5t10.5 -5.5
q38 0 57 138z" />
    <glyph glyph-name="Uhungarumlaut" unicode="&#x170;" horiz-adv-x="822" 
d="M110 270q5 25 21.5 132t18.5 134q2 32 -7.5 45.5t-36.5 13.5h-31q5 27 14 94q121 -2 188 -2q40 0 112 1t74 1q-6 -23 -15 -94h-39q-28 0 -43.5 -13.5t-24.5 -45.5q-6 -23 -39 -266q-14 -97 13.5 -138t99.5 -41t111 40t56 139q36 218 40 266q5 59 -49 59h-35q11 42 14 94
q99 -2 155 -2q32 0 91 1t62 1q-6 -30 -14 -94h-31q-49 0 -61 -59q-3 -14 -39 -267q-46 -292 -337 -292q-158 0 -225.5 67.5t-42.5 225.5zM412 746l-10 8q45 102 91 147q25 24 50.5 20t29.5 -26t-18 -49q-56 -59 -143 -100zM576 746l-10 8q45 102 91 147q25 24 51 20
t29.5 -26t-18.5 -49q-56 -59 -143 -100z" />
    <glyph glyph-name="uhungarumlaut" unicode="&#x171;" horiz-adv-x="615" 
d="M562 189l39 -2q-8 -86 -48 -147t-107 -61q-57 0 -81.5 26t-22.5 87q-55 -113 -162 -113q-145 0 -96 204l33 128q25 99 0 99q-45 0 -61 -140l-39 2q9 89 48.5 150t110.5 61q52 0 79.5 -26t29 -68.5t-10.5 -95.5l-28 -111q-32 -130 10 -130q71 0 119 229l39 185
q50 -2 78 -2l77 2q-28 -123 -66 -311q-6 -31 -8.5 -48t-3 -31t3 -19.5t10.5 -5.5q38 0 57 138zM263 526l-10 8q45 102 91 147q25 24 50.5 20t29.5 -26t-18 -49q-56 -59 -143 -100zM427 526l-10 8q45 102 91 147q25 24 51 20t29.5 -26t-18.5 -49q-56 -59 -143 -100z" />
    <glyph glyph-name="Uogonek" unicode="&#x172;" horiz-adv-x="822" 
d="M110 270q5 25 21.5 132t18.5 134q2 32 -7.5 45.5t-36.5 13.5h-31q5 27 14 94q121 -2 188 -2q40 0 112 1t74 1q-6 -23 -15 -94h-39q-28 0 -43.5 -13.5t-24.5 -45.5q-6 -23 -39 -266q-14 -97 13.5 -138t99.5 -41t111 40t56 139q36 218 40 266q5 59 -49 59h-35q11 42 14 94
q99 -2 155 -2q32 0 91 1t62 1q-6 -30 -14 -94h-31q-49 0 -61 -59q-3 -14 -39 -267q-44 -279 -311 -291q-20 -32 -21 -56q-1 -23 11.5 -35.5t35.5 -12.5q55 0 72 62l32 -5q-12 -137 -137 -137q-48 0 -76 23.5t-24 68.5q5 56 62 91q-148 4 -210.5 72t-38.5 221z" />
    <glyph glyph-name="uogonek" unicode="&#x173;" horiz-adv-x="615" 
d="M627 -69q-12 -137 -137 -137q-48 0 -76 23.5t-24 68.5q6 58 70 95q-14 -2 -21 -2q-51 0 -74.5 26.5t-21.5 88.5q-55 -115 -163 -115q-145 0 -96 204l33 128q25 99 0 99q-45 0 -61 -140l-39 2q9 89 48.5 150t110.5 61q52 0 79.5 -26t29 -68.5t-10.5 -95.5l-28 -111
q-32 -130 10 -130q18 0 36.5 17.5t41.5 71.5t41 140l39 185q50 -2 78 -2l77 2q-28 -123 -66 -311q-6 -31 -8.5 -48t-3 -31t3 -19.5t10.5 -5.5q38 0 57 138l39 -2q-10 -112 -70 -170q-52 -55 -55 -95q-1 -23 11.5 -35.5t35.5 -12.5q55 0 72 62z" />
    <glyph glyph-name="Wcircumflex" unicode="&#x174;" horiz-adv-x="1137" 
d="M840 757l-12 -10q-66 27 -118 82q-26 -22 -72 -47.5t-75 -34.5l-9 11q19 39 57.5 79t76.5 67h68q53 -50 84 -147zM812 -6q-96 4 -191 0q-19 190 -48 389q-78 -174 -168 -389q-87 4 -175 0q-32 318 -64 535q-5 36 -20.5 51t-55.5 15h-25q12 64 14 94q124 -2 193 -2
q31 0 76 0.5t79 1t38 0.5q-12 -59 -14 -94h-28q-30 0 -41.5 -15.5t-8.5 -50.5q4 -58 44 -357q106 235 152 357q25 66 -33 66h-22q12 48 15 94q103 -2 161 -2q34 0 96 1t64 1q-9 -43 -15 -94h-25q-51 0 -47 -64q9 -111 45 -362q126 299 146 354q26 72 -33 72h-23q12 48 15 94
q88 -2 137 -2q29 0 81 1t55 1q-12 -45 -15 -94h-34q-35 0 -57.5 -15.5t-42.5 -56.5q-63 -134 -225 -529z" />
    <glyph glyph-name="wcircumflex" unicode="&#x175;" horiz-adv-x="762" 
d="M635 537l-12 -10q-66 27 -118 82q-26 -22 -72 -47.5t-75 -34.5l-9 11q19 39 57.5 79t76.5 67h68q53 -50 84 -147zM176 -21q-146 0 -92 204l35 135q24 92 -2 92q-21 0 -37.5 -39t-23.5 -101l-39 2q9 89 48.5 150t110.5 61q77 0 102.5 -54t1.5 -136l-31 -111
q-37 -130 8 -130q62 0 110 223l41 192q53 -2 82 -2l81 2q-20 -65 -71 -282q-18 -74 -12.5 -103.5t35.5 -29.5q51 0 92 72t54 162q6 46 5 75h-9q-26 0 -42 17.5t-12 47.5q4 29 22 43.5t41 13.5q77 -2 54 -147q-9 -56 -28.5 -114t-51.5 -115t-81.5 -92.5t-107.5 -35.5
q-123 0 -125 113q-55 -113 -158 -113z" />
    <glyph glyph-name="Ycircumflex" unicode="&#x176;" horiz-adv-x="839" 
d="M696 521q-76 -103 -188 -278l-13 -91q-5 -31 5 -44t46 -13h47q-6 -30 -14 -97q-133 2 -208 2l-209 -2q11 42 14 97h44q37 0 50.5 12t17.5 43l13 88q-48 143 -109 295q-14 34 -37 48t-70 14h-16q11 42 14 94q136 -2 213 -2l214 2q-11 -43 -14 -94h-30q-69 0 -47 -85
q14 -50 66 -174q83 121 112 174q23 38 21 61.5t-39 23.5h-25q11 42 14 94q101 -2 158 -2l156 2q-11 -40 -14 -94h-20q-62 0 -92.5 -17t-59.5 -57zM684 757l-12 -10q-66 27 -118 82q-26 -22 -72 -47.5t-75 -34.5l-9 11q19 39 57.5 79t76.5 67h68q53 -50 84 -147z" />
    <glyph glyph-name="ycircumflex" unicode="&#x177;" horiz-adv-x="578" 
d="M56 270l-39 2q9 89 48.5 150t110.5 61q147 0 98 -190l-29 -111q-16 -62 -13 -96t24 -34q18 0 36.5 16.5t41.5 69.5t40 138l39 191q20 -2 76 -2l76 2q-7 -28 -41 -200t-42 -215q-23 -132 -100 -193.5t-189 -61.5q-77 0 -114 30.5t-30 73.5q4 30 23.5 46.5t48.5 16.5
q26 0 41.5 -14.5t14.5 -39.5q-2 -30 -25 -44.5t-52 -8.5q26 -28 81 -28q30 0 52.5 12.5t35.5 24.5t25.5 48.5t16.5 52.5t14 67q3 15 5 23l4 20q-55 -98 -154 -98q-54 0 -81.5 26.5t-28 72t13.5 105.5l32 128q25 99 0 99q-44 0 -60 -140zM488 537l-12 -10q-66 27 -118 82
q-26 -22 -72 -47.5t-75 -34.5l-9 11q19 39 57.5 79t76.5 67h68q53 -50 84 -147z" />
    <glyph glyph-name="Ydieresis" unicode="&#x178;" horiz-adv-x="839" 
d="M696 521q-76 -103 -188 -278l-13 -91q-5 -31 5 -44t46 -13h47q-6 -30 -14 -97q-133 2 -208 2l-209 -2q11 42 14 97h44q37 0 50.5 12t17.5 43l13 88q-48 143 -109 295q-14 34 -37 48t-70 14h-16q11 42 14 94q136 -2 213 -2l214 2q-11 -43 -14 -94h-30q-69 0 -47 -85
q14 -50 66 -174q83 121 112 174q23 38 21 61.5t-39 23.5h-25q11 42 14 94q101 -2 158 -2l156 2q-11 -40 -14 -94h-20q-62 0 -92.5 -17t-59.5 -57zM522 816q-3 -28 -21.5 -44t-44.5 -16t-41.5 16t-12.5 44t21.5 44.5t44.5 16.5t41.5 -16.5t12.5 -44.5zM707 816
q-3 -28 -22 -44t-45 -16t-41.5 16t-12.5 44t21.5 44.5t44.5 16.5t42 -16.5t13 -44.5z" />
    <glyph glyph-name="Zacute" unicode="&#x179;" horiz-adv-x="669" 
d="M369 747l-8 12q70 95 127 130q34 15 58 6t23.5 -35.5t-32.5 -45.5q-66 -43 -168 -67zM-12 0q12 60 14 90q155 164 443 504h-112q-89 0 -125 -26.5t-51 -107.5l-8 -44q-44 4 -86 0q25 122 42 276q123 -5 212 -5h377q-12 -55 -14 -89q-153 -166 -439 -503h133
q77 0 121 33.5t55 119.5l5 38q45 -4 88 0q-24 -129 -45 -290q-76 4 -194 4h-416z" />
    <glyph glyph-name="zacute" unicode="&#x17a;" horiz-adv-x="492" 
d="M281 527l-8 12q70 95 127 130q34 15 58 6t23.5 -35.5t-32.5 -45.5q-66 -43 -168 -67zM127 263l-33 2q-20 111 15 170.5t108 59.5q76 0 143 -64q55 -53 95 -41q-37 12 -37 49q0 50 42 50q22 0 33 -17t9 -44q-4 -38 -39 -70t-124 -89q-5 -5 -34.5 -22.5t-72.5 -44
t-71 -45.5q58 27 111 6q50 -21 80 -21q74 0 78 67l31 -3q17 -98 -16.5 -162.5t-115.5 -64.5q-51 0 -87.5 15.5t-70.5 52.5q-53 58 -106 33q33 -9 33 -52q0 -48 -42 -48q-18 0 -30 13.5t-12 39.5q1 41 35.5 77.5t124.5 92.5q8 6 38 23l75 42.5t72 41.5q-48 -13 -109 19
q-34 20 -61 20q-31 0 -46.5 -19.5t-15.5 -66.5z" />
    <glyph glyph-name="Zdotaccent" unicode="&#x17b;" horiz-adv-x="669" 
d="M-12 0q12 60 14 90q155 164 443 504h-112q-89 0 -125 -26.5t-51 -107.5l-8 -44q-44 4 -86 0q25 122 42 276q123 -5 212 -5h377q-12 -55 -14 -89q-153 -166 -439 -503h133q77 0 121 33.5t55 119.5l5 38q45 -4 88 0q-24 -129 -45 -290q-76 4 -194 4h-416zM469 823
q-2 -27 -20.5 -46t-47.5 -19t-46 19t-15 46q1 28 20.5 46.5t46.5 18.5q29 0 46.5 -18t15.5 -47z" />
    <glyph glyph-name="zdotaccent" unicode="&#x17c;" horiz-adv-x="492" 
d="M127 263l-33 2q-20 111 15 170.5t108 59.5q76 0 143 -64q55 -53 95 -41q-37 12 -37 49q0 50 42 50q22 0 33 -17t9 -44q-4 -38 -39 -70t-124 -89q-5 -5 -34.5 -22.5t-72.5 -44t-71 -45.5q58 27 111 6q50 -21 80 -21q74 0 78 67l31 -3q17 -98 -16.5 -162.5t-115.5 -64.5
q-51 0 -87.5 15.5t-70.5 52.5q-53 58 -106 33q33 -9 33 -52q0 -48 -42 -48q-18 0 -30 13.5t-12 39.5q1 41 35.5 77.5t124.5 92.5q8 6 38 23l75 42.5t72 41.5q-48 -13 -109 19q-34 20 -61 20q-31 0 -46.5 -19.5t-15.5 -66.5zM377 603q-2 -27 -20.5 -46t-47.5 -19t-46 19
t-15 46q1 28 20.5 46.5t46.5 18.5q29 0 46.5 -18t15.5 -47z" />
    <glyph glyph-name="Zcaron" unicode="&#x17d;" horiz-adv-x="669" 
d="M278 899l12 11q62 -27 124 -87q29 25 71.5 51t69.5 35l9 -10q-20 -41 -56 -81.5t-71 -65.5h-69q-25 24 -51 65.5t-39 81.5zM-12 0q12 60 14 90q155 164 443 504h-112q-89 0 -125 -26.5t-51 -107.5l-8 -44q-44 4 -86 0q25 122 42 276q123 -5 212 -5h377q-12 -55 -14 -89
q-153 -166 -439 -503h133q77 0 121 33.5t55 119.5l5 38q45 -4 88 0q-24 -129 -45 -290q-76 4 -194 4h-416z" />
    <glyph glyph-name="zcaron" unicode="&#x17e;" horiz-adv-x="492" 
d="M178 679l12 11q62 -27 124 -87q29 25 71.5 51t69.5 35l9 -10q-20 -41 -56 -81.5t-71 -65.5h-69q-25 24 -51 65.5t-39 81.5zM127 263l-33 2q-20 111 15 170.5t108 59.5q76 0 143 -64q55 -53 95 -41q-37 12 -37 49q0 50 42 50q22 0 33 -17t9 -44q-4 -38 -39 -70t-124 -89
q-5 -5 -34.5 -22.5t-72.5 -44t-71 -45.5q58 27 111 6q50 -21 80 -21q74 0 78 67l31 -3q17 -98 -16.5 -162.5t-115.5 -64.5q-51 0 -87.5 15.5t-70.5 52.5q-53 58 -106 33q33 -9 33 -52q0 -48 -42 -48q-18 0 -30 13.5t-12 39.5q1 41 35.5 77.5t124.5 92.5q8 6 38 23l75 42.5
t72 41.5q-48 -13 -109 19q-34 20 -61 20q-31 0 -46.5 -19.5t-15.5 -66.5z" />
    <glyph glyph-name="longs" unicode="&#x17f;" horiz-adv-x="376" 
d="M390 661q-52 0 -83 -65.5t-53 -228.5q-42 -306 -120 -438t-198 -132q-57 0 -84 26t-18 65q11 51 64 51q26 0 40 -16t8 -41q-5 -21 -24 -31t-42 -8q10 -9 33 -9t40 8.5t31 30t24 47t20 72.5t17.5 92t18.5 119q18 122 47.5 215t62 147t72 87.5t72 45t66.5 11.5
q59 0 88.5 -31.5t23.5 -79.5q-6 -42 -28 -63.5t-56 -21.5q-31 0 -48.5 17.5t-12.5 46.5q6 29 31 44t62 5q-12 35 -54 35z" />
    <glyph glyph-name="florin" unicode="&#x192;" horiz-adv-x="537" 
d="M126 325l10 62l64 -2q16 168 91 246t174 78q77 0 105.5 -33t20.5 -84q-12 -74 -82 -74q-32 0 -46.5 14t-11.5 39q4 26 24 40.5t49 14.5q2 0 7 -0.5t8 -0.5q-16 24 -49 24q-26 0 -45 -9.5t-36.5 -36.5t-28.5 -81.5t-14 -136.5l85 3l-10 -63l-77 2q-7 -109 -32.5 -189
t-65 -124t-85 -64.5t-98.5 -20.5q-67 0 -97.5 29.5t-22.5 76.5q5 34 27.5 54.5t56.5 20.5q29 0 44 -14.5t11 -38.5t-22.5 -37.5t-48.5 -13.5q-5 0 -17 2q17 -24 56 -24q42 0 66 24.5t40.5 101t20.5 217.5z" />
    <glyph glyph-name="uni01B5" unicode="&#x1b5;" horiz-adv-x="669" 
d="M-12 0q12 60 14 90q69 74 177 196q-51 -3 -77 -3v55q12 0 118 -6q100 115 225 262h-112q-89 0 -125 -26.5t-51 -107.5l-8 -44q-44 4 -86 0q25 122 42 276q123 -5 212 -5h377q-12 -55 -14 -89q-81 -87 -234 -264l75 4v-55q-20 0 -114 6q-36 -41 -98 -114t-68 -80h133
q77 0 121 33.5t55 119.5l5 38q45 -4 88 0q-24 -129 -45 -290q-76 4 -194 4h-416z" />
    <glyph glyph-name="uni01B6" unicode="&#x1b6;" horiz-adv-x="492" 
d="M127 263l-33 2q-20 111 15 170.5t108 59.5q76 0 143 -64q55 -53 95 -41q-37 12 -37 49q0 50 42 50q22 0 33 -17t9 -44q-4 -38 -39 -70t-124 -89q-6 -5 -38 -25q75 19 99 23l5 -32q-49 -9 -146 -16q-80 -50 -98 -62q58 27 111 6q50 -21 80 -21q74 0 78 67l31 -3
q17 -98 -16.5 -162.5t-115.5 -64.5q-51 0 -87.5 15.5t-70.5 52.5q-53 58 -106 33q33 -9 33 -52q0 -48 -42 -48q-18 0 -30 13.5t-12 39.5q1 40 34 75.5t118 89.5q-63 -16 -88 -20l-5 32l137 15q115 65 149 85q-48 -13 -109 19q-34 20 -61 20q-31 0 -46.5 -19.5t-15.5 -66.5z
" />
    <glyph glyph-name="uni01FA" unicode="&#x1fa;" horiz-adv-x="881" 
d="M500 213q-98 3 -238 1l-12 -25q-23 -48 -16 -71t47 -23h37q-8 -38 -15 -97q-100 2 -157 2l-159 -2q9 46 15 97h25q41 0 65.5 19.5t51.5 68.5q137 248 269 514q60 -2 93 -2l92 2q50 -245 122 -514q13 -50 30.5 -69t47.5 -19h32q-6 -23 -15 -97q-134 2 -209 2l-209 -2
q9 46 15 97h40q36 0 48 23t4 72l-2 9q-1 9 -2 14zM290 269q102 -2 198 0q-33 158 -59 270q-8 -15 -61.5 -118.5t-77.5 -151.5zM473 951l-8 12q70 95 127 130q34 15 58 6t23.5 -35.5t-32.5 -45.5q-66 -43 -168 -67zM469 842q-2 -24 9 -36.5t32 -12.5q46 0 52 49q2 24 -9 37
t-32 13t-35 -13t-17 -37zM425 842q5 40 31.5 65t67.5 25q40 0 62.5 -25t18.5 -65q-5 -40 -31 -65t-67 -25q-40 0 -63 25t-19 65z" />
    <glyph glyph-name="aringacute" unicode="&#x1fb;" horiz-adv-x="576" 
d="M568 187q-8 -96 -51 -152t-112 -56q-56 0 -80.5 26t-20.5 85q-52 -111 -157 -111q-64 0 -95.5 49.5t-17.5 157.5q19 147 84 222t145 75q103 0 117 -92q48 43 64 74q11 -1 43 -1t43 1q-40 -170 -63 -314q-8 -55 -7 -77.5t14 -22.5q36 0 55 138zM224 52q32 0 62 55.5
t49 164.5q14 74 8.5 106t-35.5 32q-67 0 -106 -222q-14 -81 -9.5 -108.5t31.5 -27.5zM326 741l-8 12q70 95 127 130q34 15 58 6t23.5 -35.5t-32.5 -45.5q-66 -43 -168 -67zM310 614q-2 -24 9 -36.5t32 -12.5q46 0 52 49q2 24 -9 37t-32 13t-35 -13t-17 -37zM266 614
q5 40 31.5 65t67.5 25q40 0 62.5 -25t18.5 -65q-5 -40 -31 -65t-67 -25q-40 0 -63 25t-19 65z" />
    <glyph glyph-name="AEacute" unicode="&#x1fc;" horiz-adv-x="1087" 
d="M719 732l-8 12q70 95 127 130q34 15 58 6t23.5 -35.5t-32.5 -45.5q-66 -43 -168 -67zM1061 273q-23 -90 -47 -277q-46 4 -212 4q-239 1 -276 1l-179 -2q12 47 15 96h31q33 0 49 16t22 49l10 54q-90 2 -178 0q-9 -13 -16 -25q-58 -94 13 -94h30q-13 -49 -16 -96
q-103 3 -161 3l-160 -3q13 52 16 96h25q41 0 71 20t68 68q164 206 266 349q21 28 14.5 47.5t-39.5 19.5h-19q11 45 16 95q55 -6 238 -6h251q172 0 228 7q-27 -110 -45 -259q-39 2 -95 -1l2 12q5 48 5.5 77t-15.5 44.5t-37 20t-59 4.5h-103q-31 0 -45 -12.5t-21 -43.5
q-10 -48 -28 -158h41q48 0 70.5 22t30.5 73l4 27h76q-21 -88 -31 -153q-12 -73 -15 -155h-76l4 24q8 52 -7.5 76t-65.5 24h-41q-21 -135 -23 -161q-6 -61 51 -61h100q80 0 113 34.5t46 133.5l1 10q14 -1 52 -1t51 1zM335 271q103 0 149 1q28 167 37 253q-94 -121 -186 -254z
" />
    <glyph glyph-name="aeacute" unicode="&#x1fd;" horiz-adv-x="769" 
d="M401 527l-8 12q70 95 127 130q34 15 58 6t23.5 -35.5t-32.5 -45.5q-66 -43 -168 -67zM633 169q83 -5 87 -5q-19 -91 -69 -138t-149 -47q-84 0 -127.5 33t-50.5 102q-27 -66 -73.5 -100.5t-102.5 -34.5q-65 0 -97 50t-18 157q19 147 84 222t145 75q117 0 119 -115
q72 115 210 115q88 0 124.5 -41t26.5 -109q-22 -135 -251 -129q-14 -76 -3 -107t49 -31q37 0 60 23t36 80zM223 52q32 0 62 55.5t49 164.5q14 74 8.5 106t-35.5 32q-32 0 -58 -51.5t-48 -170.5q-14 -81 -9.5 -108.5t31.5 -27.5zM585 421q-28 0 -45.5 -34.5t-42.5 -149.5
q50 1 73.5 17.5t35.5 69.5q22 97 -21 97z" />
    <glyph glyph-name="Oslashacute" unicode="&#x1fe;" horiz-adv-x="794" 
d="M352 -25q-114 0 -188 45l-62 -62l-24 19l49 71q-105 96 -76 298q28 182 137 273t275 91q109 0 181 -37l62 64l22 -18l-47 -69q114 -88 82 -303q-27 -185 -139 -278.5t-272 -93.5zM366 77q82 0 125 62t65 208q16 108 9 160l-151 -171l-153 -198q24 -61 105 -61zM259 346
q-15 -92 -10 -152l149 170l152 196q-26 48 -101 48q-79 0 -124 -59t-66 -203zM437 747l-8 12q70 95 127 130q34 15 58 6t23.5 -35.5t-32.5 -45.5q-66 -43 -168 -67z" />
    <glyph glyph-name="oslashacute" unicode="&#x1ff;" horiz-adv-x="513" 
d="M216 -21q-57 0 -97 18l-44 -55l-15 11l32 58q-80 55 -64 196q14 119 86 197.5t182 78.5q59 0 100 -19l46 55l13 -9l-32 -61q72 -53 62 -179q-10 -125 -80 -208t-189 -83zM188 178q-4 -27 -5 -36l74 104l74 119q-1 28 -10 38.5t-28 10.5q-69 0 -105 -236zM280 527l-8 12
q70 95 127 130q34 15 58 6t23.5 -35.5t-32.5 -45.5q-66 -43 -168 -67zM220 48q34 0 62.5 70t45.5 192l-59 -81l-86 -137q4 -44 37 -44z" />
    <glyph glyph-name="Scommaaccent" unicode="&#x218;" horiz-adv-x="682" 
d="M264 -170q-47 0 -44 56q2 27 20.5 44t47.5 17q64 0 59 -77q-4 -55 -47 -93.5t-110 -51.5l-4 20q113 24 127 110q-13 -25 -49 -25zM378 624q-140 0 -152 -77q-7 -44 27 -63.5t131 -27.5q145 -9 206 -80.5t42 -189.5q-15 -96 -92.5 -152.5t-204.5 -56.5q-120 0 -201 48
q-48 28 -61 -26q-13 1 -42.5 1t-42.5 -1q42 96 51 234q12 -1 40 -1t39 1q-3 -81 48 -122t164 -41q145 0 155 82q5 46 -30 68t-132 30q-131 8 -194.5 76.5t-45.5 179.5q17 103 95.5 154.5t197.5 49.5q83 -1 166 -41q23 -14 38 -9t23 35q13 -1 39.5 -1t39.5 1
q-39 -88 -45 -215q-38 2 -74 0q-2 66 -51 105t-134 39z" />
    <glyph glyph-name="scommaaccent" unicode="&#x219;" horiz-adv-x="440" 
d="M160 -170q-47 0 -44 56q2 27 20.5 44t47.5 17q64 0 59 -77q-4 -55 -47 -93.5t-110 -51.5l-4 20q113 24 127 110q-13 -25 -49 -25zM295 442q-83 0 -100 -44q-11 -31 6.5 -53t75.5 -41q166 -53 117 -201q-20 -59 -75.5 -91.5t-138.5 -32.5q-91 0 -138.5 32t-34.5 86
q5 23 23 37t44 14q29 0 43 -18t7 -45q-6 -20 -23 -30t-37 -9q32 -23 91 -23q92 0 105 53q7 30 -10 52t-73 41q-155 53 -110 191q17 53 72 88t136 35q83 0 125.5 -31t31.5 -81q-11 -47 -64 -47q-29 0 -43 17t-7 42q9 37 51 41q-33 18 -74 18z" />
    <glyph glyph-name="uni021A" unicode="&#x21a;" horiz-adv-x="734" 
d="M282 -170q-47 0 -44 56q2 27 20.5 44t47.5 17q64 0 59 -77q-4 -55 -47 -93.5t-110 -51.5l-4 20q113 24 127 110q-13 -25 -49 -25zM567 586h-65q-60 -354 -66 -437q-5 -54 54 -54h40q-4 -13 -14 -97q-124 2 -194 2l-195 -2q10 41 14 97h39q33 0 49 12.5t23 41.5
q24 100 67 437h-62q-39 0 -61 -23t-32 -70l-17 -78q-46 4 -97 0q25 142 37 277q100 -5 185 -5h310q4 0 184 5q-37 -196 -47 -277q-48 4 -96 0l9 78q10 93 -65 93z" />
    <glyph glyph-name="uni021B" unicode="&#x21b;" horiz-adv-x="364" 
d="M283 189l39 -2q-15 -208 -164 -208q-142 0 -115 164q5 28 26 129.5t28 142.5l-40 -1l5 51q61 0 99 20.5t56 51.5t37 89h52q-16 -59 -35 -163l92 2l-7 -51l-94 1l-44 -242q-12 -68 -9.5 -94.5t22.5 -26.5q17 0 32 37t20 100zM119 -170q-47 0 -44 56q2 27 20.5 44t47.5 17
q64 0 59 -77q-4 -55 -47 -93.5t-110 -51.5l-4 20q113 24 127 110q-13 -25 -49 -25z" />
    <glyph glyph-name="uni0237" unicode="&#x237;" horiz-adv-x="306" 
d="M265 296l-51 -266q-25 -126 -87 -179.5t-169 -53.5q-63 0 -94.5 24.5t-25.5 65.5q4 29 23 45t47 16q29 0 42 -16t9 -41q-4 -26 -27 -37t-49 -6q15 -17 48 -17q59 0 84.5 49.5t49.5 179.5l47 251q19 99 -1 99q-44 0 -60 -140l-39 2q10 95 50.5 153t109.5 58q131 0 93 -187
z" />
    <glyph glyph-name="circumflex" unicode="&#x2c6;" horiz-adv-x="532" 
d="M400 547l-12 -10q-66 27 -118 82q-26 -22 -72 -47.5t-75 -34.5l-9 11q19 39 57.5 79t76.5 67h68q53 -50 84 -147z" />
    <glyph glyph-name="caron" unicode="&#x2c7;" horiz-adv-x="532" 
d="M120 689l12 11q62 -27 124 -87q29 25 71.5 51t69.5 35l9 -10q-20 -41 -56 -81.5t-71 -65.5h-69q-25 24 -51 65.5t-39 81.5z" />
    <glyph glyph-name="breve" unicode="&#x2d8;" horiz-adv-x="532" 
d="M245 545q-73 0 -99 40.5t-8 104.5l24 2q-1 -34 21.5 -47.5t73.5 -13.5t77 13.5t33 47.5l25 -2q0 -64 -37 -104.5t-110 -40.5z" />
    <glyph glyph-name="dotaccent" unicode="&#x2d9;" horiz-adv-x="532" 
d="M341 613q-2 -27 -20.5 -46t-47.5 -19t-46 19t-15 46q1 28 20.5 46.5t46.5 18.5q29 0 46.5 -18t15.5 -47z" />
    <glyph glyph-name="ring" unicode="&#x2da;" horiz-adv-x="532" 
d="M225 632q-2 -24 9 -36.5t32 -12.5q46 0 52 49q2 24 -9 37t-32 13t-35 -13t-17 -37zM181 632q5 40 31.5 65t67.5 25q40 0 62.5 -25t18.5 -65q-5 -40 -31 -65t-67 -25q-40 0 -63 25t-19 65z" />
    <glyph glyph-name="ogonek" unicode="&#x2db;" horiz-adv-x="532" 
d="M408 -69q-12 -137 -137 -137q-48 0 -76 23.5t-24 68.5q6 57 59 93t123 40l8 -7q-46 -9 -75 -33t-31 -57q-1 -24 12.5 -36t36.5 -12q55 0 72 62z" />
    <glyph glyph-name="tilde" unicode="&#x2dc;" horiz-adv-x="532" 
d="M388 659l27 1q10 -69 -21 -101t-85 -30q-37 2 -57 17.5t-40 48.5q-15 25 -23.5 33.5t-23.5 8.5q-41 0 -33 -80l-27 -1q-11 71 19 102.5t87 29.5q33 -1 54.5 -16t41.5 -49q14 -24 23.5 -33.5t23.5 -9.5q42 0 34 79z" />
    <glyph glyph-name="hungarumlaut" unicode="&#x2dd;" horiz-adv-x="532" 
d="M114 536l-10 8q45 102 91 147q25 24 50.5 20t29.5 -26t-18 -49q-56 -59 -143 -100zM278 536l-10 8q45 102 91 147q25 24 51 20t29.5 -26t-18.5 -49q-56 -59 -143 -100z" />
    <glyph glyph-name="Wgrave" unicode="&#x1e80;" horiz-adv-x="1137" 
d="M812 -6q-96 4 -191 0q-19 190 -48 389q-78 -174 -168 -389q-87 4 -175 0q-32 318 -64 535q-5 36 -20.5 51t-55.5 15h-25q12 64 14 94q124 -2 193 -2q31 0 76 0.5t79 1t38 0.5q-12 -59 -14 -94h-28q-30 0 -41.5 -15.5t-8.5 -50.5q4 -58 44 -357q106 235 152 357
q25 66 -33 66h-22q12 48 15 94q103 -2 161 -2q34 0 96 1t64 1q-9 -43 -15 -94h-25q-51 0 -47 -64q9 -111 45 -362q126 299 146 354q26 72 -33 72h-23q12 48 15 94q88 -2 137 -2q29 0 81 1t55 1q-12 -45 -15 -94h-34q-35 0 -57.5 -15.5t-42.5 -56.5q-63 -134 -225 -529z
M715 759l-8 -12q-103 24 -168 67q-32 19 -32.5 45.5t23.5 35.5t58 -6q57 -35 127 -130z" />
    <glyph glyph-name="wgrave" unicode="&#x1e81;" horiz-adv-x="762" 
d="M176 -21q-146 0 -92 204l35 135q24 92 -2 92q-21 0 -37.5 -39t-23.5 -101l-39 2q9 89 48.5 150t110.5 61q77 0 102.5 -54t1.5 -136l-31 -111q-37 -130 8 -130q62 0 110 223l41 192q53 -2 82 -2l81 2q-20 -65 -71 -282q-18 -74 -12.5 -103.5t35.5 -29.5q51 0 92 72t54 162
q6 46 5 75h-9q-26 0 -42 17.5t-12 47.5q4 29 22 43.5t41 13.5q77 -2 54 -147q-9 -56 -28.5 -114t-51.5 -115t-81.5 -92.5t-107.5 -35.5q-123 0 -125 113q-55 -113 -158 -113zM507 539l-8 -12q-103 24 -168 67q-32 19 -32.5 45.5t23.5 35.5t58 -6q57 -35 127 -130z" />
    <glyph glyph-name="Wacute" unicode="&#x1e82;" horiz-adv-x="1137" 
d="M645 747l-8 12q70 95 127 130q34 15 58 6t23.5 -35.5t-32.5 -45.5q-66 -43 -168 -67zM812 -6q-96 4 -191 0q-19 190 -48 389q-78 -174 -168 -389q-87 4 -175 0q-32 318 -64 535q-5 36 -20.5 51t-55.5 15h-25q12 64 14 94q124 -2 193 -2q31 0 76 0.5t79 1t38 0.5
q-12 -59 -14 -94h-28q-30 0 -41.5 -15.5t-8.5 -50.5q4 -58 44 -357q106 235 152 357q25 66 -33 66h-22q12 48 15 94q103 -2 161 -2q34 0 96 1t64 1q-9 -43 -15 -94h-25q-51 0 -47 -64q9 -111 45 -362q126 299 146 354q26 72 -33 72h-23q12 48 15 94q88 -2 137 -2q29 0 81 1
t55 1q-12 -45 -15 -94h-34q-35 0 -57.5 -15.5t-42.5 -56.5q-63 -134 -225 -529z" />
    <glyph glyph-name="wacute" unicode="&#x1e83;" horiz-adv-x="762" 
d="M455 527l-8 12q70 95 127 130q34 15 58 6t23.5 -35.5t-32.5 -45.5q-66 -43 -168 -67zM176 -21q-146 0 -92 204l35 135q24 92 -2 92q-21 0 -37.5 -39t-23.5 -101l-39 2q9 89 48.5 150t110.5 61q77 0 102.5 -54t1.5 -136l-31 -111q-37 -130 8 -130q62 0 110 223l41 192
q53 -2 82 -2l81 2q-20 -65 -71 -282q-18 -74 -12.5 -103.5t35.5 -29.5q51 0 92 72t54 162q6 46 5 75h-9q-26 0 -42 17.5t-12 47.5q4 29 22 43.5t41 13.5q77 -2 54 -147q-9 -56 -28.5 -114t-51.5 -115t-81.5 -92.5t-107.5 -35.5q-123 0 -125 113q-55 -113 -158 -113z" />
    <glyph glyph-name="Wdieresis" unicode="&#x1e84;" horiz-adv-x="1137" 
d="M667 816q-3 -28 -21.5 -44t-44.5 -16t-41.5 16t-12.5 44t21.5 44.5t44.5 16.5t41.5 -16.5t12.5 -44.5zM852 816q-3 -28 -22 -44t-45 -16t-41.5 16t-12.5 44t21.5 44.5t44.5 16.5t42 -16.5t13 -44.5zM812 -6q-96 4 -191 0q-19 190 -48 389q-78 -174 -168 -389
q-87 4 -175 0q-32 318 -64 535q-5 36 -20.5 51t-55.5 15h-25q12 64 14 94q124 -2 193 -2q31 0 76 0.5t79 1t38 0.5q-12 -59 -14 -94h-28q-30 0 -41.5 -15.5t-8.5 -50.5q4 -58 44 -357q106 235 152 357q25 66 -33 66h-22q12 48 15 94q103 -2 161 -2q34 0 96 1t64 1
q-9 -43 -15 -94h-25q-51 0 -47 -64q9 -111 45 -362q126 299 146 354q26 72 -33 72h-23q12 48 15 94q88 -2 137 -2q29 0 81 1t55 1q-12 -45 -15 -94h-34q-35 0 -57.5 -15.5t-42.5 -56.5q-63 -134 -225 -529z" />
    <glyph glyph-name="wdieresis" unicode="&#x1e85;" horiz-adv-x="762" 
d="M477 596q-3 -28 -21.5 -44t-44.5 -16t-41.5 16t-12.5 44t21.5 44.5t44.5 16.5t41.5 -16.5t12.5 -44.5zM662 596q-3 -28 -22 -44t-45 -16t-41.5 16t-12.5 44t21.5 44.5t44.5 16.5t42 -16.5t13 -44.5zM176 -21q-146 0 -92 204l35 135q24 92 -2 92q-21 0 -37.5 -39
t-23.5 -101l-39 2q9 89 48.5 150t110.5 61q77 0 102.5 -54t1.5 -136l-31 -111q-37 -130 8 -130q62 0 110 223l41 192q53 -2 82 -2l81 2q-20 -65 -71 -282q-18 -74 -12.5 -103.5t35.5 -29.5q51 0 92 72t54 162q6 46 5 75h-9q-26 0 -42 17.5t-12 47.5q4 29 22 43.5t41 13.5
q77 -2 54 -147q-9 -56 -28.5 -114t-51.5 -115t-81.5 -92.5t-107.5 -35.5q-123 0 -125 113q-55 -113 -158 -113z" />
    <glyph glyph-name="uni1E8A" unicode="&#x1e8a;" horiz-adv-x="808" 
d="M384 186q-12 28 -45 97q-77 -84 -85 -96q-22 -31 -28 -52.5t2 -30.5t25 -9h23q-5 -20 -15 -97q-90 2 -141 2l-142 -2q4 18 15 97h14q44 0 80.5 16.5t59 37t64.5 67.5q97 109 104 117q-44 90 -94 185q-23 43 -48 60t-69 17h-36q5 27 14 94q143 -2 223 -2l223 2
q-12 -65 -14 -94h-23q-30 0 -41 -23.5t4 -62.5q19 -46 48 -106l83 105q21 26 25 47t-6 30.5t-28 9.5h-15q12 65 14 94q88 -2 136 -2l140 2q-6 -30 -14 -94h-20q-61 0 -93 -20t-77 -73q-37 -43 -121 -150q71 -142 96 -187q20 -37 46 -53.5t67 -16.5h27q-12 -58 -14 -97
q-138 2 -217 2l-217 -2q10 41 14 97h31q26 0 34.5 21t-9.5 70zM576 823q-2 -27 -20.5 -46t-47.5 -19t-46 19t-15 46q1 28 20.5 46.5t46.5 18.5q29 0 46.5 -18t15.5 -47z" />
    <glyph glyph-name="uni1E8B" unicode="&#x1e8b;" horiz-adv-x="585" 
d="M523 188q2 -100 -42.5 -154.5t-135.5 -54.5q-128 0 -152 98q-39 -93 -120 -93q-46 0 -67.5 29t-10.5 79q7 35 29 55.5t51 20.5t41 -17t6 -46q-7 -32 -34.5 -42t-47.5 2q2 -36 40 -36q42 0 69 46t52 145q23 82 23 136.5t-36 54.5q-34 0 -51.5 -37.5t-15.5 -104.5l-36 3
q-6 95 37 153t126 58q110 0 132 -95q41 95 120 95q45 0 66 -27.5t16 -79.5q-4 -48 -25.5 -72t-54.5 -24q-30 0 -46 19t-8 54q7 34 35 45.5t50 -0.5q-6 37 -43 37q-41 0 -68 -43.5t-51 -140.5q-27 -113 -20 -159.5t48 -46.5q44 0 65.5 38t20.5 105h38zM444 603
q-2 -27 -20.5 -46t-47.5 -19t-46 19t-15 46q1 28 20.5 46.5t46.5 18.5q29 0 46.5 -18t15.5 -47z" />
    <glyph glyph-name="Ygrave" unicode="&#x1ef2;" horiz-adv-x="839" 
d="M696 521q-76 -103 -188 -278l-13 -91q-5 -31 5 -44t46 -13h47q-6 -30 -14 -97q-133 2 -208 2l-209 -2q11 42 14 97h44q37 0 50.5 12t17.5 43l13 88q-48 143 -109 295q-14 34 -37 48t-70 14h-16q11 42 14 94q136 -2 213 -2l214 2q-11 -43 -14 -94h-30q-69 0 -47 -85
q14 -50 66 -174q83 121 112 174q23 38 21 61.5t-39 23.5h-25q11 42 14 94q101 -2 158 -2l156 2q-11 -40 -14 -94h-20q-62 0 -92.5 -17t-59.5 -57zM546 759l-8 -12q-103 24 -168 67q-32 19 -32.5 45.5t23.5 35.5t58 -6q57 -35 127 -130z" />
    <glyph glyph-name="ygrave" unicode="&#x1ef3;" horiz-adv-x="578" 
d="M56 270l-39 2q9 89 48.5 150t110.5 61q147 0 98 -190l-29 -111q-16 -62 -13 -96t24 -34q18 0 36.5 16.5t41.5 69.5t40 138l39 191q20 -2 76 -2l76 2q-7 -28 -41 -200t-42 -215q-23 -132 -100 -193.5t-189 -61.5q-77 0 -114 30.5t-30 73.5q4 30 23.5 46.5t48.5 16.5
q26 0 41.5 -14.5t14.5 -39.5q-2 -30 -25 -44.5t-52 -8.5q26 -28 81 -28q30 0 52.5 12.5t35.5 24.5t25.5 48.5t16.5 52.5t14 67q3 15 5 23l4 20q-55 -98 -154 -98q-54 0 -81.5 26.5t-28 72t13.5 105.5l32 128q25 99 0 99q-44 0 -60 -140zM391 539l-8 -12q-103 24 -168 67
q-32 19 -32.5 45.5t23.5 35.5t58 -6q57 -35 127 -130z" />
    <glyph glyph-name="uni2009" unicode="&#x2009;" horiz-adv-x="100" 
 />
    <glyph glyph-name="endash" unicode="&#x2013;" horiz-adv-x="500" 
d="M25 191q15 77 18 106q215 -4 430 0q-11 -46 -18 -106q-215 4 -430 0z" />
    <glyph glyph-name="emdash" unicode="&#x2014;" horiz-adv-x="1000" 
d="M36 191q10 47 17 106q457 -4 915 0q-11 -46 -18 -106q-464 6 -914 0z" />
    <glyph glyph-name="quoteleft" unicode="&#x2018;" horiz-adv-x="263" 
d="M179 567q27 0 42 -16t14 -46q-2 -35 -26 -55.5t-58 -20.5q-38 0 -56.5 25t-14.5 68q7 69 57 116.5t128 61.5l5 -25q-134 -29 -150 -140q19 32 59 32z" />
    <glyph glyph-name="quoteright" unicode="&#x2019;" horiz-adv-x="263" 
d="M171 564q-27 0 -42 16.5t-13 46.5q2 35 25.5 55.5t58.5 20.5q38 0 56.5 -25.5t14.5 -67.5q-7 -70 -57.5 -117.5t-128.5 -61.5l-5 25q133 29 149 139q-19 -31 -58 -31z" />
    <glyph glyph-name="quotesinglbase" unicode="&#x201a;" horiz-adv-x="263" 
d="M85 24q-27 0 -42 16.5t-13 46.5q2 35 25.5 55.5t58.5 20.5q38 0 56.5 -25.5t14.5 -67.5q-7 -70 -57.5 -117.5t-128.5 -61.5l-5 25q133 29 149 139q-19 -31 -58 -31z" />
    <glyph glyph-name="quotedblleft" unicode="&#x201c;" horiz-adv-x="452" 
d="M174 567q27 0 42 -16t14 -46q-2 -35 -26 -55.5t-58 -20.5q-38 0 -56.5 25t-14.5 68q7 69 57 116.5t128 61.5l5 -25q-134 -29 -150 -140q19 32 59 32zM368 567q27 0 42 -16t14 -46q-2 -35 -26 -55.5t-58 -20.5q-38 0 -56.5 25t-14.5 68q7 69 57 116.5t128 61.5l5 -25
q-134 -29 -150 -140q19 32 59 32z" />
    <glyph glyph-name="quotedblright" unicode="&#x201d;" horiz-adv-x="452" 
d="M167 564q-27 0 -42 16.5t-13 46.5q2 35 25.5 55.5t58.5 20.5q38 0 56.5 -25.5t14.5 -67.5q-7 -70 -57.5 -117.5t-128.5 -61.5l-5 25q133 29 149 139q-19 -31 -58 -31zM361 564q-27 0 -42 16.5t-13 46.5q2 35 25.5 55.5t58.5 20.5q38 0 56.5 -25.5t14.5 -67.5
q-7 -70 -57.5 -117.5t-128.5 -61.5l-5 25q133 29 149 139q-19 -31 -58 -31z" />
    <glyph glyph-name="quotedblbase" unicode="&#x201e;" horiz-adv-x="452" 
d="M84 24q-27 0 -42 16.5t-13 46.5q2 35 25.5 55.5t58.5 20.5q38 0 56.5 -25.5t14.5 -67.5q-7 -70 -57.5 -117.5t-128.5 -61.5l-5 25q133 29 149 139q-19 -31 -58 -31zM274 24q-27 0 -42 16.5t-13 46.5q2 35 25.5 55.5t58.5 20.5q38 0 56.5 -25.5t14.5 -67.5
q-7 -70 -57.5 -117.5t-128.5 -61.5l-5 25q133 29 149 139q-19 -31 -58 -31z" />
    <glyph glyph-name="dagger" unicode="&#x2020;" 
d="M243 475q-35 -22 -71 -11.5t-35 51.5q1 42 40.5 50t71.5 -17q25 -18 55 -25q8 16 26 19q10 57 -3 99q-7 25 -6.5 51t16.5 46.5t44 20.5q27 0 39.5 -14.5t10.5 -35.5t-12 -43.5t-25 -40.5q-24 -28 -42 -88q10 -6 15 -18q25 3 64 23q35 22 71.5 11t35.5 -52t-41.5 -49
t-72.5 16q-32 21 -58 26q-7 -18 -27 -20q-17 -105 26 -125l-7 -33q-31 -13 -51 -51t-35 -111q-19 -86 -4 -129q13 -39 -1 -78.5t-53 -40.5q-35 -1 -44.5 23.5t1 55.5t30.5 55q31 37 48 114q29 138 -19 162l7 33q52 21 80 130q-11 6 -15 18q-25 -4 -59 -22z" />
    <glyph glyph-name="daggerdbl" unicode="&#x2021;" 
d="M243 475q-35 -22 -71 -11.5t-35 51.5q1 42 40.5 50t71.5 -17q25 -18 55 -25q8 16 26 19q10 57 -3 99q-7 25 -6.5 51t16.5 46.5t44 20.5q27 0 39.5 -14.5t10.5 -35.5t-12 -43.5t-25 -40.5q-24 -28 -42 -88q10 -6 15 -18q25 3 64 23q35 22 71.5 11t35.5 -52t-41.5 -49
t-72.5 16q-32 21 -58 26q-7 -18 -27 -20q-17 -105 26 -125l-7 -33q-56 -22 -83 -148q39 1 77 23q35 22 72 11.5t36 -51.5q-1 -42 -39.5 -49.5t-71.5 16.5q-37 25 -79 28q-17 -79 -2 -121q13 -39 -1 -78.5t-53 -40.5q-35 -1 -44.5 23.5t1 56t30.5 54.5q30 37 46 107
q-42 -1 -80 -23q-35 -22 -72 -11t-36 52q1 27 20 40.5t45 11t47 -18.5q39 -26 81 -30q23 125 -22 148l7 33q52 21 80 130q-11 6 -15 18q-25 -4 -59 -22z" />
    <glyph glyph-name="bullet" unicode="&#x2022;" horiz-adv-x="454" 
d="M410 241q0 -82 -49.5 -129t-133.5 -47q-80 0 -130.5 46.5t-50.5 132.5q0 81 51 129.5t130 48.5q83 0 133 -50t50 -131z" />
    <glyph glyph-name="ellipsis" unicode="&#x2026;" horiz-adv-x="855" 
d="M211 74q-3 -41 -29.5 -64.5t-70.5 -23.5q-42 0 -65 22.5t-19 66.5q4 39 31.5 63.5t68.5 24.5q43 0 65.5 -25t18.5 -64zM496 74q-3 -41 -29.5 -64.5t-70.5 -23.5q-42 0 -65 22.5t-19 66.5q4 39 31.5 63.5t68.5 24.5q43 0 65.5 -25t18.5 -64zM781 74q-3 -41 -29.5 -64.5
t-70.5 -23.5q-42 0 -65 22.5t-19 66.5q4 39 31.5 63.5t68.5 24.5q43 0 65.5 -25t18.5 -64z" />
    <glyph glyph-name="perthousand" unicode="&#x2030;" horiz-adv-x="911" 
d="M105 108q0 9 9 9t9 -9t-9 -9t-9 9zM141 159q0 6 4.5 10.5t10.5 4.5q14 0 14 -15t-14 -15q-6 0 -10.5 4.5t-4.5 10.5zM178 210q0 8 6 14t14 6t14 -6t6 -14t-6 -14t-14 -6t-14 6t-6 14zM216 262q0 9 7 16t17 7t17 -7t7 -16q0 -10 -7 -17t-17 -7t-17 7t-7 17zM256 313
q0 11 8 18.5t18 7.5q11 0 19 -7.5t8 -18.5t-8 -19t-19 -8t-18.5 8t-7.5 19zM297 364q0 11 8 19t19 8t19.5 -8t8.5 -19t-8.5 -19t-19.5 -8t-19 8t-8 19zM340 415q0 11 7.5 19t18.5 8t19 -8t8 -19t-8 -18.5t-19 -7.5q-10 0 -18 7.5t-8 18.5zM384 467q0 9 7 16t17 7t17 -7
t7 -16q0 -10 -7 -17t-17 -7t-17 7t-7 17zM430 518q0 8 6 14t14 6t14 -6t6 -14t-6 -14t-14 -6t-14 6t-6 14zM478 569q0 15 14 15q6 0 10.5 -4.5t4.5 -10.5t-4.5 -10.5t-10.5 -4.5q-14 0 -14 15zM525 620q0 9 9 9t9 -9t-9 -9t-9 9zM374 16q20 0 35 24.5t27 89.5
q21 118 -16 118q-42 0 -63 -118q-21 -114 17 -114zM369 -29q-59 0 -93.5 37.5t-19.5 121.5q29 160 169 160q139 0 112 -160q-28 -159 -168 -159zM685 16q20 0 35 24.5t27 89.5q21 118 -16 118q-42 0 -63 -118q-21 -114 17 -114zM680 -29q-59 0 -93.5 37.5t-19.5 121.5
q29 160 169 160q139 0 112 -160q-28 -159 -168 -159zM190 443q20 0 35 24.5t27 89.5q21 118 -16 118q-42 0 -63 -118q-21 -114 17 -114zM185 398q-59 0 -93 37.5t-20 121.5q29 160 169 160q139 0 112 -160q-28 -159 -168 -159z" />
    <glyph glyph-name="guilsinglleft" unicode="&#x2039;" horiz-adv-x="284" 
d="M248 429l10 -10q-15 -38 -50 -86.5t-73 -80.5q21 -32 39.5 -81t23.5 -87l-15 -10q-24 27 -72.5 74.5t-79.5 75.5q8 27 12 67q43 28 205 138z" />
    <glyph glyph-name="guilsinglright" unicode="&#x203a;" horiz-adv-x="284" 
d="M85 419l14 10q91 -91 153 -148q-9 -32 -12 -68q-117 -73 -204 -139l-11 10q16 38 51 88t70 82q-22 34 -39.5 81t-21.5 84z" />
    <glyph glyph-name="fraction" unicode="&#x2044;" horiz-adv-x="150" 
d="M-221 -32q0 9 10 9q9 0 9 -9q0 -10 -9 -10q-10 0 -10 10zM-181 24q0 14 14 14t14 -14t-14 -14t-14 14zM-142 80q0 8 5.5 13.5t13.5 5.5t13 -5.5t5 -13.5t-5.5 -13t-12.5 -5q-8 0 -13.5 5.5t-5.5 12.5zM-101 136q0 22 22 22q9 0 15.5 -6t6.5 -16q0 -9 -6.5 -15.5
t-15.5 -6.5q-10 0 -16 6.5t-6 15.5zM-60 192q0 11 7.5 18.5t17.5 7.5t17.5 -7.5t7.5 -18.5q0 -10 -7.5 -17.5t-17.5 -7.5t-17.5 7.5t-7.5 17.5zM-19 248q0 11 8.5 19.5t19.5 8.5t19.5 -8.5t8.5 -19.5t-8.5 -18.5t-19.5 -7.5t-19.5 7.5t-8.5 18.5zM25 304q0 12 8 20.5t20 8.5
t20.5 -8.5t8.5 -20.5q0 -11 -8.5 -19.5t-20.5 -8.5t-20 8.5t-8 19.5zM69 361q0 11 8 19.5t20 8.5t20.5 -8.5t8.5 -19.5q0 -12 -8.5 -20t-20.5 -8t-20 8t-8 20zM114 417q0 11 8 19t19 8t19.5 -8t8.5 -19t-8.5 -19t-19.5 -8t-19 8t-8 19zM160 473q0 11 7 18t18 7t18 -7t7 -18
t-7 -18t-18 -7t-18 7t-7 18zM207 529q0 9 6.5 15.5t15.5 6.5q10 0 16 -6.5t6 -15.5t-6 -15.5t-16 -6.5q-9 0 -15.5 6.5t-6.5 15.5zM255 585q0 8 5.5 13.5t12.5 5.5t13 -6t6 -13t-5.5 -12.5t-13.5 -5.5q-7 0 -12.5 5.5t-5.5 12.5zM303 641q0 14 14 14t14 -14t-14 -14t-14 14z
M352 697q0 10 9 10q10 0 10 -10q0 -9 -10 -9q-9 0 -9 9z" />
    <glyph glyph-name="Euro" unicode="&#x20ac;" 
d="M38 443l45 -1q40 119 124.5 181t205.5 62q117 0 166.5 -44.5t39.5 -111.5q-7 -44 -34 -66t-66 -22q-38 0 -57.5 22t-12.5 53q7 33 31 52t60 19q3 0 8.5 -0.5t7.5 -0.5q-29 27 -91 27q-70 0 -115.5 -40.5t-72.5 -132.5l132 3q-4 -12 -13 -73l-135 3q-2 -9 -6 -30l-6 -37
l138 4q-1 -4 -12 -74l-133 3q-5 -94 27 -137.5t106 -43.5q64 0 101 29h-11q-40 0 -57.5 21t-13.5 53q4 34 26.5 53.5t62.5 19.5q41 0 61 -25.5t13 -70.5q-12 -70 -77.5 -114t-181.5 -44q-254 0 -250 257l-44 -1q10 32 13 74l36 -1q6 42 10 62l-37 -1z" />
    <glyph glyph-name="uni2116" unicode="&#x2116;" horiz-adv-x="1106" 
d="M994 74q-3 -41 -29.5 -64.5t-70.5 -23.5q-42 0 -65 22.5t-19 66.5q4 39 31.5 63.5t68.5 24.5q43 0 65.5 -25t18.5 -64zM932 273q86 0 106 122q20 123 -67 123t-107 -123q-11 -67 7 -94.5t61 -27.5zM926 236q-65 0 -96.5 40.5t-19.5 118.5q12 80 55.5 120t111.5 40
q65 0 97 -40.5t19 -119.5t-56.5 -119t-110.5 -40zM376 689q28 -66 222 -430q32 194 39 272q3 35 -9.5 49.5t-40.5 14.5h-54q11 42 14 94q10 0 68 -1t90 -1l157 2q-11 -40 -14 -94h-42q-28 0 -44.5 -14.5t-24.5 -49.5q-12 -56 -39.5 -242.5t-39.5 -289.5q-22 1 -79 1t-79 -1
q-22 48 -244 475q-36 -210 -47 -315q-5 -64 62 -64h44q-12 -58 -14 -97q-102 2 -159 2l-158 -2q6 30 14 97h34q64 0 79 64q10 45 33 193t24 184q2 31 -10 45t-44 14h-41q5 27 14 94q143 -4 289 0z" />
    <glyph glyph-name="trademark" unicode="&#x2122;" horiz-adv-x="720" 
d="M166 688h123q64 0 78 1q-17 -65 -23 -120q-7 1 -25 1t-25 -1l5 29q3 34 -21 34h-19q-21 -116 -22 -132q-2 -25 22 -25h14q-5 -22 -9 -50q-54 1 -83 1l-83 -1q6 22 9 50h14q24 0 30 25q10 41 23 132h-18q-14 0 -21 -8t-11 -26l-7 -29q-6 1 -24 1t-25 -1q15 68 19 120
q18 -1 79 -1zM758 640h-14q-22 0 -27 -25q-15 -60 -20 -113q-2 -15 1.5 -21t16.5 -6h14q-5 -22 -9 -50q-54 1 -83 1l-82 -1q5 22 9 50h14q23 0 29 27q7 50 15 89q-87 -119 -96 -133h-20q-27 74 -53 132q-13 -79 -14 -87q-5 -28 21 -28h15q-3 -28 -9 -50q-39 1 -61 1l-64 -1
q9 24 9 50h16q23 0 29 28q15 65 20 112q3 25 -20 25h-15q1 4 4.5 24.5t4.5 24.5q69 -2 137 0q13 -48 42 -110q39 50 78 110q59 -2 121 0q-5 -14 -9 -49z" />
    <glyph glyph-name="onethird" unicode="&#x2153;" horiz-adv-x="378" 
d="M9 344q0 9 6.5 15.5t16.5 6.5q9 0 15.5 -6.5t6.5 -15.5q0 -10 -6.5 -16.5t-15.5 -6.5q-23 0 -23 23zM75 344q0 20 20 20q8 0 14 -6t6 -14q0 -20 -20 -20t-20 20zM140 344q0 18 18 18q8 0 13 -5t5 -13q0 -18 -18 -18t-18 18zM203 344q0 18 18 18q7 0 12.5 -5t5.5 -13
q0 -18 -18 -18t-18 18zM264 344q0 20 20 20q8 0 14 -6t6 -14q0 -20 -20 -20t-20 20zM324 344q0 9 6.5 15.5t16.5 6.5q9 0 15.5 -6.5t6.5 -15.5q0 -10 -6.5 -16.5t-15.5 -6.5q-23 0 -23 23zM184 480l21 126l-58 -1q8 32 8 51h19q77 0 96 58q8 -1 30 -1t30 1q-19 -71 -28 -129
l-16 -105q-4 -27 25 -27h31l-9 -48q-72 1 -112 1l-114 -1q8 32 8 48h34q31 0 35 27zM292 214q-4 -56 -69 -77q61 -16 58 -68q-7 -98 -163 -98q-53 0 -84 20t-28 53q2 24 18.5 38.5t41.5 14.5q44 0 42 -34q-1 -19 -15 -29.5t-36 -8.5q-8 0 -12 1q18 -21 52 -21q69 0 75 64
q2 25 -12 38t-43 13h-16l5 29h12q65 2 70 56q5 45 -46 45q-33 0 -56 -16q4 1 14 1q20 0 30 -9t9 -23q-2 -37 -48 -37q-22 0 -33.5 10.5t-10.5 30.5q2 36 42 59.5t97 23.5q56 0 82.5 -20.5t23.5 -55.5z" />
    <glyph glyph-name="twothirds" unicode="&#x2154;" horiz-adv-x="378" 
d="M9 344q0 9 6.5 15.5t16.5 6.5q9 0 15.5 -6.5t6.5 -15.5q0 -10 -6.5 -16.5t-15.5 -6.5q-23 0 -23 23zM75 344q0 20 20 20q8 0 14 -6t6 -14q0 -20 -20 -20t-20 20zM140 344q0 18 18 18q8 0 13 -5t5 -13q0 -18 -18 -18t-18 18zM203 344q0 18 18 18q7 0 12.5 -5t5.5 -13
q0 -18 -18 -18t-18 18zM264 344q0 20 20 20q8 0 14 -6t6 -14q0 -20 -20 -20t-20 20zM324 344q0 9 6.5 15.5t16.5 6.5q9 0 15.5 -6.5t6.5 -15.5q0 -10 -6.5 -16.5t-15.5 -6.5q-23 0 -23 23zM348 516q14 -39 -7 -78.5t-79 -39.5q-18 0 -35.5 6t-25 10.5t-26.5 16.5
q-23 16 -40 16q-16 0 -15 -7q0 -3 4 -6q13 -8 11 -22t-19 -14q-13 0 -20.5 10t-6.5 26q3 57 87 98q85 40 92 90q4 24 -7.5 39.5t-39.5 15.5q-31 0 -57 -21q10 3 21 3q20 -1 29 -11.5t6 -23.5q-2 -15 -16 -24.5t-35 -9.5q-22 0 -34 12t-8 33q5 35 44.5 58.5t92.5 23.5
q62 0 87.5 -25t19.5 -64q-13 -84 -176 -118q-41 -7 -58 -31q7 4 16 6t15.5 3t19 0.5t17.5 -0.5t20 -1.5t19 -1.5q19 -1 36 -0.5t28.5 7.5t11.5 21zM292 214q-4 -56 -69 -77q61 -16 58 -68q-7 -98 -163 -98q-53 0 -84 20t-28 53q2 24 18.5 38.5t41.5 14.5q44 0 42 -34
q-1 -19 -15 -29.5t-36 -8.5q-8 0 -12 1q18 -21 52 -21q69 0 75 64q2 25 -12 38t-43 13h-16l5 29h12q65 2 70 56q5 45 -46 45q-33 0 -56 -16q4 1 14 1q20 0 30 -9t9 -23q-2 -37 -48 -37q-22 0 -33.5 10.5t-10.5 30.5q2 36 42 59.5t97 23.5q56 0 82.5 -20.5t23.5 -55.5z" />
    <glyph glyph-name="oneeighth" unicode="&#x215b;" horiz-adv-x="378" 
d="M9 344q0 9 6.5 15.5t16.5 6.5q9 0 15.5 -6.5t6.5 -15.5q0 -10 -6.5 -16.5t-15.5 -6.5q-23 0 -23 23zM75 344q0 20 20 20q8 0 14 -6t6 -14q0 -20 -20 -20t-20 20zM140 344q0 18 18 18q8 0 13 -5t5 -13q0 -18 -18 -18t-18 18zM203 344q0 18 18 18q7 0 12.5 -5t5.5 -13
q0 -18 -18 -18t-18 18zM264 344q0 20 20 20q8 0 14 -6t6 -14q0 -20 -20 -20t-20 20zM324 344q0 9 6.5 15.5t16.5 6.5q9 0 15.5 -6.5t6.5 -15.5q0 -10 -6.5 -16.5t-15.5 -6.5q-23 0 -23 23zM184 480l21 126l-58 -1q8 32 8 51h19q77 0 96 58q8 -1 30 -1t30 1q-19 -71 -28 -129
l-16 -105q-4 -27 25 -27h31l-9 -48q-72 1 -112 1l-114 -1q8 32 8 48h34q31 0 35 27zM301 220q-5 -36 -48 -55q56 -25 43 -94q-8 -47 -51.5 -73.5t-106.5 -26.5q-68 0 -97.5 18.5t-23.5 55.5q7 41 66 58q-43 26 -31 89q9 46 48 72t100 26q54 0 80 -19t21 -51zM136 84
q-18 3 -28 7q-29 -18 -33 -41q-2 -19 14 -30t54 -11q76 0 83 34q3 16 -14 23.5t-76 17.5zM192 255q-27 0 -46 -9.5t-21 -24.5q-2 -17 12.5 -25t64.5 -16q10 -2 21 -5q19 15 24 41q3 17 -10 28t-45 11z" />
    <glyph glyph-name="threeeighths" unicode="&#x215c;" horiz-adv-x="378" 
d="M9 344q0 9 6.5 15.5t16.5 6.5q9 0 15.5 -6.5t6.5 -15.5q0 -10 -6.5 -16.5t-15.5 -6.5q-23 0 -23 23zM75 344q0 20 20 20q8 0 14 -6t6 -14q0 -20 -20 -20t-20 20zM140 344q0 18 18 18q8 0 13 -5t5 -13q0 -18 -18 -18t-18 18zM203 344q0 18 18 18q7 0 12.5 -5t5.5 -13
q0 -18 -18 -18t-18 18zM264 344q0 20 20 20q8 0 14 -6t6 -14q0 -20 -20 -20t-20 20zM324 344q0 9 6.5 15.5t16.5 6.5q9 0 15.5 -6.5t6.5 -15.5q0 -10 -6.5 -16.5t-15.5 -6.5q-23 0 -23 23zM369 641q-4 -56 -70 -77q62 -16 59 -68q-7 -98 -163 -98q-54 0 -84.5 20t-27.5 53
q2 24 18.5 38.5t41.5 14.5q22 0 32.5 -9.5t9.5 -24.5q-1 -19 -15.5 -29.5t-36.5 -8.5q-7 0 -11 1q18 -21 52 -21q69 0 75 64q2 25 -12.5 38t-43.5 13h-16l6 29h12q64 2 69 56q2 20 -9 32.5t-37 12.5q-34 0 -56 -17q10 2 14 2q20 0 30.5 -9t9.5 -23q-3 -37 -48 -37
q-22 0 -34 10.5t-11 30.5q3 36 43 59.5t97 23.5q56 0 82.5 -20.5t23.5 -55.5zM301 220q-5 -36 -48 -55q56 -25 43 -94q-8 -47 -51.5 -73.5t-106.5 -26.5q-68 0 -97.5 18.5t-23.5 55.5q7 41 66 58q-43 26 -31 89q9 46 48 72t100 26q54 0 80 -19t21 -51zM136 84q-18 3 -28 7
q-29 -18 -33 -41q-2 -19 14 -30t54 -11q76 0 83 34q3 16 -14 23.5t-76 17.5zM192 255q-27 0 -46 -9.5t-21 -24.5q-2 -17 12.5 -25t64.5 -16q10 -2 21 -5q19 15 24 41q3 17 -10 28t-45 11z" />
    <glyph glyph-name="fiveeighths" unicode="&#x215d;" horiz-adv-x="378" 
d="M9 344q0 9 6.5 15.5t16.5 6.5q9 0 15.5 -6.5t6.5 -15.5q0 -10 -6.5 -16.5t-15.5 -6.5q-23 0 -23 23zM75 344q0 20 20 20q8 0 14 -6t6 -14q0 -20 -20 -20t-20 20zM140 344q0 18 18 18q8 0 13 -5t5 -13q0 -18 -18 -18t-18 18zM203 344q0 18 18 18q7 0 12.5 -5t5.5 -13
q0 -18 -18 -18t-18 18zM264 344q0 20 20 20q8 0 14 -6t6 -14q0 -20 -20 -20t-20 20zM324 344q0 9 6.5 15.5t16.5 6.5q9 0 15.5 -6.5t6.5 -15.5q0 -10 -6.5 -16.5t-15.5 -6.5q-23 0 -23 23zM180 557q-31 0 -58 -15l-11 12q38 52 51 153q26 -8 98 -8q77 0 116 13l1 -33
q-35 -55 -126 -55q-46 0 -76 13q-9 -34 -25 -58q43 18 97 18q61 0 87 -24.5t18 -71.5q-17 -103 -165 -103q-60 0 -87 20.5t-21 56.5q8 44 57 44q23 0 33.5 -11t7.5 -28q-6 -33 -48 -33q-10 0 -14 1q16 -16 48 -16q63 0 73 64q11 61 -56 61zM301 220q-5 -36 -48 -55
q56 -25 43 -94q-8 -47 -51.5 -73.5t-106.5 -26.5q-68 0 -97.5 18.5t-23.5 55.5q7 41 66 58q-43 26 -31 89q9 46 48 72t100 26q54 0 80 -19t21 -51zM136 84q-18 3 -28 7q-29 -18 -33 -41q-2 -19 14 -30t54 -11q76 0 83 34q3 16 -14 23.5t-76 17.5zM192 255q-27 0 -46 -9.5
t-21 -24.5q-2 -17 12.5 -25t64.5 -16q10 -2 21 -5q19 15 24 41q3 17 -10 28t-45 11z" />
    <glyph glyph-name="seveneighths" unicode="&#x215e;" horiz-adv-x="378" 
d="M9 344q0 9 6.5 15.5t16.5 6.5q9 0 15.5 -6.5t6.5 -15.5q0 -10 -6.5 -16.5t-15.5 -6.5q-23 0 -23 23zM75 344q0 20 20 20q8 0 14 -6t6 -14q0 -20 -20 -20t-20 20zM140 344q0 18 18 18q8 0 13 -5t5 -13q0 -18 -18 -18t-18 18zM203 344q0 18 18 18q7 0 12.5 -5t5.5 -13
q0 -18 -18 -18t-18 18zM264 344q0 20 20 20q8 0 14 -6t6 -14q0 -20 -20 -20t-20 20zM324 344q0 9 6.5 15.5t16.5 6.5q9 0 15.5 -6.5t6.5 -15.5q0 -10 -6.5 -16.5t-15.5 -6.5q-23 0 -23 23zM159 715l2 -26q19 27 59 27q36 0 69 -25q35 -25 59 -25q9 0 11 6t-6 13q-9 6 -11 15
t3.5 15t15.5 6q14 0 21.5 -11t5.5 -28q-8 -42 -50 -73q-45 -33 -65 -64.5t-24 -89.5q-2 -29 -20.5 -43.5t-46.5 -14.5q-29 0 -44 13.5t-13 39.5q8 90 151 151q36 15 57 29q-36 -18 -81 -18q-20 0 -41 5t-32 5q-25 0 -31 -29q-5 1 -21.5 1t-21.5 -1q14 37 22 122q16 -2 32 0z
M301 220q-5 -36 -48 -55q56 -25 43 -94q-8 -47 -51.5 -73.5t-106.5 -26.5q-68 0 -97.5 18.5t-23.5 55.5q7 41 66 58q-43 26 -31 89q9 46 48 72t100 26q54 0 80 -19t21 -51zM136 84q-18 3 -28 7q-29 -18 -33 -41q-2 -19 14 -30t54 -11q76 0 83 34q3 16 -14 23.5t-76 17.5z
M192 255q-27 0 -46 -9.5t-21 -24.5q-2 -17 12.5 -25t64.5 -16q10 -2 21 -5q19 15 24 41q3 17 -10 28t-45 11z" />
    <glyph glyph-name="minus" unicode="&#x2212;" 
d="M72 207q10 41 16 89q219 -4 440 0q-10 -42 -16 -89q-219 4 -440 0z" />
    <glyph glyph-name="notequal" unicode="&#x2260;" 
d="M87 293q10 41 15 79q112 -2 221 -2l37 120q15 -4 29 0q-37 -114 -39 -120q92 0 192 2q-11 -42 -15 -79q-52 1 -202 1q-3 -9 -27 -86q104 0 214 2q-9 -37 -14 -80q-57 1 -225 1l-40 -131q-15 4 -29 0l43 131q-140 0 -189 -1q8 34 14 80q104 -2 200 -2l27 86
q-158 0 -212 -1z" />
    <glyph glyph-name="lessequal" unicode="&#x2264;" 
d="M120 233l8 39q198 109 317 184l23 -74q-85 -45 -282 -132q160 -91 229 -137l-22 -35q41 0 93 2q-11 -45 -15 -80q-219 4 -440 0q10 42 15 80q70 -2 281 -2q-39 32 -207 155z" />
    <glyph glyph-name="greaterequal" unicode="&#x2265;" 
d="M471 265l-7 -39q-167 -93 -258 -148q138 0 280 2q-11 -45 -15 -80q-219 4 -440 0q10 42 15 80q25 -1 89 -1l-11 35q92 49 280 134q-146 82 -228 140l45 68q50 -48 250 -191z" />
    <glyph glyph-name="space_uni0326" horiz-adv-x="200" 
d="M107 255q-47 0 -44 56q2 27 20.5 44t47.5 17q64 0 59 -77q-4 -55 -47 -93.5t-110 -51.5l-4 20q113 24 127 110q-13 -25 -49 -25z" />
    <glyph glyph-name="dotlessI" horiz-adv-x="417" 
d="M-12 -2q2 9 14 97h37q31 0 41 9t18 40q8 29 34.5 198t28.5 199t-7 42t-36 12h-41q3 13 14 94q118 -2 184 -2q39 0 110 1t73 1q-10 -52 -13 -94h-36q-27 0 -41.5 -12.5t-22.5 -41.5q-7 -28 -33.5 -199.5t-28.5 -197.5q-2 -27 7.5 -38t42.5 -11h36q-10 -55 -13 -97
q-118 2 -184 2z" />
    <glyph glyph-name="Jacute" horiz-adv-x="584" 
d="M411 747l-8 12q70 95 127 130q34 15 58 6t23.5 -35.5t-32.5 -45.5q-66 -43 -168 -67zM68 71h-9q32 -30 82 -30q55 0 87 34.5t47 116.5q55 303 56 349q2 30 -7 42t-36 12h-40q12 64 14 94q116 -2 181 -2q39 0 108.5 1t71.5 1q-11 -40 -14 -94h-34q-26 0 -39.5 -11
t-19.5 -43q-5 -26 -56 -344q-34 -222 -285 -222q-99 0 -147 45.5t-38 118.5q7 44 37.5 71t74.5 27q40 0 60.5 -23.5t14.5 -62.5q-7 -46 -39.5 -64t-69.5 -16z" />
    <glyph glyph-name="idotaccent" horiz-adv-x="355" 
d="M328 629q-5 -38 -33 -63.5t-73 -25.5q-38 0 -59.5 25.5t-17.5 63.5t31.5 64t72.5 26q40 0 61.5 -26t17.5 -64zM276 296l-41 -159q-8 -32 -9.5 -50.5t3.5 -26.5t16 -8q35 0 53 137l39 -2q-8 -87 -48 -147.5t-116 -60.5q-147 0 -97 181l46 167q24 83 -2 83q-46 0 -62 -140
l-39 2q10 90 49 150.5t108 60.5q74 0 98 -49t2 -138z" />
    <glyph glyph-name="jacute" horiz-adv-x="306" 
d="M265 296l-51 -266q-25 -126 -87 -179.5t-169 -53.5q-63 0 -94.5 24.5t-25.5 65.5q4 29 23 45t47 16q29 0 42 -16t9 -41q-4 -26 -27 -37t-49 -6q15 -17 48 -17q59 0 84.5 49.5t49.5 179.5l47 251q19 99 -1 99q-44 0 -60 -140l-39 2q10 95 50.5 153t109.5 58q131 0 93 -187
zM176 527l-8 12q70 95 127 130q34 15 58 6t23.5 -35.5t-32.5 -45.5q-66 -43 -168 -67z" />
    <glyph glyph-name="C.round" horiz-adv-x="714" 
d="M421 710q169 0 200 -112q22 39 41 92q42 -4 83 0q-40 -126 -56 -241q-10 2 -64 2q-51 0 -61 -2q12 159 -123 159q-80 0 -124.5 -58.5t-66.5 -203.5q-12 -65 -9 -111.5t10.5 -76t25.5 -46t37.5 -23t46.5 -6.5q82 0 127 46.5t62 139.5q8 -2 61 -2q55 0 63 2
q-25 -149 -105 -221.5t-231 -72.5q-346 0 -291 371q28 182 127.5 273t246.5 91z" />
    <glyph glyph-name="G.round" horiz-adv-x="797" 
d="M362 83q134 0 154 135q5 39 -5 56.5t-42 17.5h-31l11 76q106 -2 165 -2l165 2l-11 -76h-26q-21 0 -31 -12t-14 -41q-23 -151 -24 -240q-14 1 -57 1t-57 -1q-6 49 -16 97q-35 -54 -95.5 -87.5t-137.5 -33.5q-68 0 -120 19t-92 63t-51.5 114.5t1.5 174.5q28 182 128 273
t250 91q170 0 196 -118q25 43 46 98q46 -4 91 0q-16 -46 -34 -123t-21 -118q-42 2 -70 2l-70 -1q10 77 -23.5 117.5t-98.5 40.5q-81 0 -125 -57.5t-67 -206.5q-9 -81 -7.5 -132t20.5 -79.5t42 -39t57 -10.5z" />
    <glyph glyph-name="S.round" horiz-adv-x="682" 
d="M377 624q-135 0 -151 -77q-9 -44 26 -63.5t129 -26.5q146 -10 207.5 -80.5t43.5 -190.5q-14 -97 -94.5 -153t-210.5 -56q-76 0 -135.5 25.5t-92.5 70.5q-25 -40 -35 -74q-37 4 -77 0q34 108 47 227q8 -1 34 -1t34 1q34 -156 231 -156q138 0 152 83q7 46 -27.5 67.5
t-133.5 29.5q-132 11 -196 78.5t-45 177.5q17 103 96 153.5t204 50.5q144 0 191 -88q25 32 34 68q35 -4 70 0q-35 -104 -40 -208q-8 1 -35 1t-35 -1q-18 72 -63.5 107t-127.5 35z" />
    <glyph glyph-name="Cacute.round" horiz-adv-x="714" 
d="M416 747l-8 12q70 95 127 130q34 15 58 6t23.5 -35.5t-32.5 -45.5q-66 -43 -168 -67zM421 710q169 0 200 -112q22 39 41 92q42 -4 83 0q-40 -126 -56 -241q-10 2 -64 2q-51 0 -61 -2q12 159 -123 159q-80 0 -124.5 -58.5t-66.5 -203.5q-12 -65 -9 -111.5t10.5 -76
t25.5 -46t37.5 -23t46.5 -6.5q82 0 127 46.5t62 139.5q8 -2 61 -2q55 0 63 2q-25 -149 -105 -221.5t-231 -72.5q-346 0 -291 371q28 182 127.5 273t246.5 91z" />
    <glyph glyph-name="Ccaron.round" horiz-adv-x="714" 
d="M313 899l12 11q62 -27 124 -87q29 25 71.5 51t69.5 35l9 -10q-20 -41 -56 -81.5t-71 -65.5h-69q-25 24 -51 65.5t-39 81.5zM421 710q169 0 200 -112q22 39 41 92q42 -4 83 0q-40 -126 -56 -241q-10 2 -64 2q-51 0 -61 -2q12 159 -123 159q-80 0 -124.5 -58.5
t-66.5 -203.5q-12 -65 -9 -111.5t10.5 -76t25.5 -46t37.5 -23t46.5 -6.5q82 0 127 46.5t62 139.5q8 -2 61 -2q55 0 63 2q-25 -149 -105 -221.5t-231 -72.5q-346 0 -291 371q28 182 127.5 273t246.5 91z" />
    <glyph glyph-name="Ccedilla.round" horiz-adv-x="714" 
d="M421 710q169 0 200 -112q22 39 41 92q42 -4 83 0q-40 -126 -56 -241q-10 2 -64 2q-51 0 -61 -2q12 159 -123 159q-80 0 -124.5 -58.5t-66.5 -203.5q-12 -65 -9 -111.5t10.5 -76t25.5 -46t37.5 -23t46.5 -6.5q82 0 127 46.5t62 139.5q8 -2 61 -2q55 0 63 2
q-25 -149 -105 -221.5t-231 -72.5h-1q-6 -24 -27 -45q46 3 78 -17.5t30 -62.5q-1 -44 -35 -69t-90 -25q-75 0 -108 59l24 20q26 -34 65 -34q53 0 56 49q1 31 -24 42t-58 -2l-11 23q50 22 67 63q-309 17 -257 370q28 182 127.5 273t246.5 91z" />
    <glyph glyph-name="Ccircumflex.round" horiz-adv-x="714" 
d="M589 757l-12 -10q-66 27 -118 82q-26 -22 -72 -47.5t-75 -34.5l-9 11q19 39 57.5 79t76.5 67h68q53 -50 84 -147zM421 710q169 0 200 -112q22 39 41 92q42 -4 83 0q-40 -126 -56 -241q-10 2 -64 2q-51 0 -61 -2q12 159 -123 159q-80 0 -124.5 -58.5t-66.5 -203.5
q-12 -65 -9 -111.5t10.5 -76t25.5 -46t37.5 -23t46.5 -6.5q82 0 127 46.5t62 139.5q8 -2 61 -2q55 0 63 2q-25 -149 -105 -221.5t-231 -72.5q-346 0 -291 371q28 182 127.5 273t246.5 91z" />
    <glyph glyph-name="Cdotaccent.round" horiz-adv-x="714" 
d="M421 710q169 0 200 -112q22 39 41 92q42 -4 83 0q-40 -126 -56 -241q-10 2 -64 2q-51 0 -61 -2q12 159 -123 159q-80 0 -124.5 -58.5t-66.5 -203.5q-12 -65 -9 -111.5t10.5 -76t25.5 -46t37.5 -23t46.5 -6.5q82 0 127 46.5t62 139.5q8 -2 61 -2q55 0 63 2
q-25 -149 -105 -221.5t-231 -72.5q-346 0 -291 371q28 182 127.5 273t246.5 91zM516 823q-2 -27 -20.5 -46t-47.5 -19t-46 19t-15 46q1 28 20.5 46.5t46.5 18.5q29 0 46.5 -18t15.5 -47z" />
    <glyph glyph-name="Gbreve.round" horiz-adv-x="797" 
d="M362 83q134 0 154 135q5 39 -5 56.5t-42 17.5h-31l11 76q106 -2 165 -2l165 2l-11 -76h-26q-21 0 -31 -12t-14 -41q-23 -151 -24 -240q-14 1 -57 1t-57 -1q-6 49 -16 97q-35 -54 -95.5 -87.5t-137.5 -33.5q-68 0 -120 19t-92 63t-51.5 114.5t1.5 174.5q28 182 128 273
t250 91q170 0 196 -118q25 43 46 98q46 -4 91 0q-16 -46 -34 -123t-21 -118q-42 2 -70 2l-70 -1q10 77 -23.5 117.5t-98.5 40.5q-81 0 -125 -57.5t-67 -206.5q-9 -81 -7.5 -132t20.5 -79.5t42 -39t57 -10.5zM456 748q-73 0 -99 40.5t-8 104.5l24 2q-1 -34 21.5 -47.5
t73.5 -13.5t77 13.5t33 47.5l25 -2q0 -64 -37 -104.5t-110 -40.5z" />
    <glyph glyph-name="Gcircumflex.round" horiz-adv-x="797" 
d="M586 757l-12 -10q-66 27 -118 82q-26 -22 -72 -47.5t-75 -34.5l-9 11q19 39 57.5 79t76.5 67h68q53 -50 84 -147zM362 83q134 0 154 135q5 39 -5 56.5t-42 17.5h-31l11 76q106 -2 165 -2l165 2l-11 -76h-26q-21 0 -31 -12t-14 -41q-23 -151 -24 -240q-14 1 -57 1t-57 -1
q-6 49 -16 97q-35 -54 -95.5 -87.5t-137.5 -33.5q-68 0 -120 19t-92 63t-51.5 114.5t1.5 174.5q28 182 128 273t250 91q170 0 196 -118q25 43 46 98q46 -4 91 0q-16 -46 -34 -123t-21 -118q-42 2 -70 2l-70 -1q10 77 -23.5 117.5t-98.5 40.5q-81 0 -125 -57.5t-67 -206.5
q-9 -81 -7.5 -132t20.5 -79.5t42 -39t57 -10.5z" />
    <glyph glyph-name="Gcommaaccent.round" horiz-adv-x="797" 
d="M330 -170q-47 0 -44 56q2 27 20.5 44t47.5 17q64 0 59 -77q-4 -55 -47 -93.5t-110 -51.5l-4 20q113 24 127 110q-13 -25 -49 -25zM362 83q134 0 154 135q5 39 -5 56.5t-42 17.5h-31l11 76q106 -2 165 -2l165 2l-11 -76h-26q-21 0 -31 -12t-14 -41q-23 -151 -24 -240
q-14 1 -57 1t-57 -1q-6 49 -16 97q-35 -54 -95.5 -87.5t-137.5 -33.5q-68 0 -120 19t-92 63t-51.5 114.5t1.5 174.5q28 182 128 273t250 91q170 0 196 -118q25 43 46 98q46 -4 91 0q-16 -46 -34 -123t-21 -118q-42 2 -70 2l-70 -1q10 77 -23.5 117.5t-98.5 40.5
q-81 0 -125 -57.5t-67 -206.5q-9 -81 -7.5 -132t20.5 -79.5t42 -39t57 -10.5z" />
    <glyph glyph-name="Gdotaccent.round" horiz-adv-x="797" 
d="M362 83q134 0 154 135q5 39 -5 56.5t-42 17.5h-31l11 76q106 -2 165 -2l165 2l-11 -76h-26q-21 0 -31 -12t-14 -41q-23 -151 -24 -240q-14 1 -57 1t-57 -1q-6 49 -16 97q-35 -54 -95.5 -87.5t-137.5 -33.5q-68 0 -120 19t-92 63t-51.5 114.5t1.5 174.5q28 182 128 273
t250 91q170 0 196 -118q25 43 46 98q46 -4 91 0q-16 -46 -34 -123t-21 -118q-42 2 -70 2l-70 -1q10 77 -23.5 117.5t-98.5 40.5q-81 0 -125 -57.5t-67 -206.5q-9 -81 -7.5 -132t20.5 -79.5t42 -39t57 -10.5zM517 824q-2 -27 -20.5 -46t-47.5 -19t-46 19t-15 46
q1 28 20.5 46.5t46.5 18.5q29 0 46.5 -18t15.5 -47z" />
    <glyph glyph-name="Sacute.round" horiz-adv-x="682" 
d="M372 747l-8 12q70 95 127 130q34 15 58 6t23.5 -35.5t-32.5 -45.5q-66 -43 -168 -67zM377 624q-135 0 -151 -77q-9 -44 26 -63.5t129 -26.5q146 -10 207.5 -80.5t43.5 -190.5q-14 -97 -94.5 -153t-210.5 -56q-76 0 -135.5 25.5t-92.5 70.5q-25 -40 -35 -74q-37 4 -77 0
q34 108 47 227q8 -1 34 -1t34 1q34 -156 231 -156q138 0 152 83q7 46 -27.5 67.5t-133.5 29.5q-132 11 -196 78.5t-45 177.5q17 103 96 153.5t204 50.5q144 0 191 -88q25 32 34 68q35 -4 70 0q-35 -104 -40 -208q-8 1 -35 1t-35 -1q-18 72 -63.5 107t-127.5 35z" />
    </font>
</defs>
</svg>
