<?xml version="1.0" standalone="no"?>
<!DOCTYPE svg PUBLIC "-//W3C//DTD SVG 1.1//EN" "http://www.w3.org/Graphics/SVG/1.1/DTD/svg11.dtd" >
<svg>
<metadata>
Created by FontForge 20110222 at Mon Apr 21 12:29:25 2014
 By Orthosie Webhosting
(C)2010 House Industries/Brand Design Co., Inc. All Rights Reserved.
</metadata>
<defs>
<font id="EamesCenturyModernBook" horiz-adv-x="600" >
  <font-face 
    font-family="EamesCenturyModernBook"
    font-weight="450"
    font-stretch="normal"
    units-per-em="1000"
    panose-1="2 0 5 3 7 7 5 2 2 3"
    ascent="820"
    descent="-180"
    x-height="459"
    cap-height="690"
    bbox="-219 -289 1082 1086.56"
    underline-thickness="50"
    underline-position="-50"
    unicode-range="U+0020-FB04"
  />
<missing-glyph horiz-adv-x="500" 
 />
    <glyph glyph-name="f_f" unicode="ff" horiz-adv-x="658" 
d="M599 50v-52q-86 2 -134 2l-134 -2v52h35q44 0 46 49q3 95 1 315l-206 -1q-4 -213 1 -314q2 -49 54 -49h27v-52q-86 2 -134 2l-134 -2v52h35q20 0 32 13.5t14 35.5q3 55 1 312l-72 -2v50l71 -3v23q-2 119 38 167.5t116 48.5q62 0 87.5 -30t25.5 -70q0 -34 -16.5 -53
t-47.5 -19q-28 0 -44 14.5t-16 38.5q0 27 16 41.5t43 14.5q8 0 18 -2q-24 28 -59 28q-45 0 -58 -40t-2 -130l4 -34h205v35q0 109 45.5 157.5t131.5 48.5q61 0 97.5 -31.5t36.5 -76.5q0 -30 -17 -47t-46 -17q-27 0 -43.5 15t-16.5 40q0 26 15 40t43 14h7q-23 26 -60 26
q-47 0 -66.5 -32t-20.5 -121v-49l76 3v-50l-77 3q0 -284 1 -313q1 -24 10 -36.5t34 -12.5h37z" />
    <glyph glyph-name="f_i" unicode="fi" horiz-adv-x="620" 
d="M31 459l71 -3v14q-2 107 55.5 166t179.5 59q71 0 112.5 -31t41.5 -77q0 -31 -19 -47.5t-45 -16.5q-30 0 -45.5 15.5t-15.5 40.5t17 39.5t46 13.5q-37 25 -92 25q-64 0 -96.5 -34t-32.5 -121v-45q236 0 310 4q-2 -50 -2 -181.5t2 -170.5q1 -38 13.5 -49t46.5 -11h22v-51
q-86 2 -134 2l-135 -2v51h20q35 0 47.5 11.5t13.5 45.5q2 36 2 122t-2 124q-1 33 -12 45t-34 14q-28 2 -159 2q-1 -73 -0.5 -184.5t1.5 -129.5q1 -17 4 -26t15 -16t35 -7h27v-52q-86 2 -134 2l-134 -2v52h35q42 0 46 49q3 71 1 312l-72 -2v50z" />
    <glyph glyph-name="f_l" unicode="fl" horiz-adv-x="620" 
d="M518 693q-2 -522 0 -574q2 -39 15 -54.5t45 -15.5h22v-51q-86 2 -134 2l-135 -2v51h24q33 1 44 15.5t13 53.5q2 38 2 230.5t-2 224.5q-2 34 -12 49.5t-42 17.5q11 -23 11 -49q0 -68 -66 -68q-27 0 -42.5 15.5t-15.5 40.5q0 29 23 43.5t54 8.5q-25 27 -59 27
q-45 0 -58 -40t-2 -130l4 -32l77 3v-50l-77 2q-4 -212 1 -312q2 -49 54 -49h27v-52q-86 2 -134 2l-134 -2v52h35q20 0 32 13.5t14 35.5q3 55 1 312l-72 -2v50l71 -3v23q-2 119 38 167.5t116 48.5q46 0 75 -22v17q148 0 187 3z" />
    <glyph glyph-name="f_f_i" unicode="ffi" horiz-adv-x="930" 
d="M599 50v-52q-86 2 -134 2l-134 -2v52h35q42 0 46 49q4 84 0 314h-205q-4 -213 1 -314q2 -49 54 -49h27v-52q-86 2 -134 2l-134 -2v52h35q20 0 32 13.5t14 35.5q3 55 1 312l-72 -2v50l71 -3v23q-2 119 38 167.5t116 48.5q62 0 87 -31t25 -71q0 -70 -63 -70
q-29 0 -44.5 15.5t-15.5 40.5t16 39t42 14q9 0 19 -2q-23 28 -59 28q-45 0 -58 -40t-2 -130l4 -34h204v24q-2 96 57 156.5t179 60.5q71 0 111.5 -30.5t40.5 -77.5q0 -32 -18 -48t-46 -16t-43.5 15.5t-15.5 40.5t16.5 39t46.5 14q-38 26 -92 26q-66 0 -97.5 -33.5
t-31.5 -114.5v-53q236 0 310 4q-2 -49 -2 -181t2 -171q1 -38 13.5 -49t46.5 -11h22v-51q-86 2 -134 2l-135 -2v51h20q35 0 47.5 11.5t13.5 45.5q2 36 2 122.5t-2 123.5q-1 33 -12 45t-34 14q-28 2 -159 2q-1 -73 -0.5 -184.5t1.5 -129.5q2 -25 12 -37t42 -12h27z" />
    <glyph glyph-name="f_f_l" unicode="ffl" horiz-adv-x="930" 
d="M31 459l71 -3v23q-2 119 38 167.5t116 48.5q62 0 87.5 -30.5t25.5 -70.5q0 -71 -64 -71q-29 0 -44.5 15t-15.5 40t16 39.5t45 14.5q6 0 16 -2q-24 28 -59 28q-45 0 -58 -40t-2 -130l4 -34h205v25q-2 119 38 167.5t116 48.5q47 0 75 -20v15q148 0 187 3q-2 -522 0 -574
q2 -39 15 -54.5t45 -15.5h22v-51q-86 2 -134 2l-135 -2v51h24q33 1 44 15.5t13 53.5q2 38 2 230.5t-2 224.5q-2 33 -12 49t-40 18q9 -22 9 -45q0 -72 -63 -72q-30 0 -45 15.5t-15 41.5q0 29 23 42.5t53 8.5q-25 27 -59 27q-45 0 -58 -40t-2 -130l4 -32l77 3v-50l-77 3
q-4 -213 1 -313q2 -49 54 -49h27v-52q-86 2 -134 2l-134 -2v52h35q20 0 32 13.5t14 35.5q3 55 1 315l-206 -1q-4 -213 1 -314q2 -49 54 -49h27v-52q-86 2 -134 2l-134 -2v52h35q20 0 32 13.5t14 35.5q3 55 1 312l-72 -2v50z" />
    <glyph glyph-name="f_j" unicode="fj" horiz-adv-x="580" 
d="M31 459l71 -3v14q-2 107 55.5 166t179.5 59q71 0 112.5 -31t41.5 -77q0 -31 -20 -47.5t-44 -16.5q-29 0 -45.5 16t-16.5 41q0 24 18 39.5t40 15.5h1q-35 22 -87 22q-64 0 -96.5 -34t-32.5 -121v-43q274 0 311 3q-5 -122 0 -462q3 -201 -161 -201q-67 0 -98 28.5t-31 67.5
q0 33 19.5 50t45.5 17q61 0 61 -56q0 -20 -15.5 -39.5t-44.5 -21.5q18 -9 43 -9q38 0 56.5 27t18.5 101v393q-3 52 -54 52h-152q-1 -74 -0.5 -183t1.5 -127q1 -17 4 -26t15 -16t35 -7h27v-52q-86 2 -134 2l-134 -2v52h35q42 0 46 49q3 71 1 312l-72 -2v50z" />
    <glyph glyph-name="f_t" unicode="ft" horiz-adv-x="655" 
d="M604 134l36 -3q3 -45 -3 -76t-30 -53t-68 -22q-71 0 -102 40.5t-29 119.5q2 147 0 271h-201q-4 -214 1 -312q2 -49 54 -49h27v-52q-86 2 -134 2l-134 -2v52h35q20 0 32 13.5t14 35.5q3 55 1 311l-72 -1v50l71 -4v24q-2 119 38 167.5t116 48.5q62 0 87.5 -30.5t25.5 -70.5
q0 -71 -64 -71q-27 0 -43.5 15.5t-16.5 39.5q0 25 16 39.5t44 14.5q7 0 17 -2q-24 28 -59 28q-45 0 -58 -40t-2 -130l4 -35h97q50 0 79 6.5t51 27t33 57t18 98.5h45q-6 -44 -11 -189l105 6v-50l-106 1q-1 -96 1 -264q1 -64 8.5 -86.5t30.5 -22.5q28 0 37.5 19t8.5 78z" />
    <glyph glyph-name="t_t" unicode="tt" horiz-adv-x="632" 
d="M580 134l36 -3q3 -45 -3 -76t-30 -53t-68 -22q-71 0 -102 40.5t-29 119.5q2 147 0 271h-199q-1 -95 1 -265q1 -64 8.5 -86.5t30.5 -22.5q28 0 37.5 19t8.5 78l36 -3q3 -45 -3 -76t-30 -53t-68 -22q-71 0 -102 40.5t-29 119.5q2 147 0 270l-57 -1v40q62 6 92.5 50
t41.5 143h45q-9 -68 -11 -193l111 1q87 1 119.5 43.5t44.5 148.5h45q-6 -44 -11 -189l105 6v-50l-106 1q-1 -96 1 -264q1 -64 8.5 -86.5t30.5 -22.5q28 0 37.5 19t8.5 78z" />
    <glyph glyph-name=".notdef" horiz-adv-x="500" 
 />
    <glyph glyph-name=".null" horiz-adv-x="0" 
 />
    <glyph glyph-name="nonmarkingreturn" horiz-adv-x="333" 
 />
    <glyph glyph-name="space" unicode=" " horiz-adv-x="235" 
 />
    <glyph glyph-name="exclam" unicode="!" horiz-adv-x="239" 
d="M190 55q0 -32 -19 -50t-52 -18q-31 0 -50.5 18t-19.5 51q0 31 20 50t50 19q32 0 51.5 -19t19.5 -51zM130 203q0 -12 -13 -12t-13 12q0 72 -7 133t-15.5 99t-28.5 117q-20 77 -0.5 117.5t64.5 40.5t65.5 -40.5t-1.5 -117.5q-29 -103 -40 -172t-11 -177z" />
    <glyph glyph-name="quotedbl" unicode="&#x22;" horiz-adv-x="369" 
d="M121 449q0 -14 -12 -14q-10 0 -10 14q0 125 -20 173q-16 40 -6.5 64t36.5 24q28 0 37.5 -24t-7.5 -64q-10 -24 -14.5 -51.5t-4.5 -56t1 -65.5zM271 449q0 -14 -12 -14q-10 0 -10 14q0 125 -20 173q-16 40 -6.5 64t36.5 24q28 0 37.5 -24t-7.5 -64q-10 -24 -14.5 -51.5
t-4.5 -56t1 -65.5z" />
    <glyph glyph-name="numbersign" unicode="#" horiz-adv-x="595" 
d="M155 0h-29q28 135 46 225q-26 0 -67.5 -0.5t-55.5 -0.5l7 33q64 -2 121 -2l33 176q-29 0 -74.5 -0.5t-60.5 -0.5l7 33q68 -2 133 -2q19 104 38 227h31q-23 -102 -47 -227h173q19 113 35 227h31q-22 -109 -44 -227q54 0 116 2q0 -1 -3 -16t-3 -17q-14 0 -52.5 0.5
t-62.5 0.5q-15 -78 -30 -176q54 0 116 2l-7 -33q-13 0 -51.5 0.5t-62.5 0.5q-18 -107 -35 -225h-29q18 84 42 225h-177q-27 -147 -38 -225zM231 431l-33 -176h178l30 176h-175z" />
    <glyph glyph-name="dollar" unicode="$" horiz-adv-x="590" 
d="M259 787l-3 -114q27 3 61 -1l-2 115h47l-3 -119q76 -13 117.5 -49.5t41.5 -91.5q0 -28 -17 -46.5t-44 -18.5q-67 0 -67 56q0 22 17.5 37.5t44.5 15.5h1q-30 43 -95 55l-5 -210q114 -17 161 -64.5t47 -128.5q0 -82 -52.5 -137.5t-149.5 -70.5l3 -114h-47l2 110
q-34 -2 -61 1l3 -111h-47l2 116q-84 14 -134 55t-50 100q0 28 18 46.5t48 18.5q31 0 48 -15.5t17 -43.5q0 -22 -18 -36t-47 -14q25 -53 119 -68l6 245q-171 38 -171 177q0 71 46 120.5t119 64.5l-3 120h47zM485 177q0 42 -31.5 67t-100.5 39l5 -224q59 12 93 44t34 74z
M250 299l5 -244q28 -3 63 -1l5 235q-48 6 -73 10zM250 431q25 -5 70 -10l1 -1h2l-5 211q-28 4 -63 1zM126 523q0 -29 20 -50t74 -35l-4 188q-45 -11 -67.5 -38.5t-22.5 -64.5z" />
    <glyph glyph-name="percent" unicode="%" 
d="M189 418q33 0 46.5 27.5t13.5 105.5q0 80 -14 107.5t-46 27.5q-31 0 -45.5 -29t-14.5 -106q0 -81 13 -107t47 -26zM189 392q-61 0 -96 39t-35 120q0 80 38 120t93 40q61 0 96.5 -39.5t35.5 -120.5q0 -79 -38.5 -119t-93.5 -40zM95 85q0 8 8 8t8 -8t-8 -8t-8 8zM132 139
q0 13 13 13t13 -13q0 -14 -13 -14t-13 14zM169 192q0 8 5.5 13t12.5 5t12.5 -5t5.5 -13t-5.5 -13t-12.5 -5t-12.5 5t-5.5 13zM207 246q0 8 6.5 14.5t15.5 6.5t15.5 -6.5t6.5 -14.5q0 -9 -6.5 -15.5t-15.5 -6.5t-15.5 6.5t-6.5 15.5zM247 299q0 10 7 17t17 7t17 -7t7 -17
t-7 -17t-17 -7t-17 7t-7 17zM288 353q0 10 7.5 17t17.5 7t17.5 -7t7.5 -17q0 -11 -7 -18t-18 -7t-18 7t-7 18zM331 406q0 10 7 17t17 7t17 -7t7 -17t-7 -17t-17 -7t-17 7t-7 17zM375 460q0 8 6.5 14.5t15.5 6.5t15.5 -6.5t6.5 -14.5q0 -9 -6.5 -15.5t-15.5 -6.5t-15.5 6.5
t-6.5 15.5zM421 513q0 7 5.5 12.5t12.5 5.5t12.5 -5.5t5.5 -12.5t-5.5 -12.5t-12.5 -5.5t-12.5 5.5t-5.5 12.5zM468 567q0 13 13 13t13 -13q0 -14 -13 -14t-13 14zM515 620q0 8 8 8t8 -8t-8 -8t-8 8zM422 -3q33 0 46.5 27.5t13.5 105.5q0 80 -14 107.5t-46 27.5
q-31 0 -45.5 -29t-14.5 -106q0 -81 13 -107t47 -26zM422 -29q-61 0 -96 39t-35 120q0 80 38 120t93 40q61 0 96.5 -39.5t35.5 -120.5q0 -79 -38.5 -119t-93.5 -40z" />
    <glyph glyph-name="ampersand" unicode="&#x26;" horiz-adv-x="750" 
d="M735 138q-3 -33 -10 -56.5t-23.5 -46.5t-47.5 -35t-76 -12q-89 0 -151 44q-69 -52 -171 -52q-97 0 -155 47.5t-58 131.5q0 72 47.5 120t115.5 65q-48 100 -48 181q0 88 47 131.5t133 43.5q75 0 115.5 -42t40.5 -105q0 -73 -42.5 -130.5t-112.5 -82.5l31 -50
q65 -107 107 -160q48 53 55 135q4 53 -43 53h-31v47q79 -3 124 -3l124 3v-47h-41q-53 0 -62 -45q-22 -103 -103 -171q35 -41 59 -52.5t53 -11.5q41 0 65.5 29t24.5 77zM287 39q60 0 107 21q-63 60 -136 189q-28 49 -31 54q-32 -19 -51.5 -51.5t-19.5 -71.5q0 -66 35.5 -104
t95.5 -37zM265 547q0 -72 57 -176q50 25 69 67.5t19 108.5q0 56 -17 80.5t-55 24.5t-55.5 -25t-17.5 -80z" />
    <glyph glyph-name="quotesingle" unicode="'" horiz-adv-x="221" 
d="M122 449q0 -14 -12 -14q-10 0 -10 14q0 125 -20 173q-16 40 -6.5 64t36.5 24q28 0 37.5 -24t-7.5 -64q-10 -24 -14.5 -51.5t-4.5 -56t1 -65.5z" />
    <glyph glyph-name="parenleft" unicode="(" horiz-adv-x="270" 
d="M130 307q0 -148 10.5 -238t31.5 -146t63 -117l-24 -19q-87 88 -134 208.5t-47 311.5t47 311.5t134 208.5l24 -20q-42 -61 -63 -117t-31.5 -145.5t-10.5 -237.5z" />
    <glyph glyph-name="parenright" unicode=")" horiz-adv-x="270" 
d="M135 307q0 148 -10.5 237.5t-31.5 145.5t-63 117l24 20q87 -88 134 -208.5t47 -311.5t-47 -311.5t-134 -208.5l-24 19q42 61 63 117t31.5 146t10.5 238z" />
    <glyph glyph-name="asterisk" unicode="*" horiz-adv-x="500" 
d="M269 605q-10 -22 -11 -66l16 -9q38 23 51 42q4 6 11 20t14.5 24t19.5 18q22 12 41 6.5t29 -23.5q10 -16 5.5 -37.5t-25.5 -32.5q-12 -6 -26.5 -7.5t-25 0t-23.5 -0.5q-27 -5 -62 -24l-1 -18q40 -22 62 -23q7 0 23 1t28 -0.5t25 -7.5q21 -11 26 -32t-6 -38t-29.5 -22.5
t-40.5 5.5q-12 8 -19.5 18t-14 23.5t-11.5 19.5q-17 20 -52 42l-15 -9q0 -43 11 -65q3 -6 12 -19t14 -24.5t5 -25.5q1 -24 -14 -38t-36 -14q-20 0 -35.5 14.5t-14.5 37.5q1 18 15 42.5t15 26.5q10 26 11 66l-16 9q-37 -22 -50 -42q-4 -6 -11 -20t-14.5 -24t-19.5 -18
q-22 -12 -41 -6t-29 24q-10 15 -5.5 36.5t25.5 32.5q12 6 26.5 7.5t25 0t23.5 0.5q25 3 62 24v17q-42 23 -61 24q-8 1 -23 -0.5t-28 0t-25 7.5q-21 11 -26 32t6 38t29.5 22.5t40.5 -5.5q12 -8 19.5 -18t14 -23.5t11.5 -19.5q14 -20 52 -42l14 8q-1 47 -11 66q-3 6 -12 19
t-14 24.5t-5 25.5q-1 24 14 38t36 14q20 0 35.5 -14.5t14.5 -37.5q-1 -18 -15 -42.5t-15 -26.5z" />
    <glyph glyph-name="plus" unicode="+" 
d="M328 26h-57q6 168 11 207q-50 -7 -205 -11v57q125 0 205 -11q-7 50 -11 205h57q0 -125 -11 -205q80 11 206 11v-57q-156 4 -206 11q5 -39 11 -207z" />
    <glyph glyph-name="comma" unicode="," horiz-adv-x="248" 
d="M20 -116q77 9 114 50.5t28 97.5q-11 -21 -45 -21q-51 0 -51 54q0 26 18 43t46 17q68 0 68 -95q0 -25 -6 -48t-23 -50.5t-54.5 -46.5t-92.5 -25z" />
    <glyph glyph-name="hyphen" unicode="-" horiz-adv-x="304" 
d="M24 216v69q127 -4 256 0v-69q-129 4 -256 0z" />
    <glyph glyph-name="period" unicode="." horiz-adv-x="241" 
d="M191 55q0 -32 -19 -50t-52 -18q-31 0 -50.5 18t-19.5 51q0 31 20 50t50 19q32 0 51.5 -19t19.5 -51z" />
    <glyph glyph-name="slash" unicode="/" horiz-adv-x="385" 
d="M94 -180q-13 2 -39.5 2t-39.5 -2q163 501 276 870q13 -2 39.5 -2t39.5 2q-163 -501 -276 -870z" />
    <glyph glyph-name="zero" unicode="0" horiz-adv-x="596" 
d="M163 272q0 -143 31.5 -194.5t103.5 -51.5q70 0 102.5 53.5t32.5 193.5q0 141 -33 196t-103 55q-68 0 -101 -56.5t-33 -195.5zM44 272q0 137 70 216t184 79q119 0 186.5 -78t67.5 -216q0 -143 -69 -216.5t-185 -73.5q-123 0 -188.5 72.5t-65.5 216.5z" />
    <glyph glyph-name="one" unicode="1" horiz-adv-x="424" 
d="M99 54q33 0 46 13t13 40v308q-59 -26 -111 -15v47h35q73 0 99.5 29t33.5 101h55q-4 -77 -4 -116v-354q0 -27 13 -40t46 -13h59v-54q-111 3 -173 3l-173 -3v54h61z" />
    <glyph glyph-name="two" unicode="2" horiz-adv-x="524" 
d="M462 193q8 -35 10 -69q2 -67 -31 -103.5t-96 -37.5q-35 0 -63.5 9.5t-45.5 21.5t-52 41t-69 31q-32 0 -43 -20q27 8 46.5 -3.5t19.5 -38.5q0 -19 -13.5 -30t-35.5 -11q-24 0 -38 17.5t-14 48.5q0 69 38 118t122 83q79 32 111.5 68.5t32.5 89.5q0 54 -29.5 83t-86.5 29
q-49 0 -87.5 -21.5t-50.5 -67.5q18 8 39 8q28 0 46 -16t18 -44t-18 -43.5t-50 -15.5q-33 0 -51.5 22t-18.5 61q0 75 56 119.5t143 44.5q99 0 150 -40.5t51 -111.5q0 -83 -55.5 -129t-176.5 -75q-121 -28 -145 -104q51 63 184 31q98 -24 131 -14q40 11 33 65z" />
    <glyph glyph-name="three" unicode="3" horiz-adv-x="574" 
d="M496 392q0 -65 -37.5 -107.5t-100.5 -58.5q81 -10 127.5 -58.5t46.5 -118.5q0 -102 -72 -154.5t-193 -52.5q-98 0 -161.5 49t-63.5 120q0 42 22.5 66t57.5 24q34 0 52 -17t18 -48q0 -30 -20 -45t-49 -15q-22 0 -40 9q16 -48 63 -73.5t105 -25.5q160 0 160 161
q0 76 -39.5 112.5t-126.5 36.5h-33v46h33q78 1 109.5 36.5t31.5 113.5q0 61 -31.5 94t-91.5 33q-49 0 -90 -20.5t-58 -63.5q14 4 26 4q31 0 49.5 -15.5t18.5 -44.5q0 -28 -18 -43.5t-48 -15.5q-34 0 -52.5 19.5t-18.5 56.5q0 72 58.5 121.5t154.5 49.5q99 0 155 -45t56 -130
z" />
    <glyph glyph-name="four" unicode="4" horiz-adv-x="566" 
d="M322 -28q0 4 0.5 41.5t0.5 64.5q-131 1 -293 -1v44l354 457h42q-2 -161 -2 -458l121 3v-49l-121 2q0 -72 2 -104q1 -25 12 -32t45 -7h44v-53q-94 3 -153 3l-162 -3v53h51q35 0 46.5 7.5t12.5 31.5zM323 119q0 119 -2 299l-239 -299q107 -2 241 0z" />
    <glyph glyph-name="five" unicode="5" horiz-adv-x="561" 
d="M253 248q-78 0 -152 -58l-23 20q24 56 34.5 162t8.5 198q68 -24 180 -24q122 0 196 35l21 -17q-19 -56 -72 -91t-140 -35q-90 0 -146 42q-6 -148 -31 -236q73 51 164 51q229 0 229 -224q0 -110 -74 -169.5t-197 -59.5q-97 0 -153.5 48.5t-56.5 120.5q0 42 22.5 66
t57.5 24q71 0 71 -64q0 -29 -19 -45t-50 -16q-25 0 -42 10q14 -49 59.5 -74.5t109.5 -25.5q79 0 120 42.5t41 146.5q0 93 -40 133t-118 40z" />
    <glyph glyph-name="six" unicode="6" horiz-adv-x="574" 
d="M321 671q-86 0 -124.5 -73t-40.5 -238q25 36 70 57t95 21q105 0 158.5 -57.5t53.5 -154.5q0 -108 -68.5 -174.5t-177.5 -66.5q-111 0 -178 81t-67 255q0 190 77 289.5t195 99.5q90 0 140 -45.5t50 -108.5q0 -37 -18.5 -58t-53.5 -21q-30 0 -48 16t-18 44t18.5 43.5
t48.5 15.5q11 0 20 -3q-10 38 -45.5 58t-86.5 20zM158 217q0 -89 32.5 -137.5t108.5 -48.5q64 0 94.5 49.5t30.5 136.5q0 175 -125 175q-68 0 -104.5 -40.5t-36.5 -134.5z" />
    <glyph glyph-name="seven" unicode="7" horiz-adv-x="534" 
d="M84 575l11 -51q36 49 107 49q63 0 128 -45q66 -45 110 -45q24 0 40 11h-9q-21 0 -34.5 11.5t-13.5 29.5q0 23 13 34t33 11q50 0 50 -59q0 -63 -78 -147q-5 -6 -16 -17q-24 -25 -36 -38.5t-31.5 -39.5t-28.5 -46.5t-20.5 -54t-15 -68.5t-3.5 -83.5t6 -104.5
q4 -34 -15.5 -54t-50.5 -20q-37 0 -55 25.5t-18 87.5q0 210 182 365q9 8 34 27.5t37.5 30.5t29.5 30.5t28 38.5q-49 -45 -136 -45q-69 -1 -144 34q-32 15 -50 15q-49 0 -48 -85q-26 4 -52 0q14 93 -3 203q25 -4 49 0z" />
    <glyph glyph-name="eight" unicode="8" horiz-adv-x="578" 
d="M503 545q0 -96 -98 -157q135 -52 135 -185q0 -107 -69 -162.5t-182 -55.5q-132 0 -189.5 44t-57.5 133q0 59 33 102t89 67q-89 55 -89 171q0 94 60 151t163 57q102 0 153.5 -45.5t51.5 -119.5zM268 290q-43 9 -71 23q-93 -53 -93 -150q0 -59 45.5 -93t138.5 -34
q84 0 133.5 34t49.5 87q0 52 -42.5 79.5t-160.5 53.5zM298 662q-77 0 -113 -33.5t-36 -82.5q0 -54 38.5 -84.5t136.5 -50.5q9 -2 24 -5.5t18 -4.5q76 60 76 145q0 52 -34 84t-110 32z" />
    <glyph glyph-name="nine" unicode="9" horiz-adv-x="570" 
d="M240 -123q91 0 132 73t42 243q-49 -79 -165 -79q-105 0 -158.5 57.5t-53.5 154.5q0 109 69.5 175t176.5 66q111 0 178 -81t67 -255q0 -188 -76.5 -288.5t-205.5 -100.5q-95 0 -149.5 44.5t-54.5 108.5q0 37 20 58t54 21q30 0 48 -16t18 -44t-18 -43.5t-48 -15.5
q-15 0 -28 5q31 -83 152 -83zM412 335q0 186 -141 186q-64 0 -94.5 -49.5t-30.5 -136.5t33 -131t93 -44q68 0 104 40.5t36 134.5z" />
    <glyph glyph-name="colon" unicode=":" horiz-adv-x="283" 
d="M206 345q0 -28 -18 -45t-47 -17t-46.5 16.5t-17.5 46.5q0 28 18.5 45.5t45.5 17.5q29 0 47 -17.5t18 -46.5zM206 121q0 -28 -18 -45t-47 -17t-46.5 16.5t-17.5 46.5q0 28 18.5 45.5t45.5 17.5q29 0 47 -17.5t18 -46.5z" />
    <glyph glyph-name="semicolon" unicode=";" horiz-adv-x="283" 
d="M76 125q0 26 18 43t46 17q34 0 51 -23.5t17 -62.5q0 -62 -45 -111.5t-126 -69.5l-7 24q70 20 109.5 60.5t35.5 99.5q-13 -31 -50 -31q-49 0 -49 54zM206 345q0 -28 -18 -45t-47 -17t-46.5 16.5t-17.5 46.5q0 28 18.5 45.5t45.5 17.5q29 0 47 -17.5t18 -46.5z" />
    <glyph glyph-name="less" unicode="&#x3c;" 
d="M138 236v26q185 126 279 194l33 -50q-22 -11 -272 -157q250 -146 272 -157l-33 -50q-94 68 -279 194z" />
    <glyph glyph-name="equal" unicode="=" 
d="M80 142q2 29 0 58q221 -4 440 0q-2 -28 0 -58q-219 4 -440 0zM80 302q2 29 0 58q221 -4 440 0q-2 -28 0 -58q-219 4 -440 0z" />
    <glyph glyph-name="greater" unicode="&#x3e;" 
d="M448 262v-26q-185 -126 -279 -194l-33 50q22 11 272 157q-250 146 -272 157l33 50q94 -68 279 -194z" />
    <glyph glyph-name="question" unicode="?" horiz-adv-x="500" 
d="M357 267l13 -26q-23 -23 -58 -39t-72 -16q-31 0 -50.5 17t-19.5 46q0 44 69 79q55 28 85 71.5t30 122.5q0 62 -34 101t-102 39q-50 0 -89 -24t-50 -75q20 11 44 11q31 0 48.5 -17.5t17.5 -49.5q0 -29 -20.5 -47t-54.5 -18q-36 0 -56.5 23.5t-20.5 67.5q0 75 56 126
t165 51q105 0 160 -49t55 -137q0 -80 -47.5 -132t-156.5 -97q-35 -14 -47 -22.5t-12 -21.5q0 -28 34 -28q62 0 113 44zM330 55q0 -32 -19 -50t-52 -18q-31 0 -50.5 18t-19.5 51q0 31 20 50t50 19q32 0 51.5 -19t19.5 -51z" />
    <glyph glyph-name="at" unicode="@" horiz-adv-x="833" 
d="M643 436q-31 -120 -53 -242q-21 -107 44 -107q41 0 68.5 38.5t40.5 98.5q38 172 -28.5 264.5t-232.5 92.5q-137 0 -233 -82t-121 -239q-30 -184 41.5 -275.5t221.5 -91.5q72 0 134 20.5t97 49.5l18 -20q-40 -39 -108 -63.5t-138 -24.5q-191 0 -281 110.5t-57 296.5
q29 165 148.5 260t275.5 95q183 0 263 -98.5t37 -295.5q-19 -87 -61.5 -134t-122.5 -47q-54 0 -85.5 24.5t-31.5 72.5q-23 -47 -61 -69.5t-79 -22.5q-58 0 -88 41t-18 124q16 116 72.5 176.5t127.5 60.5q45 0 70.5 -21.5t29.5 -57.5q36 42 45 66q33 -2 65 0zM389 101
q33 0 62 44.5t47 136.5q23 116 -41 116q-35 0 -65 -44.5t-46 -137.5q-20 -115 43 -115z" />
    <glyph glyph-name="A" unicode="A" horiz-adv-x="882" 
d="M574 155l-22 60q-138 4 -281 0q-17 -48 -21 -62q-16 -42 -4 -68t58 -26h43l-1 -61q-99 2 -154 2l-154 -2v61h37q41 0 63 18t40 65q59 149 204 554q37 -3 57 -3l56 3q27 -80 110 -290t107 -265q20 -46 38.5 -64t48.5 -18h45v-61q-114 2 -178 2l-179 -2l1 61h44
q36 0 47.5 24.5t-5.5 71.5zM533 267q-79 218 -124 327q-39 -99 -120 -327q124 -2 244 0z" />
    <glyph glyph-name="B" unicode="B" horiz-adv-x="688" 
d="M650 200q0 -99 -61.5 -149.5t-216.5 -50.5h-334v59h57q35 0 46.5 7.5t12.5 33.5q2 55 2 246t-2 236q-1 29 -12.5 39t-39.5 10h-64v59q7 0 85 -1t90 -1q23 0 76 0.5t74 0.5q127 0 194.5 -44t67.5 -130q0 -56 -30 -98t-86 -60q64 -16 102.5 -57.5t38.5 -99.5zM340 330h-67
q0 -201 2 -240q1 -23 10 -31.5t27 -8.5h54q84 0 119 35.5t35 111.5q0 68 -43.5 100.5t-136.5 32.5zM275 600q-2 -35 -2 -222h65q90 0 125 29t35 106q0 127 -146 127h-38q-37 0 -39 -40z" />
    <glyph glyph-name="C" unicode="C" horiz-adv-x="735" 
d="M552 669q41 -21 54 -15t18 46h60q-8 -44 -13 -121t-2 -132q-33 3 -66 0q-8 48 -19 80.5t-33 64t-60.5 47.5t-94.5 16q-107 0 -155.5 -74t-48.5 -235q0 -175 51 -243t145 -68q105 0 162 62.5t63 170.5q35 -4 69 0q-10 -146 -78.5 -217t-216.5 -71q-337 0 -337 366
q0 183 93 273.5t244 90.5q87 0 165 -41z" />
    <glyph glyph-name="D" unicode="D" horiz-adv-x="781" 
d="M384 689q179 0 262.5 -82t85.5 -257q1 -95 -25 -164t-75 -109t-110.5 -58.5t-137.5 -18.5h-173l-173 -2v61h57q35 0 46.5 7.5t12.5 33.5q2 54 2 245.5t-2 236.5q-1 29 -12.5 39t-39.5 10h-64v59q4 0 76.5 -1t100.5 -1zM275 101q1 -26 14.5 -38.5t31.5 -12.5h50
q125 0 176 64t51 237q0 160 -49 224t-177 64h-51q-43 0 -46 -45q-3 -61 -3 -246.5t3 -246.5z" />
    <glyph glyph-name="E" unicode="E" horiz-adv-x="732" 
d="M452 491v15h55q0 -13 -1.5 -62t-1.5 -92q0 -109 3 -160h-53v12q-2 65 -32 94t-102 29h-47q0 -173 3 -216q3 -52 52 -52h143q91 0 126 47.5t35 157.5h61q-10 -106 -10 -268q-47 4 -188 4h-287l-170 -2v61h56q32 0 44 15t15 45q3 41 3 229.5t-3 232.5q-2 29 -13.5 39.5
t-38.5 10.5h-63v59q8 0 86.5 -1t88.5 -1h43.5t101 0.5t124.5 0.5q160 0 207 6q-8 -99 -6 -251h-54q0 108 -32.5 146t-123.5 38h-150q-44 0 -47 -47q-3 -41 -3 -206h50q68 0 98.5 25.5t30.5 90.5z" />
    <glyph glyph-name="F" unicode="F" horiz-adv-x="699" 
d="M443 504h54q-3 -84 -3 -154q0 -109 3 -160h-52v20q0 57 -28.5 83.5t-92.5 28.5h-50q0 -170 2 -202q2 -61 59 -61h71v-61q-118 2 -184 2l-184 -2v61h57q57 0 59 61q2 56 2 236.5t-2 224.5q-1 29 -12.5 39.5t-39.5 10.5h-64v59q8 0 86.5 -1t88.5 -1h36.5t86.5 0.5t117 0.5
q161 0 208 6q-8 -99 -6 -252h-55q0 107 -37 146t-127 39h-113q-45 0 -47 -47q-2 -28 -2 -205h39q67 0 98.5 23t31.5 83v22z" />
    <glyph glyph-name="G" unicode="G" horiz-adv-x="802" 
d="M388 710q86 0 164 -41q41 -21 54 -15t18 46h60q-8 -44 -13 -121t-2 -132q-33 3 -66 0q-8 48 -19 80.5t-33 64t-60.5 47.5t-94.5 16q-107 0 -155.5 -74t-48.5 -235q0 -91 15 -153.5t43 -96t61.5 -47.5t76.5 -14q82 0 132.5 43.5t50.5 129.5q0 52 -12 72.5t-52 20.5h-43v57
q99 -3 154 -3l154 3v-57h-34q-22 0 -31 -12t-9 -41q0 -182 6 -255q-34 4 -67 0q-9 44 -28 112q-28 -55 -88 -90t-135 -35q-159 0 -247.5 88t-88.5 278q0 183 93.5 273.5t244.5 90.5z" />
    <glyph glyph-name="H" unicode="H" horiz-adv-x="862" 
d="M38 -2v61h57q36 0 47 7t12 33q2 56 2 247t-2 235q-1 29 -12.5 39.5t-39.5 10.5h-63v59q111 -3 173 -3q37 0 104 1.5t69 1.5v-59h-63q-28 0 -39.5 -10.5t-12.5 -39.5q-2 -27 -2 -208q156 -2 327 0q0 181 -2 208q-2 29 -14 39.5t-39 10.5h-63v59q112 -3 174 -3
q37 0 104 1.5t69 1.5v-59h-64q-28 0 -39.5 -10.5t-12.5 -39.5q-2 -44 -2 -235t2 -247q1 -25 12.5 -32.5t46.5 -7.5h57v-61q-111 2 -173 2l-174 -2v61h57q35 0 46.5 7.5t12.5 32.5q2 68 2 222q-194 2 -327 -1q0 -187 2 -221q1 -25 12 -32.5t46 -7.5h57v-61q-111 2 -173 2z
" />
    <glyph glyph-name="I" unicode="I" horiz-adv-x="428" 
d="M41 -2v61h55q34 0 45.5 7.5t12.5 32.5q2 56 2 247t-2 235q-1 29 -12.5 39.5t-39.5 10.5h-61v59q112 -3 174 -3q37 0 104 1.5t69 1.5v-59h-61q-27 0 -38.5 -10.5t-13.5 -39.5q-3 -48 -2.5 -235t2.5 -247q1 -25 12.5 -32.5t46.5 -7.5h54v-61q-111 2 -173 2z" />
    <glyph glyph-name="J" unicode="J" horiz-adv-x="586" 
d="M101 93q-16 0 -29 5q32 -66 122 -66q63 0 94.5 41t34.5 128q2 66 2 201t-2 179q-1 29 -12.5 39.5t-39.5 10.5h-51v59q105 -3 164 -3q35 0 98 1.5t66 1.5v-59h-50q-28 0 -39.5 -10.5t-12.5 -39.5q-4 -70 0 -379q1 -110 -65 -166t-179 -56q-87 0 -135 47.5t-48 111.5
q0 37 22 62t61 25q33 0 53 -17.5t20 -47.5q0 -36 -23 -52t-51 -16z" />
    <glyph glyph-name="K" unicode="K" horiz-adv-x="843" 
d="M38 -2v61h57q35 0 46 9t13 43q3 50 2.5 236t-2.5 232q-1 29 -13.5 40.5t-41.5 11.5h-61v59q112 -3 174 -3q37 0 104 1.5t69 1.5v-59h-63q-27 0 -39 -11.5t-13 -40.5q-2 -30 -2 -250l269 244q18 14 10.5 36t-37.5 22h-52v59q112 -3 174 -3q37 0 99 1.5t64 1.5v-59h-37
q-47 0 -81 -15.5t-73 -50.5l-155 -138q41 -63 112.5 -162t101.5 -133q5 -6 15.5 -19t14.5 -17l12.5 -12.5t14 -11t14.5 -7t18.5 -5.5t22.5 -1h30v-59q-111 3 -173 3l-174 -3v59h38q68 0 35 56q-17 28 -73.5 109t-92.5 127l-97 -86q0 -110 2 -154q2 -34 10 -43t44 -9h61v-61
q-111 2 -173 2z" />
    <glyph glyph-name="L" unicode="L" horiz-adv-x="662" 
d="M386 690v-59h-63q-28 0 -40 -10.5t-13 -39.5q-2 -44 -2 -235t2 -247q1 -40 49 -40h84q87 0 125 42t45 165h61q-14 -149 -10 -270q-47 4 -187 4h-229q-118 0 -170 -2v61h58q35 0 46 7.5t12 33.5q2 55 2 246t-2 235q-1 29 -12.5 39.5t-39.5 10.5h-63v59q112 -3 174 -3
q36 0 102 1.5t71 1.5z" />
    <glyph glyph-name="M" unicode="M" horiz-adv-x="987" 
d="M447 48q-111 255 -237 515q-2 -76 -1.5 -240t2.5 -199q2 -39 14.5 -52t47.5 -13h61v-61q-95 2 -148 2l-148 -2v61h48q36 0 48.5 12t14.5 53q2 38 2 225t-2 230q-3 52 -55 52h-54v59q125 -4 250 0q77 -181 212 -465q129 274 208 465q119 -4 238 0v-59h-60q-52 0 -55 -56
q-2 -40 -2 -227.5t2 -229.5q2 -29 14.5 -44t44.5 -15h56v-61q-111 2 -174 2l-175 -2v61h57q32 0 44.5 15t14.5 44q2 39 2 201.5t-1 245.5q-128 -263 -236 -517h-33z" />
    <glyph glyph-name="N" unicode="N" horiz-adv-x="833" 
d="M272 690q129 -196 335 -481q6 260 0 371q-1 29 -13 40t-40 11h-64v59q3 0 62 -1.5t91 -1.5l152 3v-59h-64q-28 0 -40 -11t-13 -40q-2 -44 -2 -267t2 -313q-38 4 -77 0q-180 269 -377 549q-2 -364 2 -449q1 -25 13 -33t47 -8h58v-61q-98 2 -153 2l-153 -2v61h57q35 0 47 8
t13 33q2 59 2.5 246t-2.5 235q-2 29 -14 39.5t-39 10.5h-63v59q117 -4 233 0z" />
    <glyph glyph-name="O" unicode="O" horiz-adv-x="770" 
d="M385 35q108 0 154.5 76t46.5 236q0 166 -47 237.5t-154 71.5q-102 0 -151 -76.5t-49 -233.5q0 -168 44.5 -239.5t155.5 -71.5zM385 -20q-164 0 -249.5 95.5t-85.5 270.5q0 172 92.5 268t242.5 96q165 0 250 -93.5t85 -269.5q0 -172 -93 -269.5t-242 -97.5z" />
    <glyph glyph-name="P" unicode="P" horiz-adv-x="691" 
d="M363 240q-58 0 -91 3q2 -103 3 -126q3 -60 57 -60h49v-59q-109 2 -171 2l-172 -2v61h48q35 0 51 13t17 46q2 42 2 230.5t-2 233.5q-1 28 -12.5 38.5t-39.5 10.5h-64v59q8 0 94.5 -1.5t96.5 -1.5q23 0 68 0.5t66 0.5q60 0 109.5 -11.5t88.5 -36.5t60.5 -68t21.5 -102
q0 -114 -78 -172t-202 -58zM275 600q-3 -46 -3 -300h69q91 0 128.5 41.5t37.5 129.5t-36.5 128.5t-124.5 40.5h-32q-37 0 -39 -40z" />
    <glyph glyph-name="Q" unicode="Q" horiz-adv-x="770" 
d="M385 -20q-164 0 -249.5 95.5t-85.5 270.5q0 172 92.5 268t242.5 96q165 0 250 -93.5t85 -269.5q0 -119 -46 -203.5t-127 -126.5q15 -73 34.5 -104t54.5 -31q58 0 54 84l41 3q5 -83 -32 -126.5t-109 -43.5q-74 0 -112.5 49t-33.5 137q-32 -5 -59 -5zM398 219
q50 0 81 -30.5t50 -92.5q57 73 57 251q0 166 -47 237.5t-154 71.5q-102 0 -151 -76.5t-49 -233.5q0 -133 27 -204t90 -95q-21 26 -21 58q0 54 32 84t85 30zM385 35q33 0 65 8q10 134 -70 134q-27 0 -47 -16.5t-20 -55.5q0 -32 21 -51t51 -19z" />
    <glyph glyph-name="R" unicode="R" horiz-adv-x="778" 
d="M595 191q11 -88 26.5 -116.5t43.5 -28.5q63 0 34 160l46 5q12 -61 10.5 -112.5t-33.5 -85t-91 -33.5q-93 0 -127 47.5t-40 151.5q-4 77 -34.5 104.5t-87.5 27.5h-70q0 -158 3 -194q4 -60 57 -60h48v-59q-118 2 -171 2l-171 -2v61h48q34 0 50.5 13.5t17.5 45.5
q2 42 2 230.5t-2 232.5q-1 29 -12.5 39.5t-39.5 10.5h-64v59q8 0 86.5 -1t88.5 -1q24 0 86.5 0.5t82.5 0.5q128 0 196 -46.5t68 -137.5q0 -73 -47 -121.5t-117 -57.5q55 -14 80.5 -46.5t32.5 -88.5zM275 600q-3 -57 -3 -241h81q88 0 124 33t36 111q0 75 -33.5 106t-113.5 31
h-52q-37 0 -39 -40z" />
    <glyph glyph-name="S" unicode="S" horiz-adv-x="657" 
d="M317 655q-77 0 -117.5 -29.5t-40.5 -77.5q0 -52 47 -77.5t158 -40.5q142 -19 198 -73t56 -155q0 -102 -71.5 -162t-191.5 -60q-104 0 -188 50q-55 33 -66 -37h-53q22 113 10 237h53q22 -98 80.5 -146.5t162.5 -48.5q86 0 134.5 31.5t48.5 90.5q0 60 -52.5 89t-174.5 46
q-232 30 -232 203q0 92 61.5 153.5t182.5 61.5q85 0 153 -34q25 -14 39.5 -11.5t20 11t7.5 24.5h53q-12 -42 -15.5 -110t2.5 -113h-49q-22 93 -74.5 135.5t-141.5 42.5z" />
    <glyph glyph-name="T" unicode="T" horiz-adv-x="711" 
d="M493 631h-81q-2 -97 -1.5 -285.5t2.5 -226.5q2 -31 13 -45.5t43 -14.5h61v-61q-111 2 -174 2l-175 -2v61h57q32 0 45 15t15 45q2 40 2 226.5t-2 285.5h-79q-56 0 -80 -24t-26 -70l-4 -99h-66q6 122 -5 256q39 -4 156 -4h324q105 0 154 4q-11 -134 -5 -256h-64l-4 99
q-2 46 -26 70t-80 24z" />
    <glyph glyph-name="U" unicode="U" horiz-adv-x="843" 
d="M136 282q2 228 0 290q-1 33 -12 46t-40 13h-46v59q104 -3 163 -3q35 0 97.5 1.5t65.5 1.5v-59h-46q-31 0 -45 -12.5t-14 -46.5v-299q0 -120 44.5 -171t136.5 -51t137 49.5t45 172.5q0 27 0.5 85t0.5 111t-1 103q-2 59 -58 59h-46v59q92 -3 144 -3q30 0 85 1.5t58 1.5v-59
h-47q-50 0 -52 -60v-290q0 -302 -275 -302q-149 0 -222 72t-73 231z" />
    <glyph glyph-name="V" unicode="V" horiz-adv-x="763" 
d="M258 552q51 -195 138 -452q119 321 152 451q12 41 1 60.5t-51 19.5h-30v59q95 -3 143 -3q28 0 78 1.5t54 1.5v-59h-23q-39 0 -59.5 -17t-40.5 -63q-41 -95 -108.5 -273.5t-102.5 -283.5h-97q-106 359 -183 568q-15 40 -31.5 54.5t-56.5 14.5h-21v59q103 -3 161 -3
q34 0 97.5 1.5t65.5 1.5v-59h-38q-68 0 -48 -79z" />
    <glyph glyph-name="W" unicode="W" horiz-adv-x="1102" 
d="M794 -6h-102q-49 191 -144 504q-88 -263 -153 -504h-101q-29 114 -161 569q-11 38 -26 53t-48 15h-39v59q102 -3 160 -3q35 0 97 1.5t63 1.5v-59h-38q-33 0 -44 -16t-1 -52q45 -180 124 -444q91 279 128 445q9 37 -0.5 52t-45.5 15h-20v59q90 -3 141 -3q30 0 84.5 1.5
t56.5 1.5v-59h-32q-57 0 -41 -63q80 -301 125 -447q83 265 116 432q8 41 -3 59.5t-50 18.5h-18v59q87 -3 133 -3q27 0 76 1.5t51 1.5v-59h-37q-33 0 -51.5 -17t-32.5 -62q-114 -356 -167 -558z" />
    <glyph glyph-name="X" unicode="X" horiz-adv-x="816" 
d="M482 136l-102 151l-94 -145q-23 -37 -14 -60t41 -23h35v-61q-103 2 -158 2l-152 -2v61h21q104 0 172 98q103 150 118 176q-119 174 -157 227q-26 37 -51 54t-66 17h-26v59q129 -2 189 -2l164 2v-59h-25q-34 0 -48 -21.5t6 -54.5q37 -58 106 -161q86 115 105 159
q16 34 7 56t-42 22h-28v59q91 -2 142 -2l143 2v-59h-25q-52 0 -75 -15.5t-59 -64.5q-72 -98 -139 -200q32 -47 86.5 -123.5t68.5 -97.5q27 -38 53.5 -54.5t63.5 -16.5h35v-61q-116 2 -182 2l-172 -2v61h31q31 0 41 19.5t-13 57.5z" />
    <glyph glyph-name="Y" unicode="Y" horiz-adv-x="805" 
d="M626 561q-84 -143 -178 -324v-127q0 -32 10 -42t49 -10h68v-60q-118 2 -185 2l-186 -2v60h67q39 0 49.5 10.5t10.5 41.5v126q-84 167 -179 331q-21 35 -46 49.5t-70 14.5h-16v59q116 -3 181 -3l181 3v-59h-50q-81 0 -50 -67q61 -124 145 -262q76 138 133 262q10 22 11 35
t-11.5 22.5t-43.5 9.5h-36v59q98 -3 153 -3l152 3v-59h-26q-57 0 -83 -14.5t-50 -55.5z" />
    <glyph glyph-name="Z" unicode="Z" horiz-adv-x="663" 
d="M38 0v58q91 113 434 573h-161q-62 0 -93 -5t-53.5 -26t-29 -57.5t-6.5 -104.5h-65q4 38 4.5 127t-1.5 127q53 -2 212 -2h340v-59q-93 -117 -435 -572h225q92 0 122 38.5t30 154.5h64q-10 -142 -2 -254q-49 2 -192 2h-393z" />
    <glyph glyph-name="bracketleft" unicode="[" horiz-adv-x="292" 
d="M70 147v365q0 111 -20 288q96 -4 192 0v-49h-37q-27 0 -39 -10.5t-13 -38.5t-1 -395.5t1 -395.5q2 -28 13.5 -38.5t45.5 -10.5h30v-49q-96 4 -192 0q20 177 20 334z" />
    <glyph glyph-name="backslash" unicode="\" horiz-adv-x="385" 
d="M291 -180q-113 369 -276 870q13 -2 39.5 -2t39.5 2q113 -369 276 -870q-13 2 -39.5 2t-39.5 -2z" />
    <glyph glyph-name="bracketright" unicode="]" horiz-adv-x="292" 
d="M222 502v-392q0 -120 20 -297h-192v49h30q34 0 46.5 10.5t12.5 38.5v791q0 27 -12 38t-40 11h-37v49h192q-20 -177 -20 -298z" />
    <glyph glyph-name="asciicircum" unicode="^" 
d="M282 710h18q160 -223 198 -279l-42 -31q-25 28 -83.5 127.5t-81.5 154.5q-28 -61 -82.5 -156t-83.5 -126l-41 31q49 72 198 279z" />
    <glyph glyph-name="underscore" unicode="_" horiz-adv-x="500" 
d="M0 -197q2 37 0 76q80 -1 250 -1t250 1q-2 -38 0 -76q-80 1 -250 1t-250 -1z" />
    <glyph glyph-name="grave" unicode="`" horiz-adv-x="532" 
d="M363 526l-8 -10q-105 52 -156 93q-19 15 -16.5 33.5t19.5 23t38 -7.5q31 -24 123 -132z" />
    <glyph glyph-name="a" unicode="a" horiz-adv-x="527" 
d="M413 288v-196q0 -51 24 -51q35 0 30 113l39 3q2 -89 -18 -130t-77 -41q-93 0 -102 91q-47 -90 -143 -90q-136 0 -136 120q0 140 278 159v31q0 73 -21.5 104t-85.5 30q-43 -1 -70 -14q50 -9 50 -58q0 -29 -18 -45t-49 -16q-32 0 -50 17t-18 50q0 51 56 79.5t131 28.5
q101 0 140.5 -48t39.5 -137zM211 43q97 0 97 142v55q-159 -18 -159 -128q0 -69 62 -69z" />
    <glyph glyph-name="b" unicode="b" horiz-adv-x="584" 
d="M353 -17q-129 0 -163 131q-40 -62 -48 -124h-49q7 49 9 133q2 38 2 227.5t-2 242.5q-1 46 -44 46h-37v50q150 0 189 3q-2 -98 -2 -260v-66q41 107 155 107q171 0 171 -245t-181 -245zM208 228q0 -87 23.5 -136.5t86.5 -49.5q52 0 75.5 39t23.5 147q0 43 -3 71t-12 57
t-29.5 43.5t-52.5 14.5q-53 0 -82.5 -49t-29.5 -137z" />
    <glyph glyph-name="c" unicode="c" horiz-adv-x="487" 
d="M402 133l52 -12q-42 -138 -196 -138q-106 0 -162 64t-56 179q0 113 62 180t167 67q73 0 122 -30.5t49 -79.5q0 -31 -18 -48t-51 -17q-31 0 -49 16.5t-18 43.5q0 45 39 57q-30 16 -72 16q-62 0 -88 -46t-26 -158q0 -108 26 -149t89 -41q60 0 88.5 24t41.5 72z" />
    <glyph glyph-name="d" unicode="d" horiz-adv-x="584" 
d="M231 473q108 0 145 -98v218q0 47 -44 47h-48v50q159 0 198 3q-2 -94 -2 -316t2 -280q1 -47 44 -47h37v-50l-187 -3v93q-40 -107 -150 -107q-90 0 -133 59t-43 186q0 124 47.5 184.5t133.5 60.5zM376 228q0 186 -107 186q-55 0 -78.5 -38.5t-23.5 -147.5q0 -43 3 -71
t12 -57t29.5 -43.5t52.5 -14.5q54 0 83 49.5t29 136.5z" />
    <glyph glyph-name="e" unicode="e" horiz-adv-x="509" 
d="M411 130l49 -12q-18 -65 -68 -101.5t-129 -36.5q-106 0 -164.5 64.5t-58.5 181.5t62.5 182t161.5 65q108 0 159 -72t43 -190h-309q2 -96 32 -136.5t93 -40.5q58 0 87.5 25t41.5 71zM259 426q-49 0 -74.5 -42.5t-27.5 -138.5h167q12 0 16 5t4 20q0 156 -85 156z" />
    <glyph glyph-name="f" unicode="f" horiz-adv-x="346" 
d="M31 459l71 -3v23q-7 216 175 216q61 0 97.5 -31.5t36.5 -76.5q0 -30 -17 -47t-46 -17q-27 0 -43.5 15t-16.5 40q0 26 17 40.5t48 13.5q-21 26 -58 26q-44 0 -65 -29.5t-22 -105.5v-67l81 3v-50l-82 2q0 -283 1 -312q1 -24 10 -36.5t34 -12.5h37v-53q-5 0 -55.5 1.5
t-78.5 1.5q-29 0 -81 -2l-53 -1v53h35q44 0 46 49q3 93 1 312l-72 -2v50z" />
    <glyph glyph-name="g" unicode="g" horiz-adv-x="510" 
d="M214 473q69 0 115 -23q9 39 33.5 64t62.5 25q37 0 58.5 -20.5t21.5 -55.5q0 -29 -14.5 -45t-39.5 -16q-26 0 -40.5 13.5t-14.5 36.5q0 27 17 42q-45 -3 -59 -60q51 -40 51 -129q0 -83 -54.5 -128.5t-136.5 -45.5h-16q-73 1 -73 -24q0 -10 6 -16t38.5 -12.5t93.5 -7.5
q123 -3 169.5 -33t46.5 -93q0 -60 -63 -106t-180 -46q-114 0 -170 28.5t-56 78.5q0 31 28.5 54t72.5 33q-63 20 -63 75q0 62 86 81q-50 18 -79 59t-29 103q0 81 55.5 124.5t132.5 43.5zM235 -30q-39 2 -57 4q-95 -11 -95 -62q0 -30 36 -50t116 -20q183 0 183 67
q0 28 -39.5 43.5t-143.5 17.5zM216 430q-43 0 -61.5 -30t-18.5 -97q0 -70 18 -99.5t62 -29.5q45 0 62 29.5t17 99.5q0 69 -18 98t-61 29z" />
    <glyph glyph-name="h" unicode="h" horiz-adv-x="620" 
d="M518 285q-2 -124 0 -166q2 -40 14 -55t47 -15h15v-52q-4 0 -54 1.5t-77 1.5q-21 0 -51.5 -1t-53.5 -1.5t-26 -0.5v52h20q32 0 45.5 15.5t14.5 53.5q3 68 0 153q-2 71 -23 107t-69 36q-112 0 -112 -227v-78q0 -37 13 -48.5t47 -11.5h22v-52q-5 0 -55.5 1.5t-78.5 1.5
q-29 0 -82 -2l-53 -1v52h24q34 1 44.5 11t12.5 48q2 25 2 236.5t-2 238.5q-2 34 -13 45.5t-49 11.5h-19v50q127 0 189 3q-2 -62 -2 -169v-160q38 109 154 109q159 0 156 -188z" />
    <glyph glyph-name="i" unicode="i" horiz-adv-x="310" 
d="M208 462q-2 -301 0 -353q1 -38 13.5 -49t46.5 -11h22v-52q-5 0 -55.5 1.5t-78.5 1.5q-29 0 -82 -2l-53 -1v52h24q34 1 45 11t12 48q2 38 2 125.5t-2 118.5q-2 33 -13 45t-49 12h-19v50q148 0 187 3zM216 628q0 -29 -20.5 -49.5t-49.5 -20.5t-49 20.5t-20 49.5t20 49.5
t49 20.5t49.5 -20.5t20.5 -49.5z" />
    <glyph glyph-name="j" unicode="j" horiz-adv-x="290" 
d="M62 -96q0 -22 -17.5 -40t-53.5 -15q21 -13 50 -13q38 0 56.5 27t18.5 101v393q-3 52 -54 52h-28v50q153 0 192 3q-4 -39 -4 -154v-308q0 -201 -161 -201q-58 0 -93 26t-35 70q0 31 17.5 49t48.5 18q29 0 46 -16t17 -42zM230 628q0 -29 -20.5 -49.5t-49.5 -20.5t-49 20.5
t-20 49.5t20 49.5t49 20.5t49.5 -20.5t20.5 -49.5z" />
    <glyph glyph-name="k" unicode="k" horiz-adv-x="610" 
d="M208 692q-2 -71 -2 -465l148 122q26 23 18.5 41.5t-38.5 18.5h-20v50q83 -3 130 -3q21 0 51 1t53 1.5t26 0.5v-50h-16q-46 0 -76.5 -15t-99.5 -68l-42 -32q69 -112 121 -175q28 -36 52.5 -52.5t59.5 -16.5h12v-53q-4 0 -55.5 1.5t-80.5 1.5t-83 -2l-53 -1v53h18
q24 0 26.5 19t-17.5 50q-49 74 -81 115l-52 -39q0 -66 1 -76q2 -39 15 -54.5t45 -15.5h18v-52q-5 0 -54.5 1.5t-77.5 1.5q-29 0 -81 -2l-52 -1v52h24q33 1 44 15.5t13 53.5q2 36 2 230t-2 225q-2 36 -13.5 51.5t-48.5 15.5h-19v50q109 0 187 2z" />
    <glyph glyph-name="l" unicode="l" horiz-adv-x="310" 
d="M208 693q-2 -522 0 -574q2 -39 15 -54.5t45 -15.5h22v-52q-5 0 -55.5 1.5t-78.5 1.5q-29 0 -82 -2l-53 -1v52h24q33 1 44 15.5t13 53.5q2 38 2 231t-2 224q-2 36 -13.5 51.5t-48.5 15.5h-19v50q148 0 187 3z" />
    <glyph glyph-name="m" unicode="m" horiz-adv-x="930" 
d="M828 285q-2 -114 0 -166q2 -40 14 -55t47 -15h20v-52q-4 0 -54.5 1.5t-78.5 1.5q-21 0 -52.5 -1t-55 -1.5t-26.5 -0.5v52h20q32 0 45.5 15.5t14.5 53.5q3 74 0 153q-2 71 -23 107t-69 36q-112 0 -112 -227v-68q0 -40 13 -55t48 -15h20v-52q-4 0 -54.5 1.5t-78.5 1.5
q-21 0 -52.5 -1t-55 -1.5t-26.5 -0.5v52h20q32 0 45.5 15.5t14.5 53.5q3 72 0 153q-2 71 -23 107t-69 36q-116 0 -113 -227l1 -68q1 -39 14.5 -54.5t45.5 -15.5h22v-52q-5 0 -55.5 1.5t-78.5 1.5q-29 0 -82 -2l-53 -1v52h24q33 1 43.5 15t13.5 54q7 85 0 224
q-2 36 -13.5 51.5t-48.5 15.5h-19v50q148 0 187 3v-94q39 105 154 105q128 0 151 -125q35 125 159 125q159 0 156 -188z" />
    <glyph glyph-name="n" unicode="n" horiz-adv-x="620" 
d="M518 285q-2 -124 0 -166q2 -40 14 -55t47 -15h15v-52q-4 0 -54 1.5t-77 1.5q-21 0 -51.5 -1t-53.5 -1.5t-26 -0.5v52h20q32 0 45.5 15.5t14.5 53.5q3 68 0 153q-2 71 -23 107t-69 36q-61 0 -86.5 -56.5t-25.5 -170.5v-68q0 -39 13.5 -54.5t46.5 -15.5h22v-52
q-5 0 -55.5 1.5t-78.5 1.5q-29 0 -82 -2l-53 -1v52h24q33 1 44 15.5t13 53.5q2 43 2 118t-2 106q-2 36 -13.5 51.5t-48.5 15.5h-19v50q148 0 187 3v-98q38 109 154 109q159 0 156 -188z" />
    <glyph glyph-name="o" unicode="o" horiz-adv-x="534" 
d="M40 223q0 124 61.5 187t165.5 63t165.5 -63t61.5 -187q0 -115 -62.5 -179t-164.5 -64q-104 0 -165.5 63.5t-61.5 179.5zM162 223q0 -82 14 -127.5t35 -59t56 -13.5q34 0 55.5 13.5t36.5 59t15 127.5q0 117 -28 162t-80 45q-51 0 -77.5 -44.5t-26.5 -162.5z" />
    <glyph glyph-name="p" unicode="p" horiz-adv-x="584" 
d="M353 -17q-107 0 -145 96v-137q0 -69 66 -69h21v-53q-4 0 -56 1.5t-81 1.5t-83 -1l-54 -2v53h23q55 0 58 69q2 33 2 197t-2 202q-2 39 -15 53.5t-49 14.5h-17v50q148 0 187 3v-98q39 109 155 109q171 0 171 -245q0 -122 -47 -183.5t-134 -61.5zM208 228q0 -87 23.5 -136.5
t86.5 -49.5q52 0 75.5 39.5t23.5 146.5q0 43 -3 71t-12 57t-29.5 43.5t-52.5 14.5q-53 0 -82.5 -49t-29.5 -137z" />
    <glyph glyph-name="q" unicode="q" horiz-adv-x="579" 
d="M228 473q123 0 157 -117q51 61 64 134h38q-5 -40 -9 -176q-4 -165 1 -392q2 -49 47 -49h40v-53q-4 0 -58 1.5t-84 1.5q-22 0 -55.5 -0.5t-58.5 -1.5t-28 -1v53h41q23 0 36.5 14t13.5 35v168q-40 -107 -155 -107q-89 0 -128.5 58.5t-39.5 186.5q0 126 44 185.5t134 59.5z
M373 228q0 185 -110 185q-54 0 -75 -37.5t-21 -147.5q0 -29 1 -48t3.5 -42.5t9 -39t16.5 -29.5t26 -20.5t38 -6.5q54 0 83 49.5t29 136.5z" />
    <glyph glyph-name="r" unicode="r" horiz-adv-x="436" 
d="M310 432q-102 0 -102 -204v-115q0 -38 13.5 -51t46.5 -13h32v-52q-4 0 -57 1.5t-82 1.5q-30 0 -85 -2l-55 -1v52h24q34 1 45 13t12 50q2 38 2 120t-2 114q-2 35 -13 49t-49 14h-19v50q148 0 187 3l-9 -101q28 112 127 112q47 0 74 -25.5t27 -71.5q0 -37 -19 -57.5
t-53 -20.5q-30 0 -47 16t-17 44q0 30 20.5 46t49.5 14q-19 14 -51 14z" />
    <glyph glyph-name="s" unicode="s" horiz-adv-x="446" 
d="M210 420q-48 0 -72.5 -18t-24.5 -44q0 -32 26.5 -48t103.5 -25q168 -20 168 -150q0 -74 -43.5 -114.5t-129.5 -40.5q-68 0 -129 46q-10 8 -17 8.5t-10.5 -5.5t-5.5 -14t-4 -22q-20 2 -39 0q11 95 4 183q19 -2 38 0q44 -142 165 -142q46 0 71.5 18.5t25.5 48.5
q0 27 -27 44.5t-97 25.5q-96 10 -136 52.5t-40 99.5q0 68 51 110.5t133 39.5q60 -2 104 -33q13 -11 19 -6.5t10 33.5q18 -2 36 0q-6 -73 -3 -154q-18 2 -36 0q-27 107 -141 107z" />
    <glyph glyph-name="t" unicode="t" horiz-adv-x="323" 
d="M271 141l36 2q14 -157 -110 -157q-66 0 -95 38t-27 116q2 147 0 270l-57 -1v40q62 6 92.5 50t41.5 143h45q-6 -44 -11 -189l105 6v-50l-106 1q-1 -96 1 -264q1 -63 10 -85.5t32 -23.5q26 -1 36.5 22.5t6.5 81.5z" />
    <glyph glyph-name="u" unicode="u" horiz-adv-x="620" 
d="M521 462q-1 -20 -2 -45.5t-1.5 -53.5t-0.5 -38q-2 -78 1 -218q2 -58 59 -57h22v-50q-148 0 -187 -3v94q-40 -111 -155 -111q-68 0 -112.5 45t-42.5 148q2 126 0 176q-2 33 -14.5 46.5t-46.5 13.5h-20v50h92q68 0 98 3q-3 -53 -3 -137v-148q0 -44 10 -74t26 -42.5t29 -17
t27 -4.5q57 0 84.5 50t27.5 156v104q0 34 -17 47t-61 13h-15v50h112q68 0 90 3z" />
    <glyph glyph-name="v" unicode="v" horiz-adv-x="551" 
d="M546 409h-24q-33 0 -52.5 -11.5t-35.5 -47.5q-85 -197 -143 -367h-47q-66 191 -145 370q-1 1 -4 8t-4 8.5t-4 7.5t-5 8t-6 6.5t-7 6t-8.5 4.5t-11.5 4t-13 2t-16 1h-15v50q86 -2 132 -2l144 2v-50h-23q-57 0 -40 -59q30 -97 85 -236q56 135 89 236q18 59 -35 59h-26v50
q68 -2 103 -2l112 2v-50z" />
    <glyph glyph-name="w" unicode="w" horiz-adv-x="829" 
d="M514 -17q-44 150 -110 317q-64 -168 -108 -317h-58q-56 184 -129 370q-12 30 -27 43t-50 13h-12v50q82 -3 127 -3l128 3v-50h-12q-22 0 -34 -14.5t-4 -44.5q32 -115 79 -239q57 151 76 229q17 69 -40 69h-17v50q67 -3 112 -3l116 3v-50h-12q-54 0 -38 -59
q39 -134 77 -235q39 104 74 224q20 70 -35 70h-19v50q72 -3 105 -3l106 3v-50h-23q-35 0 -56 -16t-36 -55q-73 -187 -122 -355h-58z" />
    <glyph glyph-name="x" unicode="x" horiz-adv-x="592" 
d="M335 109l-62 75q-9 -11 -25 -30t-27.5 -32t-14.5 -18q-18 -22 -11 -38t33 -16h20v-52q-76 2 -111 2l-117 -2v52h19q53 0 98 39q28 24 117 118q-103 125 -130 155q-24 27 -40.5 37t-43.5 10h-10v50q81 -2 127 -2l142 2v-50h-21q-32 0 -38 -15.5t14 -41.5q5 -7 63 -79
l75 85q17 18 11 34.5t-36 16.5h-23v50q65 -2 100 -2l119 2v-50h-28q-23 0 -40.5 -10.5t-50.5 -40.5q-28 -26 -109 -107q108 -130 138 -163q35 -38 83 -38h16v-52q-92 2 -138 2l-142 -2v52h21q28 0 34 20t-12 39z" />
    <glyph glyph-name="y" unicode="y" horiz-adv-x="571" 
d="M389 355q7 24 -2.5 39t-35.5 15h-22v50q60 -3 118 -3l104 3v-50h-21q-38 0 -56.5 -13t-32.5 -43q-43 -99 -145 -370q-32 -86 -74 -130t-116 -44q-52 0 -78 24.5t-26 61.5q0 38 21 56.5t47 18.5q65 0 65 -59q0 -24 -15.5 -42.5t-45.5 -22.5q18 -4 36 -4q51 0 91.5 41.5
t73.5 148.5h-45q-51 145 -128 322q-13 30 -31 42.5t-46 12.5h-15v50q67 -3 134 -3l135 3v-50h-21q-54 0 -37 -54q29 -91 87 -229q78 218 81 229z" />
    <glyph glyph-name="z" unicode="z" horiz-adv-x="474" 
d="M292 0h-265v37q143 187 272 377h-91q-59 0 -86.5 -28t-32.5 -103h-43q12 94 3 181q74 -5 159 -5h228l2 -35q-106 -136 -278 -380h132q48 0 79 35t35 109h43q-15 -100 -4 -191q-67 3 -153 3z" />
    <glyph glyph-name="braceleft" unicode="{" horiz-adv-x="286" 
d="M35 290v34h10q22 0 35.5 9.5t17 28.5t4 36.5t-6 46t-10.5 43.5t-12 41q-75 256 176 271l2 -38q-29 -6 -45.5 -13t-30.5 -21.5t-18.5 -39t-4 -62t7.5 -93.5q4 -27 6 -44t3 -42.5t-1 -42t-7.5 -35.5t-16 -31t-27.5 -20.5t-40 -10.5q23 -2 40 -11t27 -20t16 -30.5t8 -34
t1 -41t-2.5 -40.5t-4.5 -41q-18 -121 -1 -174.5t90 -63.5l-2 -38q-250 16 -176 271q33 113 29 154q-6 52 -57 52h-10z" />
    <glyph glyph-name="bar" unicode="|" horiz-adv-x="300" 
d="M141 -119q0 9 9 9t9 -9t-9 -9t-9 9zM136 -43q0 14 14 14t14 -14t-14 -14t-14 14zM131 33q0 7 5.5 13t13.5 6t13.5 -6t5.5 -13q0 -8 -5.5 -13.5t-13.5 -5.5t-13.5 5.5t-5.5 13.5zM127 109q0 9 6.5 15.5t16.5 6.5t16.5 -6.5t6.5 -15.5q0 -10 -6.5 -16.5t-16.5 -6.5
t-16.5 6.5t-6.5 16.5zM124 185q0 10 7.5 17.5t18.5 7.5t18.5 -7.5t7.5 -17.5q0 -11 -7.5 -18.5t-18.5 -7.5t-18.5 7.5t-7.5 18.5zM122 261q0 11 8.5 19t19.5 8t19.5 -8t8.5 -19q0 -12 -8.5 -20t-19.5 -8t-19.5 8t-8.5 20zM122 337q0 11 8 19.5t20 8.5t20 -8.5t8 -19.5
q0 -12 -8 -20.5t-20 -8.5t-20 8.5t-8 20.5zM122 412q0 12 8.5 20t19.5 8t19.5 -8t8.5 -20q0 -11 -8.5 -19t-19.5 -8t-19.5 8t-8.5 19zM124 488q0 11 7.5 18.5t18.5 7.5t18.5 -7.5t7.5 -18.5q0 -10 -7.5 -17.5t-18.5 -7.5t-18.5 7.5t-7.5 17.5zM127 564q0 10 6.5 16.5
t16.5 6.5t16.5 -6.5t6.5 -16.5q0 -9 -6.5 -15.5t-16.5 -6.5t-16.5 6.5t-6.5 15.5zM131 640q0 8 5.5 13.5t13.5 5.5t13.5 -5.5t5.5 -13.5t-5.5 -13.5t-13.5 -5.5t-13.5 5.5t-5.5 13.5zM136 716q0 14 14 14t14 -14t-14 -14t-14 14zM141 792q0 9 9 9t9 -9t-9 -9t-9 9z" />
    <glyph glyph-name="braceright" unicode="}" horiz-adv-x="273" 
d="M247 324v-34h-10q-32 0 -46.5 -17.5t-11 -54t9 -60t18.5 -67.5q1 -5 2 -7q74 -255 -176 -271l-2 38q73 10 90 63.5t-1 174.5q-3 27 -4.5 41t-2.5 40.5t1 41t8 34t16 30.5t27 20t40 11q-23 2 -40 10.5t-27.5 20.5t-16 31t-7.5 35.5t-1 42t3 42.5t6 44q7 56 7.5 93.5t-4 62
t-18.5 39t-30.5 21.5t-45.5 13l2 38q251 -15 176 -271q-8 -26 -12 -41t-10.5 -43.5t-6 -46t4 -36.5t17 -28.5t35.5 -9.5h10z" />
    <glyph glyph-name="asciitilde" unicode="~" horiz-adv-x="532" 
d="M424 695l22 4q25 -82 -8.5 -125t-95.5 -43q-39 0 -62 16t-44 48q-19 28 -26.5 38t-19.5 18t-28 8q-57 0 -36 -113l-22 -4q-25 82 7 125t97 43q32 0 55 -14t47 -49q19 -26 27 -36.5t21.5 -19.5t28.5 -9q58 0 37 113z" />
    <glyph glyph-name="exclamdown" unicode="&#xa1;" horiz-adv-x="239" 
d="M47 405q0 32 19 50t52 18q31 0 50.5 -18t19.5 -51q0 -31 -20 -50t-50 -19q-32 0 -51.5 19t-19.5 51zM107 257q0 12 13 12t13 -12q0 -72 7 -133t15.5 -99t28.5 -117q20 -77 0.5 -117.5t-64.5 -40.5t-65.5 40.5t1.5 117.5q29 103 40 172t11 177z" />
    <glyph glyph-name="cent" unicode="&#xa2;" horiz-adv-x="538" 
d="M257 367l-35 -222q16 -4 40 -4q53 0 97 28q-41 10 -41 53q0 25 15.5 39.5t45.5 14.5q27 0 43.5 -15.5t16.5 -45.5q0 -49 -53 -88.5t-138 -39.5q-24 0 -35 2l-21 -133l-38 7l26 132q-74 19 -112 79.5t-38 155.5q0 114 62.5 180.5t173.5 66.5l20 131l38 -7l-26 -127
q57 -8 93.5 -37.5t36.5 -66.5q0 -29 -17 -45t-45 -16q-29 0 -44.5 15.5t-15.5 40.5q0 40 38 50q-23 10 -55 13zM146 331q0 -135 47 -172l42 212l24 159q-62 -1 -87.5 -45t-25.5 -154z" />
    <glyph glyph-name="sterling" unicode="&#xa3;" horiz-adv-x="571" 
d="M89 248v44q20 -2 73 -2q-24 39 -37 63t-25.5 64.5t-12.5 79.5q0 98 64 153t157 55q89 0 135.5 -40t46.5 -97q0 -94 -78 -94q-26 0 -42 14t-16 39q0 23 16 37t44 14q23 0 39 -14q-2 37 -34.5 65.5t-90.5 28.5q-134 0 -133 -168q0 -12 1.5 -25t3 -24t5 -26t5.5 -23.5
t7.5 -26t8 -24t9 -26.5t8.5 -25q69 0 123 2v-44q-9 0 -47.5 1t-63.5 1q22 -71 22 -127q88 -46 138 -46q101 0 114 66l31 -5q4 -61 -32 -108t-119 -47q-88 0 -156 55q-37 -53 -132 -53q-49 0 -75 23t-26 60q0 42 30.5 66.5t73.5 24.5q54 0 101 -15q-5 46 -39 107
q-25 0 -97 -3zM123 15q73 0 94 55q-51 49 -94 49q-33 0 -50.5 -14.5t-17.5 -38.5q0 -20 18.5 -35.5t49.5 -15.5z" />
    <glyph glyph-name="yen" unicode="&#xa5;" horiz-adv-x="640" 
d="M111 349l107 -3q-47 113 -98 221q-17 36 -34 50t-53 14h-13v59q87 -3 139 -3l145 3v-59h-20q-61 0 -40 -67q22 -71 95 -230q60 138 87 230q12 28 6 47.5t-41 19.5h-19v59q89 -3 133 -3l115 3v-59h-20q-45 0 -63 -13.5t-38 -56.5q-101 -213 -102 -215l107 3
q-1 -6 -1 -28.5t1 -28.5l-129 4l-9 -22v-56l138 5q-1 -6 -1 -28t1 -29l-138 5v-61q0 -32 10 -42t49 -10h38v-58q-88 3 -155 3l-156 -3v58h37q39 0 49.5 10.5t10.5 41.5l-1 61l-137 -5q1 7 1 29t-1 28l137 -4v56l-9 21l-128 -4q1 6 1 28.5t-1 28.5z" />
    <glyph glyph-name="brokenbar" unicode="&#xa6;" horiz-adv-x="300" 
d="M141 -119q0 9 9 9t9 -9t-9 -9t-9 9zM136 -43q0 14 14 14t14 -14t-14 -14t-14 14zM131 33q0 7 5.5 13t13.5 6t13.5 -6t5.5 -13q0 -8 -5.5 -13.5t-13.5 -5.5t-13.5 5.5t-5.5 13.5zM127 109q0 9 6.5 15.5t16.5 6.5t16.5 -6.5t6.5 -15.5q0 -10 -6.5 -16.5t-16.5 -6.5
t-16.5 6.5t-6.5 16.5zM124 185q0 10 7.5 17.5t18.5 7.5t18.5 -7.5t7.5 -17.5q0 -11 -7.5 -18.5t-18.5 -7.5t-18.5 7.5t-7.5 18.5zM122 261q0 11 8.5 19t19.5 8t19.5 -8t8.5 -19q0 -12 -8.5 -20t-19.5 -8t-19.5 8t-8.5 20zM122 412q0 12 8.5 20t19.5 8t19.5 -8t8.5 -20
q0 -11 -8.5 -19t-19.5 -8t-19.5 8t-8.5 19zM124 488q0 11 7.5 18.5t18.5 7.5t18.5 -7.5t7.5 -18.5q0 -10 -7.5 -17.5t-18.5 -7.5t-18.5 7.5t-7.5 17.5zM127 564q0 10 6.5 16.5t16.5 6.5t16.5 -6.5t6.5 -16.5q0 -9 -6.5 -15.5t-16.5 -6.5t-16.5 6.5t-6.5 15.5zM131 640
q0 8 5.5 13.5t13.5 5.5t13.5 -5.5t5.5 -13.5t-5.5 -13.5t-13.5 -5.5t-13.5 5.5t-5.5 13.5zM136 716q0 14 14 14t14 -14t-14 -14t-14 14zM141 792q0 9 9 9t9 -9t-9 -9t-9 9z" />
    <glyph glyph-name="section" unicode="&#xa7;" horiz-adv-x="787" 
d="M506 652l8 -10q-43 -45 -64.5 -79.5t-45.5 -116.5t-47 -224q-18 -108 -42.5 -188.5t-49.5 -125.5t-55 -71.5t-54.5 -34.5t-52.5 -8q-54 0 -76 34.5t-14 79.5q13 72 75 72q24 0 39.5 -14t11.5 -41q-5 -31 -31.5 -43t-58.5 1q-2 -56 55 -56q39 0 68 32t57.5 121t52.5 242
q16 105 39 179.5t53.5 122t59.5 74.5t72 54zM282 -150l-8 10q43 45 64.5 79.5t45.5 116.5t47 224q18 108 42.5 188.5t49.5 125.5t55 71.5t54.5 34.5t52.5 8q54 0 76 -34.5t14 -79.5q-13 -72 -75 -72q-24 0 -39.5 14t-11.5 41q4 31 31 43.5t58 -1.5q2 56 -54 56
q-39 0 -68 -32t-57.5 -121t-52.5 -242q-16 -105 -39 -179.5t-53.5 -122t-59.5 -74.5t-72 -54z" />
    <glyph glyph-name="dieresis" unicode="&#xa8;" horiz-adv-x="533" 
d="M231 582q0 -23 -15.5 -38.5t-39.5 -15.5t-39.5 15.5t-15.5 38.5t15.5 38.5t39.5 15.5t39.5 -15.5t15.5 -38.5zM401 582q0 -23 -15.5 -38.5t-39.5 -15.5t-39.5 15.5t-15.5 38.5t15.5 38.5t39.5 15.5t39.5 -15.5t15.5 -38.5z" />
    <glyph glyph-name="copyright" unicode="&#xa9;" horiz-adv-x="834" 
d="M417 29q157 0 232 86.5t75 228.5q0 140 -78 228t-229 88t-229 -88t-78 -228t78 -227.5t229 -87.5zM417 -16q-177 0 -272 97.5t-95 262.5q0 161 102 261t265 100q170 0 268.5 -99t98.5 -262q0 -165 -95 -262.5t-272 -97.5zM421 567q62 0 118 -40q11 -10 20.5 -3t10.5 33
q4 -1 18.5 -1t18.5 1q-13 -73 -9 -141q-21 3 -40 0q-11 50 -47.5 77.5t-83.5 27.5q-69 0 -95.5 -40.5t-26.5 -136.5q0 -100 31 -138t86 -38q123 0 133 129q25 -2 50 0q-6 -88 -49 -130.5t-136 -42.5q-211 0 -211 220q0 110 58 166.5t154 56.5z" />
    <glyph glyph-name="ordfeminine" unicode="&#xaa;" horiz-adv-x="486" 
d="M346 571v-134q0 -36 17 -36q24 0 20 79l28 2q2 -63 -12.5 -92.5t-55.5 -29.5q-66 0 -73 63q-32 -62 -99 -62q-96 0 -96 84q0 99 195 111v22q0 51 -15.5 72.5t-59.5 20.5q-30 -1 -48 -9q36 -7 36 -41q0 -19 -13 -31t-35 -12q-21 0 -34.5 12.5t-13.5 34.5q0 36 39.5 56.5
t92.5 20.5q71 0 99 -34t28 -97zM57 216v69q46 -1 177.5 -1t178.5 1v-69q-46 2 -178 2t-178 -2zM204 402q66 0 66 97v38q-108 -10 -108 -87q0 -48 42 -48z" />
    <glyph glyph-name="guillemotleft" unicode="&#xab;" horiz-adv-x="401" 
d="M214 426l12 -9q-18 -36 -55.5 -88t-64.5 -79q26 -26 63.5 -78.5t56.5 -86.5l-12 -9q-100 88 -179 151v49q92 73 179 150zM364 426l12 -9q-18 -36 -55.5 -88t-64.5 -79q26 -26 63.5 -78.5t56.5 -86.5l-12 -9q-100 88 -179 151v49q92 73 179 150z" />
    <glyph glyph-name="registered" unicode="&#xae;" horiz-adv-x="834" 
d="M417 -16q-177 0 -272 97.5t-95 262.5q0 161 102 261t265 100q170 0 268.5 -99t98.5 -262q0 -165 -95 -262.5t-272 -97.5zM417 29q157 0 232 86.5t75 228.5q0 140 -78 228t-229 88t-229 -88t-78 -228t78 -227.5t229 -87.5zM562 262q11 -47 20 -63.5t24 -16.5q16 0 20 26.5
t-3 62.5l32 3q12 -58 -4.5 -96.5t-71.5 -38.5q-59 0 -81 27t-25 87q-3 46 -21.5 62.5t-54.5 16.5h-39q0 -83 2 -107q1 -36 36 -36h28v-42q-69 2 -108 2l-109 -2v42h29q40 0 41 35q1 22 1 132t-1 131q-1 18 -8 25t-24 7h-38v41q5 0 55.5 -0.5t56.5 -0.5h106q168 0 168 -109
q0 -44 -28.5 -72.5t-71.5 -34.5q32 -8 47 -27.5t22 -53.5zM360 499q-2 -34 -2 -136h48q53 0 74.5 19.5t21.5 63.5q0 41 -20 59t-68 18h-29q-23 0 -25 -24z" />
    <glyph glyph-name="macron" unicode="&#xaf;" horiz-adv-x="532" 
d="M129 565q2 30 0 62q128 -4 256 0q-1 -31 0 -62q-128 4 -256 0z" />
    <glyph glyph-name="degree" unicode="&#xb0;" horiz-adv-x="331" 
d="M165 405q90 0 90 126q0 128 -90 128t-90 -128q0 -72 23 -99t67 -27zM165 372q-135 0 -135 159q0 80 38.5 120t96.5 40q136 0 136 -160q0 -80 -38.5 -119.5t-97.5 -39.5z" />
    <glyph glyph-name="plusminus" unicode="&#xb1;" 
d="M80 0q2 29 0 58q98 -2 191 -2q6 143 11 177q-50 -7 -205 -11v57q125 0 205 -11q-7 50 -11 205h57q0 -125 -11 -205q80 11 206 11v-57q-156 4 -206 11q8 -59 10 -177q95 0 193 2q-2 -28 0 -58q-219 4 -440 0z" />
    <glyph glyph-name="acute" unicode="&#xb4;" horiz-adv-x="532" 
d="M173 516l-8 10q86 103 123 132q20 14 38.5 7.5t19.5 -23.5t-17 -33q-55 -43 -156 -93z" />
    <glyph glyph-name="paragraph" unicode="&#xb6;" horiz-adv-x="532" 
d="M298 0q1 14 1 240q-249 7 -249 225q0 119 70.5 170.5t198.5 51.5h163v-48h-32q-26 0 -38 -10.5t-12 -38.5l1 -590q0 -107 -39 -154t-119 -47q-67 0 -98 28.5t-31 67.5q0 35 18.5 52t44.5 17q30 0 46 -15.5t16 -42.5q0 -46 -45 -68q14 -7 27 -7q40 0 56.5 34t20.5 135z
" />
    <glyph glyph-name="periodcentered" unicode="&#xb7;" horiz-adv-x="261" 
d="M201 243q0 -32 -19 -50t-52 -18q-31 0 -50.5 18t-19.5 51q0 31 20 50t50 19q32 0 51.5 -19t19.5 -51z" />
    <glyph glyph-name="cedilla" unicode="&#xb8;" horiz-adv-x="532" 
d="M213 -115l-12 18q36 22 51 45t20 59l23 -6q4 -47 -37 -82q45 8 81 -12t36 -65t-31.5 -70.5t-86.5 -25.5q-38 0 -64 18t-36 44l21 15q26 -37 68 -37q28 0 43.5 15t15.5 41q0 32 -28.5 44.5t-63.5 -1.5z" />
    <glyph glyph-name="ordmasculine" unicode="&#xba;" horiz-adv-x="453" 
d="M67 526q0 87 43.5 131.5t116.5 44.5t116.5 -44.5t43.5 -131.5q0 -81 -44 -125.5t-116 -44.5q-73 0 -116.5 44.5t-43.5 125.5zM156 526q0 -82 17.5 -110t53.5 -28t54.5 28t18.5 110t-19 112.5t-55 30.5q-35 0 -52.5 -30.5t-17.5 -112.5zM60 216v69q46 -1 166.5 -1t166.5 1
v-69q-47 2 -167 2t-166 -2z" />
    <glyph glyph-name="guillemotright" unicode="&#xbb;" horiz-adv-x="401" 
d="M25 417l12 9q92 -74 179 -150v-49q-79 -63 -179 -151l-12 9q19 34 56.5 86.5t63.5 78.5q-27 27 -64.5 79t-55.5 88zM175 417l12 9q92 -74 179 -150v-49q-79 -63 -179 -151l-12 9q19 34 56.5 86.5t63.5 78.5q-27 27 -64.5 79t-55.5 88z" />
    <glyph glyph-name="onequarter" unicode="&#xbc;" horiz-adv-x="378" 
d="M12 344q0 8 5.5 13.5t14.5 5.5q8 0 13.5 -5.5t5.5 -13.5q0 -9 -5.5 -14.5t-13.5 -5.5q-20 0 -20 20zM77 344q0 17 18 17q7 0 12 -5t5 -12q0 -18 -17 -18q-18 0 -18 18zM142 344q0 15 16 15q6 0 10.5 -4.5t4.5 -10.5q0 -16 -15 -16q-16 0 -16 16zM205 344q0 15 16 15
q6 0 10.5 -4.5t4.5 -10.5q0 -16 -15 -16q-16 0 -16 16zM266 344q0 17 18 17q7 0 12 -5t5 -12q0 -18 -17 -18q-18 0 -18 18zM327 344q0 8 5.5 13.5t14.5 5.5q7 0 13 -5.5t6 -13.5q0 -9 -5.5 -14.5t-13.5 -5.5q-20 0 -20 20zM125 431q30 0 30 25v162l-61 -2v34h17
q39 0 56.5 15.5t22.5 44.5h36q-2 -57 -2 -115v-139q0 -25 29 -25h37v-32q-65 2 -101 2l-101 -2v32h37zM169 10q17 0 23 3t6 15v19h-143v22l178 217h33v-217l57 1v-24h-57v-18q0 -11 6 -14.5t23 -3.5h24v-32q-56 2 -87 2l-88 -2v32h25zM87 69h111v138z" />
    <glyph glyph-name="onehalf" unicode="&#xbd;" horiz-adv-x="378" 
d="M12 344q0 8 5.5 13.5t14.5 5.5q8 0 13.5 -5.5t5.5 -13.5q0 -9 -5.5 -14.5t-13.5 -5.5q-20 0 -20 20zM77 344q0 17 18 17q7 0 12 -5t5 -12q0 -18 -17 -18q-18 0 -18 18zM142 344q0 15 16 15q6 0 10.5 -4.5t4.5 -10.5q0 -16 -15 -16q-16 0 -16 16zM205 344q0 15 16 15
q6 0 10.5 -4.5t4.5 -10.5q0 -16 -15 -16q-16 0 -16 16zM266 344q0 17 18 17q7 0 12 -5t5 -12q0 -18 -17 -18q-18 0 -18 18zM327 344q0 8 5.5 13.5t14.5 5.5q7 0 13 -5.5t6 -13.5q0 -9 -5.5 -14.5t-13.5 -5.5q-20 0 -20 20zM125 431q30 0 30 25v162l-61 -2v34h17
q39 0 56.5 15.5t22.5 44.5h36q-2 -57 -2 -115v-139q0 -25 29 -25h37v-32q-65 2 -101 2l-101 -2v32h37zM304 70q14 -41 -4 -70.5t-62 -29.5q-7 0 -13.5 1t-11.5 1.5t-11 3t-9.5 4t-10 5t-8.5 5t-9 6t-9 5.5q-20 12 -39.5 13.5t-30.5 -9.5q12 2 21 -3t9 -14q0 -18 -21 -18
q-27 0 -27 32q0 41 22 68t69 52q39 21 56 38.5t17 43.5q0 58 -61 58q-60 0 -74 -36q9 4 23 4q36 0 36 -32q0 -12 -10.5 -21t-29.5 -9t-30.5 11t-11.5 31q0 36 30.5 58t80.5 22q59 0 87 -22.5t28 -60.5q0 -40 -24 -63t-80 -38q-91 -24 -110 -79q30 35 110 18q95 -22 87 23z
" />
    <glyph glyph-name="threequarters" unicode="&#xbe;" horiz-adv-x="378" 
d="M12 344q0 8 5.5 13.5t14.5 5.5q8 0 13.5 -5.5t5.5 -13.5q0 -9 -5.5 -14.5t-13.5 -5.5q-20 0 -20 20zM77 344q0 17 18 17q7 0 12 -5t5 -12q0 -18 -17 -18q-18 0 -18 18zM142 344q0 15 16 15q6 0 10.5 -4.5t4.5 -10.5q0 -16 -15 -16q-16 0 -16 16zM205 344q0 15 16 15
q6 0 10.5 -4.5t4.5 -10.5q0 -16 -15 -16q-16 0 -16 16zM266 344q0 17 18 17q7 0 12 -5t5 -12q0 -18 -17 -18q-18 0 -18 18zM327 344q0 8 5.5 13.5t14.5 5.5q7 0 13 -5.5t6 -13.5q0 -9 -5.5 -14.5t-13.5 -5.5q-20 0 -20 20zM300 631q0 -52 -63 -71q38 -6 59.5 -26.5
t21.5 -50.5q0 -46 -37.5 -68.5t-102.5 -22.5q-51 0 -84.5 22.5t-33.5 54.5q0 20 12 31.5t31 11.5q20 0 31 -9t11 -23q0 -15 -9.5 -24t-27.5 -9q-11 0 -20 3q22 -32 78 -32q75 0 75 65q0 62 -78 62h-17v24h16q36 1 52 15t16 45q0 54 -59 54q-51 0 -71 -32q12 4 22 4
q17 0 26.5 -9t9.5 -23q0 -13 -10.5 -22.5t-30.5 -9.5q-18 0 -30 11.5t-12 31.5q0 32 32 54.5t82 22.5q52 0 81.5 -20.5t29.5 -59.5zM169 10q17 0 23 3t6 15v19h-143v22l178 217h33v-217l57 1v-24h-57v-18q0 -11 6 -14.5t23 -3.5h24v-32q-56 2 -87 2l-88 -2v32h25zM87 69h111
v138z" />
    <glyph glyph-name="questiondown" unicode="&#xbf;" horiz-adv-x="500" 
d="M153 193l-13 26q23 23 58 39t72 16q31 0 50.5 -17t19.5 -46q0 -44 -69 -79q-55 -28 -85 -71.5t-30 -122.5q0 -62 34 -101t102 -39q50 0 88.5 24t50.5 75q-22 -11 -44 -11q-31 0 -48.5 17.5t-17.5 49.5q0 29 20.5 47t54.5 18q36 0 56.5 -23.5t20.5 -67.5q0 -75 -56 -126
t-165 -51q-105 0 -160 49t-55 137q0 80 47.5 132t156.5 97q35 14 47 22.5t12 21.5q0 28 -34 28q-62 0 -113 -44zM180 405q0 32 19 50t52 18q31 0 50.5 -18t19.5 -51q0 -31 -20 -50t-50 -19q-32 0 -51.5 19t-19.5 51z" />
    <glyph glyph-name="Agrave" unicode="&#xc0;" horiz-adv-x="882" 
d="M574 155l-22 60q-138 4 -281 0q-17 -48 -21 -62q-16 -42 -4 -68t58 -26h43l-1 -61q-99 2 -154 2l-154 -2v61h37q41 0 63 18t40 65q59 149 204 554q37 -3 57 -3l56 3q27 -80 110 -290t107 -265q20 -46 38.5 -64t48.5 -18h45v-61q-114 2 -178 2l-179 -2l1 61h44
q36 0 47.5 24.5t-5.5 71.5zM533 267q-79 218 -124 327q-39 -99 -120 -327q124 -2 244 0zM492 756l-8 -10q-105 53 -156 93q-19 15 -16.5 33.5t19.5 23t38 -7.5q31 -24 123 -132z" />
    <glyph glyph-name="Aacute" unicode="&#xc1;" horiz-adv-x="882" 
d="M574 155l-22 60q-138 4 -281 0q-17 -48 -21 -62q-16 -42 -4 -68t58 -26h43l-1 -61q-99 2 -154 2l-154 -2v61h37q41 0 63 18t40 65q59 149 204 554q37 -3 57 -3l56 3q27 -80 110 -290t107 -265q20 -46 38.5 -64t48.5 -18h45v-61q-114 2 -178 2l-179 -2l1 61h44
q36 0 47.5 24.5t-5.5 71.5zM533 267q-79 218 -124 327q-39 -99 -120 -327q124 -2 244 0zM412 746l-8 10q86 103 123 132q20 14 38.5 7.5t19.5 -23.5t-17 -33q-55 -43 -156 -93z" />
    <glyph glyph-name="Acircumflex" unicode="&#xc2;" horiz-adv-x="882" 
d="M574 155l-22 60q-138 4 -281 0q-17 -48 -21 -62q-16 -42 -4 -68t58 -26h43l-1 -61q-99 2 -154 2l-154 -2v61h37q41 0 63 18t40 65q59 149 204 554q37 -3 57 -3l56 3q27 -80 110 -290t107 -265q20 -46 38.5 -64t48.5 -18h45v-61q-114 2 -178 2l-179 -2l1 61h44
q36 0 47.5 24.5t-5.5 71.5zM533 267q-79 218 -124 327q-39 -99 -120 -327q124 -2 244 0zM586 746l-8 -10q-30 15 -73 46t-66 54q-22 -22 -65.5 -53.5t-71.5 -46.5l-8 10q32 64 122 141h49q30 -24 66.5 -65t54.5 -76z" />
    <glyph glyph-name="Atilde" unicode="&#xc3;" horiz-adv-x="882" 
d="M574 155l-22 60q-138 4 -281 0q-17 -48 -21 -62q-16 -42 -4 -68t58 -26h43l-1 -61q-99 2 -154 2l-154 -2v61h37q41 0 63 18t40 65q59 149 204 554q37 -3 57 -3l56 3q27 -80 110 -290t107 -265q20 -46 38.5 -64t48.5 -18h45v-61q-114 2 -178 2l-179 -2l1 61h44
q36 0 47.5 24.5t-5.5 71.5zM533 267q-79 218 -124 327q-39 -99 -120 -327q124 -2 244 0zM566 889l19 4q21 -69 -7.5 -105.5t-80.5 -36.5q-33 0 -52 13.5t-37 40.5q-16 24 -22.5 32t-17 15t-23.5 7q-48 0 -30 -95l-19 -4q-21 70 6 106t82 36q27 0 46.5 -12t39.5 -41
q15 -21 22.5 -30.5t18.5 -17t24 -7.5q49 0 31 95z" />
    <glyph glyph-name="Adieresis" unicode="&#xc4;" horiz-adv-x="882" 
d="M574 155l-22 60q-138 4 -281 0q-17 -48 -21 -62q-16 -42 -4 -68t58 -26h43l-1 -61q-99 2 -154 2l-154 -2v61h37q41 0 63 18t40 65q59 149 204 554q37 -3 57 -3l56 3q27 -80 110 -290t107 -265q20 -46 38.5 -64t48.5 -18h45v-61q-114 2 -178 2l-179 -2l1 61h44
q36 0 47.5 24.5t-5.5 71.5zM533 267q-79 218 -124 327q-39 -99 -120 -327q124 -2 244 0zM411 812q0 -23 -15.5 -38.5t-39.5 -15.5t-39.5 15.5t-15.5 38.5t15.5 38.5t39.5 15.5t39.5 -15.5t15.5 -38.5zM581 812q0 -23 -15.5 -38.5t-39.5 -15.5t-39.5 15.5t-15.5 38.5
t15.5 38.5t39.5 15.5t39.5 -15.5t15.5 -38.5z" />
    <glyph glyph-name="Aring" unicode="&#xc5;" horiz-adv-x="882" 
d="M574 155l-22 60q-138 4 -281 0q-17 -48 -21 -62q-16 -42 -4 -68t58 -26h43l-1 -61q-99 2 -154 2l-154 -2v61h37q41 0 63 18t40 65q59 149 204 554q37 -3 57 -3l56 3q27 -80 110 -290t107 -265q20 -46 38.5 -64t48.5 -18h45v-61q-114 2 -178 2l-179 -2l1 61h44
q36 0 47.5 24.5t-5.5 71.5zM533 267q-79 218 -124 327q-39 -99 -120 -327q124 -2 244 0zM489 830q0 24 -12.5 37t-34.5 13q-47 0 -47 -50q0 -25 12.5 -38.5t34.5 -13.5q21 0 34 14t13 38zM525 830q0 -37 -23 -60.5t-60 -23.5t-60.5 23.5t-23.5 60.5t23 60t60 23t60.5 -23
t23.5 -60z" />
    <glyph glyph-name="AE" unicode="&#xc6;" horiz-adv-x="1076" 
d="M1037 264q-10 -106 -10 -268q-47 4 -188 4h-287q-130 0 -170 -2v61h56q32 0 44 15t15 45q2 26 2 87q-111 2 -194 -1l-25 -52q-23 -42 -17 -68t51 -26h33l-1 -61q-99 2 -154 2l-154 -2v61h36q41 0 66.5 18t53.5 65q165 271 245 423q18 35 8 54.5t-43 19.5h-25v54
q49 -5 178 -5h43.5t101 0.5t124.5 0.5q160 0 207 6q-8 -99 -6 -250l-54 -1v6q0 103 -34 140.5t-122 37.5h-150q-44 0 -47 -47q-3 -40 -3 -206h62q61 2 89 27.5t28 88.5v15h55q0 -13 -1.5 -62t-1.5 -92q0 -109 3 -160h-53v12q-2 64 -31 93t-96 30h-54q0 -173 3 -216
q3 -52 52 -52h143q88 0 124.5 46.5t36.5 147.5v11h61zM332 257q83 -2 168 0q0 242 -2 302q-73 -124 -166 -302z" />
    <glyph glyph-name="Ccedilla" unicode="&#xc7;" horiz-adv-x="735" 
d="M324 -115l-12 18q52 33 65 77q-327 5 -327 366q0 183 93 273.5t244 90.5q87 0 165 -41q41 -21 54 -15t18 46h60q-8 -44 -13 -121t-2 -132q-33 3 -66 0q-8 48 -19 80.5t-33 64t-60.5 47.5t-94.5 16q-107 0 -155.5 -74t-48.5 -235q0 -175 51 -243t145 -68q105 0 162 62.5
t63 170.5q35 -4 69 0q-10 -142 -74.5 -213t-203.5 -75q-7 -36 -35 -61q45 8 81 -12t36 -65t-31.5 -70.5t-86.5 -25.5q-38 0 -64 18t-36 44l21 15q26 -37 68 -37q28 0 43.5 15t15.5 41q0 32 -29 44.5t-63 -1.5z" />
    <glyph glyph-name="Egrave" unicode="&#xc8;" horiz-adv-x="732" 
d="M452 491v15h55q0 -13 -1.5 -62t-1.5 -92q0 -109 3 -160h-53v12q-2 65 -32 94t-102 29h-47q0 -173 3 -216q3 -52 52 -52h143q91 0 126 47.5t35 157.5h61q-10 -106 -10 -268q-47 4 -188 4h-287l-170 -2v61h56q32 0 44 15t15 45q3 41 3 229.5t-3 232.5q-2 29 -13.5 39.5
t-38.5 10.5h-63v59q8 0 86.5 -1t88.5 -1h43.5t101 0.5t124.5 0.5q160 0 207 6q-8 -99 -6 -251h-54q0 108 -32.5 146t-123.5 38h-150q-44 0 -47 -47q-3 -41 -3 -206h50q68 0 98.5 25.5t30.5 90.5zM456 756l-8 -10q-105 53 -156 93q-19 15 -16.5 33.5t19.5 23t38 -7.5
q31 -24 123 -132z" />
    <glyph glyph-name="Eacute" unicode="&#xc9;" horiz-adv-x="732" 
d="M452 491v15h55q0 -13 -1.5 -62t-1.5 -92q0 -109 3 -160h-53v12q-2 65 -32 94t-102 29h-47q0 -173 3 -216q3 -52 52 -52h143q91 0 126 47.5t35 157.5h61q-10 -106 -10 -268q-47 4 -188 4h-287l-170 -2v61h56q32 0 44 15t15 45q3 41 3 229.5t-3 232.5q-2 29 -13.5 39.5
t-38.5 10.5h-63v59q8 0 86.5 -1t88.5 -1h43.5t101 0.5t124.5 0.5q160 0 207 6q-8 -99 -6 -251h-54q0 108 -32.5 146t-123.5 38h-150q-44 0 -47 -47q-3 -41 -3 -206h50q68 0 98.5 25.5t30.5 90.5zM356 746l-8 10q86 103 123 132q20 14 38.5 7.5t19.5 -23.5t-17 -33
q-55 -43 -156 -93z" />
    <glyph glyph-name="Ecircumflex" unicode="&#xca;" horiz-adv-x="732" 
d="M452 491v15h55q0 -13 -1.5 -62t-1.5 -92q0 -109 3 -160h-53v12q-2 65 -32 94t-102 29h-47q0 -173 3 -216q3 -52 52 -52h143q91 0 126 47.5t35 157.5h61q-10 -106 -10 -268q-47 4 -188 4h-287l-170 -2v61h56q32 0 44 15t15 45q3 41 3 229.5t-3 232.5q-2 29 -13.5 39.5
t-38.5 10.5h-63v59q8 0 86.5 -1t88.5 -1h43.5t101 0.5t124.5 0.5q160 0 207 6q-8 -99 -6 -251h-54q0 108 -32.5 146t-123.5 38h-150q-44 0 -47 -47q-3 -41 -3 -206h50q68 0 98.5 25.5t30.5 90.5zM541 746l-8 -10q-30 15 -73 46t-66 54q-22 -22 -65.5 -53.5t-71.5 -46.5
l-8 10q32 64 122 141h49q30 -24 66.5 -65t54.5 -76z" />
    <glyph glyph-name="Edieresis" unicode="&#xcb;" horiz-adv-x="732" 
d="M452 491v15h55q0 -13 -1.5 -62t-1.5 -92q0 -109 3 -160h-53v12q-2 65 -32 94t-102 29h-47q0 -173 3 -216q3 -52 52 -52h143q91 0 126 47.5t35 157.5h61q-10 -106 -10 -268q-47 4 -188 4h-287l-170 -2v61h56q32 0 44 15t15 45q3 41 3 229.5t-3 232.5q-2 29 -13.5 39.5
t-38.5 10.5h-63v59q8 0 86.5 -1t88.5 -1h43.5t101 0.5t124.5 0.5q160 0 207 6q-8 -99 -6 -251h-54q0 108 -32.5 146t-123.5 38h-150q-44 0 -47 -47q-3 -41 -3 -206h50q68 0 98.5 25.5t30.5 90.5zM368 812q0 -23 -15.5 -38.5t-39.5 -15.5t-39.5 15.5t-15.5 38.5t15.5 38.5
t39.5 15.5t39.5 -15.5t15.5 -38.5zM538 812q0 -23 -15.5 -38.5t-39.5 -15.5t-39.5 15.5t-15.5 38.5t15.5 38.5t39.5 15.5t39.5 -15.5t15.5 -38.5z" />
    <glyph glyph-name="Igrave" unicode="&#xcc;" horiz-adv-x="428" 
d="M41 -2v61h55q34 0 45.5 7.5t12.5 32.5q2 56 2 247t-2 235q-1 29 -12.5 39.5t-39.5 10.5h-61v59q112 -3 174 -3q37 0 104 1.5t69 1.5v-59h-61q-27 0 -38.5 -10.5t-13.5 -39.5q-3 -48 -2.5 -235t2.5 -247q1 -25 12.5 -32.5t46.5 -7.5h54v-61q-111 2 -173 2zM265 756l-8 -10
q-105 53 -156 93q-19 15 -16.5 33.5t19.5 23t38 -7.5q31 -24 123 -132z" />
    <glyph glyph-name="Iacute" unicode="&#xcd;" horiz-adv-x="428" 
d="M41 -2v61h55q34 0 45.5 7.5t12.5 32.5q2 56 2 247t-2 235q-1 29 -12.5 39.5t-39.5 10.5h-61v59q112 -3 174 -3q37 0 104 1.5t69 1.5v-59h-61q-27 0 -38.5 -10.5t-13.5 -39.5q-3 -48 -2.5 -235t2.5 -247q1 -25 12.5 -32.5t46.5 -7.5h54v-61q-111 2 -173 2zM185 746l-8 10
q86 103 123 132q20 14 38.5 7.5t19.5 -23.5t-17 -33q-55 -43 -156 -93z" />
    <glyph glyph-name="Icircumflex" unicode="&#xce;" horiz-adv-x="428" 
d="M41 -2v61h55q34 0 45.5 7.5t12.5 32.5q2 56 2 247t-2 235q-1 29 -12.5 39.5t-39.5 10.5h-61v59q112 -3 174 -3q37 0 104 1.5t69 1.5v-59h-61q-27 0 -38.5 -10.5t-13.5 -39.5q-3 -48 -2.5 -235t2.5 -247q1 -25 12.5 -32.5t46.5 -7.5h54v-61q-111 2 -173 2zM360 746l-8 -10
q-30 15 -73 46t-66 54q-22 -22 -65.5 -53.5t-71.5 -46.5l-8 10q32 64 122 141h49q30 -24 66.5 -65t54.5 -76z" />
    <glyph glyph-name="Idieresis" unicode="&#xcf;" horiz-adv-x="428" 
d="M41 -2v61h55q34 0 45.5 7.5t12.5 32.5q2 56 2 247t-2 235q-1 29 -12.5 39.5t-39.5 10.5h-61v59q112 -3 174 -3q37 0 104 1.5t69 1.5v-59h-61q-27 0 -38.5 -10.5t-13.5 -39.5q-3 -48 -2.5 -235t2.5 -247q1 -25 12.5 -32.5t46.5 -7.5h54v-61q-111 2 -173 2zM184 812
q0 -23 -15.5 -38.5t-39.5 -15.5t-39.5 15.5t-15.5 38.5t15.5 38.5t39.5 15.5t39.5 -15.5t15.5 -38.5zM354 812q0 -23 -15.5 -38.5t-39.5 -15.5t-39.5 15.5t-15.5 38.5t15.5 38.5t39.5 15.5t39.5 -15.5t15.5 -38.5z" />
    <glyph glyph-name="Eth" unicode="&#xd0;" horiz-adv-x="781" 
d="M384 689q179 0 262.5 -82t85.5 -257q1 -95 -25 -164t-75 -109t-110.5 -58.5t-137.5 -18.5h-173l-173 -2v61h57q35 0 46.5 7.5t12.5 33.5q2 68 2 227q-20 0 -50 -0.5t-37 -0.5v60q38 -2 87 -2q0 146 -2 198q-1 29 -12.5 39t-39.5 10h-64v59q4 0 76.5 -1t100.5 -1zM275 101
q1 -26 14.5 -38.5t31.5 -12.5h50q125 0 176 64t51 237q0 160 -49 224t-177 64h-51q-43 0 -46 -45q-3 -48 -3 -210q67 0 113 2v-60q-23 1 -113 1q0 -177 3 -226z" />
    <glyph glyph-name="Ntilde" unicode="&#xd1;" horiz-adv-x="833" 
d="M272 690q129 -196 335 -481q6 260 0 371q-1 29 -13 40t-40 11h-64v59q3 0 62 -1.5t91 -1.5l152 3v-59h-64q-28 0 -40 -11t-13 -40q-2 -44 -2 -267t2 -313q-38 4 -77 0q-180 269 -377 549q-2 -364 2 -449q1 -25 13 -33t47 -8h58v-61q-98 2 -153 2l-153 -2v61h57q35 0 47 8
t13 33q2 59 2.5 246t-2.5 235q-2 29 -14 39.5t-39 10.5h-63v59q117 -4 233 0zM521 889l19 4q21 -69 -7.5 -105.5t-80.5 -36.5q-33 0 -52 13.5t-37 40.5q-16 24 -22.5 32t-17 15t-23.5 7q-48 0 -30 -95l-19 -4q-21 70 6 106t82 36q27 0 46.5 -12t39.5 -41q15 -21 22.5 -30.5
t18.5 -17t24 -7.5q49 0 31 95z" />
    <glyph glyph-name="Ograve" unicode="&#xd2;" horiz-adv-x="770" 
d="M385 35q108 0 154.5 76t46.5 236q0 166 -47 237.5t-154 71.5q-102 0 -151 -76.5t-49 -233.5q0 -168 44.5 -239.5t155.5 -71.5zM385 -20q-164 0 -249.5 95.5t-85.5 270.5q0 172 92.5 268t242.5 96q165 0 250 -93.5t85 -269.5q0 -172 -93 -269.5t-242 -97.5zM436 756
l-8 -10q-105 53 -156 93q-19 15 -16.5 33.5t19.5 23t38 -7.5q31 -24 123 -132z" />
    <glyph glyph-name="Oacute" unicode="&#xd3;" horiz-adv-x="770" 
d="M385 35q108 0 154.5 76t46.5 236q0 166 -47 237.5t-154 71.5q-102 0 -151 -76.5t-49 -233.5q0 -168 44.5 -239.5t155.5 -71.5zM385 -20q-164 0 -249.5 95.5t-85.5 270.5q0 172 92.5 268t242.5 96q165 0 250 -93.5t85 -269.5q0 -172 -93 -269.5t-242 -97.5zM356 746l-8 10
q86 103 123 132q20 14 38.5 7.5t19.5 -23.5t-17 -33q-55 -43 -156 -93z" />
    <glyph glyph-name="Ocircumflex" unicode="&#xd4;" horiz-adv-x="770" 
d="M385 35q108 0 154.5 76t46.5 236q0 166 -47 237.5t-154 71.5q-102 0 -151 -76.5t-49 -233.5q0 -168 44.5 -239.5t155.5 -71.5zM385 -20q-164 0 -249.5 95.5t-85.5 270.5q0 172 92.5 268t242.5 96q165 0 250 -93.5t85 -269.5q0 -172 -93 -269.5t-242 -97.5zM531 746
l-8 -10q-30 15 -73 46t-66 54q-22 -22 -65.5 -53.5t-71.5 -46.5l-8 10q32 64 122 141h49q30 -24 66.5 -65t54.5 -76z" />
    <glyph glyph-name="Otilde" unicode="&#xd5;" horiz-adv-x="770" 
d="M385 35q108 0 154.5 76t46.5 236q0 166 -47 237.5t-154 71.5q-102 0 -151 -76.5t-49 -233.5q0 -168 44.5 -239.5t155.5 -71.5zM385 -20q-164 0 -249.5 95.5t-85.5 270.5q0 172 92.5 268t242.5 96q165 0 250 -93.5t85 -269.5q0 -172 -93 -269.5t-242 -97.5zM510 889l19 4
q21 -69 -7.5 -105.5t-80.5 -36.5q-33 0 -52 13.5t-37 40.5q-16 24 -22.5 32t-17 15t-23.5 7q-48 0 -30 -95l-19 -4q-21 70 6 106t82 36q27 0 46.5 -12t39.5 -41q15 -21 22.5 -30.5t18.5 -17t24 -7.5q49 0 31 95z" />
    <glyph glyph-name="Odieresis" unicode="&#xd6;" horiz-adv-x="770" 
d="M385 35q108 0 154.5 76t46.5 236q0 166 -47 237.5t-154 71.5q-102 0 -151 -76.5t-49 -233.5q0 -168 44.5 -239.5t155.5 -71.5zM385 -20q-164 0 -249.5 95.5t-85.5 270.5q0 172 92.5 268t242.5 96q165 0 250 -93.5t85 -269.5q0 -172 -93 -269.5t-242 -97.5zM366 812
q0 -23 -15.5 -38.5t-39.5 -15.5t-39.5 15.5t-15.5 38.5t15.5 38.5t39.5 15.5t39.5 -15.5t15.5 -38.5zM536 812q0 -23 -15.5 -38.5t-39.5 -15.5t-39.5 15.5t-15.5 38.5t15.5 38.5t39.5 15.5t39.5 -15.5t15.5 -38.5z" />
    <glyph glyph-name="multiply" unicode="&#xd7;" 
d="M478 111l-40 -40q-111 116 -139 154q-24 -31 -137 -153l-41 41q97 93 153 136q-25 19 -153 138l41 40q85 -85 137 -153q48 64 138 154l40 -40q-107 -103 -153 -138q46 -37 154 -139z" />
    <glyph glyph-name="Oslash" unicode="&#xd8;" horiz-adv-x="770" 
d="M385 -20q-131 0 -213 61l-82 -84l-25 20l71 97q-86 94 -86 272q0 172 92.5 268t242.5 96q137 0 221 -67l86 91l23 -18l-74 -107q79 -93 79 -262q0 -172 -93 -269.5t-242 -97.5zM185 346q0 -125 22 -190l171 198l169 217q-46 85 -162 85q-102 0 -151 -76.5t-49 -233.5z
M385 35q108 0 154.5 76t46.5 236q0 108 -19 174l-166 -188l-174 -223q45 -75 158 -75z" />
    <glyph glyph-name="Ugrave" unicode="&#xd9;" horiz-adv-x="843" 
d="M136 282q2 228 0 290q-1 33 -12 46t-40 13h-46v59q104 -3 163 -3q35 0 97.5 1.5t65.5 1.5v-59h-46q-31 0 -45 -12.5t-14 -46.5v-299q0 -120 44.5 -171t136.5 -51t137 49.5t45 172.5q0 27 0.5 85t0.5 111t-1 103q-2 59 -58 59h-46v59q92 -3 144 -3q30 0 85 1.5t58 1.5v-59
h-47q-50 0 -52 -60v-290q0 -302 -275 -302q-149 0 -222 72t-73 231zM472 756l-8 -10q-105 53 -156 93q-19 15 -16.5 33.5t19.5 23t38 -7.5q31 -24 123 -132z" />
    <glyph glyph-name="Uacute" unicode="&#xda;" horiz-adv-x="843" 
d="M136 282q2 228 0 290q-1 33 -12 46t-40 13h-46v59q104 -3 163 -3q35 0 97.5 1.5t65.5 1.5v-59h-46q-31 0 -45 -12.5t-14 -46.5v-299q0 -120 44.5 -171t136.5 -51t137 49.5t45 172.5q0 27 0.5 85t0.5 111t-1 103q-2 59 -58 59h-46v59q92 -3 144 -3q30 0 85 1.5t58 1.5v-59
h-47q-50 0 -52 -60v-290q0 -302 -275 -302q-149 0 -222 72t-73 231zM442 746l-8 10q86 103 123 132q20 14 38.5 7.5t19.5 -23.5t-17 -33q-55 -43 -156 -93z" />
    <glyph glyph-name="Ucircumflex" unicode="&#xdb;" horiz-adv-x="843" 
d="M136 282q2 228 0 290q-1 33 -12 46t-40 13h-46v59q104 -3 163 -3q35 0 97.5 1.5t65.5 1.5v-59h-46q-31 0 -45 -12.5t-14 -46.5v-299q0 -120 44.5 -171t136.5 -51t137 49.5t45 172.5q0 27 0.5 85t0.5 111t-1 103q-2 59 -58 59h-46v59q92 -3 144 -3q30 0 85 1.5t58 1.5v-59
h-47q-50 0 -52 -60v-290q0 -302 -275 -302q-149 0 -222 72t-73 231zM587 746l-8 -10q-30 15 -73 46t-66 54q-22 -22 -65.5 -53.5t-71.5 -46.5l-8 10q32 64 122 141h49q30 -24 66.5 -65t54.5 -76z" />
    <glyph glyph-name="Udieresis" unicode="&#xdc;" horiz-adv-x="843" 
d="M136 282q2 228 0 290q-1 33 -12 46t-40 13h-46v59q104 -3 163 -3q35 0 97.5 1.5t65.5 1.5v-59h-46q-31 0 -45 -12.5t-14 -46.5v-299q0 -120 44.5 -171t136.5 -51t137 49.5t45 172.5q0 27 0.5 85t0.5 111t-1 103q-2 59 -58 59h-46v59q92 -3 144 -3q30 0 85 1.5t58 1.5v-59
h-47q-50 0 -52 -60v-290q0 -302 -275 -302q-149 0 -222 72t-73 231zM412 812q0 -23 -15.5 -38.5t-39.5 -15.5t-39.5 15.5t-15.5 38.5t15.5 38.5t39.5 15.5t39.5 -15.5t15.5 -38.5zM582 812q0 -23 -15.5 -38.5t-39.5 -15.5t-39.5 15.5t-15.5 38.5t15.5 38.5t39.5 15.5
t39.5 -15.5t15.5 -38.5z" />
    <glyph glyph-name="Yacute" unicode="&#xdd;" horiz-adv-x="805" 
d="M626 561q-84 -143 -178 -324v-127q0 -32 10 -42t49 -10h68v-60q-118 2 -185 2l-186 -2v60h67q39 0 49.5 10.5t10.5 41.5v126q-84 167 -179 331q-21 35 -46 49.5t-70 14.5h-16v59q116 -3 181 -3l181 3v-59h-50q-81 0 -50 -67q61 -124 145 -262q76 138 133 262q10 22 11 35
t-11.5 22.5t-43.5 9.5h-36v59q98 -3 153 -3l152 3v-59h-26q-57 0 -83 -14.5t-50 -55.5zM433 746l-8 10q86 103 123 132q20 14 38.5 7.5t19.5 -23.5t-17 -33q-55 -43 -156 -93z" />
    <glyph glyph-name="Thorn" unicode="&#xde;" horiz-adv-x="709" 
d="M38 -2v61h55q34 0 45.5 7.5t12.5 32.5q2 56 2 247t-2 235q-1 29 -12.5 39.5t-39.5 10.5h-61v59q112 -3 174 -3q37 0 104 1.5t69 1.5v-59h-61q-27 0 -38.5 -10.5t-13.5 -39.5q-1 -4 -1.5 -14.5t-0.5 -15.5q48 12 95 12q161 0 228.5 -54.5t67.5 -160.5t-71 -159.5
t-232 -53.5q-49 0 -87 5q0 -32 1 -41q1 -25 12.5 -32.5t46.5 -7.5h54v-61q-111 2 -173 2zM341 508q-31 0 -71 -4q-2 -152 0 -316q28 -3 71 -3q103 0 143.5 39.5t40.5 123.5q0 85 -39.5 122.5t-144.5 37.5z" />
    <glyph glyph-name="germandbls" unicode="&#xdf;" horiz-adv-x="632" 
d="M30 459l72 -3v21q0 115 58.5 166.5t150.5 51.5q98 0 149.5 -49t51.5 -125q0 -125 -108 -157q88 -6 128 -55.5t40 -126.5q0 -105 -42.5 -150.5t-131.5 -45.5q-71 0 -105 41.5t-22 126.5l39 3q-8 -124 68 -124q72 0 72 148q0 86 -32 119.5t-115 29.5l-1 48q96 0 96 143
q0 70 -24.5 99t-69.5 29q-47 0 -72 -33t-25 -123q0 -21 -0.5 -114t-0.5 -170t1 -110q1 -41 6 -99l-81 3q-28 1 -48 0t-40.5 -2t-22.5 -1v50h35q44 0 46 49q3 95 1 312l-73 -2v50z" />
    <glyph glyph-name="agrave" unicode="&#xe0;" horiz-adv-x="527" 
d="M413 288v-196q0 -51 24 -51q35 0 30 113l39 3q2 -89 -18 -130t-77 -41q-93 0 -102 91q-47 -90 -143 -90q-136 0 -136 120q0 140 278 159v31q0 73 -21.5 104t-85.5 30q-43 -1 -70 -14q50 -9 50 -58q0 -29 -18 -45t-49 -16q-32 0 -50 17t-18 50q0 51 56 79.5t131 28.5
q101 0 140.5 -48t39.5 -137zM211 43q97 0 97 142v55q-159 -18 -159 -128q0 -69 62 -69zM300 526l-8 -10q-105 52 -156 93q-19 15 -16.5 33.5t19.5 23t38 -7.5q31 -24 123 -132z" />
    <glyph glyph-name="aacute" unicode="&#xe1;" horiz-adv-x="527" 
d="M413 288v-196q0 -51 24 -51q35 0 30 113l39 3q2 -89 -18 -130t-77 -41q-93 0 -102 91q-47 -90 -143 -90q-136 0 -136 120q0 140 278 159v31q0 73 -21.5 104t-85.5 30q-43 -1 -70 -14q50 -9 50 -58q0 -29 -18 -45t-49 -16q-32 0 -50 17t-18 50q0 51 56 79.5t131 28.5
q101 0 140.5 -48t39.5 -137zM211 43q97 0 97 142v55q-159 -18 -159 -128q0 -69 62 -69zM210 516l-8 10q86 103 123 132q20 14 38.5 7.5t19.5 -23.5t-17 -33q-55 -43 -156 -93z" />
    <glyph glyph-name="acircumflex" unicode="&#xe2;" horiz-adv-x="527" 
d="M413 288v-196q0 -51 24 -51q35 0 30 113l39 3q2 -89 -18 -130t-77 -41q-93 0 -102 91q-47 -90 -143 -90q-136 0 -136 120q0 140 278 159v31q0 73 -21.5 104t-85.5 30q-43 -1 -70 -14q50 -9 50 -58q0 -29 -18 -45t-49 -16q-32 0 -50 17t-18 50q0 51 56 79.5t131 28.5
q101 0 140.5 -48t39.5 -137zM211 43q97 0 97 142v55q-159 -18 -159 -128q0 -69 62 -69zM383 526l-8 -10q-30 15 -73 46t-66 54q-22 -22 -65.5 -53.5t-71.5 -46.5l-8 10q32 64 122 141h49q30 -24 66.5 -65t54.5 -76z" />
    <glyph glyph-name="atilde" unicode="&#xe3;" horiz-adv-x="527" 
d="M413 288v-196q0 -51 24 -51q35 0 30 113l39 3q2 -89 -18 -130t-77 -41q-93 0 -102 91q-47 -90 -143 -90q-136 0 -136 120q0 140 278 159v31q0 73 -21.5 104t-85.5 30q-43 -1 -70 -14q50 -9 50 -58q0 -29 -18 -45t-49 -16q-32 0 -50 17t-18 50q0 51 56 79.5t131 28.5
q101 0 140.5 -48t39.5 -137zM211 43q97 0 97 142v55q-159 -18 -159 -128q0 -69 62 -69zM363 659l19 4q21 -69 -7.5 -105.5t-80.5 -36.5q-33 0 -52 13.5t-37 40.5q-16 24 -22.5 32t-17 15t-23.5 7q-48 0 -30 -95l-19 -4q-21 70 6 106t82 36q27 0 46.5 -12t39.5 -41
q15 -21 22.5 -30.5t18.5 -17t24 -7.5q49 0 31 95z" />
    <glyph glyph-name="adieresis" unicode="&#xe4;" horiz-adv-x="527" 
d="M413 288v-196q0 -51 24 -51q35 0 30 113l39 3q2 -89 -18 -130t-77 -41q-93 0 -102 91q-47 -90 -143 -90q-136 0 -136 120q0 140 278 159v31q0 73 -21.5 104t-85.5 30q-43 -1 -70 -14q50 -9 50 -58q0 -29 -18 -45t-49 -16q-32 0 -50 17t-18 50q0 51 56 79.5t131 28.5
q101 0 140.5 -48t39.5 -137zM211 43q97 0 97 142v55q-159 -18 -159 -128q0 -69 62 -69zM210 582q0 -23 -15.5 -38.5t-39.5 -15.5t-39.5 15.5t-15.5 38.5t15.5 38.5t39.5 15.5t39.5 -15.5t15.5 -38.5zM380 582q0 -23 -15.5 -38.5t-39.5 -15.5t-39.5 15.5t-15.5 38.5
t15.5 38.5t39.5 15.5t39.5 -15.5t15.5 -38.5z" />
    <glyph glyph-name="aring" unicode="&#xe5;" horiz-adv-x="527" 
d="M413 288v-196q0 -51 24 -51q35 0 30 113l39 3q2 -89 -18 -130t-77 -41q-93 0 -102 91q-47 -90 -143 -90q-136 0 -136 120q0 140 278 159v31q0 73 -21.5 104t-85.5 30q-43 -1 -70 -14q50 -9 50 -58q0 -29 -18 -45t-49 -16q-32 0 -50 17t-18 50q0 51 56 79.5t131 28.5
q101 0 140.5 -48t39.5 -137zM211 43q97 0 97 142v55q-159 -18 -159 -128q0 -69 62 -69zM281 605q0 24 -12.5 37t-34.5 13q-47 0 -47 -50q0 -25 12.5 -38.5t34.5 -13.5q21 0 34 14t13 38zM317 605q0 -37 -23 -60.5t-60 -23.5t-60.5 23.5t-23.5 60.5t23 60t60 23t60.5 -23
t23.5 -60z" />
    <glyph glyph-name="ae" unicode="&#xe6;" horiz-adv-x="765" 
d="M716 121q-18 -65 -68 -101.5t-129 -36.5q-147 0 -194 100q-38 -96 -159 -96q-136 0 -136 120q0 138 276 159v32q0 63 -24 98t-70 35q-49 0 -82 -15q50 -7 50 -57q0 -28 -18.5 -44.5t-46.5 -16.5q-31 0 -49.5 17.5t-18.5 49.5q0 52 55 80t131 28q96 0 143 -55
q49 55 144 55q108 0 159 -72t43 -190h-299q1 -97 27 -135.5t88 -38.5q58 0 87.5 25t41.5 71zM515 426q-46 0 -68.5 -41.5t-23.5 -139.5h153q12 0 16 5t4 20q0 72 -20 114t-61 42zM306 191v49q-157 -18 -157 -128q0 -66 59 -66q98 0 98 145z" />
    <glyph glyph-name="ccedilla" unicode="&#xe7;" horiz-adv-x="487" 
d="M201 -115l-12 18q55 35 66 80q-105 1 -160 65t-55 178q0 113 62 180t167 67q73 0 122 -30.5t49 -79.5q0 -31 -18 -48t-51 -17q-31 0 -49 16.5t-18 43.5q0 45 39 57q-30 16 -72 16q-62 0 -88 -46t-26 -158q0 -108 26 -149t89 -41q60 0 88.5 24t41.5 72l52 -12
q-39 -127 -172 -137q-5 -37 -36 -65q45 8 81 -12t36 -65t-31.5 -70.5t-86.5 -25.5q-38 0 -64 18t-36 44l21 15q26 -37 68 -37q28 0 43.5 15t15.5 41q0 32 -28.5 44.5t-63.5 -1.5z" />
    <glyph glyph-name="egrave" unicode="&#xe8;" horiz-adv-x="509" 
d="M411 130l49 -12q-18 -65 -68 -101.5t-129 -36.5q-106 0 -164.5 64.5t-58.5 181.5t62.5 182t161.5 65q108 0 159 -72t43 -190h-309q2 -96 32 -136.5t93 -40.5q58 0 87.5 25t41.5 71zM259 426q-49 0 -74.5 -42.5t-27.5 -138.5h167q12 0 16 5t4 20q0 156 -85 156zM325 526
l-8 -10q-105 52 -156 93q-19 15 -16.5 33.5t19.5 23t38 -7.5q31 -24 123 -132z" />
    <glyph glyph-name="eacute" unicode="&#xe9;" horiz-adv-x="509" 
d="M411 130l49 -12q-18 -65 -68 -101.5t-129 -36.5q-106 0 -164.5 64.5t-58.5 181.5t62.5 182t161.5 65q108 0 159 -72t43 -190h-309q2 -96 32 -136.5t93 -40.5q58 0 87.5 25t41.5 71zM259 426q-49 0 -74.5 -42.5t-27.5 -138.5h167q12 0 16 5t4 20q0 156 -85 156zM224 516
l-8 10q86 103 123 132q20 14 38.5 7.5t19.5 -23.5t-17 -33q-55 -43 -156 -93z" />
    <glyph glyph-name="ecircumflex" unicode="&#xea;" horiz-adv-x="509" 
d="M411 130l49 -12q-18 -65 -68 -101.5t-129 -36.5q-106 0 -164.5 64.5t-58.5 181.5t62.5 182t161.5 65q108 0 159 -72t43 -190h-309q2 -96 32 -136.5t93 -40.5q58 0 87.5 25t41.5 71zM259 426q-49 0 -74.5 -42.5t-27.5 -138.5h167q12 0 16 5t4 20q0 156 -85 156zM411 526
l-8 -10q-30 15 -73 46t-66 54q-22 -22 -65.5 -53.5t-71.5 -46.5l-8 10q32 64 122 141h49q30 -24 66.5 -65t54.5 -76z" />
    <glyph glyph-name="edieresis" unicode="&#xeb;" horiz-adv-x="509" 
d="M411 130l49 -12q-18 -65 -68 -101.5t-129 -36.5q-106 0 -164.5 64.5t-58.5 181.5t62.5 182t161.5 65q108 0 159 -72t43 -190h-309q2 -96 32 -136.5t93 -40.5q58 0 87.5 25t41.5 71zM259 426q-49 0 -74.5 -42.5t-27.5 -138.5h167q12 0 16 5t4 20q0 156 -85 156zM224 582
q0 -23 -15.5 -38.5t-39.5 -15.5t-39.5 15.5t-15.5 38.5t15.5 38.5t39.5 15.5t39.5 -15.5t15.5 -38.5zM394 582q0 -23 -15.5 -38.5t-39.5 -15.5t-39.5 15.5t-15.5 38.5t15.5 38.5t39.5 15.5t39.5 -15.5t15.5 -38.5z" />
    <glyph glyph-name="igrave" unicode="&#xec;" horiz-adv-x="310" 
d="M208 462q-2 -301 0 -353q1 -38 13.5 -49t46.5 -11h22v-52q-5 0 -55.5 1.5t-78.5 1.5q-29 0 -82 -2l-53 -1v52h24q34 1 45 11t12 48q2 38 2 125.5t-2 118.5q-2 33 -13 45t-49 12h-19v50q148 0 187 3zM196 526l-8 -10q-105 52 -156 93q-19 15 -16.5 33.5t19.5 23t38 -7.5
q31 -24 123 -132z" />
    <glyph glyph-name="iacute" unicode="&#xed;" horiz-adv-x="310" 
d="M208 462q-2 -301 0 -353q1 -38 13.5 -49t46.5 -11h22v-52q-5 0 -55.5 1.5t-78.5 1.5q-29 0 -82 -2l-53 -1v52h24q34 1 45 11t12 48q2 38 2 125.5t-2 118.5q-2 33 -13 45t-49 12h-19v50q148 0 187 3zM116 516l-8 10q86 103 123 132q20 14 38.5 7.5t19.5 -23.5t-17 -33
q-55 -43 -156 -93z" />
    <glyph glyph-name="icircumflex" unicode="&#xee;" horiz-adv-x="310" 
d="M208 462q-2 -301 0 -353q1 -38 13.5 -49t46.5 -11h22v-52q-5 0 -55.5 1.5t-78.5 1.5q-29 0 -82 -2l-53 -1v52h24q34 1 45 11t12 48q2 38 2 125.5t-2 118.5q-2 33 -13 45t-49 12h-19v50q148 0 187 3zM281 526l-8 -10q-30 15 -73 46t-66 54q-22 -22 -65.5 -53.5
t-71.5 -46.5l-8 10q32 64 122 141h49q30 -24 66.5 -65t54.5 -76z" />
    <glyph glyph-name="idieresis" unicode="&#xef;" horiz-adv-x="310" 
d="M208 462q-2 -301 0 -353q1 -38 13.5 -49t46.5 -11h22v-52q-5 0 -55.5 1.5t-78.5 1.5q-29 0 -82 -2l-53 -1v52h24q34 1 45 11t12 48q2 38 2 125.5t-2 118.5q-2 33 -13 45t-49 12h-19v50q148 0 187 3zM104 582q0 -23 -15.5 -38.5t-39.5 -15.5t-39.5 15.5t-15.5 38.5
t15.5 38.5t39.5 15.5t39.5 -15.5t15.5 -38.5zM274 582q0 -23 -15.5 -38.5t-39.5 -15.5t-39.5 15.5t-15.5 38.5t15.5 38.5t39.5 15.5t39.5 -15.5t15.5 -38.5z" />
    <glyph glyph-name="eth" unicode="&#xf0;" horiz-adv-x="534" 
d="M200 521l-24 36l90 55q-42 32 -105 41l4 38q83 -7 150 -47q17 12 97 68l24 -36l-91 -52q73 -57 110 -152t37 -205q0 -143 -63.5 -215t-162.5 -72q-102 0 -164 64t-62 179q0 124 63 187t167 63q40 0 75 -22q-16 91 -55 137q-72 -55 -90 -67zM158 223q0 -81 16 -127
t38.5 -59.5t57.5 -13.5q51 0 77.5 42.5t26.5 157.5q0 118 -27 162.5t-78 44.5q-52 0 -81.5 -45t-29.5 -162z" />
    <glyph glyph-name="ntilde" unicode="&#xf1;" horiz-adv-x="620" 
d="M518 285q-2 -124 0 -166q2 -40 14 -55t47 -15h15v-52q-4 0 -54 1.5t-77 1.5q-21 0 -51.5 -1t-53.5 -1.5t-26 -0.5v52h20q32 0 45.5 15.5t14.5 53.5q3 68 0 153q-2 71 -23 107t-69 36q-61 0 -86.5 -56.5t-25.5 -170.5v-68q0 -39 13.5 -54.5t46.5 -15.5h22v-52
q-5 0 -55.5 1.5t-78.5 1.5q-29 0 -82 -2l-53 -1v52h24q33 1 44 15.5t13 53.5q2 43 2 118t-2 106q-2 36 -13.5 51.5t-48.5 15.5h-19v50q148 0 187 3v-98q38 109 154 109q159 0 156 -188zM422 659l19 4q21 -69 -7.5 -105.5t-80.5 -36.5q-33 0 -52 13.5t-37 40.5
q-16 24 -22.5 32t-17 15t-23.5 7q-48 0 -30 -95l-19 -4q-21 70 6 106t82 36q27 0 46.5 -12t39.5 -41q15 -21 22.5 -30.5t18.5 -17t24 -7.5q49 0 31 95z" />
    <glyph glyph-name="ograve" unicode="&#xf2;" horiz-adv-x="534" 
d="M40 223q0 124 61.5 187t165.5 63t165.5 -63t61.5 -187q0 -115 -62.5 -179t-164.5 -64q-104 0 -165.5 63.5t-61.5 179.5zM162 223q0 -82 14 -127.5t35 -59t56 -13.5q34 0 55.5 13.5t36.5 59t15 127.5q0 117 -28 162t-80 45q-51 0 -77.5 -44.5t-26.5 -162.5zM328 526
l-8 -10q-105 52 -156 93q-19 15 -16.5 33.5t19.5 23t38 -7.5q31 -24 123 -132z" />
    <glyph glyph-name="oacute" unicode="&#xf3;" horiz-adv-x="534" 
d="M40 223q0 124 61.5 187t165.5 63t165.5 -63t61.5 -187q0 -115 -62.5 -179t-164.5 -64q-104 0 -165.5 63.5t-61.5 179.5zM162 223q0 -82 14 -127.5t35 -59t56 -13.5q34 0 55.5 13.5t36.5 59t15 127.5q0 117 -28 162t-80 45q-51 0 -77.5 -44.5t-26.5 -162.5zM238 516l-8 10
q86 103 123 132q20 14 38.5 7.5t19.5 -23.5t-17 -33q-55 -43 -156 -93z" />
    <glyph glyph-name="ocircumflex" unicode="&#xf4;" horiz-adv-x="534" 
d="M40 223q0 124 61.5 187t165.5 63t165.5 -63t61.5 -187q0 -115 -62.5 -179t-164.5 -64q-104 0 -165.5 63.5t-61.5 179.5zM162 223q0 -82 14 -127.5t35 -59t56 -13.5q34 0 55.5 13.5t36.5 59t15 127.5q0 117 -28 162t-80 45q-51 0 -77.5 -44.5t-26.5 -162.5zM413 526
l-8 -10q-30 15 -73 46t-66 54q-22 -22 -65.5 -53.5t-71.5 -46.5l-8 10q32 64 122 141h49q30 -24 66.5 -65t54.5 -76z" />
    <glyph glyph-name="otilde" unicode="&#xf5;" horiz-adv-x="534" 
d="M40 223q0 124 61.5 187t165.5 63t165.5 -63t61.5 -187q0 -115 -62.5 -179t-164.5 -64q-104 0 -165.5 63.5t-61.5 179.5zM162 223q0 -82 14 -127.5t35 -59t56 -13.5q34 0 55.5 13.5t36.5 59t15 127.5q0 117 -28 162t-80 45q-51 0 -77.5 -44.5t-26.5 -162.5zM392 659l19 4
q21 -69 -7.5 -105.5t-80.5 -36.5q-33 0 -52 13.5t-37 40.5q-16 24 -22.5 32t-17 15t-23.5 7q-48 0 -30 -95l-19 -4q-21 70 6 106t82 36q27 0 46.5 -12t39.5 -41q15 -21 22.5 -30.5t18.5 -17t24 -7.5q49 0 31 95z" />
    <glyph glyph-name="odieresis" unicode="&#xf6;" horiz-adv-x="534" 
d="M40 223q0 124 61.5 187t165.5 63t165.5 -63t61.5 -187q0 -115 -62.5 -179t-164.5 -64q-104 0 -165.5 63.5t-61.5 179.5zM162 223q0 -82 14 -127.5t35 -59t56 -13.5q34 0 55.5 13.5t36.5 59t15 127.5q0 117 -28 162t-80 45q-51 0 -77.5 -44.5t-26.5 -162.5zM237 582
q0 -23 -15.5 -38.5t-39.5 -15.5t-39.5 15.5t-15.5 38.5t15.5 38.5t39.5 15.5t39.5 -15.5t15.5 -38.5zM407 582q0 -23 -15.5 -38.5t-39.5 -15.5t-39.5 15.5t-15.5 38.5t15.5 38.5t39.5 15.5t39.5 -15.5t15.5 -38.5z" />
    <glyph glyph-name="divide" unicode="&#xf7;" 
d="M358 118q0 -25 -16 -40t-42 -15q-27 0 -43 14.5t-16 41.5q0 24 17 40t42 16q27 0 42.5 -16t15.5 -41zM97 222v57q133 0 203 -14q71 14 203 14v-57q-151 4 -203 14q-53 -10 -203 -14zM358 381q0 -25 -16 -40t-42 -15q-27 0 -43 14.5t-16 41.5q0 24 17 40t42 16
q27 0 42.5 -16t15.5 -41z" />
    <glyph glyph-name="oslash" unicode="&#xf8;" horiz-adv-x="534" 
d="M40 223q0 124 61.5 187t165.5 63q84 0 141 -42l64 70l16 -13l-54 -80q60 -65 60 -185q0 -115 -62.5 -179t-164.5 -64q-83 0 -142 42l-2 -3l-59 -62l-17 14l52 72l1 1q-60 65 -60 179zM374 223q0 60 -8 103l-91 -105l-99 -131q13 -39 35 -53t56 -14t55.5 13.5t36.5 59
t15 127.5zM162 223q0 -59 6 -97l93 110l95 127q-24 67 -90 67q-51 0 -77.5 -44.5t-26.5 -162.5z" />
    <glyph glyph-name="ugrave" unicode="&#xf9;" horiz-adv-x="620" 
d="M521 462q-1 -20 -2 -45.5t-1.5 -53.5t-0.5 -38q-2 -78 1 -218q2 -58 59 -57h22v-50q-148 0 -187 -3v94q-40 -111 -155 -111q-68 0 -112.5 45t-42.5 148q2 126 0 176q-2 33 -14.5 46.5t-46.5 13.5h-20v50h92q68 0 98 3q-3 -53 -3 -137v-148q0 -44 10 -74t26 -42.5t29 -17
t27 -4.5q57 0 84.5 50t27.5 156v104q0 34 -17 47t-61 13h-15v50h112q68 0 90 3zM341 526l-8 -10q-105 52 -156 93q-19 15 -16.5 33.5t19.5 23t38 -7.5q31 -24 123 -132z" />
    <glyph glyph-name="uacute" unicode="&#xfa;" horiz-adv-x="620" 
d="M521 462q-1 -20 -2 -45.5t-1.5 -53.5t-0.5 -38q-2 -78 1 -218q2 -58 59 -57h22v-50q-148 0 -187 -3v94q-40 -111 -155 -111q-68 0 -112.5 45t-42.5 148q2 126 0 176q-2 33 -14.5 46.5t-46.5 13.5h-20v50h92q68 0 98 3q-3 -53 -3 -137v-148q0 -44 10 -74t26 -42.5t29 -17
t27 -4.5q57 0 84.5 50t27.5 156v104q0 34 -17 47t-61 13h-15v50h112q68 0 90 3zM281 516l-8 10q86 103 123 132q20 14 38.5 7.5t19.5 -23.5t-17 -33q-55 -43 -156 -93z" />
    <glyph glyph-name="ucircumflex" unicode="&#xfb;" horiz-adv-x="620" 
d="M521 462q-1 -20 -2 -45.5t-1.5 -53.5t-0.5 -38q-2 -78 1 -218q2 -58 59 -57h22v-50q-148 0 -187 -3v94q-40 -111 -155 -111q-68 0 -112.5 45t-42.5 148q2 126 0 176q-2 33 -14.5 46.5t-46.5 13.5h-20v50h92q68 0 98 3q-3 -53 -3 -137v-148q0 -44 10 -74t26 -42.5t29 -17
t27 -4.5q57 0 84.5 50t27.5 156v104q0 34 -17 47t-61 13h-15v50h112q68 0 90 3zM436 526l-8 -10q-30 15 -73 46t-66 54q-22 -22 -65.5 -53.5t-71.5 -46.5l-8 10q32 64 122 141h49q30 -24 66.5 -65t54.5 -76z" />
    <glyph glyph-name="udieresis" unicode="&#xfc;" horiz-adv-x="620" 
d="M521 462q-1 -20 -2 -45.5t-1.5 -53.5t-0.5 -38q-2 -78 1 -218q2 -58 59 -57h22v-50q-148 0 -187 -3v94q-40 -111 -155 -111q-68 0 -112.5 45t-42.5 148q2 126 0 176q-2 33 -14.5 46.5t-46.5 13.5h-20v50h92q68 0 98 3q-3 -53 -3 -137v-148q0 -44 10 -74t26 -42.5t29 -17
t27 -4.5q57 0 84.5 50t27.5 156v104q0 34 -17 47t-61 13h-15v50h112q68 0 90 3zM260 582q0 -23 -15.5 -38.5t-39.5 -15.5t-39.5 15.5t-15.5 38.5t15.5 38.5t39.5 15.5t39.5 -15.5t15.5 -38.5zM430 582q0 -23 -15.5 -38.5t-39.5 -15.5t-39.5 15.5t-15.5 38.5t15.5 38.5
t39.5 15.5t39.5 -15.5t15.5 -38.5z" />
    <glyph glyph-name="yacute" unicode="&#xfd;" horiz-adv-x="571" 
d="M389 355q7 24 -2.5 39t-35.5 15h-22v50q60 -3 118 -3l104 3v-50h-21q-38 0 -56.5 -13t-32.5 -43q-43 -99 -145 -370q-32 -86 -74 -130t-116 -44q-52 0 -78 24.5t-26 61.5q0 38 21 56.5t47 18.5q65 0 65 -59q0 -24 -15.5 -42.5t-45.5 -22.5q18 -4 36 -4q51 0 91.5 41.5
t73.5 148.5h-45q-51 145 -128 322q-13 30 -31 42.5t-46 12.5h-15v50q67 -3 134 -3l135 3v-50h-21q-54 0 -37 -54q29 -91 87 -229q78 218 81 229zM307 516l-8 10q86 103 123 132q20 14 38.5 7.5t19.5 -23.5t-17 -33q-55 -43 -156 -93z" />
    <glyph glyph-name="thorn" unicode="&#xfe;" horiz-adv-x="584" 
d="M353 -17q-107 0 -145 96v-137q0 -69 66 -69h21v-50q-4 0 -56 1.5t-81 1.5t-83 -2l-54 -1v50h23q55 0 58 69q2 33 2 312.5t-2 317.5q-2 39 -15 53.5t-49 14.5h-17v50q148 0 187 3v-329q39 109 155 109q171 0 171 -245q0 -120 -46 -182.5t-135 -62.5zM208 228
q0 -87 23.5 -136t86.5 -49q54 0 76.5 37.5t22.5 147.5q0 43 -3 71t-12 57t-29.5 43.5t-52.5 14.5q-53 0 -82.5 -49t-29.5 -137z" />
    <glyph glyph-name="ydieresis" unicode="&#xff;" horiz-adv-x="571" 
d="M389 355q7 24 -2.5 39t-35.5 15h-22v50q60 -3 118 -3l104 3v-50h-21q-38 0 -56.5 -13t-32.5 -43q-43 -99 -145 -370q-32 -86 -74 -130t-116 -44q-52 0 -78 24.5t-26 61.5q0 38 21 56.5t47 18.5q65 0 65 -59q0 -24 -15.5 -42.5t-45.5 -22.5q18 -4 36 -4q51 0 91.5 41.5
t73.5 148.5h-45q-51 145 -128 322q-13 30 -31 42.5t-46 12.5h-15v50q67 -3 134 -3l135 3v-50h-21q-54 0 -37 -54q29 -91 87 -229q78 218 81 229zM276 582q0 -23 -15.5 -38.5t-39.5 -15.5t-39.5 15.5t-15.5 38.5t15.5 38.5t39.5 15.5t39.5 -15.5t15.5 -38.5zM446 582
q0 -23 -15.5 -38.5t-39.5 -15.5t-39.5 15.5t-15.5 38.5t15.5 38.5t39.5 15.5t39.5 -15.5t15.5 -38.5z" />
    <glyph glyph-name="Amacron" unicode="&#x100;" horiz-adv-x="882" 
d="M574 155l-22 60q-138 4 -281 0q-17 -48 -21 -62q-16 -42 -4 -68t58 -26h43l-1 -61q-99 2 -154 2l-154 -2v61h37q41 0 63 18t40 65q59 149 204 554q37 -3 57 -3l56 3q27 -80 110 -290t107 -265q20 -46 38.5 -64t48.5 -18h45v-61q-114 2 -178 2l-179 -2l1 61h44
q36 0 47.5 24.5t-5.5 71.5zM533 267q-79 218 -124 327q-39 -99 -120 -327q124 -2 244 0zM317 763q2 30 0 62q128 -4 256 0q-1 -31 0 -62q-128 4 -256 0z" />
    <glyph glyph-name="amacron" unicode="&#x101;" horiz-adv-x="527" 
d="M413 288v-196q0 -51 24 -51q35 0 30 113l39 3q2 -89 -18 -130t-77 -41q-93 0 -102 91q-47 -90 -143 -90q-136 0 -136 120q0 140 278 159v31q0 73 -21.5 104t-85.5 30q-43 -1 -70 -14q50 -9 50 -58q0 -29 -18 -45t-49 -16q-32 0 -50 17t-18 50q0 51 56 79.5t131 28.5
q101 0 140.5 -48t39.5 -137zM211 43q97 0 97 142v55q-159 -18 -159 -128q0 -69 62 -69zM104 537q2 30 0 62q128 -4 256 0q-1 -31 0 -62q-128 4 -256 0z" />
    <glyph glyph-name="Abreve" unicode="&#x102;" horiz-adv-x="882" 
d="M574 155l-22 60q-138 4 -281 0q-17 -48 -21 -62q-16 -42 -4 -68t58 -26h43l-1 -61q-99 2 -154 2l-154 -2v61h37q41 0 63 18t40 65q59 149 204 554q37 -3 57 -3l56 3q27 -80 110 -290t107 -265q20 -46 38.5 -64t48.5 -18h45v-61q-114 2 -178 2l-179 -2l1 61h44
q36 0 47.5 24.5t-5.5 71.5zM533 267q-79 218 -124 327q-39 -99 -120 -327q124 -2 244 0zM441 751q-71 0 -108 41.5t-29 103.5l14 2q3 -46 34 -62t89 -16t89 16t34 62l14 -2q8 -62 -29 -103.5t-108 -41.5z" />
    <glyph glyph-name="abreve" unicode="&#x103;" horiz-adv-x="527" 
d="M413 288v-196q0 -51 24 -51q35 0 30 113l39 3q2 -89 -18 -130t-77 -41q-93 0 -102 91q-47 -90 -143 -90q-136 0 -136 120q0 140 278 159v31q0 73 -21.5 104t-85.5 30q-43 -1 -70 -14q50 -9 50 -58q0 -29 -18 -45t-49 -16q-32 0 -50 17t-18 50q0 51 56 79.5t131 28.5
q101 0 140.5 -48t39.5 -137zM211 43q97 0 97 142v55q-159 -18 -159 -128q0 -69 62 -69zM238 526q-71 0 -108 41.5t-29 103.5l14 2q3 -46 34 -62t89 -16t89 16t34 62l14 -2q8 -62 -29 -103.5t-108 -41.5z" />
    <glyph glyph-name="Aogonek" unicode="&#x104;" horiz-adv-x="882" 
d="M801 -84q-6 -122 -118 -122q-46 0 -75 25t-28 67q3 71 86 114l-179 -2l1 61h44q36 0 47.5 24.5t-5.5 71.5l-22 60q-138 4 -281 0q-17 -48 -21 -62q-16 -42 -4 -68t58 -26h43l-1 -61q-99 2 -154 2l-154 -2v61h37q41 0 63 18t40 65q59 149 204 554q37 -3 57 -3l56 3
q27 -80 110 -290t107 -265q20 -46 38.5 -64t48.5 -18h45v-61q-72 2 -133 2q-62 -35 -62 -93q0 -28 17 -43t42 -15q58 0 68 71zM533 267q-79 218 -124 327q-39 -99 -120 -327q124 -2 244 0z" />
    <glyph glyph-name="aogonek" unicode="&#x105;" horiz-adv-x="527" 
d="M581 -84q-5 -59 -36.5 -90.5t-88.5 -31.5q-46 0 -72.5 25t-24.5 67q4 64 71 101q-5 -1 -19 -1q-93 0 -102 91q-47 -90 -143 -90q-136 0 -136 120q0 140 278 159v31q0 73 -21.5 104t-85.5 30q-43 -1 -70 -14q50 -9 50 -58q0 -29 -18 -45t-49 -16q-32 0 -50 17t-18 50
q0 51 56 79.5t131 28.5q101 0 140.5 -48t39.5 -137v-196q0 -51 24 -51q35 0 30 113l39 3q2 -57 -5 -89t-26 -62q-6 -9 -18.5 -26.5t-17 -25t-9 -20.5t-4.5 -27q0 -29 16 -43.5t41 -14.5q57 0 73 71zM211 43q97 0 97 142v55q-159 -18 -159 -128q0 -69 62 -69z" />
    <glyph glyph-name="Cacute" unicode="&#x106;" horiz-adv-x="735" 
d="M552 669q41 -21 54 -15t18 46h60q-8 -44 -13 -121t-2 -132q-33 3 -66 0q-8 48 -19 80.5t-33 64t-60.5 47.5t-94.5 16q-107 0 -155.5 -74t-48.5 -235q0 -175 51 -243t145 -68q105 0 162 62.5t63 170.5q35 -4 69 0q-10 -146 -78.5 -217t-216.5 -71q-337 0 -337 366
q0 183 93 273.5t244 90.5q87 0 165 -41zM378 746l-8 10q86 103 123 132q20 14 38.5 7.5t19.5 -23.5t-17 -33q-55 -43 -156 -93z" />
    <glyph glyph-name="cacute" unicode="&#x107;" horiz-adv-x="487" 
d="M402 133l52 -12q-42 -138 -196 -138q-106 0 -162 64t-56 179q0 113 62 180t167 67q73 0 122 -30.5t49 -79.5q0 -31 -18 -48t-51 -17q-31 0 -49 16.5t-18 43.5q0 45 39 57q-30 16 -72 16q-62 0 -88 -46t-26 -158q0 -108 26 -149t89 -41q60 0 88.5 24t41.5 72zM258 516
l-8 10q86 103 123 132q20 14 38.5 7.5t19.5 -23.5t-17 -33q-55 -43 -156 -93z" />
    <glyph glyph-name="Ccircumflex" unicode="&#x108;" horiz-adv-x="735" 
d="M552 669q41 -21 54 -15t18 46h60q-8 -44 -13 -121t-2 -132q-33 3 -66 0q-8 48 -19 80.5t-33 64t-60.5 47.5t-94.5 16q-107 0 -155.5 -74t-48.5 -235q0 -175 51 -243t145 -68q105 0 162 62.5t63 170.5q35 -4 69 0q-10 -146 -78.5 -217t-216.5 -71q-337 0 -337 366
q0 183 93 273.5t244 90.5q87 0 165 -41zM533 746l-8 -10q-30 15 -73 46t-66 54q-22 -22 -65.5 -53.5t-71.5 -46.5l-8 10q32 64 122 141h49q30 -24 66.5 -65t54.5 -76z" />
    <glyph glyph-name="ccircumflex" unicode="&#x109;" horiz-adv-x="487" 
d="M402 133l52 -12q-42 -138 -196 -138q-106 0 -162 64t-56 179q0 113 62 180t167 67q73 0 122 -30.5t49 -79.5q0 -31 -18 -48t-51 -17q-31 0 -49 16.5t-18 43.5q0 45 39 57q-30 16 -72 16q-62 0 -88 -46t-26 -158q0 -108 26 -149t89 -41q60 0 88.5 24t41.5 72zM423 526
l-8 -10q-30 15 -73 46t-66 54q-22 -22 -65.5 -53.5t-71.5 -46.5l-8 10q32 64 122 141h49q30 -24 66.5 -65t54.5 -76z" />
    <glyph glyph-name="Cdotaccent" unicode="&#x10a;" horiz-adv-x="735" 
d="M552 669q41 -21 54 -15t18 46h60q-8 -44 -13 -121t-2 -132q-33 3 -66 0q-8 48 -19 80.5t-33 64t-60.5 47.5t-94.5 16q-107 0 -155.5 -74t-48.5 -235q0 -175 51 -243t145 -68q105 0 162 62.5t63 170.5q35 -4 69 0q-10 -146 -78.5 -217t-216.5 -71q-337 0 -337 366
q0 183 93 273.5t244 90.5q87 0 165 -41zM441 831q0 -23 -15.5 -38.5t-38.5 -15.5q-22 0 -37.5 16t-15.5 38t15.5 38t37.5 16q23 0 38.5 -15.5t15.5 -38.5z" />
    <glyph glyph-name="cdotaccent" unicode="&#x10b;" horiz-adv-x="487" 
d="M402 133l52 -12q-42 -138 -196 -138q-106 0 -162 64t-56 179q0 113 62 180t167 67q73 0 122 -30.5t49 -79.5q0 -31 -18 -48t-51 -17q-31 0 -49 16.5t-18 43.5q0 45 39 57q-30 16 -72 16q-62 0 -88 -46t-26 -158q0 -108 26 -149t89 -41q60 0 88.5 24t41.5 72zM321 601
q0 -23 -15.5 -38.5t-38.5 -15.5q-22 0 -37.5 16t-15.5 38t15.5 38t37.5 16q23 0 38.5 -15.5t15.5 -38.5z" />
    <glyph glyph-name="Ccaron" unicode="&#x10c;" horiz-adv-x="735" 
d="M552 669q41 -21 54 -15t18 46h60q-8 -44 -13 -121t-2 -132q-33 3 -66 0q-8 48 -19 80.5t-33 64t-60.5 47.5t-94.5 16q-107 0 -155.5 -74t-48.5 -235q0 -175 51 -243t145 -68q105 0 162 62.5t63 170.5q35 -4 69 0q-10 -146 -78.5 -217t-216.5 -71q-337 0 -337 366
q0 183 93 273.5t244 90.5q87 0 165 -41zM241 897l8 10q30 -15 73 -46t66 -54q22 22 65.5 53.5t71.5 46.5l8 -10q-32 -64 -122 -141h-49q-30 24 -66.5 65t-54.5 76z" />
    <glyph glyph-name="ccaron" unicode="&#x10d;" horiz-adv-x="487" 
d="M402 133l52 -12q-42 -138 -196 -138q-106 0 -162 64t-56 179q0 113 62 180t167 67q73 0 122 -30.5t49 -79.5q0 -31 -18 -48t-51 -17q-31 0 -49 16.5t-18 43.5q0 45 39 57q-30 16 -72 16q-62 0 -88 -46t-26 -158q0 -108 26 -149t89 -41q60 0 88.5 24t41.5 72zM131 667
l8 10q30 -15 73 -46t66 -54q22 22 65.5 53.5t71.5 46.5l8 -10q-32 -64 -122 -141h-49q-30 24 -66.5 65t-54.5 76z" />
    <glyph glyph-name="Dcaron" unicode="&#x10e;" horiz-adv-x="781" 
d="M384 689q179 0 262.5 -82t85.5 -257q1 -95 -25 -164t-75 -109t-110.5 -58.5t-137.5 -18.5h-173l-173 -2v61h57q35 0 46.5 7.5t12.5 33.5q2 54 2 245.5t-2 236.5q-1 29 -12.5 39t-39.5 10h-64v59q4 0 76.5 -1t100.5 -1zM275 101q1 -26 14.5 -38.5t31.5 -12.5h50
q125 0 176 64t51 237q0 160 -49 224t-177 64h-51q-43 0 -46 -45q-3 -61 -3 -246.5t3 -246.5zM219 897l8 10q30 -15 73 -46t66 -54q22 22 65.5 53.5t71.5 46.5l8 -10q-32 -64 -122 -141h-49q-30 24 -66.5 65t-54.5 76z" />
    <glyph glyph-name="dcaron" unicode="&#x10f;" horiz-adv-x="699" 
d="M231 473q108 0 145 -98v218q0 47 -44 47h-48v50q159 0 198 3q-2 -94 -2 -316t2 -280q1 -47 44 -47h37v-50l-187 -3v93q-40 -107 -150 -107q-90 0 -133 59t-43 186q0 124 47.5 184.5t133.5 60.5zM376 228q0 186 -107 186q-55 0 -78.5 -38.5t-23.5 -147.5q0 -43 3 -71
t12 -57t29.5 -43.5t52.5 -14.5q54 0 83 49.5t29 136.5zM537 521q111 30 108 124q-11 -29 -46 -29q-43 0 -43 48q0 23 16 38.5t41 15.5q58 0 58 -70q0 -52 -32 -91t-96 -56z" />
    <glyph glyph-name="Dcroat" unicode="&#x110;" horiz-adv-x="781" 
d="M384 689q179 0 262.5 -82t85.5 -257q1 -95 -25 -164t-75 -109t-110.5 -58.5t-137.5 -18.5h-173l-173 -2v61h57q35 0 46.5 7.5t12.5 33.5q2 68 2 227q-20 0 -50 -0.5t-37 -0.5v60q38 -2 87 -2q0 146 -2 198q-1 29 -12.5 39t-39.5 10h-64v59q4 0 76.5 -1t100.5 -1zM275 101
q1 -26 14.5 -38.5t31.5 -12.5h50q125 0 176 64t51 237q0 160 -49 224t-177 64h-51q-43 0 -46 -45q-3 -48 -3 -210q67 0 113 2v-60q-23 1 -113 1q0 -177 3 -226z" />
    <glyph glyph-name="dcroat" unicode="&#x111;" horiz-adv-x="584" 
d="M292 522v46q40 -2 84 -2v27q0 47 -44 47h-48v50q159 0 198 3q-2 -58 -2 -127q43 0 85 2v-46q-9 0 -37.5 0.5t-47.5 0.5q0 -372 2 -426q1 -47 44 -47h37v-50l-187 -3v93q-40 -107 -150 -107q-90 0 -133 59t-43 186q0 124 47.5 184.5t133.5 60.5q108 0 145 -98v148
q-19 0 -47.5 -0.5t-36.5 -0.5zM376 228q0 186 -107 186q-55 0 -78.5 -38.5t-23.5 -147.5q0 -43 3 -71t12 -57t29.5 -43.5t52.5 -14.5q54 0 83 49.5t29 136.5z" />
    <glyph glyph-name="Emacron" unicode="&#x112;" horiz-adv-x="732" 
d="M452 491v15h55q0 -13 -1.5 -62t-1.5 -92q0 -109 3 -160h-53v12q-2 65 -32 94t-102 29h-47q0 -173 3 -216q3 -52 52 -52h143q91 0 126 47.5t35 157.5h61q-10 -106 -10 -268q-47 4 -188 4h-287l-170 -2v61h56q32 0 44 15t15 45q3 41 3 229.5t-3 232.5q-2 29 -13.5 39.5
t-38.5 10.5h-63v59q8 0 86.5 -1t88.5 -1h43.5t101 0.5t124.5 0.5q160 0 207 6q-8 -99 -6 -251h-54q0 108 -32.5 146t-123.5 38h-150q-44 0 -47 -47q-3 -41 -3 -206h50q68 0 98.5 25.5t30.5 90.5zM271 763q2 30 0 62q128 -4 256 0q-1 -31 0 -62q-128 4 -256 0z" />
    <glyph glyph-name="emacron" unicode="&#x113;" horiz-adv-x="509" 
d="M411 130l49 -12q-18 -65 -68 -101.5t-129 -36.5q-106 0 -164.5 64.5t-58.5 181.5t62.5 182t161.5 65q108 0 159 -72t43 -190h-309q2 -96 32 -136.5t93 -40.5q58 0 87.5 25t41.5 71zM259 426q-49 0 -74.5 -42.5t-27.5 -138.5h167q12 0 16 5t4 20q0 156 -85 156zM139 537
q2 30 0 62q128 -4 256 0q-1 -31 0 -62q-128 4 -256 0z" />
    <glyph glyph-name="Ebreve" unicode="&#x114;" horiz-adv-x="732" 
d="M452 491v15h55q0 -13 -1.5 -62t-1.5 -92q0 -109 3 -160h-53v12q-2 65 -32 94t-102 29h-47q0 -173 3 -216q3 -52 52 -52h143q91 0 126 47.5t35 157.5h61q-10 -106 -10 -268q-47 4 -188 4h-287l-170 -2v61h56q32 0 44 15t15 45q3 41 3 229.5t-3 232.5q-2 29 -13.5 39.5
t-38.5 10.5h-63v59q8 0 86.5 -1t88.5 -1h43.5t101 0.5t124.5 0.5q160 0 207 6q-8 -99 -6 -251h-54q0 108 -32.5 146t-123.5 38h-150q-44 0 -47 -47q-3 -41 -3 -206h50q68 0 98.5 25.5t30.5 90.5zM406 751q-71 0 -108 41.5t-29 103.5l14 2q3 -46 34 -62t89 -16t89 16t34 62
l14 -2q8 -62 -29 -103.5t-108 -41.5z" />
    <glyph glyph-name="ebreve" unicode="&#x115;" horiz-adv-x="509" 
d="M411 130l49 -12q-18 -65 -68 -101.5t-129 -36.5q-106 0 -164.5 64.5t-58.5 181.5t62.5 182t161.5 65q108 0 159 -72t43 -190h-309q2 -96 32 -136.5t93 -40.5q58 0 87.5 25t41.5 71zM259 426q-49 0 -74.5 -42.5t-27.5 -138.5h167q12 0 16 5t4 20q0 156 -85 156zM265 526
q-71 0 -108 41.5t-29 103.5l14 2q3 -46 34 -62t89 -16t89 16t34 62l14 -2q8 -62 -29 -103.5t-108 -41.5z" />
    <glyph glyph-name="Edotaccent" unicode="&#x116;" horiz-adv-x="732" 
d="M452 491v15h55q0 -13 -1.5 -62t-1.5 -92q0 -109 3 -160h-53v12q-2 65 -32 94t-102 29h-47q0 -173 3 -216q3 -52 52 -52h143q91 0 126 47.5t35 157.5h61q-10 -106 -10 -268q-47 4 -188 4h-287l-170 -2v61h56q32 0 44 15t15 45q3 41 3 229.5t-3 232.5q-2 29 -13.5 39.5
t-38.5 10.5h-63v59q8 0 86.5 -1t88.5 -1h43.5t101 0.5t124.5 0.5q160 0 207 6q-8 -99 -6 -251h-54q0 108 -32.5 146t-123.5 38h-150q-44 0 -47 -47q-3 -41 -3 -206h50q68 0 98.5 25.5t30.5 90.5zM449 831q0 -23 -15.5 -38.5t-38.5 -15.5q-22 0 -37.5 16t-15.5 38t15.5 38
t37.5 16q23 0 38.5 -15.5t15.5 -38.5z" />
    <glyph glyph-name="edotaccent" unicode="&#x117;" horiz-adv-x="509" 
d="M411 130l49 -12q-18 -65 -68 -101.5t-129 -36.5q-106 0 -164.5 64.5t-58.5 181.5t62.5 182t161.5 65q108 0 159 -72t43 -190h-309q2 -96 32 -136.5t93 -40.5q58 0 87.5 25t41.5 71zM259 426q-49 0 -74.5 -42.5t-27.5 -138.5h167q12 0 16 5t4 20q0 156 -85 156zM318 601
q0 -23 -16 -38.5t-38 -15.5t-37.5 16t-15.5 38t15.5 38t37.5 16t38 -15.5t16 -38.5z" />
    <glyph glyph-name="Eogonek" unicode="&#x118;" horiz-adv-x="732" 
d="M710 -84q-6 -122 -118 -122q-46 0 -75 25t-28 67q3 70 85 114h-366l-170 -2v61h56q32 0 44 15t15 45q3 41 3 229.5t-3 232.5q-2 29 -13.5 39.5t-38.5 10.5h-63v59q8 0 86.5 -1t88.5 -1h43.5t101 0.5t124.5 0.5q160 0 207 6q-8 -99 -6 -251h-54q0 108 -32.5 146t-123.5 38
h-150q-44 0 -47 -47q-3 -41 -3 -206h50q68 0 98.5 25.5t30.5 90.5v15h55q0 -13 -1.5 -62t-1.5 -92q0 -109 3 -160h-53v12q-2 65 -32 94t-102 29h-47q0 -173 3 -216q3 -52 52 -52h143q91 0 126 47.5t35 157.5h61q-10 -106 -10 -268q-25 3 -64 3q-61 -35 -61 -92q0 -28 17 -43
t42 -15q58 0 68 71z" />
    <glyph glyph-name="eogonek" unicode="&#x119;" horiz-adv-x="509" 
d="M482 -84q-5 -59 -36.5 -90.5t-88.5 -31.5q-46 0 -72.5 25t-24.5 67q3 60 72 101q-32 -7 -69 -7q-106 0 -164.5 64.5t-58.5 181.5t62.5 182t161.5 65q108 0 159 -72t43 -190h-309q2 -96 32 -136.5t93 -40.5q58 0 87.5 25t41.5 71l49 -12q-15 -54 -79 -114q-54 -51 -54 -97
q0 -29 16 -43.5t41 -14.5q57 0 73 71zM259 426q-49 0 -74.5 -42.5t-27.5 -138.5h167q12 0 16 5t4 20q0 156 -85 156z" />
    <glyph glyph-name="Ecaron" unicode="&#x11a;" horiz-adv-x="732" 
d="M452 491v15h55q0 -13 -1.5 -62t-1.5 -92q0 -109 3 -160h-53v12q-2 65 -32 94t-102 29h-47q0 -173 3 -216q3 -52 52 -52h143q91 0 126 47.5t35 157.5h61q-10 -106 -10 -268q-47 4 -188 4h-287l-170 -2v61h56q32 0 44 15t15 45q3 41 3 229.5t-3 232.5q-2 29 -13.5 39.5
t-38.5 10.5h-63v59q8 0 86.5 -1t88.5 -1h43.5t101 0.5t124.5 0.5q160 0 207 6q-8 -99 -6 -251h-54q0 108 -32.5 146t-123.5 38h-150q-44 0 -47 -47q-3 -41 -3 -206h50q68 0 98.5 25.5t30.5 90.5zM239 897l8 10q30 -15 73 -46t66 -54q22 22 65.5 53.5t71.5 46.5l8 -10
q-32 -64 -122 -141h-49q-30 24 -66.5 65t-54.5 76z" />
    <glyph glyph-name="ecaron" unicode="&#x11b;" horiz-adv-x="509" 
d="M411 130l49 -12q-18 -65 -68 -101.5t-129 -36.5q-106 0 -164.5 64.5t-58.5 181.5t62.5 182t161.5 65q108 0 159 -72t43 -190h-309q2 -96 32 -136.5t93 -40.5q58 0 87.5 25t41.5 71zM259 426q-49 0 -74.5 -42.5t-27.5 -138.5h167q12 0 16 5t4 20q0 156 -85 156zM118 667
l8 10q30 -15 73 -46t66 -54q22 22 65.5 53.5t71.5 46.5l8 -10q-32 -64 -122 -141h-49q-30 24 -66.5 65t-54.5 76z" />
    <glyph glyph-name="Gcircumflex" unicode="&#x11c;" horiz-adv-x="802" 
d="M388 710q86 0 164 -41q41 -21 54 -15t18 46h60q-8 -44 -13 -121t-2 -132q-33 3 -66 0q-8 48 -19 80.5t-33 64t-60.5 47.5t-94.5 16q-107 0 -155.5 -74t-48.5 -235q0 -91 15 -153.5t43 -96t61.5 -47.5t76.5 -14q82 0 132.5 43.5t50.5 129.5q0 52 -12 72.5t-52 20.5h-43v57
q99 -3 154 -3l154 3v-57h-34q-22 0 -31 -12t-9 -41q0 -182 6 -255q-34 4 -67 0q-9 44 -28 112q-28 -55 -88 -90t-135 -35q-159 0 -247.5 88t-88.5 278q0 183 93.5 273.5t244.5 90.5zM527 745l-8 -10q-30 15 -73 46t-66 54q-22 -22 -65.5 -53.5t-71.5 -46.5l-8 10
q32 64 122 141h49q30 -24 66.5 -65t54.5 -76z" />
    <glyph glyph-name="gcircumflex" unicode="&#x11d;" horiz-adv-x="510" 
d="M214 473q69 0 115 -23q9 39 33.5 64t62.5 25q37 0 58.5 -20.5t21.5 -55.5q0 -29 -14.5 -45t-39.5 -16q-26 0 -40.5 13.5t-14.5 36.5q0 27 17 42q-45 -3 -59 -60q51 -40 51 -129q0 -83 -54.5 -128.5t-136.5 -45.5h-16q-73 1 -73 -24q0 -10 6 -16t38.5 -12.5t93.5 -7.5
q123 -3 169.5 -33t46.5 -93q0 -60 -63 -106t-180 -46q-114 0 -170 28.5t-56 78.5q0 31 28.5 54t72.5 33q-63 20 -63 75q0 62 86 81q-50 18 -79 59t-29 103q0 81 55.5 124.5t132.5 43.5zM235 -30q-39 2 -57 4q-95 -11 -95 -62q0 -30 36 -50t116 -20q183 0 183 67
q0 28 -39.5 43.5t-143.5 17.5zM216 430q-43 0 -61.5 -30t-18.5 -97q0 -70 18 -99.5t62 -29.5q45 0 62 29.5t17 99.5q0 69 -18 98t-61 29zM358 526l-8 -10q-30 15 -73 46t-66 54q-22 -22 -65.5 -53.5t-71.5 -46.5l-8 10q32 64 122 141h49q30 -24 66.5 -65t54.5 -76z" />
    <glyph glyph-name="Gbreve" unicode="&#x11e;" horiz-adv-x="802" 
d="M388 710q86 0 164 -41q41 -21 54 -15t18 46h60q-8 -44 -13 -121t-2 -132q-33 3 -66 0q-8 48 -19 80.5t-33 64t-60.5 47.5t-94.5 16q-107 0 -155.5 -74t-48.5 -235q0 -91 15 -153.5t43 -96t61.5 -47.5t76.5 -14q82 0 132.5 43.5t50.5 129.5q0 52 -12 72.5t-52 20.5h-43v57
q99 -3 154 -3l154 3v-57h-34q-22 0 -31 -12t-9 -41q0 -182 6 -255q-34 4 -67 0q-9 44 -28 112q-28 -55 -88 -90t-135 -35q-159 0 -247.5 88t-88.5 278q0 183 93.5 273.5t244.5 90.5zM381 751q-71 0 -108 41.5t-29 103.5l14 2q3 -46 34 -62t89 -16t89 16t34 62l14 -2
q8 -62 -29 -103.5t-108 -41.5z" />
    <glyph glyph-name="gbreve" unicode="&#x11f;" horiz-adv-x="510" 
d="M214 473q69 0 115 -23q9 39 33.5 64t62.5 25q37 0 58.5 -20.5t21.5 -55.5q0 -29 -14.5 -45t-39.5 -16q-26 0 -40.5 13.5t-14.5 36.5q0 27 17 42q-45 -3 -59 -60q51 -40 51 -129q0 -83 -54.5 -128.5t-136.5 -45.5h-16q-73 1 -73 -24q0 -10 6 -16t38.5 -12.5t93.5 -7.5
q123 -3 169.5 -33t46.5 -93q0 -60 -63 -106t-180 -46q-114 0 -170 28.5t-56 78.5q0 31 28.5 54t72.5 33q-63 20 -63 75q0 62 86 81q-50 18 -79 59t-29 103q0 81 55.5 124.5t132.5 43.5zM235 -30q-39 2 -57 4q-95 -11 -95 -62q0 -30 36 -50t116 -20q183 0 183 67
q0 28 -39.5 43.5t-143.5 17.5zM216 430q-43 0 -61.5 -30t-18.5 -97q0 -70 18 -99.5t62 -29.5q45 0 62 29.5t17 99.5q0 69 -18 98t-61 29zM209 526q-71 0 -108 41.5t-29 103.5l14 2q3 -46 34 -62t89 -16t89 16t34 62l14 -2q8 -62 -29 -103.5t-108 -41.5z" />
    <glyph glyph-name="Gdotaccent" unicode="&#x120;" horiz-adv-x="802" 
d="M388 710q86 0 164 -41q41 -21 54 -15t18 46h60q-8 -44 -13 -121t-2 -132q-33 3 -66 0q-8 48 -19 80.5t-33 64t-60.5 47.5t-94.5 16q-107 0 -155.5 -74t-48.5 -235q0 -91 15 -153.5t43 -96t61.5 -47.5t76.5 -14q82 0 132.5 43.5t50.5 129.5q0 52 -12 72.5t-52 20.5h-43v57
q99 -3 154 -3l154 3v-57h-34q-22 0 -31 -12t-9 -41q0 -182 6 -255q-34 4 -67 0q-9 44 -28 112q-28 -55 -88 -90t-135 -35q-159 0 -247.5 88t-88.5 278q0 183 93.5 273.5t244.5 90.5zM435 831q0 -23 -15.5 -38.5t-38.5 -15.5q-22 0 -37.5 16t-15.5 38t15.5 38t37.5 16
q23 0 38.5 -15.5t15.5 -38.5z" />
    <glyph glyph-name="gdotaccent" unicode="&#x121;" horiz-adv-x="510" 
d="M214 473q69 0 115 -23q9 39 33.5 64t62.5 25q37 0 58.5 -20.5t21.5 -55.5q0 -29 -14.5 -45t-39.5 -16q-26 0 -40.5 13.5t-14.5 36.5q0 27 17 42q-45 -3 -59 -60q51 -40 51 -129q0 -83 -54.5 -128.5t-136.5 -45.5h-16q-73 1 -73 -24q0 -10 6 -16t38.5 -12.5t93.5 -7.5
q123 -3 169.5 -33t46.5 -93q0 -60 -63 -106t-180 -46q-114 0 -170 28.5t-56 78.5q0 31 28.5 54t72.5 33q-63 20 -63 75q0 62 86 81q-50 18 -79 59t-29 103q0 81 55.5 124.5t132.5 43.5zM235 -30q-39 2 -57 4q-95 -11 -95 -62q0 -30 36 -50t116 -20q183 0 183 67
q0 28 -39.5 43.5t-143.5 17.5zM216 430q-43 0 -61.5 -30t-18.5 -97q0 -70 18 -99.5t62 -29.5q45 0 62 29.5t17 99.5q0 69 -18 98t-61 29zM280 601q0 -23 -16 -38.5t-38 -15.5t-37.5 16t-15.5 38t15.5 38t37.5 16t38 -15.5t16 -38.5z" />
    <glyph glyph-name="Gcommaaccent" unicode="&#x122;" horiz-adv-x="802" 
d="M388 710q86 0 164 -41q41 -21 54 -15t18 46h60q-8 -44 -13 -121t-2 -132q-33 3 -66 0q-8 48 -19 80.5t-33 64t-60.5 47.5t-94.5 16q-107 0 -155.5 -74t-48.5 -235q0 -91 15 -153.5t43 -96t61.5 -47.5t76.5 -14q82 0 132.5 43.5t50.5 129.5q0 52 -12 72.5t-52 20.5h-43v57
q99 -3 154 -3l154 3v-57h-34q-22 0 -31 -12t-9 -41q0 -182 6 -255q-34 4 -67 0q-9 44 -28 112q-28 -55 -88 -90t-135 -35q-159 0 -247.5 88t-88.5 278q0 183 93.5 273.5t244.5 90.5zM297 -269q111 30 108 124q-11 -29 -46 -29q-43 0 -43 48q0 23 16 38.5t41 15.5
q58 0 58 -70q0 -52 -32 -91t-96 -56z" />
    <glyph glyph-name="gcommaaccent" unicode="&#x123;" horiz-adv-x="510" 
d="M214 473q69 0 115 -23q9 39 33.5 64t62.5 25q37 0 58.5 -20.5t21.5 -55.5q0 -29 -14.5 -45t-39.5 -16q-26 0 -40.5 13.5t-14.5 36.5q0 27 17 42q-45 -3 -59 -60q51 -40 51 -129q0 -83 -54.5 -128.5t-136.5 -45.5h-16q-73 1 -73 -24q0 -10 6 -16t38.5 -12.5t93.5 -7.5
q123 -3 169.5 -33t46.5 -93q0 -60 -63 -106t-180 -46q-114 0 -170 28.5t-56 78.5q0 31 28.5 54t72.5 33q-63 20 -63 75q0 62 86 81q-50 18 -79 59t-29 103q0 81 55.5 124.5t132.5 43.5zM235 -30q-39 2 -57 4q-95 -11 -95 -62q0 -30 36 -50t116 -20q183 0 183 67
q0 28 -39.5 43.5t-143.5 17.5zM216 430q-43 0 -61.5 -30t-18.5 -97q0 -70 18 -99.5t62 -29.5q45 0 62 29.5t17 99.5q0 69 -18 98t-61 29zM302 737q-111 -30 -108 -124q11 29 46 29q43 0 43 -48q0 -23 -16 -38.5t-41 -15.5q-58 0 -58 70q0 52 32 91t96 56z" />
    <glyph glyph-name="Hcircumflex" unicode="&#x124;" horiz-adv-x="862" 
d="M38 -2v61h57q36 0 47 7t12 33q2 56 2 247t-2 235q-1 29 -12.5 39.5t-39.5 10.5h-63v59q111 -3 173 -3q37 0 104 1.5t69 1.5v-59h-63q-28 0 -39.5 -10.5t-12.5 -39.5q-2 -27 -2 -208q156 -2 327 0q0 181 -2 208q-2 29 -14 39.5t-39 10.5h-63v59q112 -3 174 -3
q37 0 104 1.5t69 1.5v-59h-64q-28 0 -39.5 -10.5t-12.5 -39.5q-2 -44 -2 -235t2 -247q1 -25 12.5 -32.5t46.5 -7.5h57v-61q-111 2 -173 2l-174 -2v61h57q35 0 46.5 7.5t12.5 32.5q2 68 2 222q-194 2 -327 -1q0 -187 2 -221q1 -25 12 -32.5t46 -7.5h57v-61q-111 2 -173 2z
M577 746l-8 -10q-30 15 -73 46t-66 54q-22 -22 -65.5 -53.5t-71.5 -46.5l-8 10q32 64 122 141h49q30 -24 66.5 -65t54.5 -76z" />
    <glyph glyph-name="hcircumflex" unicode="&#x125;" horiz-adv-x="620" 
d="M518 285q-2 -124 0 -166q2 -40 14 -55t47 -15h15v-52q-4 0 -54 1.5t-77 1.5q-21 0 -51.5 -1t-53.5 -1.5t-26 -0.5v52h20q32 0 45.5 15.5t14.5 53.5q3 68 0 153q-2 71 -23 107t-69 36q-112 0 -112 -227v-78q0 -37 13 -48.5t47 -11.5h22v-52q-5 0 -55.5 1.5t-78.5 1.5
q-29 0 -82 -2l-53 -1v52h24q34 1 44.5 11t12.5 48q2 25 2 236.5t-2 238.5q-2 34 -13 45.5t-49 11.5h-19v50q127 0 189 3q-2 -62 -2 -169v-160q38 109 154 109q159 0 156 -188zM281 746l-8 -10q-30 15 -73 46t-66 54q-22 -22 -65.5 -53.5t-71.5 -46.5l-8 10q32 64 122 141h49
q30 -24 66.5 -65t54.5 -76z" />
    <glyph glyph-name="Hbar" unicode="&#x126;" horiz-adv-x="862" 
d="M38 -2v61h57q36 0 47 7t12 33q4 108 2 371q-15 0 -33.5 -0.5t-20.5 -0.5v50q8 -1 53 -1q0 17 -0.5 38t-0.5 25q-1 29 -12.5 39.5t-39.5 10.5h-63v59q111 -3 173 -3q37 0 104 1.5t69 1.5v-59h-63q-28 0 -39.5 -10.5t-12.5 -39.5q-2 -24 -2 -64h327q0 11 -0.5 25.5t-1 24
t-0.5 14.5q-2 29 -14 39.5t-39 10.5h-63v59q112 -3 174 -3q37 0 104 1.5t69 1.5v-59h-64q-28 0 -39.5 -10.5t-12.5 -39.5q0 -5 -0.5 -14t-1 -23.5t-0.5 -25.5q52 0 62 1v-50q-2 0 -23 0.5t-39 0.5q-2 -263 2 -371q1 -25 12.5 -32.5t46.5 -7.5h57v-61q-111 2 -173 2l-174 -2
v61h57q35 0 46.5 7.5t12.5 32.5q2 68 2 222q-194 2 -327 -1q0 -187 2 -221q1 -25 12 -32.5t46 -7.5h57v-61q-111 2 -173 2zM268 373q156 -2 327 0v97q-165 2 -327 0v-97z" />
    <glyph glyph-name="hbar" unicode="&#x127;" horiz-adv-x="620" 
d="M21 522v46q38 -2 81 -2v17q-2 34 -13 45.5t-49 11.5h-19v50q127 0 189 3q-2 -47 -2 -127q44 0 86 2v-46q-9 0 -38 0.5t-48 0.5v-159q38 109 154 109q159 0 156 -188q-2 -124 0 -166q2 -40 14 -55t47 -15h15v-52q-4 0 -54 1.5t-77 1.5q-21 0 -51.5 -1t-53.5 -1.5t-26 -0.5
v52h20q32 0 45.5 15.5t14.5 53.5q3 68 0 153q-2 71 -23 107t-69 36q-112 0 -112 -227v-78q0 -37 13 -48.5t47 -11.5h22v-52q-5 0 -55.5 1.5t-78.5 1.5q-29 0 -82 -2l-53 -1v52h24q34 1 44.5 11t12.5 48q1 21 1.5 171.5t-0.5 243.5q-18 0 -46 -0.5t-36 -0.5z" />
    <glyph glyph-name="Itilde" unicode="&#x128;" horiz-adv-x="428" 
d="M41 -2v61h55q34 0 45.5 7.5t12.5 32.5q2 56 2 247t-2 235q-1 29 -12.5 39.5t-39.5 10.5h-61v59q112 -3 174 -3q37 0 104 1.5t69 1.5v-59h-61q-27 0 -38.5 -10.5t-13.5 -39.5q-3 -48 -2.5 -235t2.5 -247q1 -25 12.5 -32.5t46.5 -7.5h54v-61q-111 2 -173 2zM340 889l19 4
q21 -69 -7.5 -105.5t-80.5 -36.5q-33 0 -52 13.5t-37 40.5q-16 24 -22.5 32t-17 15t-23.5 7q-48 0 -30 -95l-19 -4q-21 70 6 106t82 36q27 0 46.5 -12t39.5 -41q15 -21 22.5 -30.5t18.5 -17t24 -7.5q49 0 31 95z" />
    <glyph glyph-name="itilde" unicode="&#x129;" horiz-adv-x="310" 
d="M208 462q-2 -301 0 -353q1 -38 13.5 -49t46.5 -11h22v-52q-5 0 -55.5 1.5t-78.5 1.5q-29 0 -82 -2l-53 -1v52h24q34 1 45 11t12 48q2 38 2 125.5t-2 118.5q-2 33 -13 45t-49 12h-19v50q148 0 187 3zM271 659l19 4q21 -69 -7.5 -105.5t-80.5 -36.5q-33 0 -52 13.5
t-37 40.5q-16 24 -22.5 32t-17 15t-23.5 7q-48 0 -30 -95l-19 -4q-21 70 6 106t82 36q27 0 46.5 -12t39.5 -41q15 -21 22.5 -30.5t18.5 -17t24 -7.5q49 0 31 95z" />
    <glyph glyph-name="Imacron" unicode="&#x12a;" horiz-adv-x="428" 
d="M41 -2v61h55q34 0 45.5 7.5t12.5 32.5q2 56 2 247t-2 235q-1 29 -12.5 39.5t-39.5 10.5h-61v59q112 -3 174 -3q37 0 104 1.5t69 1.5v-59h-61q-27 0 -38.5 -10.5t-13.5 -39.5q-3 -48 -2.5 -235t2.5 -247q1 -25 12.5 -32.5t46.5 -7.5h54v-61q-111 2 -173 2zM90 763
q2 30 0 62q128 -4 256 0q-1 -31 0 -62q-128 4 -256 0z" />
    <glyph glyph-name="imacron" unicode="&#x12b;" horiz-adv-x="310" 
d="M208 462q-2 -301 0 -353q1 -38 13.5 -49t46.5 -11h22v-52q-5 0 -55.5 1.5t-78.5 1.5q-29 0 -82 -2l-53 -1v52h24q34 1 45 11t12 48q2 38 2 125.5t-2 118.5q-2 33 -13 45t-49 12h-19v50q148 0 187 3zM9 537q2 30 0 62q128 -4 256 0q-1 -31 0 -62q-128 4 -256 0z" />
    <glyph glyph-name="Ibreve" unicode="&#x12c;" horiz-adv-x="428" 
d="M41 -2v61h55q34 0 45.5 7.5t12.5 32.5q2 56 2 247t-2 235q-1 29 -12.5 39.5t-39.5 10.5h-61v59q112 -3 174 -3q37 0 104 1.5t69 1.5v-59h-61q-27 0 -38.5 -10.5t-13.5 -39.5q-3 -48 -2.5 -235t2.5 -247q1 -25 12.5 -32.5t46.5 -7.5h54v-61q-111 2 -173 2zM214 751
q-71 0 -108 41.5t-29 103.5l14 2q3 -46 34 -62t89 -16t89 16t34 62l14 -2q8 -62 -29 -103.5t-108 -41.5z" />
    <glyph glyph-name="ibreve" unicode="&#x12d;" horiz-adv-x="310" 
d="M208 462q-2 -301 0 -353q1 -38 13.5 -49t46.5 -11h22v-52q-5 0 -55.5 1.5t-78.5 1.5q-29 0 -82 -2l-53 -1v52h24q34 1 45 11t12 48q2 38 2 125.5t-2 118.5q-2 33 -13 45t-49 12h-19v50q148 0 187 3zM132 526q-71 0 -108 41.5t-29 103.5l14 2q3 -46 34 -62t89 -16t89 16
t34 62l14 -2q8 -62 -29 -103.5t-108 -41.5z" />
    <glyph glyph-name="Iogonek" unicode="&#x12e;" horiz-adv-x="428" 
d="M337 -84q-6 -122 -118 -122q-46 0 -75 25t-28 67q3 71 86 114l-161 -2v61h55q34 0 45.5 7.5t12.5 32.5q2 56 2 247t-2 235q-1 29 -12.5 39.5t-39.5 10.5h-61v59q112 -3 174 -3q37 0 104 1.5t69 1.5v-59h-61q-27 0 -38.5 -10.5t-13.5 -39.5q-3 -48 -2.5 -235t2.5 -247
q1 -25 12.5 -32.5t46.5 -7.5h54v-61q-79 2 -141 2q-62 -35 -62 -93q0 -28 17 -43t42 -15q58 0 68 71z" />
    <glyph glyph-name="iogonek" unicode="&#x12f;" horiz-adv-x="310" 
d="M275 -84q-6 -122 -118 -122q-46 0 -75 25t-28 67q3 71 86 114q-21 0 -48.5 -1t-47.5 -1.5t-23 -0.5v52h24q34 1 45 11t12 48q2 38 2 125.5t-2 118.5q-2 33 -13 45t-49 12h-19v50q148 0 187 3q-2 -301 0 -353q1 -38 13.5 -49t46.5 -11h22v-52q-6 0 -22.5 0.5t-40.5 1.5
t-42 1q-62 -35 -62 -93q0 -28 17 -43t42 -15q58 0 68 71zM216 628q0 -29 -20.5 -49.5t-49.5 -20.5t-49 20.5t-20 49.5t20 49.5t49 20.5t49.5 -20.5t20.5 -49.5z" />
    <glyph glyph-name="Idotaccent" unicode="&#x130;" horiz-adv-x="428" 
d="M41 -2v61h55q34 0 45.5 7.5t12.5 32.5q2 56 2 247t-2 235q-1 29 -12.5 39.5t-39.5 10.5h-61v59q112 -3 174 -3q37 0 104 1.5t69 1.5v-59h-61q-27 0 -38.5 -10.5t-13.5 -39.5q-3 -48 -2.5 -235t2.5 -247q1 -25 12.5 -32.5t46.5 -7.5h54v-61q-111 2 -173 2zM268 831
q0 -23 -16 -38.5t-38 -15.5t-37.5 16t-15.5 38t15.5 38t37.5 16t38 -15.5t16 -38.5z" />
    <glyph glyph-name="dotlessi" unicode="&#x131;" horiz-adv-x="310" 
d="M208 462q-2 -301 0 -353q1 -38 13.5 -49t46.5 -11h22v-52q-5 0 -55.5 1.5t-78.5 1.5q-29 0 -82 -2l-53 -1v52h24q34 1 45 11t12 48q2 38 2 125.5t-2 118.5q-2 33 -13 45t-49 12h-19v50q148 0 187 3z" />
    <glyph glyph-name="IJ" unicode="&#x132;" horiz-adv-x="964" 
d="M41 -2v61h55q34 0 45.5 7.5t12.5 32.5q2 56 2 247t-2 235q-1 29 -12.5 39.5t-39.5 10.5h-61v59q112 -3 174 -3q37 0 104 1.5t69 1.5v-59h-61q-27 0 -38.5 -10.5t-13.5 -39.5q-3 -48 -2.5 -235t2.5 -247q1 -25 12.5 -32.5t46.5 -7.5h54v-61q-111 2 -173 2zM479 93
q-16 0 -29 5q32 -66 122 -66q63 0 94.5 41t34.5 128q2 66 2 201t-2 179q-1 29 -12.5 39.5t-39.5 10.5h-51v59q105 -3 164 -3q35 0 98 1.5t66 1.5v-59h-50q-28 0 -39.5 -10.5t-12.5 -39.5q-4 -70 0 -379q1 -110 -65 -166t-179 -56q-87 0 -135 47.5t-48 111.5q0 37 22 62
t61 25q33 0 53 -17.5t20 -47.5q0 -36 -23 -52t-51 -16z" />
    <glyph glyph-name="ij" unicode="&#x133;" horiz-adv-x="577" 
d="M208 462q-2 -301 0 -353q1 -38 13.5 -49t46.5 -11h22v-52q-5 0 -55.5 1.5t-78.5 1.5q-29 0 -82 -2l-53 -1v52h24q34 1 45 11t12 48q2 38 2 125.5t-2 118.5q-2 33 -13 45t-49 12h-19v50q148 0 187 3zM216 628q0 -29 -20.5 -49.5t-49.5 -20.5t-49 20.5t-20 49.5t20 49.5
t49 20.5t49.5 -20.5t20.5 -49.5zM349 -96q0 -22 -17.5 -40t-53.5 -15q21 -13 50 -13q38 0 56.5 27t18.5 101v393q-3 52 -54 52h-28v50q153 0 192 3q-4 -39 -4 -154v-308q0 -201 -161 -201q-58 0 -93 26t-35 70q0 31 17.5 49t48.5 18q29 0 46 -16t17 -42zM517 628
q0 -29 -20.5 -49.5t-49.5 -20.5t-49 20.5t-20 49.5t20 49.5t49 20.5t49.5 -20.5t20.5 -49.5z" />
    <glyph glyph-name="Jcircumflex" unicode="&#x134;" horiz-adv-x="586" 
d="M101 93q-16 0 -29 5q32 -66 122 -66q63 0 94.5 41t34.5 128q2 66 2 201t-2 179q-1 29 -12.5 39.5t-39.5 10.5h-51v59q105 -3 164 -3q35 0 98 1.5t66 1.5v-59h-50q-28 0 -39.5 -10.5t-12.5 -39.5q-4 -70 0 -379q1 -110 -65 -166t-179 -56q-87 0 -135 47.5t-48 111.5
q0 37 22 62t61 25q33 0 53 -17.5t20 -47.5q0 -36 -23 -52t-51 -16zM523 746l-8 -10q-30 15 -73 46t-66 54q-22 -22 -65.5 -53.5t-71.5 -46.5l-8 10q32 64 122 141h49q30 -24 66.5 -65t54.5 -76z" />
    <glyph glyph-name="jcircumflex" unicode="&#x135;" horiz-adv-x="290" 
d="M59 -99q0 -22 -17 -39t-53 -12q20 -14 52 -14q38 0 56.5 27t18.5 101v393q-3 52 -54 52h-28v50q149 0 188 3q-1 -35 -1 -114t0.5 -189.5t0.5 -158.5q0 -201 -161 -201q-57 0 -91.5 25.5t-34.5 70.5q0 29 17 45.5t48 16.5q27 0 43 -15t16 -41zM296 526l-8 -10
q-30 15 -73 46t-66 54q-22 -22 -65.5 -53.5t-71.5 -46.5l-8 10q32 64 122 141h49q30 -24 66.5 -65t54.5 -76z" />
    <glyph glyph-name="Kcommaaccent" unicode="&#x136;" horiz-adv-x="843" 
d="M38 -2v61h57q35 0 46 9t13 43q3 50 2.5 236t-2.5 232q-1 29 -13.5 40.5t-41.5 11.5h-61v59q112 -3 174 -3q37 0 104 1.5t69 1.5v-59h-63q-27 0 -39 -11.5t-13 -40.5q-2 -30 -2 -250l269 244q18 14 10.5 36t-37.5 22h-52v59q112 -3 174 -3q37 0 99 1.5t64 1.5v-59h-37
q-47 0 -81 -15.5t-73 -50.5l-155 -138q41 -63 112.5 -162t101.5 -133q5 -6 15.5 -19t14.5 -17l12.5 -12.5t14 -11t14.5 -7t18.5 -5.5t22.5 -1h30v-59q-111 3 -173 3l-174 -3v59h38q68 0 35 56q-17 28 -73.5 109t-92.5 127l-97 -86q0 -110 2 -154q2 -34 10 -43t44 -9h61v-61
q-111 2 -173 2zM349 -259q111 30 108 124q-11 -29 -46 -29q-43 0 -43 48q0 23 16 38.5t41 15.5q58 0 58 -70q0 -52 -32 -91t-96 -56z" />
    <glyph glyph-name="kcommaaccent" unicode="&#x137;" horiz-adv-x="610" 
d="M208 692q-2 -71 -2 -465l148 122q26 23 18.5 41.5t-38.5 18.5h-20v50q83 -3 130 -3q21 0 51 1t53 1.5t26 0.5v-50h-16q-46 0 -76.5 -15t-99.5 -68l-42 -32q69 -112 121 -175q28 -36 52.5 -52.5t59.5 -16.5h12v-53q-4 0 -55.5 1.5t-80.5 1.5t-83 -2l-53 -1v53h18
q24 0 26.5 19t-17.5 50q-49 74 -81 115l-52 -39q0 -66 1 -76q2 -39 15 -54.5t45 -15.5h18v-52q-5 0 -54.5 1.5t-77.5 1.5q-29 0 -81 -2l-52 -1v52h24q33 1 44 15.5t13 53.5q2 36 2 230t-2 225q-2 36 -13.5 51.5t-48.5 15.5h-19v50q109 0 187 2zM225 -259q111 30 108 124
q-11 -29 -46 -29q-43 0 -43 48q0 23 16 38.5t41 15.5q58 0 58 -70q0 -52 -32 -91t-96 -56z" />
    <glyph glyph-name="kgreenlandic" unicode="&#x138;" horiz-adv-x="610" 
d="M208 461q-2 -120 -2 -234l148 122q26 23 18.5 41.5t-38.5 18.5h-20v50q83 -3 130 -3q21 0 51 1t53 1.5t26 0.5v-50h-16q-46 0 -76.5 -15t-99.5 -68l-42 -32q69 -112 121 -175q28 -36 52.5 -52.5t59.5 -16.5h12v-53q-4 0 -55.5 1.5t-80.5 1.5t-83 -2l-53 -1v53h18
q24 0 26.5 19t-17.5 50q-49 74 -81 115l-53 -39q0 -46 2 -76q2 -39 15 -54.5t45 -15.5h18v-52q-5 0 -54.5 1.5t-77.5 1.5q-29 0 -81 -2l-52 -1v52h24q33 1 44 15.5t13 53.5q2 36 2 114t-2 110q-2 36 -13.5 51.5t-48.5 15.5h-19v50q109 0 187 2z" />
    <glyph glyph-name="Lacute" unicode="&#x139;" horiz-adv-x="662" 
d="M386 690v-59h-63q-28 0 -40 -10.5t-13 -39.5q-2 -44 -2 -235t2 -247q1 -40 49 -40h84q87 0 125 42t45 165h61q-14 -149 -10 -270q-47 4 -187 4h-229q-118 0 -170 -2v61h58q35 0 46 7.5t12 33.5q2 55 2 246t-2 235q-1 29 -12.5 39.5t-39.5 10.5h-63v59q112 -3 174 -3
q36 0 102 1.5t71 1.5zM197 746l-8 10q86 103 123 132q20 14 38.5 7.5t19.5 -23.5t-17 -33q-55 -43 -156 -93z" />
    <glyph glyph-name="lacute" unicode="&#x13a;" horiz-adv-x="310" 
d="M208 693q-2 -522 0 -574q2 -39 15 -54.5t45 -15.5h22v-52q-5 0 -55.5 1.5t-78.5 1.5q-29 0 -82 -2l-53 -1v52h24q33 1 44 15.5t13 53.5q2 38 2 231t-2 224q-2 36 -13.5 51.5t-48.5 15.5h-19v50q148 0 187 3zM136 712l-8 10q86 103 123 132q20 14 38.5 7.5t19.5 -23.5
t-17 -33q-55 -43 -156 -93z" />
    <glyph glyph-name="Lcommaaccent" unicode="&#x13b;" horiz-adv-x="662" 
d="M386 690v-59h-63q-28 0 -40 -10.5t-13 -39.5q-2 -44 -2 -235t2 -247q1 -40 49 -40h84q87 0 125 42t45 165h61q-14 -149 -10 -270q-47 4 -187 4h-229q-118 0 -170 -2v61h58q35 0 46 7.5t12 33.5q2 55 2 246t-2 235q-1 29 -12.5 39.5t-39.5 10.5h-63v59q112 -3 174 -3
q36 0 102 1.5t71 1.5zM254 -259q111 30 108 124q-11 -29 -46 -29q-43 0 -43 48q0 23 16 38.5t41 15.5q58 0 58 -70q0 -52 -32 -91t-96 -56z" />
    <glyph glyph-name="lcommaaccent" unicode="&#x13c;" horiz-adv-x="310" 
d="M208 693q-2 -522 0 -574q2 -39 15 -54.5t45 -15.5h22v-52q-5 0 -55.5 1.5t-78.5 1.5q-29 0 -82 -2l-53 -1v52h24q33 1 44 15.5t13 53.5q2 38 2 231t-2 224q-2 36 -13.5 51.5t-48.5 15.5h-19v50q148 0 187 3zM83 -259q111 30 108 124q-11 -29 -46 -29q-43 0 -43 48
q0 23 16 38.5t41 15.5q58 0 58 -70q0 -52 -32 -91t-96 -56z" />
    <glyph glyph-name="Lcaron" unicode="&#x13d;" horiz-adv-x="662" 
d="M386 690v-59h-63q-28 0 -40 -10.5t-13 -39.5q-2 -44 -2 -235t2 -247q1 -40 49 -40h84q87 0 125 42t45 165h61q-14 -149 -10 -270q-47 4 -187 4h-229q-118 0 -170 -2v61h58q35 0 46 7.5t12 33.5q2 55 2 246t-2 235q-1 29 -12.5 39.5t-39.5 10.5h-63v59q112 -3 174 -3
q36 0 102 1.5t71 1.5zM461 521q111 30 108 124q-11 -29 -46 -29q-43 0 -43 48q0 23 16 38.5t41 15.5q58 0 58 -70q0 -52 -32 -91t-96 -56z" />
    <glyph glyph-name="lcaron" unicode="&#x13e;" horiz-adv-x="409" 
d="M208 693q-2 -522 0 -574q2 -39 15 -54.5t45 -15.5h22v-52q-5 0 -55.5 1.5t-78.5 1.5q-29 0 -82 -2l-53 -1v52h24q33 1 44 15.5t13 53.5q2 38 2 231t-2 224q-2 36 -13.5 51.5t-48.5 15.5h-19v50q148 0 187 3zM255 493q111 30 108 124q-11 -29 -46 -29q-43 0 -43 48
q0 23 16 38.5t41 15.5q58 0 58 -70q0 -52 -32 -91t-96 -56z" />
    <glyph glyph-name="Ldot" unicode="&#x13f;" horiz-adv-x="662" 
d="M386 690v-59h-63q-28 0 -40 -10.5t-13 -39.5q-2 -44 -2 -235t2 -247q1 -40 49 -40h84q87 0 125 42t45 165h61q-14 -149 -10 -270q-47 4 -187 4h-229q-118 0 -170 -2v61h58q35 0 46 7.5t12 33.5q2 55 2 246t-2 235q-1 29 -12.5 39.5t-39.5 10.5h-63v59q112 -3 174 -3
q36 0 102 1.5t71 1.5zM522 356q0 -22 -16 -38t-38 -16t-37.5 16t-15.5 38t15.5 38t37.5 16t38 -16t16 -38z" />
    <glyph glyph-name="ldot" unicode="&#x140;" horiz-adv-x="417" 
d="M208 693q-2 -522 0 -574q2 -39 15 -54.5t45 -15.5h22v-52q-5 0 -55.5 1.5t-78.5 1.5q-29 0 -82 -2l-53 -1v52h24q33 1 44 15.5t13 53.5q2 38 2 231t-2 224q-2 36 -13.5 51.5t-48.5 15.5h-19v50q148 0 187 3zM411 324q0 -22 -15.5 -38t-38.5 -16q-22 0 -37.5 16t-15.5 38
t15.5 38t37.5 16q23 0 38.5 -16t15.5 -38z" />
    <glyph glyph-name="Lslash" unicode="&#x141;" horiz-adv-x="662" 
d="M386 690v-59h-63q-28 0 -40 -10.5t-13 -39.5q-2 -46 -2 -173q70 35 79 40l22 -45q-38 -17 -101 -48q0 -217 2 -256q1 -40 49 -40h84q87 0 125 42t45 165h61q-14 -149 -10 -270q-47 4 -187 4h-229q-118 0 -170 -2v61h58q35 0 46 7.5t12 33.5q2 62 2 200l-48 -25l-22 45
q32 14 70 33q0 170 -2 228q-1 29 -12.5 39.5t-39.5 10.5h-63v59q112 -3 174 -3q36 0 102 1.5t71 1.5z" />
    <glyph glyph-name="lslash" unicode="&#x142;" horiz-adv-x="310" 
d="M208 693q-1 -140 -1 -282l54 33l25 -43q-18 -9 -79 -44q0 -217 1 -238q2 -39 15 -54.5t45 -15.5h22v-52q-5 0 -55.5 1.5t-78.5 1.5q-29 0 -82 -2l-53 -1v52h24q33 1 44 15.5t13 53.5q1 21 1 178l-30 -18l-25 43l55 30q0 201 -1 222q-2 36 -13.5 51.5t-48.5 15.5h-19v50
q148 0 187 3z" />
    <glyph glyph-name="Nacute" unicode="&#x143;" horiz-adv-x="833" 
d="M272 690q129 -196 335 -481q6 260 0 371q-1 29 -13 40t-40 11h-64v59q3 0 62 -1.5t91 -1.5l152 3v-59h-64q-28 0 -40 -11t-13 -40q-2 -44 -2 -267t2 -313q-38 4 -77 0q-180 269 -377 549q-2 -364 2 -449q1 -25 13 -33t47 -8h58v-61q-98 2 -153 2l-153 -2v61h57q35 0 47 8
t13 33q2 59 2.5 246t-2.5 235q-2 29 -14 39.5t-39 10.5h-63v59q117 -4 233 0zM407 746l-8 10q86 103 123 132q20 14 38.5 7.5t19.5 -23.5t-17 -33q-55 -43 -156 -93z" />
    <glyph glyph-name="nacute" unicode="&#x144;" horiz-adv-x="620" 
d="M518 285q-2 -124 0 -166q2 -40 14 -55t47 -15h15v-52q-4 0 -54 1.5t-77 1.5q-21 0 -51.5 -1t-53.5 -1.5t-26 -0.5v52h20q32 0 45.5 15.5t14.5 53.5q3 68 0 153q-2 71 -23 107t-69 36q-61 0 -86.5 -56.5t-25.5 -170.5v-68q0 -39 13.5 -54.5t46.5 -15.5h22v-52
q-5 0 -55.5 1.5t-78.5 1.5q-29 0 -82 -2l-53 -1v52h24q33 1 44 15.5t13 53.5q2 43 2 118t-2 106q-2 36 -13.5 51.5t-48.5 15.5h-19v50q148 0 187 3v-98q38 109 154 109q159 0 156 -188zM298 516l-8 10q86 103 123 132q20 14 38.5 7.5t19.5 -23.5t-17 -33q-55 -43 -156 -93z
" />
    <glyph glyph-name="Ncommaaccent" unicode="&#x145;" horiz-adv-x="833" 
d="M272 690q129 -196 335 -481q6 260 0 371q-1 29 -13 40t-40 11h-64v59q3 0 62 -1.5t91 -1.5l152 3v-59h-64q-28 0 -40 -11t-13 -40q-2 -44 -2 -267t2 -313q-38 4 -77 0q-180 269 -377 549q-2 -364 2 -449q1 -25 13 -33t47 -8h58v-61q-98 2 -153 2l-153 -2v61h57q35 0 47 8
t13 33q2 59 2.5 246t-2.5 235q-2 29 -14 39.5t-39 10.5h-63v59q117 -4 233 0zM354 -259q111 30 108 124q-11 -29 -46 -29q-43 0 -43 48q0 23 16 38.5t41 15.5q58 0 58 -70q0 -52 -32 -91t-96 -56z" />
    <glyph glyph-name="ncommaaccent" unicode="&#x146;" horiz-adv-x="620" 
d="M518 285q-2 -124 0 -166q2 -40 14 -55t47 -15h15v-52q-4 0 -54 1.5t-77 1.5q-21 0 -51.5 -1t-53.5 -1.5t-26 -0.5v52h20q32 0 45.5 15.5t14.5 53.5q3 68 0 153q-2 71 -23 107t-69 36q-61 0 -86.5 -56.5t-25.5 -170.5v-68q0 -39 13.5 -54.5t46.5 -15.5h22v-52
q-5 0 -55.5 1.5t-78.5 1.5q-29 0 -82 -2l-53 -1v52h24q33 1 44 15.5t13 53.5q2 43 2 118t-2 106q-2 36 -13.5 51.5t-48.5 15.5h-19v50q148 0 187 3v-98q38 109 154 109q159 0 156 -188zM235 -259q111 30 108 124q-11 -29 -46 -29q-43 0 -43 48q0 23 16 38.5t41 15.5
q58 0 58 -70q0 -52 -32 -91t-96 -56z" />
    <glyph glyph-name="Ncaron" unicode="&#x147;" horiz-adv-x="833" 
d="M272 690q129 -196 335 -481q6 260 0 371q-1 29 -13 40t-40 11h-64v59q3 0 62 -1.5t91 -1.5l152 3v-59h-64q-28 0 -40 -11t-13 -40q-2 -44 -2 -267t2 -313q-38 4 -77 0q-180 269 -377 549q-2 -364 2 -449q1 -25 13 -33t47 -8h58v-61q-98 2 -153 2l-153 -2v61h57q35 0 47 8
t13 33q2 59 2.5 246t-2.5 235q-2 29 -14 39.5t-39 10.5h-63v59q117 -4 233 0zM290 897l8 10q30 -15 73 -46t66 -54q22 22 65.5 53.5t71.5 46.5l8 -10q-32 -64 -122 -141h-49q-30 24 -66.5 65t-54.5 76z" />
    <glyph glyph-name="ncaron" unicode="&#x148;" horiz-adv-x="620" 
d="M518 285q-2 -124 0 -166q2 -40 14 -55t47 -15h15v-52q-4 0 -54 1.5t-77 1.5q-21 0 -51.5 -1t-53.5 -1.5t-26 -0.5v52h20q32 0 45.5 15.5t14.5 53.5q3 68 0 153q-2 71 -23 107t-69 36q-61 0 -86.5 -56.5t-25.5 -170.5v-68q0 -39 13.5 -54.5t46.5 -15.5h22v-52
q-5 0 -55.5 1.5t-78.5 1.5q-29 0 -82 -2l-53 -1v52h24q33 1 44 15.5t13 53.5q2 43 2 118t-2 106q-2 36 -13.5 51.5t-48.5 15.5h-19v50q148 0 187 3v-98q38 109 154 109q159 0 156 -188zM151 667l8 10q30 -15 73 -46t66 -54q22 22 65.5 53.5t71.5 46.5l8 -10
q-32 -64 -122 -141h-49q-30 24 -66.5 65t-54.5 76z" />
    <glyph glyph-name="napostrophe" unicode="&#x149;" horiz-adv-x="620" 
d="M518 285q-2 -124 0 -166q2 -40 14 -55t47 -15h15v-52q-4 0 -54 1.5t-77 1.5q-21 0 -51.5 -1t-53.5 -1.5t-26 -0.5v52h20q32 0 45.5 15.5t14.5 53.5q3 68 0 153q-2 71 -23 107t-69 36q-61 0 -86.5 -56.5t-25.5 -170.5v-68q0 -39 13.5 -54.5t46.5 -15.5h22v-52
q-5 0 -55.5 1.5t-78.5 1.5q-29 0 -82 -2l-53 -1v52h24q33 1 44 15.5t13 53.5q2 43 2 118t-2 106q-2 36 -13.5 51.5t-48.5 15.5h-19v50q148 0 187 3v-98q38 109 154 109q159 0 156 -188zM31 518q111 30 108 124q-11 -29 -46 -29q-43 0 -43 48q0 23 16 38.5t41 15.5
q58 0 58 -70q0 -52 -32 -91t-96 -56z" />
    <glyph glyph-name="Eng" unicode="&#x14a;" horiz-adv-x="833" 
d="M272 690q129 -196 335 -481q6 260 0 371q-1 29 -13 40t-40 11h-64v59q3 0 62 -1.5t91 -1.5l152 3v-59h-64q-28 0 -40 -11t-13 -40q-2 -44 -2 -267t2 -313q-2 -96 -44.5 -148.5t-120.5 -52.5q-55 0 -89.5 26t-34.5 70q0 31 17.5 49t48.5 18q29 0 46 -16t17 -42
q0 -22 -17.5 -40t-53.5 -15q21 -13 50 -13q21 0 37.5 4t34.5 15.5t28 36.5t11 62l1 47q-2 0 -4.5 -0.5t-3.5 -0.5q-180 269 -377 549q-2 -364 2 -449q1 -25 13 -33t47 -8h58v-61q-98 2 -153 2l-153 -2v61h57q35 0 47 8t13 33q2 59 2.5 246t-2.5 235q-2 29 -14 39.5t-39 10.5
h-63v59q117 -4 233 0z" />
    <glyph glyph-name="eng" unicode="&#x14b;" horiz-adv-x="579" 
d="M518 285v-285q0 -201 -161 -201q-58 0 -93 26t-35 70q0 31 17.5 49t48.5 18q29 0 46 -16t17 -42q0 -22 -17.5 -40t-53.5 -15q21 -13 50 -13q38 0 56.5 27t18.5 101v307q0 143 -92 143q-62 0 -87 -58t-25 -169v-68q0 -39 13.5 -54.5t46.5 -15.5h22v-52q-5 0 -55.5 1.5
t-78.5 1.5q-29 0 -82 -2l-53 -1v52h24q33 1 44 15.5t13 53.5q2 43 2 118t-2 106q-2 36 -13.5 51.5t-48.5 15.5h-19v50q148 0 187 3v-98q38 109 154 109q156 0 156 -188z" />
    <glyph glyph-name="Omacron" unicode="&#x14c;" horiz-adv-x="770" 
d="M385 35q108 0 154.5 76t46.5 236q0 166 -47 237.5t-154 71.5q-102 0 -151 -76.5t-49 -233.5q0 -168 44.5 -239.5t155.5 -71.5zM385 -20q-164 0 -249.5 95.5t-85.5 270.5q0 172 92.5 268t242.5 96q165 0 250 -93.5t85 -269.5q0 -172 -93 -269.5t-242 -97.5zM261 763
q2 30 0 62q128 -4 256 0q-1 -31 0 -62q-128 4 -256 0z" />
    <glyph glyph-name="omacron" unicode="&#x14d;" horiz-adv-x="534" 
d="M40 223q0 124 61.5 187t165.5 63t165.5 -63t61.5 -187q0 -115 -62.5 -179t-164.5 -64q-104 0 -165.5 63.5t-61.5 179.5zM162 223q0 -82 14 -127.5t35 -59t56 -13.5q34 0 55.5 13.5t36.5 59t15 127.5q0 117 -28 162t-80 45q-51 0 -77.5 -44.5t-26.5 -162.5zM153 537
q2 30 0 62q128 -4 256 0q-1 -31 0 -62q-128 4 -256 0z" />
    <glyph glyph-name="Obreve" unicode="&#x14e;" horiz-adv-x="770" 
d="M385 35q108 0 154.5 76t46.5 236q0 166 -47 237.5t-154 71.5q-102 0 -151 -76.5t-49 -233.5q0 -168 44.5 -239.5t155.5 -71.5zM385 -20q-164 0 -249.5 95.5t-85.5 270.5q0 172 92.5 268t242.5 96q165 0 250 -93.5t85 -269.5q0 -172 -93 -269.5t-242 -97.5zM395 751
q-71 0 -108 41.5t-29 103.5l14 2q3 -46 34 -62t89 -16t89 16t34 62l14 -2q8 -62 -29 -103.5t-108 -41.5z" />
    <glyph glyph-name="obreve" unicode="&#x14f;" horiz-adv-x="534" 
d="M40 223q0 124 61.5 187t165.5 63t165.5 -63t61.5 -187q0 -115 -62.5 -179t-164.5 -64q-104 0 -165.5 63.5t-61.5 179.5zM162 223q0 -82 14 -127.5t35 -59t56 -13.5q34 0 55.5 13.5t36.5 59t15 127.5q0 117 -28 162t-80 45q-51 0 -77.5 -44.5t-26.5 -162.5zM273 526
q-71 0 -108 41.5t-29 103.5l14 2q3 -46 34 -62t89 -16t89 16t34 62l14 -2q8 -62 -29 -103.5t-108 -41.5z" />
    <glyph glyph-name="Ohungarumlaut" unicode="&#x150;" horiz-adv-x="770" 
d="M385 35q108 0 154.5 76t46.5 236q0 166 -47 237.5t-154 71.5q-102 0 -151 -76.5t-49 -233.5q0 -168 44.5 -239.5t155.5 -71.5zM385 -20q-164 0 -249.5 95.5t-85.5 270.5q0 172 92.5 268t242.5 96q165 0 250 -93.5t85 -269.5q0 -172 -93 -269.5t-242 -97.5zM290 750l-9 8
q74 118 103 148q17 17 36.5 13.5t23 -20.5t-12.5 -36q-48 -50 -141 -113zM454 750l-9 8q72 117 103 148q17 17 36.5 13t23 -20.5t-12.5 -35.5q-48 -50 -141 -113z" />
    <glyph glyph-name="ohungarumlaut" unicode="&#x151;" horiz-adv-x="534" 
d="M40 223q0 124 61.5 187t165.5 63t165.5 -63t61.5 -187q0 -115 -62.5 -179t-164.5 -64q-104 0 -165.5 63.5t-61.5 179.5zM162 223q0 -82 14 -127.5t35 -59t56 -13.5q34 0 55.5 13.5t36.5 59t15 127.5q0 117 -28 162t-80 45q-51 0 -77.5 -44.5t-26.5 -162.5zM183 520l-9 8
q74 118 103 148q17 17 36.5 13.5t23 -20.5t-12.5 -36q-48 -50 -141 -113zM347 520l-9 8q72 117 103 148q17 17 36.5 13t23 -20.5t-12.5 -35.5q-48 -50 -141 -113z" />
    <glyph glyph-name="OE" unicode="&#x152;" horiz-adv-x="1112" 
d="M832 491v15h55q0 -13 -1.5 -62t-1.5 -92q0 -109 3 -160h-53v12q-2 65 -32 94t-102 29h-47q0 -173 3 -216q3 -52 52 -52h143q88 0 124.5 46.5t36.5 147.5v11h61q-10 -107 -10 -268q-47 4 -188 4h-366q-58 -20 -124 -20q-166 0 -250.5 92.5t-84.5 273.5q0 178 92 271
t243 93q76 0 136 -21q14 0 31 -0.5t28.5 -0.5h12.5h43.5t101 0.5t124.5 0.5q160 0 207 6q-8 -99 -6 -250l-54 -1v6q0 103 -34 140.5t-122 37.5h-150q-44 0 -47 -47q-3 -40 -3 -206h50q68 0 98.5 25.5t30.5 90.5zM385 35q139 0 148 84q3 41 3 229.5t-3 232.5q-4 74 -148 74
q-103 0 -151.5 -73t-48.5 -236q0 -173 44 -242t156 -69z" />
    <glyph glyph-name="oe" unicode="&#x153;" horiz-adv-x="837" 
d="M788 121q-19 -66 -69 -103.5t-128 -37.5q-105 0 -162 60q-62 -60 -162 -60q-105 0 -166 62.5t-61 183.5q0 119 60.5 183t166.5 64t166 -65q62 65 159 65q108 0 159 -72t43 -190h-299q1 -97 27 -135.5t88 -38.5q58 0 87.5 25t41.5 71zM162 226q0 -119 26 -161t79 -42
q52 0 79.5 42t27.5 161q0 117 -28 160.5t-80 43.5t-78 -43t-26 -161zM587 426q-46 0 -68.5 -41.5t-23.5 -139.5h153q12 0 16 5t4 20q0 72 -20 114t-61 42z" />
    <glyph glyph-name="Racute" unicode="&#x154;" horiz-adv-x="778" 
d="M595 191q11 -88 26.5 -116.5t43.5 -28.5q63 0 34 160l46 5q12 -61 10.5 -112.5t-33.5 -85t-91 -33.5q-93 0 -127 47.5t-40 151.5q-4 77 -34.5 104.5t-87.5 27.5h-70q0 -158 3 -194q4 -60 57 -60h48v-59q-118 2 -171 2l-171 -2v61h48q34 0 50.5 13.5t17.5 45.5
q2 42 2 230.5t-2 232.5q-1 29 -12.5 39.5t-39.5 10.5h-64v59q8 0 86.5 -1t88.5 -1q24 0 86.5 0.5t82.5 0.5q128 0 196 -46.5t68 -137.5q0 -73 -47 -121.5t-117 -57.5q55 -14 80.5 -46.5t32.5 -88.5zM275 600q-3 -57 -3 -241h81q88 0 124 33t36 111q0 75 -33.5 106t-113.5 31
h-52q-37 0 -39 -40zM358 746l-8 10q86 103 123 132q20 14 38.5 7.5t19.5 -23.5t-17 -33q-55 -43 -156 -93z" />
    <glyph glyph-name="racute" unicode="&#x155;" horiz-adv-x="436" 
d="M310 432q-102 0 -102 -204v-115q0 -38 13.5 -51t46.5 -13h32v-52q-4 0 -57 1.5t-82 1.5q-30 0 -85 -2l-55 -1v52h24q34 1 45 13t12 50q2 38 2 120t-2 114q-2 35 -13 49t-49 14h-19v50q148 0 187 3l-9 -101q28 112 127 112q47 0 74 -25.5t27 -71.5q0 -37 -19 -57.5
t-53 -20.5q-30 0 -47 16t-17 44q0 30 20.5 46t49.5 14q-19 14 -51 14zM215 516l-8 10q86 103 123 132q20 14 38.5 7.5t19.5 -23.5t-17 -33q-55 -43 -156 -93z" />
    <glyph glyph-name="Rcommaaccent" unicode="&#x156;" horiz-adv-x="778" 
d="M595 191q11 -88 26.5 -116.5t43.5 -28.5q63 0 34 160l46 5q12 -61 10.5 -112.5t-33.5 -85t-91 -33.5q-93 0 -127 47.5t-40 151.5q-4 77 -34.5 104.5t-87.5 27.5h-70q0 -158 3 -194q4 -60 57 -60h48v-59q-118 2 -171 2l-171 -2v61h48q34 0 50.5 13.5t17.5 45.5
q2 42 2 230.5t-2 232.5q-1 29 -12.5 39.5t-39.5 10.5h-64v59q8 0 86.5 -1t88.5 -1q24 0 86.5 0.5t82.5 0.5q128 0 196 -46.5t68 -137.5q0 -73 -47 -121.5t-117 -57.5q55 -14 80.5 -46.5t32.5 -88.5zM275 600q-3 -57 -3 -241h81q88 0 124 33t36 111q0 75 -33.5 106t-113.5 31
h-52q-37 0 -39 -40zM335 -259q111 30 108 124q-11 -29 -46 -29q-43 0 -43 48q0 23 16 38.5t41 15.5q58 0 58 -70q0 -52 -32 -91t-96 -56z" />
    <glyph glyph-name="rcommaaccent" unicode="&#x157;" horiz-adv-x="436" 
d="M310 432q-102 0 -102 -204v-115q0 -38 13.5 -51t46.5 -13h32v-52q-4 0 -57 1.5t-82 1.5q-30 0 -85 -2l-55 -1v52h24q34 1 45 13t12 50q2 38 2 120t-2 114q-2 35 -13 49t-49 14h-19v50q148 0 187 3l-9 -101q28 112 127 112q47 0 74 -25.5t27 -71.5q0 -37 -19 -57.5
t-53 -20.5q-30 0 -47 16t-17 44q0 30 20.5 46t49.5 14q-19 14 -51 14zM72 -259q111 30 108 124q-11 -29 -46 -29q-43 0 -43 48q0 23 16 38.5t41 15.5q58 0 58 -70q0 -52 -32 -91t-96 -56z" />
    <glyph glyph-name="Rcaron" unicode="&#x158;" horiz-adv-x="778" 
d="M595 191q11 -88 26.5 -116.5t43.5 -28.5q63 0 34 160l46 5q12 -61 10.5 -112.5t-33.5 -85t-91 -33.5q-93 0 -127 47.5t-40 151.5q-4 77 -34.5 104.5t-87.5 27.5h-70q0 -158 3 -194q4 -60 57 -60h48v-59q-118 2 -171 2l-171 -2v61h48q34 0 50.5 13.5t17.5 45.5
q2 42 2 230.5t-2 232.5q-1 29 -12.5 39.5t-39.5 10.5h-64v59q8 0 86.5 -1t88.5 -1q24 0 86.5 0.5t82.5 0.5q128 0 196 -46.5t68 -137.5q0 -73 -47 -121.5t-117 -57.5q55 -14 80.5 -46.5t32.5 -88.5zM275 600q-3 -57 -3 -241h81q88 0 124 33t36 111q0 75 -33.5 106t-113.5 31
h-52q-37 0 -39 -40zM231 897l8 10q30 -15 73 -46t66 -54q22 22 65.5 53.5t71.5 46.5l8 -10q-32 -64 -122 -141h-49q-30 24 -66.5 65t-54.5 76z" />
    <glyph glyph-name="rcaron" unicode="&#x159;" horiz-adv-x="436" 
d="M310 432q-102 0 -102 -204v-115q0 -38 13.5 -51t46.5 -13h32v-52q-4 0 -57 1.5t-82 1.5q-30 0 -85 -2l-55 -1v52h24q34 1 45 13t12 50q2 38 2 120t-2 114q-2 35 -13 49t-49 14h-19v50q148 0 187 3l-9 -101q28 112 127 112q47 0 74 -25.5t27 -71.5q0 -37 -19 -57.5
t-53 -20.5q-30 0 -47 16t-17 44q0 30 20.5 46t49.5 14q-19 14 -51 14zM68 667l8 10q30 -15 73 -46t66 -54q22 22 65.5 53.5t71.5 46.5l8 -10q-32 -64 -122 -141h-49q-30 24 -66.5 65t-54.5 76z" />
    <glyph glyph-name="Sacute" unicode="&#x15a;" horiz-adv-x="657" 
d="M317 655q-77 0 -117.5 -29.5t-40.5 -77.5q0 -52 47 -77.5t158 -40.5q142 -19 198 -73t56 -155q0 -102 -71.5 -162t-191.5 -60q-104 0 -188 50q-55 33 -66 -37h-53q22 113 10 237h53q22 -98 80.5 -146.5t162.5 -48.5q86 0 134.5 31.5t48.5 90.5q0 60 -52.5 89t-174.5 46
q-232 30 -232 203q0 92 61.5 153.5t182.5 61.5q85 0 153 -34q25 -14 39.5 -11.5t20 11t7.5 24.5h53q-12 -42 -15.5 -110t2.5 -113h-49q-22 93 -74.5 135.5t-141.5 42.5zM323 746l-8 10q86 103 123 132q20 14 38.5 7.5t19.5 -23.5t-17 -33q-55 -43 -156 -93z" />
    <glyph glyph-name="sacute" unicode="&#x15b;" horiz-adv-x="446" 
d="M210 420q-48 0 -72.5 -18t-24.5 -44q0 -32 26.5 -48t103.5 -25q168 -20 168 -150q0 -74 -43.5 -114.5t-129.5 -40.5q-68 0 -129 46q-10 8 -17 8.5t-10.5 -5.5t-5.5 -14t-4 -22q-20 2 -39 0q11 95 4 183q19 -2 38 0q44 -142 165 -142q46 0 71.5 18.5t25.5 48.5
q0 27 -27 44.5t-97 25.5q-96 10 -136 52.5t-40 99.5q0 68 51 110.5t133 39.5q60 -2 104 -33q13 -11 19 -6.5t10 33.5q18 -2 36 0q-6 -73 -3 -154q-18 2 -36 0q-27 107 -141 107zM204 516l-8 10q86 103 123 132q20 14 38.5 7.5t19.5 -23.5t-17 -33q-55 -43 -156 -93z" />
    <glyph glyph-name="Scircumflex" unicode="&#x15c;" horiz-adv-x="657" 
d="M317 655q-77 0 -117.5 -29.5t-40.5 -77.5q0 -52 47 -77.5t158 -40.5q142 -19 198 -73t56 -155q0 -102 -71.5 -162t-191.5 -60q-104 0 -188 50q-55 33 -66 -37h-53q22 113 10 237h53q22 -98 80.5 -146.5t162.5 -48.5q86 0 134.5 31.5t48.5 90.5q0 60 -52.5 89t-174.5 46
q-232 30 -232 203q0 92 61.5 153.5t182.5 61.5q85 0 153 -34q25 -14 39.5 -11.5t20 11t7.5 24.5h53q-12 -42 -15.5 -110t2.5 -113h-49q-22 93 -74.5 135.5t-141.5 42.5zM468 746l-8 -10q-30 15 -73 46t-66 54q-22 -22 -65.5 -53.5t-71.5 -46.5l-8 10q32 64 122 141h49
q30 -24 66.5 -65t54.5 -76z" />
    <glyph glyph-name="scircumflex" unicode="&#x15d;" horiz-adv-x="446" 
d="M210 420q-48 0 -72.5 -18t-24.5 -44q0 -32 26.5 -48t103.5 -25q168 -20 168 -150q0 -74 -43.5 -114.5t-129.5 -40.5q-68 0 -129 46q-10 8 -17 8.5t-10.5 -5.5t-5.5 -14t-4 -22q-20 2 -39 0q11 95 4 183q19 -2 38 0q44 -142 165 -142q46 0 71.5 18.5t25.5 48.5
q0 27 -27 44.5t-97 25.5q-96 10 -136 52.5t-40 99.5q0 68 51 110.5t133 39.5q60 -2 104 -33q13 -11 19 -6.5t10 33.5q18 -2 36 0q-6 -73 -3 -154q-18 2 -36 0q-27 107 -141 107zM370 526l-8 -10q-30 15 -73 46t-66 54q-22 -22 -65.5 -53.5t-71.5 -46.5l-8 10q32 64 122 141
h49q30 -24 66.5 -65t54.5 -76z" />
    <glyph glyph-name="Scedilla" unicode="&#x15e;" horiz-adv-x="657" 
d="M275 -115l-12 18q54 34 66 78q-87 4 -162 49q-55 33 -66 -37h-53q22 113 10 237h53q22 -98 80.5 -146.5t162.5 -48.5q86 0 134.5 31.5t48.5 90.5q0 60 -52.5 89t-174.5 46q-232 30 -232 203q0 92 61.5 153.5t182.5 61.5q85 0 153 -34q25 -14 39.5 -11.5t20 11t7.5 24.5
h53q-12 -42 -15.5 -110t2.5 -113h-49q-22 93 -74.5 135.5t-141.5 42.5q-77 0 -117.5 -29.5t-40.5 -77.5q0 -52 47 -77.5t158 -40.5q142 -19 198 -73t56 -155q0 -102 -71.5 -162t-191.5 -60q-7 -36 -35 -61q45 8 81 -12t36 -65t-31.5 -70.5t-86.5 -25.5q-38 0 -64 18t-36 44
l21 15q26 -37 68 -37q28 0 43.5 15t15.5 41q0 32 -28.5 44.5t-63.5 -1.5z" />
    <glyph glyph-name="scedilla" unicode="&#x15f;" horiz-adv-x="446" 
d="M162 -115l-12 18q54 34 66 78q-56 6 -107 45q-10 8 -17 8.5t-10.5 -5.5t-5.5 -14t-4 -22q-20 2 -39 0q11 95 4 183q19 -2 38 0q44 -142 165 -142q46 0 71.5 18.5t25.5 48.5q0 27 -27 44.5t-97 25.5q-96 10 -136 52.5t-40 99.5q0 68 51 110.5t133 39.5q60 -2 104 -33
q13 -11 19 -6.5t10 33.5q18 -2 36 0q-6 -73 -3 -154q-18 2 -36 0q-27 107 -141 107q-48 0 -72.5 -18t-24.5 -44q0 -32 26.5 -48t103.5 -25q168 -20 168 -150q0 -73 -42.5 -113.5t-126.5 -41.5q-7 -36 -35 -61q45 8 81 -12t36 -65t-31.5 -70.5t-86.5 -25.5q-38 0 -64 18
t-36 44l21 15q26 -37 68 -37q28 0 43.5 15t15.5 41q0 32 -29 44.5t-63 -1.5z" />
    <glyph glyph-name="Scaron" unicode="&#x160;" horiz-adv-x="657" 
d="M317 655q-77 0 -117.5 -29.5t-40.5 -77.5q0 -52 47 -77.5t158 -40.5q142 -19 198 -73t56 -155q0 -102 -71.5 -162t-191.5 -60q-104 0 -188 50q-55 33 -66 -37h-53q22 113 10 237h53q22 -98 80.5 -146.5t162.5 -48.5q86 0 134.5 31.5t48.5 90.5q0 60 -52.5 89t-174.5 46
q-232 30 -232 203q0 92 61.5 153.5t182.5 61.5q85 0 153 -34q25 -14 39.5 -11.5t20 11t7.5 24.5h53q-12 -42 -15.5 -110t2.5 -113h-49q-22 93 -74.5 135.5t-141.5 42.5zM186 897l8 10q30 -15 73 -46t66 -54q22 22 65.5 53.5t71.5 46.5l8 -10q-32 -64 -122 -141h-49
q-30 24 -66.5 65t-54.5 76z" />
    <glyph glyph-name="scaron" unicode="&#x161;" horiz-adv-x="446" 
d="M210 420q-48 0 -72.5 -18t-24.5 -44q0 -32 26.5 -48t103.5 -25q168 -20 168 -150q0 -74 -43.5 -114.5t-129.5 -40.5q-68 0 -129 46q-10 8 -17 8.5t-10.5 -5.5t-5.5 -14t-4 -22q-20 2 -39 0q11 95 4 183q19 -2 38 0q44 -142 165 -142q46 0 71.5 18.5t25.5 48.5
q0 27 -27 44.5t-97 25.5q-96 10 -136 52.5t-40 99.5q0 68 51 110.5t133 39.5q60 -2 104 -33q13 -11 19 -6.5t10 33.5q18 -2 36 0q-6 -73 -3 -154q-18 2 -36 0q-27 107 -141 107zM67 667l8 10q30 -15 73 -46t66 -54q22 22 65.5 53.5t71.5 46.5l8 -10q-32 -64 -122 -141h-49
q-30 24 -66.5 65t-54.5 76z" />
    <glyph glyph-name="Tcommaaccent" unicode="&#x162;" horiz-adv-x="711" 
d="M302 -115l-12 18q34 22 49.5 43.5t20.5 53.5h-4l-175 -2v61h57q32 0 45 15t15 45q2 40 2 226.5t-2 285.5h-79q-56 0 -80 -24t-26 -70l-4 -99h-66q6 122 -5 256q39 -4 156 -4h324q105 0 154 4q-11 -134 -5 -256h-64l-4 99q-2 46 -26 70t-80 24h-81q-2 -97 -1.5 -285.5
t2.5 -226.5q2 -31 13 -45.5t43 -14.5h61v-61q-83 2 -146 2q2 -46 -37 -81q45 8 81 -12t36 -65t-31.5 -70.5t-86.5 -25.5q-38 0 -64 18t-36 44l21 15q26 -37 68 -37q28 0 43.5 15t15.5 41q0 32 -29 44.5t-63 -1.5z" />
    <glyph glyph-name="tcommaaccent" unicode="&#x163;" horiz-adv-x="323" 
d="M123 -115l-12 18q56 35 67 84q-55 5 -80 43t-23 110q2 147 0 270l-57 -1v40q62 6 92.5 50t41.5 143h45q-6 -44 -11 -189l105 6v-50l-106 1q-1 -96 1 -264q1 -63 10 -85.5t32 -23.5q26 -1 36.5 22.5t6.5 81.5l36 2q13 -152 -103 -157q-4 -39 -36 -67q45 8 81 -12t36 -65
t-31.5 -70.5t-86.5 -25.5q-38 0 -64 18t-36 44l21 15q26 -37 68 -37q28 0 43.5 15t15.5 41q0 32 -28.5 44.5t-63.5 -1.5z" />
    <glyph glyph-name="Tcaron" unicode="&#x164;" horiz-adv-x="711" 
d="M493 631h-81q-2 -97 -1.5 -285.5t2.5 -226.5q2 -31 13 -45.5t43 -14.5h61v-61q-111 2 -174 2l-175 -2v61h57q32 0 45 15t15 45q2 40 2 226.5t-2 285.5h-79q-56 0 -80 -24t-26 -70l-4 -99h-66q6 122 -5 256q39 -4 156 -4h324q105 0 154 4q-11 -134 -5 -256h-64l-4 99
q-2 46 -26 70t-80 24zM209 897l8 10q30 -15 73 -46t66 -54q22 22 65.5 53.5t71.5 46.5l8 -10q-32 -64 -122 -141h-49q-30 24 -66.5 65t-54.5 76z" />
    <glyph glyph-name="tcaron" unicode="&#x165;" horiz-adv-x="428" 
d="M271 141l36 2q14 -157 -110 -157q-66 0 -95 38t-27 116q2 147 0 270l-57 -1v40q62 6 92.5 50t41.5 143h45q-6 -44 -11 -189l105 6v-50l-106 1q-1 -96 1 -264q1 -63 10 -85.5t32 -23.5q26 -1 36.5 22.5t6.5 81.5zM266 513q111 30 108 124q-11 -29 -46 -29q-43 0 -43 48
q0 23 16 38.5t41 15.5q58 0 58 -70q0 -52 -32 -91t-96 -56z" />
    <glyph glyph-name="Tbar" unicode="&#x166;" horiz-adv-x="711" 
d="M493 631h-81q-2 -146 -2 -316l130 6v-52q-35 0 -130 5q2 -130 3 -155q2 -31 13 -45.5t43 -14.5h61v-61q-111 2 -174 2l-175 -2v61h57q32 0 45 15t15 45q0 9 0.5 30.5t1 59t0.5 65.5q-95 -5 -129 -5v52q43 0 129 -6q0 170 -2 316h-79q-56 0 -80 -24t-26 -70l-4 -99h-66
q6 122 -5 256q39 -4 156 -4h324q105 0 154 4q-11 -134 -5 -256h-64l-4 99q-2 46 -26 70t-80 24z" />
    <glyph glyph-name="tbar" unicode="&#x167;" horiz-adv-x="323" 
d="M271 141l36 2q14 -157 -110 -157q-65 0 -93.5 37.5t-28.5 116.5q0 16 0.5 63t0.5 73l-58 -4v51q38 -2 58 -4q0 18 -0.5 49.5t-0.5 41.5l-57 -1v40q62 6 92.5 50t41.5 143h45q-6 -44 -11 -189l105 6v-50l-106 1q-1 -28 -1 -92q15 1 39 2t41.5 1.5t26.5 1.5v-51
q-17 2 -107 6q0 -56 2 -132q1 -63 10 -85.5t32 -23.5q26 -1 36.5 22.5t6.5 81.5z" />
    <glyph glyph-name="Utilde" unicode="&#x168;" horiz-adv-x="843" 
d="M136 282q2 228 0 290q-1 33 -12 46t-40 13h-46v59q104 -3 163 -3q35 0 97.5 1.5t65.5 1.5v-59h-46q-31 0 -45 -12.5t-14 -46.5v-299q0 -120 44.5 -171t136.5 -51t137 49.5t45 172.5q0 27 0.5 85t0.5 111t-1 103q-2 59 -58 59h-46v59q92 -3 144 -3q30 0 85 1.5t58 1.5v-59
h-47q-50 0 -52 -60v-290q0 -302 -275 -302q-149 0 -222 72t-73 231zM557 889l19 4q21 -69 -7.5 -105.5t-80.5 -36.5q-33 0 -52 13.5t-37 40.5q-16 24 -22.5 32t-17 15t-23.5 7q-48 0 -30 -95l-19 -4q-21 70 6 106t82 36q27 0 46.5 -12t39.5 -41q15 -21 22.5 -30.5t18.5 -17
t24 -7.5q49 0 31 95z" />
    <glyph glyph-name="utilde" unicode="&#x169;" horiz-adv-x="620" 
d="M521 462q-1 -20 -2 -45.5t-1.5 -53.5t-0.5 -38q-2 -78 1 -218q2 -58 59 -57h22v-50q-148 0 -187 -3v94q-40 -111 -155 -111q-68 0 -112.5 45t-42.5 148q2 126 0 176q-2 33 -14.5 46.5t-46.5 13.5h-20v50h92q68 0 98 3q-3 -53 -3 -137v-148q0 -44 10 -74t26 -42.5t29 -17
t27 -4.5q57 0 84.5 50t27.5 156v104q0 34 -17 47t-61 13h-15v50h112q68 0 90 3zM425 659l19 4q21 -69 -7.5 -105.5t-80.5 -36.5q-33 0 -52 13.5t-37 40.5q-16 24 -22.5 32t-17 15t-23.5 7q-48 0 -30 -95l-19 -4q-21 70 6 106t82 36q27 0 46.5 -12t39.5 -41
q15 -21 22.5 -30.5t18.5 -17t24 -7.5q49 0 31 95z" />
    <glyph glyph-name="Umacron" unicode="&#x16a;" horiz-adv-x="843" 
d="M136 282q2 228 0 290q-1 33 -12 46t-40 13h-46v59q104 -3 163 -3q35 0 97.5 1.5t65.5 1.5v-59h-46q-31 0 -45 -12.5t-14 -46.5v-299q0 -120 44.5 -171t136.5 -51t137 49.5t45 172.5q0 27 0.5 85t0.5 111t-1 103q-2 59 -58 59h-46v59q92 -3 144 -3q30 0 85 1.5t58 1.5v-59
h-47q-50 0 -52 -60v-290q0 -302 -275 -302q-149 0 -222 72t-73 231zM323 763q2 30 0 62q128 -4 256 0q-1 -31 0 -62q-128 4 -256 0z" />
    <glyph glyph-name="umacron" unicode="&#x16b;" horiz-adv-x="620" 
d="M521 462q-1 -20 -2 -45.5t-1.5 -53.5t-0.5 -38q-2 -78 1 -218q2 -58 59 -57h22v-50q-148 0 -187 -3v94q-40 -111 -155 -111q-68 0 -112.5 45t-42.5 148q2 126 0 176q-2 33 -14.5 46.5t-46.5 13.5h-20v50h92q68 0 98 3q-3 -53 -3 -137v-148q0 -44 10 -74t26 -42.5t29 -17
t27 -4.5q57 0 84.5 50t27.5 156v104q0 34 -17 47t-61 13h-15v50h112q68 0 90 3zM166 537q2 30 0 62q128 -4 256 0q-1 -31 0 -62q-128 4 -256 0z" />
    <glyph glyph-name="Ubreve" unicode="&#x16c;" horiz-adv-x="843" 
d="M136 282q2 228 0 290q-1 33 -12 46t-40 13h-46v59q104 -3 163 -3q35 0 97.5 1.5t65.5 1.5v-59h-46q-31 0 -45 -12.5t-14 -46.5v-299q0 -120 44.5 -171t136.5 -51t137 49.5t45 172.5q0 27 0.5 85t0.5 111t-1 103q-2 59 -58 59h-46v59q92 -3 144 -3q30 0 85 1.5t58 1.5v-59
h-47q-50 0 -52 -60v-290q0 -302 -275 -302q-149 0 -222 72t-73 231zM447 751q-71 0 -108 41.5t-29 103.5l14 2q3 -46 34 -62t89 -16t89 16t34 62l14 -2q8 -62 -29 -103.5t-108 -41.5z" />
    <glyph glyph-name="ubreve" unicode="&#x16d;" horiz-adv-x="620" 
d="M521 462q-1 -20 -2 -45.5t-1.5 -53.5t-0.5 -38q-2 -78 1 -218q2 -58 59 -57h22v-50q-148 0 -187 -3v94q-40 -111 -155 -111q-68 0 -112.5 45t-42.5 148q2 126 0 176q-2 33 -14.5 46.5t-46.5 13.5h-20v50h92q68 0 98 3q-3 -53 -3 -137v-148q0 -44 10 -74t26 -42.5t29 -17
t27 -4.5q57 0 84.5 50t27.5 156v104q0 34 -17 47t-61 13h-15v50h112q68 0 90 3zM280 526q-71 0 -108 41.5t-29 103.5l14 2q3 -46 34 -62t89 -16t89 16t34 62l14 -2q8 -62 -29 -103.5t-108 -41.5z" />
    <glyph glyph-name="Uring" unicode="&#x16e;" horiz-adv-x="843" 
d="M136 282q2 228 0 290q-1 33 -12 46t-40 13h-46v59q104 -3 163 -3q35 0 97.5 1.5t65.5 1.5v-59h-46q-31 0 -45 -12.5t-14 -46.5v-299q0 -120 44.5 -171t136.5 -51t137 49.5t45 172.5q0 27 0.5 85t0.5 111t-1 103q-2 59 -58 59h-46v59q92 -3 144 -3q30 0 85 1.5t58 1.5v-59
h-47q-50 0 -52 -60v-290q0 -302 -275 -302q-149 0 -222 72t-73 231zM493 830q0 24 -12.5 37t-34.5 13q-47 0 -47 -50q0 -25 12.5 -38.5t34.5 -13.5q21 0 34 14t13 38zM529 830q0 -37 -23 -60.5t-60 -23.5t-60.5 23.5t-23.5 60.5t23 60t60 23t60.5 -23t23.5 -60z" />
    <glyph glyph-name="uring" unicode="&#x16f;" horiz-adv-x="620" 
d="M521 462q-1 -20 -2 -45.5t-1.5 -53.5t-0.5 -38q-2 -78 1 -218q2 -58 59 -57h22v-50q-148 0 -187 -3v94q-40 -111 -155 -111q-68 0 -112.5 45t-42.5 148q2 126 0 176q-2 33 -14.5 46.5t-46.5 13.5h-20v50h92q68 0 98 3q-3 -53 -3 -137v-148q0 -44 10 -74t26 -42.5t29 -17
t27 -4.5q57 0 84.5 50t27.5 156v104q0 34 -17 47t-61 13h-15v50h112q68 0 90 3zM318 605q0 24 -12.5 37t-34.5 13q-47 0 -47 -50q0 -25 12.5 -38.5t34.5 -13.5q21 0 34 14t13 38zM354 605q0 -37 -23 -60.5t-60 -23.5t-60.5 23.5t-23.5 60.5t23 60t60 23t60.5 -23t23.5 -60z
" />
    <glyph glyph-name="Uhungarumlaut" unicode="&#x170;" horiz-adv-x="843" 
d="M136 282q2 228 0 290q-1 33 -12 46t-40 13h-46v59q104 -3 163 -3q35 0 97.5 1.5t65.5 1.5v-59h-46q-31 0 -45 -12.5t-14 -46.5v-299q0 -120 44.5 -171t136.5 -51t137 49.5t45 172.5q0 27 0.5 85t0.5 111t-1 103q-2 59 -58 59h-46v59q92 -3 144 -3q30 0 85 1.5t58 1.5v-59
h-47q-50 0 -52 -60v-290q0 -302 -275 -302q-149 0 -222 72t-73 231zM366 750l-9 8q74 118 103 148q17 17 36.5 13.5t23 -20.5t-12.5 -36q-48 -50 -141 -113zM530 750l-9 8q72 117 103 148q17 17 36.5 13t23 -20.5t-12.5 -35.5q-48 -50 -141 -113z" />
    <glyph glyph-name="uhungarumlaut" unicode="&#x171;" horiz-adv-x="620" 
d="M521 462q-1 -20 -2 -45.5t-1.5 -53.5t-0.5 -38q-2 -78 1 -218q2 -58 59 -57h22v-50q-148 0 -187 -3v94q-40 -111 -155 -111q-68 0 -112.5 45t-42.5 148q2 126 0 176q-2 33 -14.5 46.5t-46.5 13.5h-20v50h92q68 0 98 3q-3 -53 -3 -137v-148q0 -44 10 -74t26 -42.5t29 -17
t27 -4.5q57 0 84.5 50t27.5 156v104q0 34 -17 47t-61 13h-15v50h112q68 0 90 3zM195 520l-9 8q74 118 103 148q17 17 36.5 13.5t23 -20.5t-12.5 -36q-48 -50 -141 -113zM359 520l-9 8q72 117 103 148q17 17 36.5 13t23 -20.5t-12.5 -35.5q-48 -50 -141 -113z" />
    <glyph glyph-name="Uogonek" unicode="&#x172;" horiz-adv-x="843" 
d="M564 -84q-6 -122 -118 -122q-46 0 -75 25t-28 67q1 55 54 94q-131 8 -196 80t-65 222q2 228 0 290q-1 33 -12 46t-40 13h-46v59q104 -3 163 -3q35 0 97.5 1.5t65.5 1.5v-59h-46q-31 0 -45 -12.5t-14 -46.5v-299q0 -120 44.5 -171t136.5 -51t137 49.5t45 172.5
q0 27 0.5 85t0.5 111t-1 103q-2 59 -58 59h-46v59q92 -3 144 -3q30 0 85 1.5t58 1.5v-59h-47q-50 0 -52 -60v-290q0 -295 -261 -302q-33 -30 -33 -72q0 -28 17 -43t42 -15q58 0 68 71z" />
    <glyph glyph-name="uogonek" unicode="&#x173;" horiz-adv-x="620" 
d="M638 -84q-6 -122 -118 -122q-46 0 -75 25t-28 67q3 70 85 114q-62 0 -90 -3v94q-40 -111 -155 -111q-68 0 -112.5 45t-42.5 148q2 126 0 176q-2 33 -14.5 46.5t-46.5 13.5h-20v50h92q68 0 98 3q-3 -53 -3 -137v-148q0 -44 10 -74t26 -42.5t29 -17t27 -4.5q57 0 84.5 50
t27.5 156v104q0 34 -17 47t-61 13h-15v50h112q68 0 90 3q-1 -20 -2 -45.5t-1.5 -53.5t-0.5 -38q-2 -78 1 -218q2 -58 59 -57h22v-50h-51q-62 -35 -62 -93q0 -28 17 -43t42 -15q58 0 68 71z" />
    <glyph glyph-name="Wcircumflex" unicode="&#x174;" horiz-adv-x="1102" 
d="M794 -6h-102q-49 191 -144 504q-88 -263 -153 -504h-101q-29 114 -161 569q-11 38 -26 53t-48 15h-39v59q102 -3 160 -3q35 0 97 1.5t63 1.5v-59h-38q-33 0 -44 -16t-1 -52q45 -180 124 -444q91 279 128 445q9 37 -0.5 52t-45.5 15h-20v59q90 -3 141 -3q30 0 84.5 1.5
t56.5 1.5v-59h-32q-57 0 -41 -63q80 -301 125 -447q83 265 116 432q8 41 -3 59.5t-50 18.5h-18v59q87 -3 133 -3q27 0 76 1.5t51 1.5v-59h-37q-33 0 -51.5 -17t-32.5 -62q-114 -356 -167 -558zM727 756l-8 -10q-30 15 -73 46t-66 54q-22 -22 -65.5 -53.5t-71.5 -46.5l-8 10
q32 64 122 141h49q30 -24 66.5 -65t54.5 -76z" />
    <glyph glyph-name="wcircumflex" unicode="&#x175;" horiz-adv-x="829" 
d="M514 -17q-44 150 -110 317q-64 -168 -108 -317h-58q-56 184 -129 370q-12 30 -27 43t-50 13h-12v50q82 -3 127 -3l128 3v-50h-12q-22 0 -34 -14.5t-4 -44.5q32 -115 79 -239q57 151 76 229q17 69 -40 69h-17v50q67 -3 112 -3l116 3v-50h-12q-54 0 -38 -59
q39 -134 77 -235q39 104 74 224q20 70 -35 70h-19v50q72 -3 105 -3l106 3v-50h-23q-35 0 -56 -16t-36 -55q-73 -187 -122 -355h-58zM580 526l-8 -10q-30 15 -73 46t-66 54q-22 -22 -65.5 -53.5t-71.5 -46.5l-8 10q32 64 122 141h49q30 -24 66.5 -65t54.5 -76z" />
    <glyph glyph-name="Ycircumflex" unicode="&#x176;" horiz-adv-x="805" 
d="M626 561q-84 -143 -178 -324v-127q0 -32 10 -42t49 -10h68v-60q-118 2 -185 2l-186 -2v60h67q39 0 49.5 10.5t10.5 41.5v126q-84 167 -179 331q-21 35 -46 49.5t-70 14.5h-16v59q116 -3 181 -3l181 3v-59h-50q-81 0 -50 -67q61 -124 145 -262q76 138 133 262q10 22 11 35
t-11.5 22.5t-43.5 9.5h-36v59q98 -3 153 -3l152 3v-59h-26q-57 0 -83 -14.5t-50 -55.5zM575 756l-8 -10q-30 15 -73 46t-66 54q-22 -22 -65.5 -53.5t-71.5 -46.5l-8 10q32 64 122 141h49q30 -24 66.5 -65t54.5 -76z" />
    <glyph glyph-name="ycircumflex" unicode="&#x177;" horiz-adv-x="571" 
d="M389 355q7 24 -2.5 39t-35.5 15h-22v50q60 -3 118 -3l104 3v-50h-21q-38 0 -56.5 -13t-32.5 -43q-43 -99 -145 -370q-32 -86 -74 -130t-116 -44q-52 0 -78 24.5t-26 61.5q0 38 21 56.5t47 18.5q65 0 65 -59q0 -24 -15.5 -42.5t-45.5 -22.5q18 -4 36 -4q51 0 91.5 41.5
t73.5 148.5h-45q-51 145 -128 322q-13 30 -31 42.5t-46 12.5h-15v50q67 -3 134 -3l135 3v-50h-21q-54 0 -37 -54q29 -91 87 -229q78 218 81 229zM451 526l-8 -10q-30 15 -73 46t-66 54q-22 -22 -65.5 -53.5t-71.5 -46.5l-8 10q32 64 122 141h49q30 -24 66.5 -65t54.5 -76z
" />
    <glyph glyph-name="Ydieresis" unicode="&#x178;" horiz-adv-x="805" 
d="M626 561q-84 -143 -178 -324v-127q0 -32 10 -42t49 -10h68v-60q-118 2 -185 2l-186 -2v60h67q39 0 49.5 10.5t10.5 41.5v126q-84 167 -179 331q-21 35 -46 49.5t-70 14.5h-16v59q116 -3 181 -3l181 3v-59h-50q-81 0 -50 -67q61 -124 145 -262q76 138 133 262q10 22 11 35
t-11.5 22.5t-43.5 9.5h-36v59q98 -3 153 -3l152 3v-59h-26q-57 0 -83 -14.5t-50 -55.5zM402 812q0 -23 -15.5 -38.5t-39.5 -15.5t-39.5 15.5t-15.5 38.5t15.5 38.5t39.5 15.5t39.5 -15.5t15.5 -38.5zM572 812q0 -23 -15.5 -38.5t-39.5 -15.5t-39.5 15.5t-15.5 38.5
t15.5 38.5t39.5 15.5t39.5 -15.5t15.5 -38.5z" />
    <glyph glyph-name="Zacute" unicode="&#x179;" horiz-adv-x="663" 
d="M38 0v58q91 113 434 573h-161q-62 0 -93 -5t-53.5 -26t-29 -57.5t-6.5 -104.5h-65q4 38 4.5 127t-1.5 127q53 -2 212 -2h340v-59q-93 -117 -435 -572h225q92 0 122 38.5t30 154.5h64q-10 -142 -2 -254q-49 2 -192 2h-393zM302 746l-8 10q86 103 123 132q20 14 38.5 7.5
t19.5 -23.5t-17 -33q-55 -43 -156 -93z" />
    <glyph glyph-name="zacute" unicode="&#x17a;" horiz-adv-x="474" 
d="M292 0h-265v37q143 187 272 377h-91q-59 0 -86.5 -28t-32.5 -103h-43q12 94 3 181q74 -5 159 -5h228l2 -35q-106 -136 -278 -380h132q48 0 79 35t35 109h43q-15 -100 -4 -191q-67 3 -153 3zM239 516l-8 10q86 103 123 132q20 14 38.5 7.5t19.5 -23.5t-17 -33
q-55 -43 -156 -93z" />
    <glyph glyph-name="Zdotaccent" unicode="&#x17b;" horiz-adv-x="663" 
d="M38 0v58q91 113 434 573h-161q-62 0 -93 -5t-53.5 -26t-29 -57.5t-6.5 -104.5h-65q4 38 4.5 127t-1.5 127q53 -2 212 -2h340v-59q-93 -117 -435 -572h225q92 0 122 38.5t30 154.5h64q-10 -142 -2 -254q-49 2 -192 2h-393zM405 831q0 -23 -15.5 -38.5t-38.5 -15.5
q-22 0 -37.5 16t-15.5 38t15.5 38t37.5 16q23 0 38.5 -15.5t15.5 -38.5z" />
    <glyph glyph-name="zdotaccent" unicode="&#x17c;" horiz-adv-x="474" 
d="M292 0h-265v37q143 187 272 377h-91q-59 0 -86.5 -28t-32.5 -103h-43q12 94 3 181q74 -5 159 -5h228l2 -35q-106 -136 -278 -380h132q48 0 79 35t35 109h43q-15 -100 -4 -191q-67 3 -153 3zM302 601q0 -23 -16 -38.5t-38 -15.5t-37.5 16t-15.5 38t15.5 38t37.5 16
t38 -15.5t16 -38.5z" />
    <glyph glyph-name="Zcaron" unicode="&#x17d;" horiz-adv-x="663" 
d="M38 0v58q91 113 434 573h-161q-62 0 -93 -5t-53.5 -26t-29 -57.5t-6.5 -104.5h-65q4 38 4.5 127t-1.5 127q53 -2 212 -2h340v-59q-93 -117 -435 -572h225q92 0 122 38.5t30 154.5h64q-10 -142 -2 -254q-49 2 -192 2h-393zM205 897l8 10q30 -15 73 -46t66 -54
q22 22 65.5 53.5t71.5 46.5l8 -10q-32 -64 -122 -141h-49q-30 24 -66.5 65t-54.5 76z" />
    <glyph glyph-name="zcaron" unicode="&#x17e;" horiz-adv-x="474" 
d="M292 0h-265v37q143 187 272 377h-91q-59 0 -86.5 -28t-32.5 -103h-43q12 94 3 181q74 -5 159 -5h228l2 -35q-106 -136 -278 -380h132q48 0 79 35t35 109h43q-15 -100 -4 -191q-67 3 -153 3zM112 667l8 10q30 -15 73 -46t66 -54q22 22 65.5 53.5t71.5 46.5l8 -10
q-32 -64 -122 -141h-49q-30 24 -66.5 65t-54.5 76z" />
    <glyph glyph-name="longs" unicode="&#x17f;" horiz-adv-x="346" 
d="M289 50v-53q-5 0 -55.5 1.5t-78.5 1.5q-29 0 -81 -2l-53 -1v53h35q44 0 46 49q6 158 0 380q-7 216 175 216q61 0 97.5 -31.5t36.5 -76.5q0 -30 -17 -47t-46 -17q-27 0 -43.5 15t-16.5 40t16 39.5t44 14.5h5q-21 26 -58 26q-44 0 -65 -29.5t-22 -105.5v-424
q1 -24 10 -36.5t34 -12.5h37z" />
    <glyph glyph-name="florin" unicode="&#x192;" horiz-adv-x="539" 
d="M109 373v44l102 -3q1 89 19 150t49.5 90.5t63.5 41t72 11.5q61 0 93 -30.5t32 -77.5q0 -74 -66 -74q-27 0 -44 14.5t-17 39.5q0 55 63 55q8 0 19 -3q-16 37 -63 37q-23 0 -38 -4t-31 -18.5t-24 -41t-11.5 -74.5t-0.5 -116l116 4v-45l-114 3q4 -93 -4.5 -163t-26.5 -114
t-46.5 -71t-59.5 -37.5t-69 -10.5q-57 0 -87.5 29t-30.5 70q0 30 16.5 49.5t46.5 19.5q24 0 39 -13t15 -36q0 -24 -15 -37t-39 -13q-12 0 -23 3q16 -37 74 -37q47 0 68.5 25.5t29 100t-4.5 209.5q-1 9 -1 26z" />
    <glyph glyph-name="uni01B5" unicode="&#x1b5;" horiz-adv-x="663" 
d="M38 0v58q66 83 188 244q-96 -6 -114 -6v54q40 0 145 -7q135 180 215 288h-161q-62 0 -93 -5t-53.5 -26t-29 -57.5t-6.5 -104.5h-65q4 38 4.5 127t-1.5 127q53 -2 212 -2h340v-59q-65 -81 -221 -288q98 6 113 7v-54q-14 0 -36 1.5t-54 3.5t-53 3l-184 -245h225
q92 0 122 38.5t30 154.5h64q-10 -142 -2 -254q-49 2 -192 2h-393z" />
    <glyph glyph-name="uni01B6" unicode="&#x1b6;" horiz-adv-x="474" 
d="M292 0h-265v37l102 137q-56 -15 -77 -18l-7 40l111 16q82 112 143 202h-91q-59 0 -86.5 -28t-32.5 -103h-43q12 94 3 181q74 -5 159 -5h228l2 -35q-44 -57 -133 -178q53 16 96 26l7 -40q-104 -18 -129 -22q-46 -62 -119 -166h132q48 0 79 35t35 109h43q-15 -100 -4 -191
q-67 3 -153 3z" />
    <glyph glyph-name="uni01FA" unicode="&#x1fa;" horiz-adv-x="882" 
d="M574 155l-22 60q-138 4 -281 0q-17 -48 -21 -62q-16 -42 -4 -68t58 -26h43l-1 -61q-99 2 -154 2l-154 -2v61h37q41 0 63 18t40 65q59 149 204 554q37 -3 57 -3l56 3q27 -80 110 -290t107 -265q20 -46 38.5 -64t48.5 -18h45v-61q-114 2 -178 2l-179 -2l1 61h44
q36 0 47.5 24.5t-5.5 71.5zM533 267q-79 218 -124 327q-39 -99 -120 -327q124 -2 244 0zM488 830q0 24 -12.5 37t-34.5 13q-47 0 -47 -50q0 -25 12.5 -38.5t34.5 -13.5q21 0 34 14t13 38zM524 830q0 -37 -23 -60.5t-60 -23.5t-60.5 23.5t-23.5 60.5t23 60t60 23t60.5 -23
t23.5 -60zM378 935l-8 10q86 103 123 132q20 14 38.5 7.5t19.5 -23.5t-17 -33q-55 -43 -156 -93z" />
    <glyph glyph-name="aringacute" unicode="&#x1fb;" horiz-adv-x="527" 
d="M413 288v-196q0 -51 24 -51q35 0 30 113l39 3q2 -89 -18 -130t-77 -41q-93 0 -102 91q-47 -90 -143 -90q-136 0 -136 120q0 140 278 159v31q0 73 -21.5 104t-85.5 30q-43 -1 -70 -14q50 -9 50 -58q0 -29 -18 -45t-49 -16q-32 0 -50 17t-18 50q0 51 56 79.5t131 28.5
q101 0 140.5 -48t39.5 -137zM211 43q97 0 97 142v55q-159 -18 -159 -128q0 -69 62 -69zM281 605q0 24 -12.5 37t-34.5 13q-47 0 -47 -50q0 -25 12.5 -38.5t34.5 -13.5q21 0 34 14t13 38zM317 605q0 -37 -23 -60.5t-60 -23.5t-60.5 23.5t-23.5 60.5t23 60t60 23t60.5 -23
t23.5 -60zM184 711l-8 10q86 103 123 132q20 14 38.5 7.5t19.5 -23.5t-17 -33q-55 -43 -156 -93z" />
    <glyph glyph-name="AEacute" unicode="&#x1fc;" horiz-adv-x="1076" 
d="M1037 264q-10 -106 -10 -268q-47 4 -188 4h-287q-130 0 -170 -2v61h56q32 0 44 15t15 45q2 26 2 87q-111 2 -194 -1l-25 -52q-23 -42 -17 -68t51 -26h33l-1 -61q-99 2 -154 2l-154 -2v61h36q41 0 66.5 18t53.5 65q165 271 245 423q18 35 8 54.5t-43 19.5h-25v54
q49 -5 178 -5h43.5t101 0.5t124.5 0.5q160 0 207 6q-8 -99 -6 -250l-54 -1v6q0 103 -34 140.5t-122 37.5h-150q-44 0 -47 -47q-3 -40 -3 -206h62q61 2 89 27.5t28 88.5v15h55q0 -13 -1.5 -62t-1.5 -92q0 -109 3 -160h-53v12q-2 64 -31 93t-96 30h-54q0 -173 3 -216
q3 -52 52 -52h143q88 0 124.5 46.5t36.5 147.5v11h61zM332 257q83 -2 168 0q0 242 -2 302q-73 -124 -166 -302zM673 746l-8 10q86 103 123 132q20 14 38.5 7.5t19.5 -23.5t-17 -33q-55 -43 -156 -93z" />
    <glyph glyph-name="aeacute" unicode="&#x1fd;" horiz-adv-x="765" 
d="M716 121q-18 -65 -68 -101.5t-129 -36.5q-147 0 -194 100q-38 -96 -159 -96q-136 0 -136 120q0 138 276 159v32q0 63 -24 98t-70 35q-49 0 -82 -15q50 -7 50 -57q0 -28 -18.5 -44.5t-46.5 -16.5q-31 0 -49.5 17.5t-18.5 49.5q0 52 55 80t131 28q96 0 143 -55
q49 55 144 55q108 0 159 -72t43 -190h-299q1 -97 27 -135.5t88 -38.5q58 0 87.5 25t41.5 71zM515 426q-46 0 -68.5 -41.5t-23.5 -139.5h153q12 0 16 5t4 20q0 72 -20 114t-61 42zM306 191v49q-157 -18 -157 -128q0 -66 59 -66q98 0 98 145zM338 516l-8 10q86 103 123 132
q20 14 38.5 7.5t19.5 -23.5t-17 -33q-55 -43 -156 -93z" />
    <glyph glyph-name="Oslashacute" unicode="&#x1fe;" horiz-adv-x="770" 
d="M385 -20q-131 0 -213 61l-82 -84l-25 20l71 97q-86 94 -86 272q0 172 92.5 268t242.5 96q137 0 221 -67l86 91l23 -18l-74 -107q79 -93 79 -262q0 -172 -93 -269.5t-242 -97.5zM185 346q0 -125 22 -190l171 198l169 217q-46 85 -162 85q-102 0 -151 -76.5t-49 -233.5z
M385 35q108 0 154.5 76t46.5 236q0 108 -19 174l-166 -188l-174 -223q45 -75 158 -75zM356 746l-8 10q86 103 123 132q20 14 38.5 7.5t19.5 -23.5t-17 -33q-55 -43 -156 -93z" />
    <glyph glyph-name="oslashacute" unicode="&#x1ff;" horiz-adv-x="534" 
d="M40 223q0 124 61.5 187t165.5 63q84 0 141 -42l64 70l16 -13l-54 -80q60 -65 60 -185q0 -115 -62.5 -179t-164.5 -64q-83 0 -142 42l-2 -3l-59 -62l-17 14l52 72l1 1q-60 65 -60 179zM374 223q0 60 -8 103l-91 -105l-99 -131q13 -39 35 -53t56 -14t55.5 13.5t36.5 59
t15 127.5zM162 223q0 -59 6 -97l93 110l95 127q-24 67 -90 67q-51 0 -77.5 -44.5t-26.5 -162.5zM240 516l-8 10q86 103 123 132q20 14 38.5 7.5t19.5 -23.5t-17 -33q-55 -43 -156 -93z" />
    <glyph glyph-name="Scommaaccent" unicode="&#x218;" horiz-adv-x="657" 
d="M317 655q-77 0 -117.5 -29.5t-40.5 -77.5q0 -52 47 -77.5t158 -40.5q142 -19 198 -73t56 -155q0 -102 -71.5 -162t-191.5 -60q-104 0 -188 50q-55 33 -66 -37h-53q22 113 10 237h53q22 -98 80.5 -146.5t162.5 -48.5q86 0 134.5 31.5t48.5 90.5q0 60 -52.5 89t-174.5 46
q-232 30 -232 203q0 92 61.5 153.5t182.5 61.5q85 0 153 -34q25 -14 39.5 -11.5t20 11t7.5 24.5h53q-12 -42 -15.5 -110t2.5 -113h-49q-22 93 -74.5 135.5t-141.5 42.5zM270 -259q111 30 108 124q-11 -29 -46 -29q-43 0 -43 48q0 23 16 38.5t41 15.5q58 0 58 -70
q0 -52 -32 -91t-96 -56z" />
    <glyph glyph-name="scommaaccent" unicode="&#x219;" horiz-adv-x="446" 
d="M210 420q-48 0 -72.5 -18t-24.5 -44q0 -32 26.5 -48t103.5 -25q168 -20 168 -150q0 -74 -43.5 -114.5t-129.5 -40.5q-68 0 -129 46q-10 8 -17 8.5t-10.5 -5.5t-5.5 -14t-4 -22q-20 2 -39 0q11 95 4 183q19 -2 38 0q44 -142 165 -142q46 0 71.5 18.5t25.5 48.5
q0 27 -27 44.5t-97 25.5q-96 10 -136 52.5t-40 99.5q0 68 51 110.5t133 39.5q60 -2 104 -33q13 -11 19 -6.5t10 33.5q18 -2 36 0q-6 -73 -3 -154q-18 2 -36 0q-27 107 -141 107zM151 -259q111 30 108 124q-11 -29 -46 -29q-43 0 -43 48q0 23 16 38.5t41 15.5q58 0 58 -70
q0 -52 -32 -91t-96 -56z" />
    <glyph glyph-name="uni021A" unicode="&#x21a;" horiz-adv-x="711" 
d="M493 631h-81q-2 -97 -1.5 -285.5t2.5 -226.5q2 -31 13 -45.5t43 -14.5h61v-61q-111 2 -174 2l-175 -2v61h57q32 0 45 15t15 45q2 40 2 226.5t-2 285.5h-79q-56 0 -80 -24t-26 -70l-4 -99h-66q6 122 -5 256q39 -4 156 -4h324q105 0 154 4q-11 -134 -5 -256h-64l-4 99
q-2 46 -26 70t-80 24zM277 -249q111 30 108 124q-11 -29 -46 -29q-43 0 -43 48q0 23 16 38.5t41 15.5q58 0 58 -70q0 -52 -32 -91t-96 -56z" />
    <glyph glyph-name="uni021B" unicode="&#x21b;" horiz-adv-x="323" 
d="M271 141l36 2q14 -157 -110 -157q-66 0 -95 38t-27 116q2 147 0 270l-57 -1v40q62 6 92.5 50t41.5 143h45q-6 -44 -11 -189l105 6v-50l-106 1q-1 -96 1 -264q1 -63 10 -85.5t32 -23.5q26 -1 36.5 22.5t6.5 81.5zM100 -259q111 30 108 124q-11 -29 -46 -29q-43 0 -43 48
q0 23 16 38.5t41 15.5q58 0 58 -70q0 -52 -32 -91t-96 -56z" />
    <glyph glyph-name="uni0237" unicode="&#x237;" horiz-adv-x="302" 
d="M59 -99q0 -22 -17 -39t-53 -12q20 -14 52 -14q38 0 56.5 27t18.5 101v393q-3 52 -54 52h-28v50q149 0 188 3q-1 -35 -1 -114t0.5 -189.5t0.5 -158.5q0 -201 -161 -201q-57 0 -91.5 25.5t-34.5 70.5q0 29 17 45.5t48 16.5q27 0 43 -15t16 -41z" />
    <glyph glyph-name="circumflex" unicode="&#x2c6;" horiz-adv-x="532" 
d="M400 526l-8 -10q-30 15 -73 46t-66 54q-22 -22 -65.5 -53.5t-71.5 -46.5l-8 10q32 64 122 141h49q30 -24 66.5 -65t54.5 -76z" />
    <glyph glyph-name="caron" unicode="&#x2c7;" horiz-adv-x="532" 
d="M108 667l8 10q30 -15 73 -46t66 -54q22 22 65.5 53.5t71.5 46.5l8 -10q-32 -64 -122 -141h-49q-30 24 -66.5 65t-54.5 76z" />
    <glyph glyph-name="breve" unicode="&#x2d8;" horiz-adv-x="532" 
d="M257 526q-71 0 -108 41.5t-29 103.5l14 2q3 -46 34 -62t89 -16t89 16t34 62l14 -2q8 -62 -29 -103.5t-108 -41.5z" />
    <glyph glyph-name="dotaccent" unicode="&#x2d9;" horiz-adv-x="532" 
d="M328 601q0 -23 -16 -38.5t-38 -15.5t-37.5 16t-15.5 38t15.5 38t37.5 16t38 -15.5t16 -38.5z" />
    <glyph glyph-name="ring" unicode="&#x2da;" horiz-adv-x="532" 
d="M319 600q0 24 -12.5 37t-34.5 13q-47 0 -47 -50q0 -25 12.5 -38.5t34.5 -13.5q21 0 34 14t13 38zM355 600q0 -37 -23 -60.5t-60 -23.5t-60.5 23.5t-23.5 60.5t23 60t60 23t60.5 -23t23.5 -60z" />
    <glyph glyph-name="ogonek" unicode="&#x2db;" horiz-adv-x="532" 
d="M396 -84q-6 -122 -118 -122q-46 0 -75 25t-28 67q2 54 44.5 86.5t113.5 57.5l19 -10q-49 -16 -78.5 -45t-29.5 -68q0 -28 17 -43t42 -15q58 0 68 71z" />
    <glyph glyph-name="tilde" unicode="&#x2dc;" horiz-adv-x="532" 
d="M386 659l19 4q21 -69 -7.5 -105.5t-80.5 -36.5q-33 0 -52 13.5t-37 40.5q-16 24 -22.5 32t-17 15t-23.5 7q-48 0 -30 -95l-19 -4q-21 70 6 106t82 36q27 0 46.5 -12t39.5 -41q15 -21 22.5 -30.5t18.5 -17t24 -7.5q49 0 31 95z" />
    <glyph glyph-name="hungarumlaut" unicode="&#x2dd;" horiz-adv-x="532" 
d="M116 520l-9 8q74 118 103 148q17 17 36.5 13.5t23 -20.5t-12.5 -36q-48 -50 -141 -113zM280 520l-9 8q72 117 103 148q17 17 36.5 13t23 -20.5t-12.5 -35.5q-48 -50 -141 -113z" />
    <glyph glyph-name="Wgrave" unicode="&#x1e80;" horiz-adv-x="1102" 
d="M794 -6h-102q-49 191 -144 504q-88 -263 -153 -504h-101q-29 114 -161 569q-11 38 -26 53t-48 15h-39v59q102 -3 160 -3q35 0 97 1.5t63 1.5v-59h-38q-33 0 -44 -16t-1 -52q45 -180 124 -444q91 279 128 445q9 37 -0.5 52t-45.5 15h-20v59q90 -3 141 -3q30 0 84.5 1.5
t56.5 1.5v-59h-32q-57 0 -41 -63q80 -301 125 -447q83 265 116 432q8 41 -3 59.5t-50 18.5h-18v59q87 -3 133 -3q27 0 76 1.5t51 1.5v-59h-37q-33 0 -51.5 -17t-32.5 -62q-114 -356 -167 -558zM629 762l-8 -10q-105 52 -156 93q-19 15 -16.5 33.5t19.5 23t38 -7.5
q31 -24 123 -132z" />
    <glyph glyph-name="wgrave" unicode="&#x1e81;" horiz-adv-x="829" 
d="M514 -17q-44 150 -110 317q-64 -168 -108 -317h-58q-56 184 -129 370q-12 30 -27 43t-50 13h-12v50q82 -3 127 -3l128 3v-50h-12q-22 0 -34 -14.5t-4 -44.5q32 -115 79 -239q57 151 76 229q17 69 -40 69h-17v50q67 -3 112 -3l116 3v-50h-12q-54 0 -38 -59
q39 -134 77 -235q39 104 74 224q20 70 -35 70h-19v50q72 -3 105 -3l106 3v-50h-23q-35 0 -56 -16t-36 -55q-73 -187 -122 -355h-58zM490 526l-8 -10q-105 52 -156 93q-19 15 -16.5 33.5t19.5 23t38 -7.5q31 -24 123 -132z" />
    <glyph glyph-name="Wacute" unicode="&#x1e82;" horiz-adv-x="1102" 
d="M794 -6h-102q-49 191 -144 504q-88 -263 -153 -504h-101q-29 114 -161 569q-11 38 -26 53t-48 15h-39v59q102 -3 160 -3q35 0 97 1.5t63 1.5v-59h-38q-33 0 -44 -16t-1 -52q45 -180 124 -444q91 279 128 445q9 37 -0.5 52t-45.5 15h-20v59q90 -3 141 -3q30 0 84.5 1.5
t56.5 1.5v-59h-32q-57 0 -41 -63q80 -301 125 -447q83 265 116 432q8 41 -3 59.5t-50 18.5h-18v59q87 -3 133 -3q27 0 76 1.5t51 1.5v-59h-37q-33 0 -51.5 -17t-32.5 -62q-114 -356 -167 -558zM515 752l-8 10q86 103 123 132q20 14 38.5 7.5t19.5 -23.5t-17 -33
q-55 -43 -156 -93z" />
    <glyph glyph-name="wacute" unicode="&#x1e83;" horiz-adv-x="829" 
d="M514 -17q-44 150 -110 317q-64 -168 -108 -317h-58q-56 184 -129 370q-12 30 -27 43t-50 13h-12v50q82 -3 127 -3l128 3v-50h-12q-22 0 -34 -14.5t-4 -44.5q32 -115 79 -239q57 151 76 229q17 69 -40 69h-17v50q67 -3 112 -3l116 3v-50h-12q-54 0 -38 -59
q39 -134 77 -235q39 104 74 224q20 70 -35 70h-19v50q72 -3 105 -3l106 3v-50h-23q-35 0 -56 -16t-36 -55q-73 -187 -122 -355h-58zM393 516l-8 10q86 103 123 132q20 14 38.5 7.5t19.5 -23.5t-17 -33q-55 -43 -156 -93z" />
    <glyph glyph-name="Wdieresis" unicode="&#x1e84;" horiz-adv-x="1102" 
d="M794 -6h-102q-49 191 -144 504q-88 -263 -153 -504h-101q-29 114 -161 569q-11 38 -26 53t-48 15h-39v59q102 -3 160 -3q35 0 97 1.5t63 1.5v-59h-38q-33 0 -44 -16t-1 -52q45 -180 124 -444q91 279 128 445q9 37 -0.5 52t-45.5 15h-20v59q90 -3 141 -3q30 0 84.5 1.5
t56.5 1.5v-59h-32q-57 0 -41 -63q80 -301 125 -447q83 265 116 432q8 41 -3 59.5t-50 18.5h-18v59q87 -3 133 -3q27 0 76 1.5t51 1.5v-59h-37q-33 0 -51.5 -17t-32.5 -62q-114 -356 -167 -558zM551 812q0 -23 -15.5 -38.5t-39.5 -15.5t-39.5 15.5t-15.5 38.5t15.5 38.5
t39.5 15.5t39.5 -15.5t15.5 -38.5zM721 812q0 -23 -15.5 -38.5t-39.5 -15.5t-39.5 15.5t-15.5 38.5t15.5 38.5t39.5 15.5t39.5 -15.5t15.5 -38.5z" />
    <glyph glyph-name="wdieresis" unicode="&#x1e85;" horiz-adv-x="829" 
d="M514 -17q-44 150 -110 317q-64 -168 -108 -317h-58q-56 184 -129 370q-12 30 -27 43t-50 13h-12v50q82 -3 127 -3l128 3v-50h-12q-22 0 -34 -14.5t-4 -44.5q32 -115 79 -239q57 151 76 229q17 69 -40 69h-17v50q67 -3 112 -3l116 3v-50h-12q-54 0 -38 -59
q39 -134 77 -235q39 104 74 224q20 70 -35 70h-19v50q72 -3 105 -3l106 3v-50h-23q-35 0 -56 -16t-36 -55q-73 -187 -122 -355h-58zM413 582q0 -23 -15.5 -38.5t-39.5 -15.5t-39.5 15.5t-15.5 38.5t15.5 38.5t39.5 15.5t39.5 -15.5t15.5 -38.5zM583 582q0 -23 -15.5 -38.5
t-39.5 -15.5t-39.5 15.5t-15.5 38.5t15.5 38.5t39.5 15.5t39.5 -15.5t15.5 -38.5z" />
    <glyph glyph-name="uni1E8A" unicode="&#x1e8a;" horiz-adv-x="816" 
d="M482 136l-102 151l-94 -145q-23 -37 -14 -60t41 -23h35v-61q-103 2 -158 2l-152 -2v61h21q104 0 172 98q103 150 118 176q-119 174 -157 227q-26 37 -51 54t-66 17h-26v59q129 -2 189 -2l164 2v-59h-25q-34 0 -48 -21.5t6 -54.5q37 -58 106 -161q86 115 105 159
q16 34 7 56t-42 22h-28v59q91 -2 142 -2l143 2v-59h-25q-52 0 -75 -15.5t-59 -64.5q-72 -98 -139 -200q32 -47 86.5 -123.5t68.5 -97.5q27 -38 53.5 -54.5t63.5 -16.5h35v-61q-116 2 -182 2l-172 -2v61h31q31 0 41 19.5t-13 57.5zM493 831q0 -23 -15.5 -38.5t-38.5 -15.5
q-22 0 -37.5 16t-15.5 38t15.5 38t37.5 16q23 0 38.5 -15.5t15.5 -38.5z" />
    <glyph glyph-name="uni1E8B" unicode="&#x1e8b;" horiz-adv-x="592" 
d="M335 109l-62 75q-9 -11 -25 -30t-27.5 -32t-14.5 -18q-18 -22 -11 -38t33 -16h20v-52q-76 2 -111 2l-117 -2v52h19q53 0 98 39q28 24 117 118q-103 125 -130 155q-24 27 -40.5 37t-43.5 10h-10v50q81 -2 127 -2l142 2v-50h-21q-32 0 -38 -15.5t14 -41.5q5 -7 63 -79
l75 85q17 18 11 34.5t-36 16.5h-23v50q65 -2 100 -2l119 2v-50h-28q-23 0 -40.5 -10.5t-50.5 -40.5q-28 -26 -109 -107q108 -130 138 -163q35 -38 83 -38h16v-52q-92 2 -138 2l-142 -2v52h21q28 0 34 20t-12 39zM373 601q0 -23 -15.5 -38.5t-38.5 -15.5q-22 0 -37.5 16
t-15.5 38t15.5 38t37.5 16q23 0 38.5 -15.5t15.5 -38.5z" />
    <glyph glyph-name="Ygrave" unicode="&#x1ef2;" horiz-adv-x="805" 
d="M626 561q-84 -143 -178 -324v-127q0 -32 10 -42t49 -10h68v-60q-118 2 -185 2l-186 -2v60h67q39 0 49.5 10.5t10.5 41.5v126q-84 167 -179 331q-21 35 -46 49.5t-70 14.5h-16v59q116 -3 181 -3l181 3v-59h-50q-81 0 -50 -67q61 -124 145 -262q76 138 133 262q10 22 11 35
t-11.5 22.5t-43.5 9.5h-36v59q98 -3 153 -3l152 3v-59h-26q-57 0 -83 -14.5t-50 -55.5zM475 756l-8 -10q-105 53 -156 93q-19 15 -16.5 33.5t19.5 23t38 -7.5q31 -24 123 -132z" />
    <glyph glyph-name="ygrave" unicode="&#x1ef3;" horiz-adv-x="571" 
d="M389 355q7 24 -2.5 39t-35.5 15h-22v50q60 -3 118 -3l104 3v-50h-21q-38 0 -56.5 -13t-32.5 -43q-43 -99 -145 -370q-32 -86 -74 -130t-116 -44q-52 0 -78 24.5t-26 61.5q0 38 21 56.5t47 18.5q65 0 65 -59q0 -24 -15.5 -42.5t-45.5 -22.5q18 -4 36 -4q51 0 91.5 41.5
t73.5 148.5h-45q-51 145 -128 322q-13 30 -31 42.5t-46 12.5h-15v50q67 -3 134 -3l135 3v-50h-21q-54 0 -37 -54q29 -91 87 -229q78 218 81 229zM368 526l-8 -10q-105 52 -156 93q-19 15 -16.5 33.5t19.5 23t38 -7.5q31 -24 123 -132z" />
    <glyph glyph-name="uni2009" unicode="&#x2009;" horiz-adv-x="118" 
 />
    <glyph glyph-name="endash" unicode="&#x2013;" horiz-adv-x="500" 
d="M30 201q2 42 0 86q220 -4 440 0q-2 -43 0 -86q-220 4 -440 0z" />
    <glyph glyph-name="emdash" unicode="&#x2014;" horiz-adv-x="1000" 
d="M30 201q2 42 0 86q470 -4 940 0q-2 -43 0 -86q-470 4 -940 0z" />
    <glyph glyph-name="quoteleft" unicode="&#x2018;" horiz-adv-x="248" 
d="M228 674q-78 -9 -114 -50.5t-30 -100.5q11 24 47 24q51 0 51 -54q0 -26 -18 -43t-46 -17q-68 0 -68 95q0 24 7.5 48.5t25 52t54.5 46.5t89 23z" />
    <glyph glyph-name="quoteright" unicode="&#x2019;" horiz-adv-x="248" 
d="M20 459q77 9 114 50.5t28 98.5q-13 -22 -43 -22q-24 0 -38 13.5t-14 40.5q0 28 16.5 44t46.5 16q68 0 68 -95q0 -25 -6 -48t-23 -50.5t-54.5 -46.5t-92.5 -25z" />
    <glyph glyph-name="quotesinglbase" unicode="&#x201a;" horiz-adv-x="248" 
d="M20 -116q77 9 114 50.5t28 98.5q-13 -22 -43 -22q-24 0 -38 13.5t-14 40.5q0 28 16.5 44t46.5 16q68 0 68 -95q0 -25 -6 -48t-23 -50.5t-54.5 -46.5t-92.5 -25z" />
    <glyph glyph-name="quotedblleft" unicode="&#x201c;" horiz-adv-x="426" 
d="M228 674q-78 -9 -114 -50.5t-30 -100.5q11 24 47 24q51 0 51 -54q0 -26 -18 -43t-46 -17q-68 0 -68 95q0 24 7.5 48.5t25 52t54.5 46.5t89 23zM406 674q-78 -9 -114 -50.5t-30 -100.5q11 24 47 24q51 0 51 -54q0 -26 -18 -43t-46 -17q-68 0 -68 95q0 24 7.5 48.5t25 52
t54.5 46.5t89 23z" />
    <glyph glyph-name="quotedblright" unicode="&#x201d;" horiz-adv-x="426" 
d="M20 469q77 9 114 50.5t28 98.5q-13 -22 -43 -22q-24 0 -38 13.5t-14 40.5q0 28 16.5 44t46.5 16q68 0 68 -95q0 -25 -6 -48t-23 -50.5t-54.5 -46.5t-92.5 -25zM198 469q77 9 114 50.5t28 98.5q-13 -22 -43 -22q-24 0 -38 13.5t-14 40.5q0 28 16.5 44t46.5 16q68 0 68 -95
q0 -25 -6 -48t-23 -50.5t-54.5 -46.5t-92.5 -25z" />
    <glyph glyph-name="quotedblbase" unicode="&#x201e;" horiz-adv-x="426" 
d="M20 -116q77 9 114 50.5t28 98.5q-13 -22 -43 -22q-24 0 -38 13.5t-14 40.5q0 28 16.5 44t46.5 16q68 0 68 -95q0 -25 -6 -48t-23 -50.5t-54.5 -46.5t-92.5 -25zM198 -116q77 9 114 50.5t28 98.5q-13 -22 -43 -22q-24 0 -38 13.5t-14 40.5q0 28 16.5 44t46.5 16
q68 0 68 -95q0 -25 -6 -48t-23 -50.5t-54.5 -46.5t-92.5 -25z" />
    <glyph glyph-name="dagger" unicode="&#x2020;" 
d="M234 344q48 20 54 131q-18 5 -24 22q-25 -4 -55 -15q-108 -38 -108 26t108 26q35 -12 55 -15q6 17 24 22q-3 48 -18 86q-7 18 -11 35t-6.5 42t9 40t36.5 15t36.5 -15t9 -40t-6.5 -42t-11 -35q-14 -34 -18 -87q16 -5 21 -21q18 2 56 15q108 38 108 -26t-108 -26
q-33 11 -56 15q-5 -15 -21 -22q6 -109 54 -131v-23q-55 -25 -55 -167q0 -68 19 -116q7 -18 11 -35t6.5 -42t-9 -40t-36.5 -15t-36.5 15t-9 40t6.5 42t11 35q19 47 19 116q0 142 -55 167v23z" />
    <glyph glyph-name="daggerdbl" unicode="&#x2021;" 
d="M211 131q-108 -38 -108 26t108 26q31 -11 53 -15q6 17 24 22q-6 109 -54 131v23q48 20 54 131q-18 5 -24 22q-25 -4 -55 -15q-108 -38 -108 26t108 26q35 -12 55 -15q6 17 24 22q-3 48 -18 86q-7 18 -11 35t-6.5 42t9 40t36.5 15t36.5 -15t9 -40t-6.5 -42t-11 -35
q-14 -34 -18 -87q16 -5 21 -21q18 2 56 15q108 38 108 -26t-108 -26q-33 11 -56 15q-5 -15 -21 -22q6 -109 54 -131v-23q-48 -22 -54 -132q16 -5 21 -21q21 3 58 15q108 38 108 -26t-108 -26q-32 11 -58 15q-5 -15 -21 -22q3 -52 18 -86q7 -18 11 -35t6.5 -42t-9 -40
t-36.5 -15t-36.5 15t-9 40t6.5 42t11 35q15 39 18 86q-18 5 -24 21q-22 -3 -53 -14z" />
    <glyph glyph-name="bullet" unicode="&#x2022;" horiz-adv-x="449" 
d="M399 241q0 -79 -47.5 -124t-127.5 -45q-77 0 -125.5 45t-48.5 127q0 77 49 124t125 47q79 0 127 -48t48 -126z" />
    <glyph glyph-name="ellipsis" unicode="&#x2026;" horiz-adv-x="723" 
d="M191 55q0 -32 -19 -50t-52 -18q-31 0 -50.5 18t-19.5 51q0 31 20 50t50 19q32 0 51.5 -19t19.5 -51zM432 55q0 -32 -19 -50t-52 -18q-31 0 -50.5 18t-19.5 51q0 31 20 50t50 19q32 0 51.5 -19t19.5 -51zM673 55q0 -32 -19 -50t-52 -18q-31 0 -50.5 18t-19.5 51
q0 31 20 50t50 19q32 0 51.5 -19t19.5 -51z" />
    <glyph glyph-name="perthousand" unicode="&#x2030;" horiz-adv-x="910" 
d="M189 418q33 0 46.5 27.5t13.5 105.5q0 80 -14 107.5t-46 27.5q-31 0 -45.5 -29t-14.5 -106q0 -81 13 -107t47 -26zM189 392q-61 0 -96 39t-35 120q0 80 38 120t93 40q61 0 96.5 -39.5t35.5 -120.5q0 -79 -38.5 -119t-93.5 -40zM95 85q0 8 8 8t8 -8t-8 -8t-8 8zM132 139
q0 13 13 13t13 -13q0 -14 -13 -14t-13 14zM169 192q0 8 5.5 13t12.5 5t12.5 -5t5.5 -13t-5.5 -13t-12.5 -5t-12.5 5t-5.5 13zM207 246q0 8 6.5 14.5t15.5 6.5t15.5 -6.5t6.5 -14.5q0 -9 -6.5 -15.5t-15.5 -6.5t-15.5 6.5t-6.5 15.5zM247 299q0 10 7 17t17 7t17 -7t7 -17
t-7 -17t-17 -7t-17 7t-7 17zM288 353q0 10 7.5 17t17.5 7t17.5 -7t7.5 -17q0 -11 -7 -18t-18 -7t-18 7t-7 18zM331 406q0 10 7 17t17 7t17 -7t7 -17t-7 -17t-17 -7t-17 7t-7 17zM375 460q0 8 6.5 14.5t15.5 6.5t15.5 -6.5t6.5 -14.5q0 -9 -6.5 -15.5t-15.5 -6.5t-15.5 6.5
t-6.5 15.5zM421 513q0 7 5.5 12.5t12.5 5.5t12.5 -5.5t5.5 -12.5t-5.5 -12.5t-12.5 -5.5t-12.5 5.5t-5.5 12.5zM468 567q0 13 13 13t13 -13q0 -14 -13 -14t-13 14zM515 620q0 8 8 8t8 -8t-8 -8t-8 8zM422 -3q33 0 46.5 27.5t13.5 105.5q0 80 -14 107.5t-46 27.5
q-31 0 -45.5 -29t-14.5 -106q0 -81 13 -107t47 -26zM422 -29q-61 0 -96 39t-35 120q0 80 38 120t93 40q61 0 96.5 -39.5t35.5 -120.5q0 -79 -38.5 -119t-93.5 -40zM732 -3q33 0 46.5 27.5t13.5 105.5q0 80 -14 107.5t-46 27.5q-31 0 -45.5 -29t-14.5 -106q0 -81 13 -107
t47 -26zM732 -29q-61 0 -96 39t-35 120q0 80 38 120t93 40q61 0 96.5 -39.5t35.5 -120.5q0 -79 -38.5 -119t-93.5 -40z" />
    <glyph glyph-name="guilsinglleft" unicode="&#x2039;" horiz-adv-x="271" 
d="M214 426l12 -9q-18 -36 -55.5 -88t-64.5 -79q26 -26 63.5 -78.5t56.5 -86.5l-12 -9q-100 88 -179 151v49q92 73 179 150z" />
    <glyph glyph-name="guilsinglright" unicode="&#x203a;" horiz-adv-x="271" 
d="M45 417l12 9q92 -74 179 -150v-49q-79 -63 -179 -151l-12 9q19 34 56.5 86.5t63.5 78.5q-27 27 -64.5 79t-55.5 88z" />
    <glyph glyph-name="fraction" unicode="&#x2044;" horiz-adv-x="150" 
d="M-219 -32q0 8 8 8t8 -8t-8 -8t-8 8zM-179 24q0 12 12 12t12 -12t-12 -12t-12 12zM-139 80q0 16 16 16t16 -16t-16 -16t-16 16zM-98 136q0 19 19 19t19 -19q0 -8 -5.5 -13.5t-13.5 -5.5t-13.5 5.5t-5.5 13.5zM-57 192q0 9 6.5 15.5t15.5 6.5t15.5 -6.5t6.5 -15.5
t-6.5 -15.5t-15.5 -6.5t-15.5 6.5t-6.5 15.5zM-15 248q0 10 7 17t17 7t17 -7t7 -17t-7 -16.5t-17 -6.5t-17 6.5t-7 16.5zM28 304q0 10 7 17.5t18 7.5t18 -7.5t7 -17.5t-7.5 -17t-17.5 -7t-17.5 7t-7.5 17zM72 361q0 10 7.5 17t17.5 7t17.5 -7t7.5 -17q0 -11 -7 -18t-18 -7
t-18 7t-7 18zM117 417q0 10 7 16.5t17 6.5t17 -6.5t7 -16.5t-7 -17t-17 -7t-17 7t-7 17zM163 473q0 9 6.5 15.5t15.5 6.5t15.5 -6.5t6.5 -15.5t-6.5 -15.5t-15.5 -6.5t-15.5 6.5t-6.5 15.5zM210 529q0 8 5.5 13.5t13.5 5.5t13.5 -5.5t5.5 -13.5q0 -19 -19 -19t-19 19z
M257 585q0 16 16 16t16 -16t-16 -16t-16 16zM305 641q0 12 12 12t12 -12t-12 -12t-12 12zM353 697q0 8 8 8t8 -8t-8 -8t-8 8z" />
    <glyph glyph-name="Euro" unicode="&#x20ac;" horiz-adv-x="608" 
d="M31 428l46 -2q19 125 94 192t192 67q108 0 161 -40.5t53 -96.5q0 -73 -71 -73q-33 0 -51 17.5t-18 45.5q0 32 22.5 48.5t59.5 12.5q-44 40 -124 40q-96 0 -142.5 -50.5t-56.5 -165.5l197 5v-55l-200 4q-2 -60 1 -91l197 5l1 -55l-193 3q13 -104 60.5 -158t135.5 -54
q91 0 124 40q-41 -3 -61 16t-20 48q0 27 18 44t51 17q72 0 72 -80q0 -53 -48 -92.5t-168 -39.5q-123 0 -194 61t-90 196l-49 -1v55l44 -2q-3 58 -2 85l-41 -1v55z" />
    <glyph glyph-name="uni2116" unicode="&#x2116;" horiz-adv-x="1135" 
d="M937 284q90 0 90 126q0 128 -90 128t-90 -128q0 -72 23 -99t67 -27zM937 251q-135 0 -135 159q0 80 38.5 120t96.5 40q136 0 136 -160q0 -80 -38.5 -119.5t-97.5 -39.5zM272 690q129 -196 335 -481q6 260 0 371q-1 29 -13 40t-40 11h-64v59q3 0 62 -1.5t91 -1.5l152 3
v-59h-64q-28 0 -40 -11t-13 -40q-2 -44 -2 -267t2 -313q-38 4 -77 0q-180 269 -377 549q-2 -364 2 -449q1 -25 13 -33t47 -8h58v-61q-98 2 -153 2l-153 -2v61h57q35 0 47 8t13 33q2 59 2.5 246t-2.5 235q-2 29 -14 39.5t-39 10.5h-63v59q117 -4 233 0zM1006 55
q0 -32 -19 -50t-52 -18q-31 0 -50.5 18t-19.5 51q0 31 20 50t50 19q32 0 51.5 -19t19.5 -51z" />
    <glyph glyph-name="trademark" unicode="&#x2122;" horiz-adv-x="723" 
d="M693 655h-18q-21 0 -23 -23q-1 -13 -1 -73.5t1 -74.5q1 -13 6 -19t18 -6h17v-34q-49 1 -77 1l-76 -1v34h18q23 0 25 25v35.5v54v41.5q-53 -96 -86 -169h-17q-50 102 -87 168q0 -104 1 -129q0 -26 25 -26h21v-34q-39 1 -61 1l-62 -1v34h17q23 0 25 26q1 14 1 74t-1 74
q-1 22 -24 22h-17v34q60 -2 121 0q23 -51 74 -142q61 123 70 142q54 -2 110 0v-34zM102 688h127q57 0 71 2q-5 -60 -1 -106h-39l-1 32q-2 37 -30 37h-31q-2 -141 1 -170q2 -24 25 -24h19q-1 -2 -1 -16.5t1 -17.5q-50 1 -77 1l-77 -1v34h18q23 0 25 24q4 62 0 170h-30
q-28 0 -30 -37l-1 -32h-39q4 52 -2 106q15 -2 72 -2z" />
    <glyph glyph-name="onethird" unicode="&#x2153;" horiz-adv-x="378" 
d="M12 344q0 8 5.5 13.5t14.5 5.5q8 0 13.5 -5.5t5.5 -13.5q0 -9 -5.5 -14.5t-13.5 -5.5q-20 0 -20 20zM77 344q0 17 18 17q7 0 12 -5t5 -12q0 -18 -17 -18q-18 0 -18 18zM142 344q0 15 16 15q6 0 10.5 -4.5t4.5 -10.5q0 -16 -15 -16q-16 0 -16 16zM205 344q0 15 16 15
q6 0 10.5 -4.5t4.5 -10.5q0 -16 -15 -16q-16 0 -16 16zM266 344q0 17 18 17q7 0 12 -5t5 -12q0 -18 -17 -18q-18 0 -18 18zM327 344q0 8 5.5 13.5t14.5 5.5q7 0 13 -5.5t6 -13.5q0 -9 -5.5 -14.5t-13.5 -5.5q-20 0 -20 20zM125 431q30 0 30 25v162l-61 -2v34h17
q39 0 56.5 15.5t22.5 44.5h36q-2 -57 -2 -115v-139q0 -25 29 -25h37v-32q-65 2 -101 2l-101 -2v32h37zM300 210q0 -52 -63 -71q38 -6 59.5 -26.5t21.5 -50.5q0 -46 -37.5 -68.5t-102.5 -22.5q-51 0 -84.5 22.5t-33.5 54.5q0 20 12 31.5t31 11.5q20 0 31 -9t11 -23
q0 -15 -9.5 -24t-27.5 -9q-11 0 -20 3q22 -32 78 -32q75 0 75 65q0 62 -78 62h-17v24h16q36 1 52 15t16 45q0 54 -59 54q-51 0 -71 -32q12 4 22 4q17 0 26.5 -9t9.5 -23q0 -13 -10.5 -22.5t-30.5 -9.5q-18 0 -30 11.5t-12 31.5q0 32 32 54.5t82 22.5q52 0 81.5 -20.5
t29.5 -59.5z" />
    <glyph glyph-name="twothirds" unicode="&#x2154;" horiz-adv-x="378" 
d="M12 344q0 8 5.5 13.5t14.5 5.5q8 0 13.5 -5.5t5.5 -13.5q0 -9 -5.5 -14.5t-13.5 -5.5q-20 0 -20 20zM77 344q0 17 18 17q7 0 12 -5t5 -12q0 -18 -17 -18q-18 0 -18 18zM142 344q0 15 16 15q6 0 10.5 -4.5t4.5 -10.5q0 -16 -15 -16q-16 0 -16 16zM205 344q0 15 16 15
q6 0 10.5 -4.5t4.5 -10.5q0 -16 -15 -16q-16 0 -16 16zM266 344q0 17 18 17q7 0 12 -5t5 -12q0 -18 -17 -18q-18 0 -18 18zM327 344q0 8 5.5 13.5t14.5 5.5q7 0 13 -5.5t6 -13.5q0 -9 -5.5 -14.5t-13.5 -5.5q-20 0 -20 20zM304 491q14 -41 -4 -70.5t-62 -29.5q-7 0 -13.5 1
t-11.5 1.5t-11 3t-9.5 4t-10 5t-8.5 5t-9 6t-9 5.5q-20 12 -39.5 13.5t-30.5 -9.5q12 2 21 -3t9 -14q0 -18 -21 -18q-27 0 -27 32q0 41 22 68t69 52q39 21 56 38.5t17 43.5q0 58 -61 58q-60 0 -74 -36q9 4 23 4q36 0 36 -32q0 -12 -10.5 -21t-29.5 -9t-30.5 11t-11.5 31
q0 36 30.5 58t80.5 22q59 0 87 -22.5t28 -60.5q0 -40 -24 -63t-80 -38q-91 -24 -110 -79q30 35 110 18q95 -22 87 23zM300 210q0 -52 -63 -71q38 -6 59.5 -26.5t21.5 -50.5q0 -46 -37.5 -68.5t-102.5 -22.5q-51 0 -84.5 22.5t-33.5 54.5q0 20 12 31.5t31 11.5q20 0 31 -9
t11 -23q0 -15 -9.5 -24t-27.5 -9q-11 0 -20 3q22 -32 78 -32q75 0 75 65q0 62 -78 62h-17v24h16q36 1 52 15t16 45q0 54 -59 54q-51 0 -71 -32q12 4 22 4q17 0 26.5 -9t9.5 -23q0 -13 -10.5 -22.5t-30.5 -9.5q-18 0 -30 11.5t-12 31.5q0 32 32 54.5t82 22.5q52 0 81.5 -20.5
t29.5 -59.5z" />
    <glyph glyph-name="oneeighth" unicode="&#x215b;" horiz-adv-x="378" 
d="M12 344q0 8 5.5 13.5t14.5 5.5q8 0 13.5 -5.5t5.5 -13.5q0 -9 -5.5 -14.5t-13.5 -5.5q-20 0 -20 20zM77 344q0 17 18 17q7 0 12 -5t5 -12q0 -18 -17 -18q-18 0 -18 18zM142 344q0 15 16 15q6 0 10.5 -4.5t4.5 -10.5q0 -16 -15 -16q-16 0 -16 16zM205 344q0 15 16 15
q6 0 10.5 -4.5t4.5 -10.5q0 -16 -15 -16q-16 0 -16 16zM266 344q0 17 18 17q7 0 12 -5t5 -12q0 -18 -17 -18q-18 0 -18 18zM327 344q0 8 5.5 13.5t14.5 5.5q7 0 13 -5.5t6 -13.5q0 -9 -5.5 -14.5t-13.5 -5.5q-20 0 -20 20zM125 431q30 0 30 25v162l-61 -2v34h17
q39 0 56.5 15.5t22.5 44.5h36q-2 -57 -2 -115v-139q0 -25 29 -25h37v-32q-65 2 -101 2l-101 -2v32h37zM301 218q0 -40 -45 -63q66 -24 66 -82q0 -47 -35 -74.5t-99 -27.5q-129 0 -129 75q0 48 60 69q-45 26 -45 79q0 42 31 69t89 27q53 0 80 -19.5t27 -52.5zM174 96
q-17 2 -36 10q-41 -21 -41 -56q0 -50 90 -50q41 0 65 13t24 32t-21 29.5t-81 21.5zM193 263q-33 0 -52 -12t-19 -32q0 -21 18 -32.5t68 -20.5l23 -4q34 22 34 56q0 45 -72 45z" />
    <glyph glyph-name="threeeighths" unicode="&#x215c;" horiz-adv-x="378" 
d="M12 344q0 8 5.5 13.5t14.5 5.5q8 0 13.5 -5.5t5.5 -13.5q0 -9 -5.5 -14.5t-13.5 -5.5q-20 0 -20 20zM77 344q0 17 18 17q7 0 12 -5t5 -12q0 -18 -17 -18q-18 0 -18 18zM142 344q0 15 16 15q6 0 10.5 -4.5t4.5 -10.5q0 -16 -15 -16q-16 0 -16 16zM205 344q0 15 16 15
q6 0 10.5 -4.5t4.5 -10.5q0 -16 -15 -16q-16 0 -16 16zM266 344q0 17 18 17q7 0 12 -5t5 -12q0 -18 -17 -18q-18 0 -18 18zM327 344q0 8 5.5 13.5t14.5 5.5q7 0 13 -5.5t6 -13.5q0 -9 -5.5 -14.5t-13.5 -5.5q-20 0 -20 20zM300 631q0 -52 -63 -71q38 -6 59.5 -26.5
t21.5 -50.5q0 -46 -37.5 -68.5t-102.5 -22.5q-51 0 -84.5 22.5t-33.5 54.5q0 20 12 31.5t31 11.5q20 0 31 -9t11 -23q0 -15 -9.5 -24t-27.5 -9q-11 0 -20 3q22 -32 78 -32q75 0 75 65q0 62 -78 62h-17v24h16q36 1 52 15t16 45q0 54 -59 54q-51 0 -71 -32q12 4 22 4
q17 0 26.5 -9t9.5 -23q0 -13 -10.5 -22.5t-30.5 -9.5q-18 0 -30 11.5t-12 31.5q0 32 32 54.5t82 22.5q52 0 81.5 -20.5t29.5 -59.5zM301 218q0 -40 -45 -63q66 -24 66 -82q0 -47 -35 -74.5t-99 -27.5q-129 0 -129 75q0 48 60 69q-45 26 -45 79q0 42 31 69t89 27
q53 0 80 -19.5t27 -52.5zM174 96q-17 2 -36 10q-41 -21 -41 -56q0 -50 90 -50q41 0 65 13t24 32t-21 29.5t-81 21.5zM193 263q-33 0 -52 -12t-19 -32q0 -21 18 -32.5t68 -20.5l23 -4q34 22 34 56q0 45 -72 45z" />
    <glyph glyph-name="fiveeighths" unicode="&#x215d;" horiz-adv-x="378" 
d="M12 344q0 8 5.5 13.5t14.5 5.5q8 0 13.5 -5.5t5.5 -13.5q0 -9 -5.5 -14.5t-13.5 -5.5q-20 0 -20 20zM77 344q0 17 18 17q7 0 12 -5t5 -12q0 -18 -17 -18q-18 0 -18 18zM142 344q0 15 16 15q6 0 10.5 -4.5t4.5 -10.5q0 -16 -15 -16q-16 0 -16 16zM205 344q0 15 16 15
q6 0 10.5 -4.5t4.5 -10.5q0 -16 -15 -16q-16 0 -16 16zM266 344q0 17 18 17q7 0 12 -5t5 -12q0 -18 -17 -18q-18 0 -18 18zM327 344q0 8 5.5 13.5t14.5 5.5q7 0 13 -5.5t6 -13.5q0 -9 -5.5 -14.5t-13.5 -5.5q-20 0 -20 20zM165 563q-36 0 -69 -22l-13 10q22 44 22 150
q32 -10 93 -10q66 0 105 15l11 -16q-9 -25 -39.5 -42t-77.5 -17q-42 0 -70 20q-2 -47 -16 -81q39 21 86 21q117 0 117 -98q0 -48 -36.5 -74.5t-103.5 -26.5q-51 0 -80.5 19t-29.5 52q0 16 11 26t28 10q19 0 28.5 -9t9.5 -23q0 -33 -37 -32q18 -17 60 -17q72 0 72 73
q0 72 -71 72zM301 218q0 -40 -45 -63q66 -24 66 -82q0 -47 -35 -74.5t-99 -27.5q-129 0 -129 75q0 48 60 69q-45 26 -45 79q0 42 31 69t89 27q53 0 80 -19.5t27 -52.5zM174 96q-17 2 -36 10q-41 -21 -41 -56q0 -50 90 -50q41 0 65 13t24 32t-21 29.5t-81 21.5zM193 263
q-33 0 -52 -12t-19 -32q0 -21 18 -32.5t68 -20.5l23 -4q34 22 34 56q0 45 -72 45z" />
    <glyph glyph-name="seveneighths" unicode="&#x215e;" horiz-adv-x="378" 
d="M12 344q0 8 5.5 13.5t14.5 5.5q8 0 13.5 -5.5t5.5 -13.5q0 -9 -5.5 -14.5t-13.5 -5.5q-20 0 -20 20zM77 344q0 17 18 17q7 0 12 -5t5 -12q0 -18 -17 -18q-18 0 -18 18zM142 344q0 15 16 15q6 0 10.5 -4.5t4.5 -10.5q0 -16 -15 -16q-16 0 -16 16zM205 344q0 15 16 15
q6 0 10.5 -4.5t4.5 -10.5q0 -16 -15 -16q-16 0 -16 16zM266 344q0 17 18 17q7 0 12 -5t5 -12q0 -18 -17 -18q-18 0 -18 18zM327 344q0 8 5.5 13.5t14.5 5.5q7 0 13 -5.5t6 -13.5q0 -9 -5.5 -14.5t-13.5 -5.5q-20 0 -20 20zM92 710l5 -25q18 25 52 25q29 0 67 -28
q17 -12 39 -16.5t38 2.5q-11 -1 -19 5t-8 15q0 10 6 16t15 6q28 0 28 -31q0 -32 -39 -67q-44 -38 -56 -56q-30 -46 -16 -126q4 -19 -8.5 -30t-30.5 -11q-39 0 -41 38q-6 98 100 168q47 31 60 48q-26 -18 -65.5 -20t-74.5 14q-22 11 -36 5.5t-13 -31.5h-29q8 41 -2 99
q14 -2 28 0zM301 218q0 -40 -45 -63q66 -24 66 -82q0 -47 -35 -74.5t-99 -27.5q-129 0 -129 75q0 48 60 69q-45 26 -45 79q0 42 31 69t89 27q53 0 80 -19.5t27 -52.5zM174 96q-17 2 -36 10q-41 -21 -41 -56q0 -50 90 -50q41 0 65 13t24 32t-21 29.5t-81 21.5zM193 263
q-33 0 -52 -12t-19 -32q0 -21 18 -32.5t68 -20.5l23 -4q34 22 34 56q0 45 -72 45z" />
    <glyph glyph-name="minus" unicode="&#x2212;" 
d="M80 220q2 31 0 63q221 -4 440 0q-2 -32 0 -63q-219 4 -440 0z" />
    <glyph glyph-name="notequal" unicode="&#x2260;" 
d="M80 302q2 29 0 58q120 -2 240 -2l41 132q15 -4 29 0q-31 -93 -43 -132q83 0 173 2q-2 -28 0 -58q-49 1 -191 1q-23 -69 -34 -105q113 0 225 2q-2 -28 0 -58q-60 1 -242 1l-44 -143q-14 4 -29 0l47 143q-128 0 -172 -1q2 29 0 58q96 -2 190 -2q22 72 33 105
q-167 0 -223 -1z" />
    <glyph glyph-name="lessequal" unicode="&#x2264;" 
d="M138 236v26q185 126 279 194l33 -50q-22 -11 -272 -157q250 -146 272 -157l-24 -36q42 0 94 2q-2 -28 0 -58q-219 4 -440 0q2 29 0 58q77 -2 317 -2q-15 11 -259 180z" />
    <glyph glyph-name="greaterequal" unicode="&#x2265;" 
d="M448 262v-26q-134 -92 -259 -180q250 0 331 2q-2 -28 0 -58q-219 4 -440 0q2 29 0 58q22 -1 79 -1l-23 35q22 11 272 157q-250 146 -272 157l33 50q94 -68 279 -194z" />
    <glyph glyph-name="space_uni0326" horiz-adv-x="235" 
d="M56 154q111 30 108 124q-11 -29 -46 -29q-43 0 -43 48q0 23 16 38.5t41 15.5q58 0 58 -70q0 -52 -32 -91t-96 -56z" />
    <glyph glyph-name="dotlessI" horiz-adv-x="424" 
d="M38 -2v61h55q34 0 45.5 7.5t12.5 32.5q2 56 2 247t-2 235q-1 29 -12.5 39.5t-39.5 10.5h-61v59q112 -3 174 -3q37 0 104 1.5t69 1.5v-59h-61q-27 0 -38.5 -10.5t-13.5 -39.5q-3 -48 -2.5 -235t2.5 -247q1 -25 12.5 -32.5t46.5 -7.5h54v-61q-111 2 -173 2z" />
    <glyph glyph-name="Jacute" horiz-adv-x="586" 
d="M101 93q-16 0 -29 5q32 -66 122 -66q63 0 94.5 41t34.5 128q2 66 2 201t-2 179q-1 29 -12.5 39.5t-39.5 10.5h-51v59q105 -3 164 -3q35 0 98 1.5t66 1.5v-59h-50q-28 0 -39.5 -10.5t-12.5 -39.5q-4 -70 0 -379q1 -110 -65 -166t-179 -56q-87 0 -135 47.5t-48 111.5
q0 37 22 62t61 25q33 0 53 -17.5t20 -47.5q0 -36 -23 -52t-51 -16zM347 746l-8 10q86 103 123 132q20 14 38.5 7.5t19.5 -23.5t-17 -33q-55 -43 -156 -93z" />
    <glyph glyph-name="idotaccent" horiz-adv-x="310" 
d="M208 462q-2 -301 0 -353q1 -38 13.5 -49t46.5 -11h22v-52q-5 0 -55.5 1.5t-78.5 1.5q-29 0 -82 -2l-53 -1v52h24q34 1 45 11t12 48q2 38 2 125.5t-2 118.5q-2 33 -13 45t-49 12h-19v50q148 0 187 3zM216 628q0 -29 -20.5 -49.5t-49.5 -20.5t-49 20.5t-20 49.5t20 49.5
t49 20.5t49.5 -20.5t20.5 -49.5z" />
    <glyph glyph-name="jacute" horiz-adv-x="290" 
d="M59 -99q0 -22 -17 -39t-53 -12q20 -14 52 -14q38 0 56.5 27t18.5 101v393q-3 52 -54 52h-28v50q149 0 188 3q-1 -35 -1 -114t0.5 -189.5t0.5 -158.5q0 -201 -161 -201q-57 0 -91.5 25.5t-34.5 70.5q0 29 17 45.5t48 16.5q27 0 43 -15t16 -41zM133 516l-8 10
q86 103 123 132q20 14 38.5 7.5t19.5 -23.5t-17 -33q-55 -43 -156 -93z" />
    <glyph glyph-name="C.round" horiz-adv-x="735" 
d="M385 710q161 0 220 -107q5 19 11.5 56t7.5 41h60q-8 -44 -13 -121t-2 -132q-33 3 -66 0q-8 48 -19 80.5t-33 64t-60.5 47.5t-94.5 16q-107 0 -155.5 -74t-48.5 -235q0 -91 14.5 -153.5t42 -96t60.5 -47.5t76 -14q210 0 228 233q35 -4 69 0q-10 -146 -79 -217t-218 -71
q-335 0 -335 366q0 184 92.5 274t242.5 90z" />
    <glyph glyph-name="G.round" horiz-adv-x="802" 
d="M385 35q83 -2 134.5 42t51.5 131q0 52 -12 72.5t-52 20.5h-43v57q99 -3 154 -3l154 3v-57h-34q-22 0 -31 -12t-9 -41q0 -182 6 -255q-34 4 -67 0q-13 63 -33 126q-23 -60 -81 -99.5t-137 -39.5q-159 0 -247.5 88t-88.5 278q0 184 92.5 274t242.5 90q161 0 220 -107
q5 19 11.5 56t7.5 41h60q-8 -44 -13 -121t-2 -132q-33 3 -66 0q-8 48 -19 80.5t-33 64t-60.5 47.5t-94.5 16q-107 0 -155.5 -74t-48.5 -235q0 -169 48.5 -239t144.5 -72z" />
    <glyph glyph-name="S.round" horiz-adv-x="657" 
d="M317 655q-158 0 -158 -107q0 -52 47 -77.5t158 -40.5q142 -19 198 -73t56 -155q0 -102 -71.5 -162t-191.5 -60q-148 0 -225 92q-22 -32 -29 -79h-53q22 113 10 237h53q44 -195 243 -195q86 0 134.5 31.5t48.5 90.5q0 60 -52.5 89t-174.5 46q-232 30 -232 203q0 95 62 155
t182 60q133 0 192 -77q18 35 23 67h58q-12 -42 -15.5 -110t2.5 -113h-49q-23 94 -73.5 136t-142.5 42z" />
    <glyph glyph-name="s.round" horiz-adv-x="446" 
d="M351 313q-24 106 -141 106q-41 0 -69 -18t-28 -43q0 -32 26.5 -48t103.5 -25q168 -20 168 -150q0 -74 -43.5 -114.5t-129.5 -40.5q-95 0 -145 78q-18 -27 -23 -65q-19 2 -38 0q14 91 5 183q19 -2 38 0q44 -142 165 -142q46 0 71.5 18.5t25.5 48.5q0 27 -27 44.5t-97 25.5
q-96 10 -136 52.5t-40 99.5q0 68 46.5 109t126.5 41q87 0 128 -58q12 21 16 52q18 -2 36 0q-6 -57 -3 -154q-18 2 -36 0z" />
    <glyph glyph-name="Cacute.round" horiz-adv-x="735" 
d="M385 710q161 0 220 -107q5 19 11.5 56t7.5 41h60q-8 -44 -13 -121t-2 -132q-33 3 -66 0q-8 48 -19 80.5t-33 64t-60.5 47.5t-94.5 16q-107 0 -155.5 -74t-48.5 -235q0 -91 14.5 -153.5t42 -96t60.5 -47.5t76 -14q210 0 228 233q35 -4 69 0q-10 -146 -79 -217t-218 -71
q-335 0 -335 366q0 184 92.5 274t242.5 90zM377 746l-8 10q86 103 123 132q20 14 38.5 7.5t19.5 -23.5t-17 -33q-55 -43 -156 -93z" />
    <glyph glyph-name="Ccaron.round" horiz-adv-x="735" 
d="M385 710q161 0 220 -107q5 19 11.5 56t7.5 41h60q-8 -44 -13 -121t-2 -132q-33 3 -66 0q-8 48 -19 80.5t-33 64t-60.5 47.5t-94.5 16q-107 0 -155.5 -74t-48.5 -235q0 -91 14.5 -153.5t42 -96t60.5 -47.5t76 -14q210 0 228 233q35 -4 69 0q-10 -146 -79 -217t-218 -71
q-335 0 -335 366q0 184 92.5 274t242.5 90zM240 897l8 10q30 -15 73 -46t66 -54q22 22 65.5 53.5t71.5 46.5l8 -10q-32 -64 -122 -141h-49q-30 24 -66.5 65t-54.5 76z" />
    <glyph glyph-name="Ccedilla.round" horiz-adv-x="735" 
d="M324 -115l-12 18q52 33 65 77q-327 5 -327 366q0 184 92.5 274t242.5 90q161 0 220 -107q5 19 11.5 56t7.5 41h60q-8 -44 -13 -121t-2 -132q-33 3 -66 0q-8 48 -19 80.5t-33 64t-60.5 47.5t-94.5 16q-107 0 -155.5 -74t-48.5 -235q0 -91 14.5 -153.5t42 -96t60.5 -47.5
t76 -14q210 0 228 233q35 -4 69 0q-10 -142 -74.5 -212.5t-203.5 -75.5q-7 -36 -35 -61q45 8 81 -12t36 -65t-31.5 -70.5t-86.5 -25.5q-38 0 -64 18t-36 44l21 15q26 -37 68 -37q28 0 43.5 15t15.5 41q0 32 -29 44.5t-63 -1.5z" />
    <glyph glyph-name="Ccircumflex.round" horiz-adv-x="735" 
d="M385 710q161 0 220 -107q5 19 11.5 56t7.5 41h60q-8 -44 -13 -121t-2 -132q-33 3 -66 0q-8 48 -19 80.5t-33 64t-60.5 47.5t-94.5 16q-107 0 -155.5 -74t-48.5 -235q0 -91 14.5 -153.5t42 -96t60.5 -47.5t76 -14q210 0 228 233q35 -4 69 0q-10 -146 -79 -217t-218 -71
q-335 0 -335 366q0 184 92.5 274t242.5 90zM532 746l-8 -10q-30 15 -73 46t-66 54q-22 -22 -65.5 -53.5t-71.5 -46.5l-8 10q32 64 122 141h49q30 -24 66.5 -65t54.5 -76z" />
    <glyph glyph-name="Cdotaccent.round" horiz-adv-x="735" 
d="M385 710q161 0 220 -107q5 19 11.5 56t7.5 41h60q-8 -44 -13 -121t-2 -132q-33 3 -66 0q-8 48 -19 80.5t-33 64t-60.5 47.5t-94.5 16q-107 0 -155.5 -74t-48.5 -235q0 -91 14.5 -153.5t42 -96t60.5 -47.5t76 -14q210 0 228 233q35 -4 69 0q-10 -146 -79 -217t-218 -71
q-335 0 -335 366q0 184 92.5 274t242.5 90zM440 831q0 -23 -16 -38.5t-38 -15.5t-37.5 16t-15.5 38t15.5 38t37.5 16t38 -15.5t16 -38.5z" />
    <glyph glyph-name="Gbreve.round" horiz-adv-x="802" 
d="M385 35q83 -2 134.5 42t51.5 131q0 52 -12 72.5t-52 20.5h-43v57q99 -3 154 -3l154 3v-57h-34q-22 0 -31 -12t-9 -41q0 -182 6 -255q-34 4 -67 0q-13 63 -33 126q-23 -60 -81 -99.5t-137 -39.5q-159 0 -247.5 88t-88.5 278q0 184 92.5 274t242.5 90q161 0 220 -107
q5 19 11.5 56t7.5 41h60q-8 -44 -13 -121t-2 -132q-33 3 -66 0q-8 48 -19 80.5t-33 64t-60.5 47.5t-94.5 16q-107 0 -155.5 -74t-48.5 -235q0 -169 48.5 -239t144.5 -72zM391 751q-71 0 -108 41.5t-29 103.5l14 2q3 -46 34 -62t89 -16t89 16t34 62l14 -2q8 -62 -29 -103.5
t-108 -41.5z" />
    <glyph glyph-name="Gcircumflex.round" horiz-adv-x="802" 
d="M385 35q83 -2 134.5 42t51.5 131q0 52 -12 72.5t-52 20.5h-43v57q99 -3 154 -3l154 3v-57h-34q-22 0 -31 -12t-9 -41q0 -182 6 -255q-34 4 -67 0q-13 63 -33 126q-23 -60 -81 -99.5t-137 -39.5q-159 0 -247.5 88t-88.5 278q0 184 92.5 274t242.5 90q161 0 220 -107
q5 19 11.5 56t7.5 41h60q-8 -44 -13 -121t-2 -132q-33 3 -66 0q-8 48 -19 80.5t-33 64t-60.5 47.5t-94.5 16q-107 0 -155.5 -74t-48.5 -235q0 -169 48.5 -239t144.5 -72zM527 746l-8 -10q-30 15 -73 46t-66 54q-22 -22 -65.5 -53.5t-71.5 -46.5l-8 10q32 64 122 141h49
q30 -24 66.5 -65t54.5 -76z" />
    <glyph glyph-name="Gcommaaccent.round" horiz-adv-x="802" 
d="M385 35q83 -2 134.5 42t51.5 131q0 52 -12 72.5t-52 20.5h-43v57q99 -3 154 -3l154 3v-57h-34q-22 0 -31 -12t-9 -41q0 -182 6 -255q-34 4 -67 0q-13 63 -33 126q-23 -60 -81 -99.5t-137 -39.5q-159 0 -247.5 88t-88.5 278q0 184 92.5 274t242.5 90q161 0 220 -107
q5 19 11.5 56t7.5 41h60q-8 -44 -13 -121t-2 -132q-33 3 -66 0q-8 48 -19 80.5t-33 64t-60.5 47.5t-94.5 16q-107 0 -155.5 -74t-48.5 -235q0 -169 48.5 -239t144.5 -72zM297 -269q111 30 108 124q-11 -29 -46 -29q-43 0 -43 48q0 23 16 38.5t41 15.5q58 0 58 -70
q0 -52 -32 -91t-96 -56z" />
    <glyph glyph-name="Gdotaccent.round" horiz-adv-x="802" 
d="M385 35q83 -2 134.5 42t51.5 131q0 52 -12 72.5t-52 20.5h-43v57q99 -3 154 -3l154 3v-57h-34q-22 0 -31 -12t-9 -41q0 -182 6 -255q-34 4 -67 0q-13 63 -33 126q-23 -60 -81 -99.5t-137 -39.5q-159 0 -247.5 88t-88.5 278q0 184 92.5 274t242.5 90q161 0 220 -107
q5 19 11.5 56t7.5 41h60q-8 -44 -13 -121t-2 -132q-33 3 -66 0q-8 48 -19 80.5t-33 64t-60.5 47.5t-94.5 16q-107 0 -155.5 -74t-48.5 -235q0 -169 48.5 -239t144.5 -72zM445 831q0 -23 -15.5 -38.5t-38.5 -15.5q-22 0 -37.5 16t-15.5 38t15.5 38t37.5 16q23 0 38.5 -15.5
t15.5 -38.5z" />
    <glyph glyph-name="Sacute.round" horiz-adv-x="657" 
d="M317 655q-158 0 -158 -107q0 -52 47 -77.5t158 -40.5q142 -19 198 -73t56 -155q0 -102 -71.5 -162t-191.5 -60q-148 0 -225 92q-22 -32 -29 -79h-53q22 113 10 237h53q44 -195 243 -195q86 0 134.5 31.5t48.5 90.5q0 60 -52.5 89t-174.5 46q-232 30 -232 203q0 95 62 155
t182 60q133 0 192 -77q18 35 23 67h58q-12 -42 -15.5 -110t2.5 -113h-49q-23 94 -73.5 136t-142.5 42zM322 746l-8 10q86 103 123 132q20 14 38.5 7.5t19.5 -23.5t-17 -33q-55 -43 -156 -93z" />
    <glyph glyph-name="Scaron.round" horiz-adv-x="657" 
d="M317 655q-158 0 -158 -107q0 -52 47 -77.5t158 -40.5q142 -19 198 -73t56 -155q0 -102 -71.5 -162t-191.5 -60q-148 0 -225 92q-22 -32 -29 -79h-53q22 113 10 237h53q44 -195 243 -195q86 0 134.5 31.5t48.5 90.5q0 60 -52.5 89t-174.5 46q-232 30 -232 203q0 95 62 155
t182 60q133 0 192 -77q18 35 23 67h58q-12 -42 -15.5 -110t2.5 -113h-49q-23 94 -73.5 136t-142.5 42zM185 897l8 10q30 -15 73 -46t66 -54q22 22 65.5 53.5t71.5 46.5l8 -10q-32 -64 -122 -141h-49q-30 24 -66.5 65t-54.5 76z" />
    <glyph glyph-name="Scedilla.round" horiz-adv-x="657" 
d="M275 -115l-12 18q54 34 66 78q-131 8 -199 91q-22 -32 -29 -79h-53q22 113 10 237h53q44 -195 243 -195q86 0 134.5 31.5t48.5 90.5q0 60 -52.5 89t-174.5 46q-232 30 -232 203q0 95 62 155t182 60q133 0 192 -77q18 35 23 67h58q-12 -42 -15.5 -110t2.5 -113h-49
q-23 94 -73.5 136t-142.5 42q-158 0 -158 -107q0 -52 47 -77.5t158 -40.5q142 -19 198 -73t56 -155q0 -102 -71.5 -162t-191.5 -60q-7 -36 -35 -61q45 8 81 -12t36 -65t-31.5 -70.5t-86.5 -25.5q-38 0 -64 18t-36 44l21 15q26 -37 68 -37q28 0 43.5 15t15.5 41
q0 32 -28.5 44.5t-63.5 -1.5z" />
    <glyph glyph-name="Scircumflex.round" horiz-adv-x="657" 
d="M317 655q-158 0 -158 -107q0 -52 47 -77.5t158 -40.5q142 -19 198 -73t56 -155q0 -102 -71.5 -162t-191.5 -60q-148 0 -225 92q-22 -32 -29 -79h-53q22 113 10 237h53q44 -195 243 -195q86 0 134.5 31.5t48.5 90.5q0 60 -52.5 89t-174.5 46q-232 30 -232 203q0 95 62 155
t182 60q133 0 192 -77q18 35 23 67h58q-12 -42 -15.5 -110t2.5 -113h-49q-23 94 -73.5 136t-142.5 42zM467 746l-8 -10q-30 15 -73 46t-66 54q-22 -22 -65.5 -53.5t-71.5 -46.5l-8 10q32 64 122 141h49q30 -24 66.5 -65t54.5 -76z" />
    <glyph glyph-name="Scommaaccent.round" horiz-adv-x="657" 
d="M317 655q-158 0 -158 -107q0 -52 47 -77.5t158 -40.5q142 -19 198 -73t56 -155q0 -102 -71.5 -162t-191.5 -60q-148 0 -225 92q-22 -32 -29 -79h-53q22 113 10 237h53q44 -195 243 -195q86 0 134.5 31.5t48.5 90.5q0 60 -52.5 89t-174.5 46q-232 30 -232 203q0 95 62 155
t182 60q133 0 192 -77q18 35 23 67h58q-12 -42 -15.5 -110t2.5 -113h-49q-23 94 -73.5 136t-142.5 42zM269 -259q111 30 108 124q-11 -29 -46 -29q-43 0 -43 48q0 23 16 38.5t41 15.5q58 0 58 -70q0 -52 -32 -91t-96 -56z" />
    <glyph glyph-name="sacute.round" horiz-adv-x="446" 
d="M351 313q-24 106 -141 106q-41 0 -69 -18t-28 -43q0 -32 26.5 -48t103.5 -25q168 -20 168 -150q0 -74 -43.5 -114.5t-129.5 -40.5q-95 0 -145 78q-18 -27 -23 -65q-19 2 -38 0q14 91 5 183q19 -2 38 0q44 -142 165 -142q46 0 71.5 18.5t25.5 48.5q0 27 -27 44.5t-97 25.5
q-96 10 -136 52.5t-40 99.5q0 68 46.5 109t126.5 41q87 0 128 -58q12 21 16 52q18 -2 36 0q-6 -57 -3 -154q-18 2 -36 0zM201 516l-8 10q86 103 123 132q20 14 38.5 7.5t19.5 -23.5t-17 -33q-55 -43 -156 -93z" />
    <glyph glyph-name="scaron.round" horiz-adv-x="446" 
d="M351 313q-24 106 -141 106q-41 0 -69 -18t-28 -43q0 -32 26.5 -48t103.5 -25q168 -20 168 -150q0 -74 -43.5 -114.5t-129.5 -40.5q-95 0 -145 78q-18 -27 -23 -65q-19 2 -38 0q14 91 5 183q19 -2 38 0q44 -142 165 -142q46 0 71.5 18.5t25.5 48.5q0 27 -27 44.5t-97 25.5
q-96 10 -136 52.5t-40 99.5q0 68 46.5 109t126.5 41q87 0 128 -58q12 21 16 52q18 -2 36 0q-6 -57 -3 -154q-18 2 -36 0zM64 667l8 10q30 -15 73 -46t66 -54q22 22 65.5 53.5t71.5 46.5l8 -10q-32 -64 -122 -141h-49q-30 24 -66.5 65t-54.5 76z" />
    <glyph glyph-name="scedilla.round" horiz-adv-x="446" 
d="M163 -115l-12 18q53 34 66 79q-80 8 -124 76q-18 -27 -23 -65q-19 2 -38 0q14 91 5 183q19 -2 38 0q44 -142 165 -142q46 0 71.5 18.5t25.5 48.5q0 27 -27 44.5t-97 25.5q-96 10 -136 52.5t-40 99.5q0 68 46.5 109t126.5 41q87 0 128 -58q12 21 16 52q18 -2 36 0
q-6 -57 -3 -154q-18 2 -36 0q-24 106 -141 106q-41 0 -69 -18t-28 -43q0 -32 26.5 -48t103.5 -25q168 -20 168 -150q0 -73 -42.5 -113.5t-125.5 -41.5q-7 -36 -35 -61q45 8 81 -12t36 -65t-31.5 -70.5t-86.5 -25.5q-38 0 -64 18t-36 44l21 15q26 -37 68 -37q28 0 43.5 15
t15.5 41q0 32 -28.5 44.5t-63.5 -1.5z" />
    <glyph glyph-name="scircumflex.round" horiz-adv-x="446" 
d="M351 313q-24 106 -141 106q-41 0 -69 -18t-28 -43q0 -32 26.5 -48t103.5 -25q168 -20 168 -150q0 -74 -43.5 -114.5t-129.5 -40.5q-95 0 -145 78q-18 -27 -23 -65q-19 2 -38 0q14 91 5 183q19 -2 38 0q44 -142 165 -142q46 0 71.5 18.5t25.5 48.5q0 27 -27 44.5t-97 25.5
q-96 10 -136 52.5t-40 99.5q0 68 46.5 109t126.5 41q87 0 128 -58q12 21 16 52q18 -2 36 0q-6 -57 -3 -154q-18 2 -36 0zM370 526l-8 -10q-30 15 -73 46t-66 54q-22 -22 -65.5 -53.5t-71.5 -46.5l-8 10q32 64 122 141h49q30 -24 66.5 -65t54.5 -76z" />
    <glyph glyph-name="scommaaccent.round" horiz-adv-x="446" 
d="M351 313q-24 106 -141 106q-41 0 -69 -18t-28 -43q0 -32 26.5 -48t103.5 -25q168 -20 168 -150q0 -74 -43.5 -114.5t-129.5 -40.5q-95 0 -145 78q-18 -27 -23 -65q-19 2 -38 0q14 91 5 183q19 -2 38 0q44 -142 165 -142q46 0 71.5 18.5t25.5 48.5q0 27 -27 44.5t-97 25.5
q-96 10 -136 52.5t-40 99.5q0 68 46.5 109t126.5 41q87 0 128 -58q12 21 16 52q18 -2 36 0q-6 -57 -3 -154q-18 2 -36 0zM158 -259q111 30 108 124q-11 -29 -46 -29q-43 0 -43 48q0 23 16 38.5t41 15.5q58 0 58 -70q0 -52 -32 -91t-96 -56z" />
    <glyph glyph-name="f.shy" horiz-adv-x="317" 
d="M31 459l71 -3v23q-2 119 38 167.5t116 48.5q62 0 87 -30.5t25 -70.5q0 -71 -63 -71q-27 0 -43.5 15t-16.5 39q0 26 15.5 40.5t43.5 14.5q8 0 18 -2q-23 28 -59 28q-45 0 -58 -40t-2 -130l4 -32l77 3v-50l-77 2q-4 -212 1 -312q2 -49 54 -49h27v-52q-86 2 -134 2l-134 -2
v52h35q20 0 32 13.5t14 35.5q3 55 1 312l-72 -2v50z" />
    <glyph glyph-name="j.shy" horiz-adv-x="289" 
d="M73 -118q0 -17 -11 -30.5t-27 -15.5q2 0 7 -0.5t8 -0.5q66 0 66 129v393q-3 52 -54 52h-28v50q149 0 188 3q-5 -132 0 -498q1 -78 -44 -121.5t-117 -43.5q-51 0 -74.5 20.5t-23.5 53.5q0 30 17 44t40 14q53 0 53 -49zM230 628q0 -29 -20.5 -49.5t-49.5 -20.5t-49 20.5
t-20 49.5t20 49.5t49 20.5t49.5 -20.5t20.5 -49.5z" />
    <glyph glyph-name="f_f.shy" horiz-adv-x="627" 
d="M599 50v-52q-86 2 -134 2l-134 -2v52h34q20 0 32.5 13.5t14.5 35.5q3 55 1 315l-206 -1q-4 -213 1 -314q2 -49 54 -49h27v-52q-86 2 -134 2l-134 -2v52h35q20 0 32 13.5t14 35.5q3 55 1 312l-72 -2v50l71 -3v23q-2 119 38 167.5t116 48.5q62 0 87 -30t25 -70
q0 -72 -63 -72q-28 0 -44 15t-16 40t16.5 39.5t45.5 14.5q10 0 15 -1q-25 27 -59 27q-45 0 -58 -40t-2 -130l4 -34h205v25q-2 119 38 167.5t116 48.5q62 0 87 -30t25 -70q0 -72 -63 -72q-28 0 -44 15t-16 40t16 39.5t44 14.5q7 0 17 -2q-24 28 -59 28q-45 0 -58 -40t-2 -130
l4 -32l77 3v-50l-77 3q-4 -213 1 -313q2 -49 54 -49h27z" />
    <glyph glyph-name="f_idieresis" horiz-adv-x="620" 
d="M518 462q-2 -301 0 -353q1 -38 13.5 -49t46.5 -11h22v-51q-86 2 -134 2l-135 -2v51h24q34 1 45 11t12 48q2 38 2 125.5t-2 118.5q-2 33 -13 45t-49 12h-143q0 -281 1 -310q1 -24 10 -36.5t34 -12.5h37v-52q-86 2 -134 2l-134 -2v52h35q44 0 46 49q4 109 2 312l-73 -2v50
l72 -3q0 9 -0.5 24.5t-0.5 20.5q-6 194 175 194q65 0 104.5 -34.5t39.5 -73.5q0 -32 -17 -48t-46 -16t-44.5 15.5t-15.5 39.5q0 27 20 42.5t49 10.5q-27 27 -60 27q-53 0 -75.5 -27.5t-23.5 -110.5v-61q274 0 310 3zM597 581q0 -26 -16.5 -42t-41.5 -16t-41.5 16t-16.5 42
q0 27 16.5 42.5t41.5 15.5t41.5 -15.5t16.5 -42.5z" />
    <glyph glyph-name="dollar.single" 
d="M317 787l-4 -114q99 -6 153 -44.5t54 -101.5q0 -28 -17 -46.5t-44 -18.5q-67 0 -67 56q0 22 17.5 37.5t44.5 15.5h1q-38 55 -143 61l-6 -209q10 -2 16 -2q133 -14 187 -62.5t54 -135.5q0 -91 -65.5 -149.5t-183.5 -62.5l3 -110q-27 4 -55 0l3 111q-105 6 -169 49t-64 111
q0 28 18 46.5t48 18.5q31 0 48 -15.5t17 -43.5q0 -22 -18 -36t-47 -14q32 -65 168 -73l6 241h-1l-1 1q-111 14 -164.5 62.5t-53.5 122.5q0 83 60.5 134.5t151.5 56.5q-2 80 -2 114q27 -4 55 0zM306 292q1 -67 7 -238q78 2 126 37.5t48 85.5q0 49 -42 74.5t-139 40.5z
M272 427q-1 30 -3.5 100.5t-3.5 104.5q-68 -3 -102.5 -33t-34.5 -76q0 -34 30 -58t114 -38z" />
    <glyph glyph-name="two.alt" horiz-adv-x="504" 
d="M182 123l-66 -35h239q73 0 75 60l1 28h36q-9 -95 -3 -179q-49 3 -106 3l-331 1v59l130 92q110 77 152 130t42 116q0 56 -33 89t-98 33q-121 0 -143 -89q18 8 39 8q29 0 46.5 -16t17.5 -44q0 -26 -17 -42.5t-51 -16.5q-32 0 -51 21.5t-19 61.5q0 74 55.5 119t153.5 45
q92 0 149 -41t57 -128q0 -36 -13 -68t-33.5 -56.5t-59 -51.5t-74 -47.5t-95.5 -51.5z" />
    <glyph glyph-name="seven.alt" horiz-adv-x="514" 
d="M230 -119h-53q-20 0 -28 18t-8 68q0 102 58.5 214.5t200.5 264.5l16 17l-260 2q-76 0 -78 -65l-1 -20h-35q12 96 12 200q39 -13 131 -13l218 -1q33 0 66 23l24 -10q-23 -49 -32 -103l-29 -34q-19 -22 -31.5 -37.5t-30 -39.5t-28 -42.5t-24.5 -46t-20.5 -51.5t-16.5 -58
t-11 -65.5t-4 -74.5t3 -85q3 -34 -6.5 -47.5t-32.5 -13.5z" />
    </font>
</defs>
</svg>
