<?xml version="1.0" standalone="no"?>
<!DOCTYPE svg PUBLIC "-//W3C//DTD SVG 1.1//EN" "http://www.w3.org/Graphics/SVG/1.1/DTD/svg11.dtd" >
<svg>
<metadata>
Created by FontForge 20110222 at Mon Apr 21 12:26:43 2014
 By Orthosie Webhosting
(C)2010 House Industries/Brand Design Co., Inc. All Rights Reserved.
</metadata>
<defs>
<font id="EamesCenturyModernBookItalic" horiz-adv-x="600" >
  <font-face 
    font-family="EamesCenturyModernBookItalic"
    font-weight="450"
    font-style="italic"
    font-stretch="normal"
    units-per-em="1000"
    panose-1="2 0 5 3 7 7 5 2 2 3"
    ascent="820"
    descent="-180"
    x-height="473"
    cap-height="689"
    bbox="-219 -269 1145 1098.12"
    underline-thickness="50"
    underline-position="-50"
    slope="-9"
    unicode-range="U+0020-FB04"
  />
<missing-glyph horiz-adv-x="500" 
 />
    <glyph glyph-name="f_f" unicode="ff" horiz-adv-x="628" 
d="M646 675q-49 0 -81.5 -51t-54.5 -167l119 2l-3 -44l-124 2q-2 -10 -4.5 -29.5t-3.5 -28.5q-22 -165 -51.5 -278t-66.5 -174.5t-76.5 -87t-89.5 -25.5q-54 0 -76.5 25t-13.5 63q10 46 59 46q23 0 35 -13.5t8 -36.5q-5 -22 -23 -32t-41 -5q13 -16 48 -16q63 0 89 68t55 276
q20 140 52 250h-179l-9 -60q-22 -165 -51.5 -278t-66.5 -174.5t-76.5 -87t-89.5 -25.5q-54 0 -76.5 25t-13.5 63q10 46 59 46q23 0 35 -13.5t8 -36.5q-4 -22 -22 -32t-42 -5q13 -16 48 -16q63 0 89 68t55 276q21 147 51 248l-61 -2l3 46l72 -2q48 139 110 194t126 55
q41 0 64.5 -29.5t18.5 -72.5q-9 -84 -76 -84q-25 0 -40.5 14t-11.5 42q5 29 31.5 42t57.5 1q2 54 -49 54q-49 0 -82 -51.5t-55 -166.5h185q85 251 237 251q41 0 64.5 -29.5t18.5 -72.5q-9 -84 -76 -84q-25 0 -40.5 14t-11.5 42q5 29 31.5 42t57.5 1q2 54 -49 54z" />
    <glyph glyph-name="f_i" unicode="fi" horiz-adv-x="550" 
d="M376 675q-55 0 -89.5 -51t-56.5 -167h113t148 2q-39 -162 -65 -295q-17 -82 -16.5 -107t18.5 -25q52 0 70 140l36 -5q-5 -70 -39 -127t-92 -57q-64 0 -81.5 37.5t2.5 131.5l55 263l-157 3q-2 -10 -4.5 -30.5t-3.5 -28.5q-22 -165 -51.5 -278t-66.5 -174.5t-76.5 -87
t-89.5 -25.5q-54 0 -76.5 25t-13.5 63q5 22 21.5 34t37.5 12q23 0 35 -13.5t8 -36.5q-4 -22 -22 -32t-41 -6q13 -15 47 -15q63 0 89 68t55 276q21 147 51 248l-61 -2l3 46l72 -2q87 249 246 249q48 0 73 -29.5t20 -72.5q-4 -40 -24.5 -62t-52.5 -22q-25 0 -40 14t-11 42
q4 29 29.5 41t57.5 1q-1 26 -16 40.5t-41 14.5z" />
    <glyph glyph-name="f_l" unicode="fl" horiz-adv-x="564" 
d="M376 675q-55 0 -89.5 -51t-56.5 -167l109 3l-3 -45l-114 3l-8 -59q-22 -165 -51.5 -278t-66.5 -174.5t-76.5 -87t-89.5 -25.5q-54 0 -76.5 25t-13.5 63q5 22 21.5 34t37.5 12q23 0 35 -13.5t8 -36.5q-4 -22 -22 -32t-41 -6q13 -15 47 -15q63 0 89 68t55 276
q21 147 51 248l-61 -2l3 46l72 -2q87 249 246 249q35 0 61 -18h92q2 -44 -10 -95q-50 -221 -85 -442q-7 -44 -9.5 -64.5t-1 -34t6 -16t15.5 -2.5q28 0 42 33.5t23 102.5l36 -5q-3 -45 -16.5 -83.5t-44 -68.5t-73.5 -30q-61 0 -80 38t0 125q30 137 75 375q-5 -1 -15 -1
q-25 0 -40 14t-11 42q4 29 29.5 41t57.5 1q-1 26 -16 40.5t-41 14.5z" />
    <glyph glyph-name="f_f_i" unicode="ffi" horiz-adv-x="844" 
d="M656 675q-55 0 -89.5 -51t-56.5 -167q210 0 271 2q-39 -162 -65 -295q-17 -82 -16.5 -107t18.5 -25q52 0 70 140l36 -5q-5 -70 -39 -127t-92 -57q-64 0 -81.5 37.5t2.5 131.5l55 263l-167 3l-8 -59q-22 -165 -51.5 -278t-66.5 -174.5t-76.5 -87t-89.5 -25.5
q-54 0 -76.5 25t-13.5 63q5 22 21.5 34t37.5 12q23 0 35 -13.5t8 -36.5q-4 -22 -22.5 -32t-40.5 -6q12 -15 47 -15q63 0 89 68t55 276q20 140 52 250l-180 -1l-8 -59q-22 -165 -51.5 -278t-66.5 -174.5t-76.5 -87t-89.5 -25.5q-54 0 -76.5 25t-13.5 63q10 46 59 46
q23 0 35 -13.5t8 -36.5q-4 -22 -22 -32t-42 -5q13 -16 48 -16q63 0 89 68t55 276q20 145 51 247l-61 -1l3 46l71 -3q87 250 237 250q41 0 64.5 -29.5t18.5 -72.5q-9 -84 -76 -84q-25 0 -40.5 14t-11.5 42q5 29 31.5 42t57.5 1q2 54 -49 54q-49 0 -82 -52t-55 -167l185 1
q87 251 247 251q48 0 73 -29.5t20 -72.5q-4 -40 -24.5 -62t-52.5 -22q-25 0 -40 14t-11 42q4 29 29.5 41t57.5 1q-1 26 -16 40.5t-41 14.5z" />
    <glyph glyph-name="f_f_l" unicode="ffl" horiz-adv-x="847" 
d="M366 675q-49 0 -82 -51.5t-55 -166.5h185q87 251 247 251q38 0 64 -21v3h92q2 -44 -10 -95q-50 -221 -85 -442q-7 -44 -9.5 -64.5t-1 -34t6 -16t15.5 -2.5q28 0 42 33.5t23 102.5l36 -5q-3 -45 -16.5 -83.5t-44 -68.5t-73.5 -30q-61 0 -80 38t0 125q36 165 76 376
q-6 -2 -19 -2q-25 0 -40 14t-11 42q4 29 29.5 41t57.5 1q-1 26 -16 40.5t-41 14.5q-54 0 -89 -51t-57 -166l89 1l-3 -44l-94 2q-2 -10 -4.5 -29.5t-3.5 -28.5q-22 -165 -51.5 -278t-66.5 -174.5t-76.5 -87t-89.5 -25.5q-54 0 -76.5 25t-13.5 63q5 22 21.5 34t37.5 12
q23 0 35 -13.5t8 -36.5q-4 -22 -22.5 -32t-40.5 -6q12 -15 47 -15q63 0 89 68t55 276q20 140 52 250h-179l-9 -60q-22 -165 -51.5 -278t-66.5 -174.5t-76.5 -87t-89.5 -25.5q-54 0 -76.5 25t-13.5 63q10 46 59 46q23 0 35 -13.5t8 -36.5q-4 -22 -22 -32t-42 -5
q13 -16 48 -16q63 0 89 68t55 276q21 147 51 248l-61 -2l3 46l72 -2q48 139 110 194t126 55q41 0 64.5 -29.5t18.5 -72.5q-9 -84 -76 -84q-25 0 -40.5 14t-11.5 42q5 29 31.5 42t57.5 1q2 54 -49 54z" />
    <glyph glyph-name="f_j" unicode="fj" horiz-adv-x="532" 
d="M376 675q-55 0 -89.5 -51t-56.5 -167h121.5t155.5 2q-1 -5 -6 -40.5t-23.5 -136.5t-52.5 -259q-25 -119 -72.5 -174t-122.5 -55q-51 0 -79 27t-16 66q14 47 64 47q24 0 35.5 -15.5t5.5 -38.5q-5 -22 -25 -30t-44 -4q11 -23 45 -23q17 0 30 5t23.5 20.5t17 28.5t14 43.5
t12 51t12.5 64.5l71 379l-174 3q-2 -10 -4.5 -30.5t-3.5 -28.5q-22 -165 -51.5 -278t-66.5 -174.5t-76.5 -87t-89.5 -25.5q-54 0 -76.5 25t-13.5 63q5 22 21.5 34t37.5 12q23 0 35 -13.5t8 -36.5q-4 -22 -22 -32t-41 -6q13 -15 47 -15q63 0 89 68t55 276q21 147 51 248
l-61 -2l3 46l72 -2q87 249 246 249q48 0 73 -29.5t20 -72.5q-4 -40 -24.5 -62t-52.5 -22q-25 0 -40 14t-11 42q4 29 29.5 41t57.5 1q-1 26 -16 40.5t-41 14.5z" />
    <glyph glyph-name="f_t" unicode="ft" horiz-adv-x="623" 
d="M60 415l3 46l72 -2q48 139 110 194t126 55q41 0 64.5 -29.5t18.5 -72.5q-9 -84 -76 -84q-25 0 -40.5 14t-11.5 42q5 29 31.5 42t57.5 1q2 54 -49 54q-49 0 -82 -51.5t-55 -166.5h74q58 0 97.5 10t62 31.5t34 45.5t20.5 62h33q-32 -118 -38 -149l105 2l-5 -44l-108 1
l-53 -267q-12 -63 -7.5 -90t29.5 -27q26 0 43.5 35t21.5 105l36 -5q-6 -92 -38 -138t-97 -46q-128 0 -100 160q5 27 27.5 127.5t30.5 144.5l-175 3q-2 -10 -4.5 -30.5t-3.5 -28.5q-22 -165 -51.5 -278t-66.5 -174.5t-76.5 -87t-89.5 -25.5q-54 0 -76.5 25t-13.5 63
q10 46 59 46q23 0 35 -13.5t8 -36.5q-4 -22 -22 -32t-42 -5q13 -16 48 -16q63 0 89 68t55 276q21 147 51 248z" />
    <glyph glyph-name="t_t" unicode="tt" horiz-adv-x="645" 
d="M560 172l36 -5q-6 -92 -38 -138t-97 -46q-128 0 -100 160q5 28 28 129.5t31 144.5h-215l-53 -268q-9 -43 -10 -68t6 -37t24 -12q26 0 44.5 35t22.5 105l36 -5q-12 -184 -137 -184q-127 0 -99 160q5 27 28.5 128t31.5 145l-54 -1l4 44q77 0 112.5 39t66.5 136h31
q-39 -141 -46 -177v-1h104q62 0 99.5 8t63 35.5t35 47.5t30.5 77q3 7 4 10h31q-41 -149 -46 -177l105 2l-5 -44l-108 1l-53 -267q-12 -63 -7.5 -90t29.5 -27q26 0 43.5 35t21.5 105z" />
    <glyph glyph-name=".notdef" horiz-adv-x="500" 
 />
    <glyph glyph-name=".null" horiz-adv-x="0" 
 />
    <glyph glyph-name="nonmarkingreturn" horiz-adv-x="333" 
 />
    <glyph glyph-name="space" unicode=" " horiz-adv-x="200" 
 />
    <glyph glyph-name="exclam" unicode="!" horiz-adv-x="302" 
d="M183 55q0 -32 -19 -50t-52 -18q-31 0 -50.5 18t-19.5 51q0 31 20 50t50 19q32 0 51.5 -19t19.5 -51zM150 205q-2 -12 -16 -10q-14 3 -12 14q25 121 26.5 199.5t-12.5 157.5q-10 79 12 111.5t70 32.5q51 0 67 -47t-23 -120q-47 -80 -69.5 -145.5t-42.5 -192.5z" />
    <glyph glyph-name="quotedbl" unicode="&#x22;" horiz-adv-x="371" 
d="M127 449q-6 -14 -15 -14q-5 0 -8 4.5t0 11.5q14 47 20 68t10.5 50.5t1.5 52.5q-3 39 12 63.5t42 24.5q19 0 27.5 -14t1.5 -39.5t-29 -53.5q-32 -43 -63 -154zM277 449q-6 -14 -15 -14q-5 0 -8 4.5t0 11.5q14 47 20 68t10.5 50.5t1.5 52.5q-3 39 12 63.5t42 24.5
q19 0 27.5 -14t1.5 -39.5t-29 -53.5q-32 -43 -63 -154z" />
    <glyph glyph-name="numbersign" unicode="#" horiz-adv-x="595" 
d="M124 0h-29l66 225q-26 0 -67.5 -0.5t-55.5 -0.5l10 33q62 -2 121 -2q40 144 48 176q-28 0 -74 -0.5t-61 -0.5l10 33q68 -2 133 -2q28 102 58 227h31q-30 -96 -67 -227h173q40 159 55 227h31q-17 -56 -64 -227q54 0 116 2q0 -1 -4.5 -16t-4.5 -17q-13 0 -52 0.5t-63 0.5
l-46 -176q55 0 117 2l-10 -33q-13 0 -51.5 0.5t-62.5 0.5q-38 -149 -55 -225h-29q22 74 62 225h-55h-66.5h-55.5q-39 -146 -58 -225zM238 431l-48 -176h177q8 28 46 176h-175z" />
    <glyph glyph-name="dollar" unicode="$" 
d="M207 -99h-42l21 114q-84 12 -127.5 54t-31.5 103q11 57 70 57q26 0 40 -16t9 -43q-9 -45 -65 -45h-6q27 -57 118 -68l47 250q-82 27 -114.5 87t-0.5 146q18 49 62 83t106 48l16 116h41l-20 -110q23 3 55 1l15 109h41l-20 -112q74 -11 108 -51.5t27 -96.5q-8 -62 -70 -62
q-25 0 -39.5 15t-11.5 38q7 51 65 51q2 0 7 -0.5t7 -0.5q-23 53 -100 64l-40 -224q102 -25 141 -77t22 -138q-13 -66 -73.5 -114.5t-148.5 -62.5l-17 -115h-42l20 111q-26 -3 -53 0zM448 163q7 47 -15.5 74.5t-78.5 43.5l-33 -221q56 11 89 38t38 65zM230 54q18 -2 54 1
l43 232q-11 3 -32 7t-29 6zM287 430q34 -11 61 -16l31 222q-38 0 -56 -3zM205 555q-25 -79 56 -115l25 185q-66 -22 -81 -70z" />
    <glyph glyph-name="percent" unicode="%" 
d="M188 422q31 0 52.5 29t34.5 104q13 69 5.5 102t-36.5 33q-61 0 -85 -135q-13 -74 -6 -103.5t35 -29.5zM189 396q-62 0 -91 40t-15 119q14 82 59.5 121t102.5 39q131 0 105 -160q-14 -82 -59 -120.5t-102 -38.5zM100 85q0 8 8 8t8 -8t-8 -8t-8 8zM137 139q0 13 13 13
t13 -13q0 -14 -13 -14t-13 14zM174 192q0 8 5 13t13 5t13 -5t5 -13t-5 -13t-13 -5t-13 5t-5 13zM212 246q0 8 6.5 14.5t15.5 6.5t15.5 -6.5t6.5 -14.5q0 -9 -6.5 -15.5t-15.5 -6.5t-15.5 6.5t-6.5 15.5zM252 299q0 10 7 17t17 7t17 -7t7 -17t-7 -17t-17 -7t-17 7t-7 17z
M293 353q0 10 7.5 17t17.5 7t17.5 -7t7.5 -17q0 -11 -7.5 -18t-17.5 -7t-17.5 7t-7.5 18zM336 406q0 10 7 17t17 7t17 -7t7 -17t-7 -17t-17 -7t-17 7t-7 17zM380 460q0 8 6.5 14.5t15.5 6.5t15.5 -6.5t6.5 -14.5q0 -9 -6.5 -15.5t-15.5 -6.5t-15.5 6.5t-6.5 15.5zM426 513
q0 7 5 12.5t13 5.5t13 -5.5t5 -12.5t-5 -12.5t-13 -5.5t-13 5.5t-5 12.5zM473 567q0 13 13 13t13 -13q0 -14 -13 -14t-13 14zM520 620q0 8 8 8t8 -8t-8 -8t-8 8zM376 -3q31 0 52.5 29t34.5 104q13 69 5.5 102t-36.5 33q-61 0 -85 -135q-13 -74 -6 -103.5t35 -29.5zM377 -29
q-62 0 -91 40t-15 119q14 82 59.5 121t102.5 39q131 0 105 -160q-14 -82 -59 -120.5t-102 -38.5z" />
    <glyph glyph-name="ampersand" unicode="&#x26;" horiz-adv-x="750" 
d="M681 106q-27 -119 -156 -119q-83 0 -138 47q-78 -54 -182 -54q-107 0 -152 54.5t-36 124.5q17 138 187 183q-33 97 -22 181q11 88 65.5 132.5t140.5 44.5q71 0 107 -40.5t28 -106.5q-9 -74 -60 -132t-125 -81l24 -51q47 -99 90 -154q52 53 69 130q11 53 -25 53h-42l7 47
q79 -2 124 -2l124 2l-7 -47h-51q-33 0 -48 -45q-37 -110 -122 -169q44 -44 93 -44q32 0 50 11.5t32 40.5zM255 39q57 0 105 23q-49 56 -115 187q-4 7 -26 54q-73 -39 -86 -123q-9 -64 23.5 -103t98.5 -38zM293 547q-9 -77 32 -176q97 45 114 176q13 105 -58 105
q-78 0 -88 -105z" />
    <glyph glyph-name="quotesingle" unicode="'" horiz-adv-x="221" 
d="M127 449q-6 -14 -15 -14q-5 0 -8 4.5t0 11.5q14 47 20 68t10.5 50.5t1.5 52.5q-3 39 12 63.5t42 24.5q19 0 27.5 -14t1.5 -39.5t-29 -53.5q-32 -43 -63 -154z" />
    <glyph glyph-name="parenleft" unicode="(" horiz-adv-x="270" 
d="M151 331q-30 -225 -22.5 -318.5t56.5 -182.5l-27 -19q-70 82 -100 218.5t-7 301.5q26 188 93.5 308.5t170.5 211.5l21 -20q-78 -93 -117 -192t-68 -308z" />
    <glyph glyph-name="parenright" unicode=")" horiz-adv-x="270" 
d="M126 331q28 197 21 304t-56 196l27 20q69 -82 100 -219.5t8 -300.5q-26 -188 -93.5 -308.5t-170.5 -211.5l-21 19q94 115 123.5 196t61.5 305z" />
    <glyph glyph-name="asterisk" unicode="*" horiz-adv-x="500" 
d="M347 591q-10 -17 -18 -51l14 -13q30 13 46 29q3 4 13 18t19 22.5t22 13.5q21 9 39.5 0t25.5 -28q8 -17 0.5 -37.5t-30.5 -28.5q-9 -7 -39.5 -1.5t-35.5 5.5q-26 0 -55 -10l-3 -17q29 -22 49 -27q6 -1 17.5 -2t19.5 -2t18 -4.5t19 -10.5q18 -14 19.5 -35.5t-11.5 -35.5
q-13 -15 -32 -18.5t-40 11.5q-13 12 -22 37t-12 30q-13 22 -36 42l-17 -8q-4 -31 2 -53q2 -6 9 -20.5t10 -26.5t1 -26q-3 -23 -20 -34.5t-37 -8.5t-33 19.5t-9 39.5q4 18 21.5 39t19.5 24q13 24 18 50l-15 13q-29 -12 -45 -28q-3 -4 -13 -18t-19 -22.5t-22 -13.5
q-21 -9 -39.5 0t-25.5 28q-8 17 -0.5 37.5t30.5 28.5q9 7 39.5 1.5t35.5 -5.5q25 0 54 9l3 19q-27 20 -48 26q-6 1 -17.5 2t-19.5 2t-18 4.5t-19 10.5q-18 14 -19.5 35.5t11.5 35.5q13 15 32 18.5t40 -11.5q13 -12 22 -37t12 -30q14 -24 36 -43l17 8q4 32 -2 54
q-2 6 -9 20.5t-10 26.5t-1 26q3 23 19.5 34t37.5 9q20 -2 33 -18.5t9 -40.5q-4 -18 -21.5 -39t-19.5 -24z" />
    <glyph glyph-name="plus" unicode="+" 
d="M286 26h-57q31 150 50 207q-52 -7 -208 -11l11 57q126 0 203 -11q4 81 27 205h57q-21 -116 -49 -205q83 11 208 11l-11 -57q-156 4 -204 11q-1 -27 -6.5 -69t-13 -89.5t-7.5 -48.5z" />
    <glyph glyph-name="comma" unicode="," horiz-adv-x="238" 
d="M71 11q-48 0 -44 54q2 26 21.5 43t47.5 17q34 0 49 -23.5t12 -62.5q-5 -62 -55 -111.5t-132 -69.5l-5 24q71 20 113.5 60t45.5 99q-16 -30 -53 -30z" />
    <glyph glyph-name="hyphen" unicode="-" horiz-adv-x="316" 
d="M33 210q5 41 6 71q128 -4 256 0q-4 -37 -6 -71q-128 4 -256 0z" />
    <glyph glyph-name="period" unicode="." horiz-adv-x="241" 
d="M172 55q-2 -32 -23 -50t-54 -18q-31 0 -48.5 18t-14.5 51q3 31 24.5 50t51.5 19q32 0 49.5 -19t14.5 -51z" />
    <glyph glyph-name="slash" unicode="/" horiz-adv-x="385" 
d="M392 690q-67 -155 -169.5 -433t-151.5 -437q-13 2 -39.5 2t-38.5 -2q67 156 169.5 434.5t150.5 435.5q13 -2 39.5 -2t39.5 2z" />
    <glyph glyph-name="zero" unicode="0" horiz-adv-x="529" 
d="M229 21q131 0 163 285q12 123 -8 170.5t-70 47.5q-65 0 -108 -74.5t-59 -220.5q-12 -120 9 -164t73 -44zM229 -21q-228 0 -195 273q14 137 84 226.5t191 89.5q101 0 154.5 -68t41.5 -205q-12 -146 -82 -231t-194 -85z" />
    <glyph glyph-name="one" unicode="1" horiz-adv-x="447" 
d="M152 111q36 176 55 296l-114 -5q6 20 11 57h24q79 0 117.5 29t59.5 100q29 -4 58 0q-32 -110 -52 -234l-40 -243q-4 -27 7 -41.5t44 -14.5h63q-11 -24 -11 -57q-116 2 -182 2l-182 -2l11 57h64q32 0 46.5 14t20.5 42z" />
    <glyph glyph-name="two" unicode="2" horiz-adv-x="519" 
d="M488 183q8 -92 -32 -150t-126 -58q-14 0 -26.5 1.5t-25 7t-19 7.5t-19.5 12t-15.5 12t-17.5 15t-16 14q-45 41 -87 40q-38 -1 -51 -26q9 3 17 3q43 0 40 -42q-3 -36 -43 -36q-21 0 -33.5 15.5t-9.5 47.5q10 113 201 194q156 66 172 169q8 54 -17 87t-78 33
q-47 0 -90.5 -24.5t-63.5 -71.5q12 2 23 2q29 0 46.5 -18.5t12.5 -48.5q-8 -59 -74 -59q-31 0 -50 26.5t-7 81.5q14 65 81 112.5t149 47.5q97 0 144.5 -44.5t38.5 -120.5q-9 -74 -82 -127.5t-194 -83.5q-83 -21 -126 -59q25 11 54 11q45 0 106 -23q57 -21 105 -20
q37 2 54 16t21 53z" />
    <glyph glyph-name="three" unicode="3" horiz-adv-x="594" 
d="M549 400q-12 -65 -58.5 -110t-109.5 -62q79 -10 117 -58.5t24 -118.5q-20 -103 -102.5 -155.5t-205.5 -52.5q-106 0 -155.5 44.5t-36.5 118.5q15 82 89 82q31 0 48.5 -18.5t12.5 -48.5q-8 -59 -76 -59q-17 0 -31 6q4 -83 140 -83q85 0 127 41t57 123q13 74 -19.5 110
t-114.5 36h-33l9 49h33q74 1 112 40t52 116q11 61 -13 95t-83 34q-50 0 -93.5 -24t-63.5 -72q12 2 22 2q31 0 48.5 -18.5t12.5 -48.5q-8 -59 -73 -59q-39 0 -56.5 27.5t-3.5 77.5q18 66 82 114.5t162 48.5q100 0 148 -45t32 -132z" />
    <glyph glyph-name="four" unicode="4" horiz-adv-x="547" 
d="M238 -28l21 104q-114 1 -265 -1l8 47l418 466h43q-45 -228 -83 -467l119 3l-9 -53l-118 3q-10 -66 -14 -102q-3 -25 7.5 -32t45.5 -7h37l-6 -52q-99 2 -158 2l-174 -2l6 52h57q35 0 47.5 7t17.5 32zM316 403q-24 -27 -83.5 -90t-103.5 -111t-74 -83q58 -1 212 -1
q32 164 49 285z" />
    <glyph glyph-name="five" unicode="5" horiz-adv-x="552" 
d="M244 255q-14 0 -28 -1.5t-23.5 -3.5t-22 -7t-18 -7t-17.5 -9.5t-14.5 -9t-15.5 -10.5l-13 -9l-20 22q92 146 102 362q65 -24 176 -24q92 0 166 35l20 -18q-30 -72 -81.5 -104t-129.5 -32q-81 0 -129 28q-29 -134 -65 -212q87 51 174 51q111 0 156 -63t27 -172
q-18 -108 -95.5 -168t-202.5 -60q-100 0 -145.5 48.5t-29.5 122.5q8 34 31 54t55 20q31 0 48.5 -18.5t13.5 -48.5q-4 -29 -23.5 -44t-48.5 -15q-21 0 -35 7q7 -84 127 -84q77 0 116 48t54 138q32 184 -109 184z" />
    <glyph glyph-name="six" unicode="6" horiz-adv-x="583" 
d="M415 668q-91 0 -139 -69.5t-77 -235.5q66 75 170 75t147 -57.5t26 -153.5q-18 -111 -92 -177.5t-189 -66.5q-252 0 -196 338q32 192 128 290.5t225 98.5q83 0 123 -44.5t32 -108.5q-5 -43 -29.5 -65t-61.5 -22q-30 0 -47.5 19t-13.5 49q3 26 23 42t50 16q25 0 42 -14
q-9 86 -121 86zM179 217q-12 -93 7 -137.5t90 -44.5q115 0 145 182q28 170 -87 170q-133 0 -155 -170z" />
    <glyph glyph-name="seven" unicode="7" horiz-adv-x="556" 
d="M155 589l3 -57q40 45 104 45q58 0 108 -41q45 -37 66 -49.5t43 -12.5q32 0 37 26q-9 -3 -18 -3q-17 0 -28.5 11t-11.5 31q0 22 14 34.5t35 12.5t35 -17.5t8 -52.5q-6 -34 -26 -64t-69 -76q-10 -10 -31 -28q-38 -34 -57 -52.5t-47 -57.5t-41 -77t-21 -98.5t-4 -134.5
q2 -35 -16.5 -56.5t-48.5 -21.5q-34 0 -53 20.5t-21 55.5q-6 124 58.5 227.5t180.5 181.5q3 2 17 11.5t18 12t16.5 11.5t18 13t15.5 12.5t16.5 14.5t14.5 14.5t15 16.5q-50 -37 -115 -37q-58 0 -125 39q-36 20 -57 20q-46 0 -57 -85q-24 4 -52 0q29 98 27 211q24 -4 49 0z
" />
    <glyph glyph-name="eight" unicode="8" horiz-adv-x="561" 
d="M250 -15q-128 0 -182 45.5t-42 130.5q18 117 154 167q-92 67 -67 190q17 87 86.5 139.5t170.5 52.5q96 0 143 -47.5t37 -116.5q-14 -100 -127 -159q128 -66 108 -203q-14 -93 -88.5 -146t-192.5 -53zM270 284q-36 11 -59 25q-103 -52 -117 -146q-9 -58 32 -90t132 -32
q82 0 134 27t59 69q7 40 -28.5 73.5t-152.5 73.5zM351 417q2 -1 36 -13q86 58 98 143q8 51 -22.5 80.5t-101.5 29.5t-115 -29t-51 -81q-7 -46 26.5 -72.5t129.5 -57.5z" />
    <glyph glyph-name="nine" unicode="9" horiz-adv-x="565" 
d="M183 -115q92 0 135.5 59t70.5 235q-57 -68 -163 -68q-103 0 -141.5 58.5t-23.5 156.5q17 111 91.5 176.5t187.5 65.5t163.5 -82t24.5 -254q-13 -86 -35 -151.5t-60.5 -121.5t-99.5 -86t-143 -30q-96 0 -142 43.5t-36 112.5q7 45 31.5 67t56.5 22q31 0 49.5 -18.5
t13.5 -48.5q-8 -59 -78 -59q-17 0 -31 7q4 -37 38.5 -60.5t90.5 -23.5zM413 336q13 90 -4 136t-78 46q-66 0 -99 -46.5t-46 -135.5q-13 -87 6.5 -128.5t73.5 -41.5q62 0 97.5 38t49.5 132z" />
    <glyph glyph-name="colon" unicode=":" horiz-adv-x="240" 
d="M216 367q-2 -29 -21 -45t-48 -16q-28 0 -44.5 16t-12.5 46q2 28 21.5 45t46.5 17q29 0 45 -17t13 -46zM165 119q-2 -29 -21 -45t-48 -16q-28 0 -44.5 16t-12.5 46q2 28 21.5 45t46.5 17q29 0 45 -17t13 -46z" />
    <glyph glyph-name="semicolon" unicode=";" horiz-adv-x="240" 
d="M77 51q-48 0 -44 54q2 26 21.5 43t47.5 17q34 0 49 -23.5t12 -62.5q-5 -62 -55 -111.5t-132 -69.5l-5 24q71 20 113.5 60t45.5 99q-16 -30 -53 -30zM205 367q-2 -29 -21 -45t-48 -16q-28 0 -44.5 16t-12.5 46q2 28 21.5 45t46.5 17q29 0 45 -17t13 -46z" />
    <glyph glyph-name="less" unicode="&#x3c;" 
d="M135 238l5 23q182 102 315 195l29 -51q-126 -82 -311 -156q140 -72 247 -158l-42 -49q-76 69 -243 196z" />
    <glyph glyph-name="equal" unicode="=" 
d="M59 142q7 30 11 58q221 -4 440 0q-8 -32 -11 -58q-217 4 -440 0zM89 302q7 30 11 58q219 -4 440 0q-8 -32 -11 -58q-219 4 -440 0z" />
    <glyph glyph-name="greater" unicode="&#x3e;" 
d="M448 260l-5 -23q-151 -87 -315 -195l-26 46q122 82 308 161q-52 26 -129 77t-117 87l41 43q80 -77 243 -196z" />
    <glyph glyph-name="question" unicode="?" horiz-adv-x="540" 
d="M359 272l13 -23q-25 -28 -65.5 -45.5t-78.5 -15.5q-27 2 -43.5 15.5t-16.5 37.5q0 27 23 48t79 48q72 34 104 74.5t37 104.5q5 66 -25 102t-89 36q-55 0 -98 -26t-63 -70q25 16 56 15q30 -1 44.5 -20t10.5 -50t-27 -49.5t-56 -18.5q-82 0 -70 101q9 73 80 123.5t167 50.5
q103 0 149.5 -44t41.5 -117q-4 -72 -55.5 -125.5t-158.5 -100.5q-67 -30 -88 -45t-21 -31q0 -26 31 -27q56 -3 119 52zM291 55q0 -32 -19 -50t-52 -18q-31 0 -50.5 18t-19.5 51q0 31 20 50t50 19q32 0 51.5 -19t19.5 -51z" />
    <glyph glyph-name="at" unicode="@" horiz-adv-x="833" 
d="M643 436q-37 -142 -53 -242q-23 -107 44 -107q41 0 68.5 38.5t40.5 98.5q38 172 -28.5 264.5t-232.5 92.5q-137 0 -233 -82t-121 -239q-30 -184 41.5 -275.5t221.5 -91.5q72 0 134 20.5t97 49.5l18 -20q-40 -39 -108 -63.5t-138 -24.5q-191 0 -281 110.5t-57 296.5
q29 165 148.5 260t275.5 95q183 0 263 -98.5t37 -295.5q-19 -87 -61.5 -134t-122.5 -47q-54 0 -85.5 24.5t-31.5 72.5q-23 -47 -61 -69.5t-79 -22.5q-58 0 -88 41t-18 124q16 116 72.5 176.5t127.5 60.5q45 0 70.5 -21.5t29.5 -57.5q36 42 45 66q33 -2 65 0zM389 101
q33 0 62 44.5t47 136.5q23 116 -41 116q-35 0 -64.5 -44.5t-46.5 -137.5q-20 -115 43 -115z" />
    <glyph glyph-name="A" unicode="A" horiz-adv-x="875" 
d="M545 215q-137 4 -282 0l-31 -62q-47 -94 40 -94h43l-10 -61q-98 2 -153 2l-154 -2l9 61h36q41 0 66 18.5t50 64.5q145 268 287 554q36 -2 56 -2l55 2q57 -270 134 -555q12 -45 28 -63.5t46 -18.5h47l-9 -61q-114 2 -178 2l-179 -2l10 61h44q74 0 57 96q-6 32 -12 60z
M289 266q125 -2 246 0q-30 140 -76 327q-125 -239 -170 -327z" />
    <glyph glyph-name="B" unicode="B" horiz-adv-x="690" 
d="M640 180q-26 -182 -320 -182q-85 2 -143 2l-179 -2l9 61h56q35 0 47 7.5t18 33.5q6 28 38.5 241t33.5 241q1 29 -8.5 39t-36.5 10h-64l9 58q7 0 85 -1t90 -1q25 0 77.5 0.5t66.5 0.5q133 0 192 -50.5t47 -131.5q-8 -56 -44.5 -96.5t-96.5 -55.5q65 -16 99 -62t24 -112z
M348 330h-68q-33 -221 -33 -240q-1 -24 6.5 -32t24.5 -8h54q85 0 127.5 35.5t53.5 107.5q10 70 -30.5 103.5t-134.5 33.5zM324 600q-3 -12 -36 -222h65q90 0 131 29.5t53 105.5q8 58 -25 92.5t-105 34.5h-38q-35 0 -45 -40z" />
    <glyph glyph-name="C" unicode="C" horiz-adv-x="738" 
d="M448 710q81 0 165 -44q48 -25 55 23q10 -1 33 -1t33 1q-47 -124 -54 -242q-10 1 -30 1q-22 0 -31 -1q14 95 -29.5 151.5t-142.5 56.5q-207 0 -254 -309q-46 -311 163 -311q207 0 261 233q16 -2 33 -2q18 0 36 2q-33 -148 -112 -220.5t-227 -72.5q-159 0 -234.5 90.5
t-47.5 280.5q28 186 127.5 275t255.5 89z" />
    <glyph glyph-name="D" unicode="D" horiz-adv-x="789" 
d="M446 688q182 0 255.5 -86.5t46.5 -280.5q-23 -166 -129 -244.5t-276 -78.5q-122 2 -173 2l-172 -2l9 61h56q35 0 46.5 7.5t18.5 33.5t39 239.5t33 242.5t-8.5 39t-36.5 10h-64l9 58q1 0 68.5 -1t107.5 -1q36 0 94.5 0.5t75.5 0.5zM249 101q-2 -27 9.5 -39t39.5 -12h39
q127 0 194.5 60t90.5 214q27 179 -13.5 247t-182.5 68h-51q-38 0 -52 -45q-6 -19 -38.5 -237.5t-35.5 -255.5z" />
    <glyph glyph-name="E" unicode="E" horiz-adv-x="724" 
d="M486 491l2 15h55q-22 -89 -31 -154q-12 -80 -15 -160h-53l1 12q8 66 -17.5 94.5t-97.5 28.5h-55q-30 -191 -30 -216q-1 -25 12 -38.5t35 -13.5h139q98 0 135 39.5t55 154.5l1 11h61q-21 -86 -40 -268q-53 4 -183 4h-291l-169 -2l9 61h55q32 0 45 14.5t21 45.5
q7 27 38.5 230.5t32.5 231.5t-8.5 39t-36.5 11h-63l9 59q8 0 86.5 -1.5t88.5 -1.5h259q144 0 208 8q-22 -102 -44 -248h-53l1 8q5 41 6.5 64t-1 45.5t-10.5 32.5t-25 18t-40 10.5t-60 2.5h-146q-25 0 -36 -9t-18 -38q-7 -26 -35 -206h57q68 0 102.5 25.5t43.5 90.5z" />
    <glyph glyph-name="F" unicode="F" horiz-adv-x="709" 
d="M488 506h55q-21 -84 -31 -156q-12 -73 -15 -158h-54l3 20q9 60 -20 87.5t-106 27.5h-45q-31 -206 -32 -227q-1 -26 8 -33.5t44 -7.5h81l-8 -61q-117 2 -183 2l-184 -2l8 61h52q35 0 47 7.5t19 33.5t40 238.5t35 242.5q1 29 -8 39.5t-36 10.5h-64l9 59q4 0 74 -1.5
t100 -1.5h241q164 0 227 8q-36 -179 -45 -248h-54l3 17q6 39 7.5 64.5t-4 45t-14.5 29.5t-30.5 16t-45 7.5t-64.5 1.5h-126q-25 0 -35.5 -9.5t-18.5 -37.5q-6 -18 -36 -206h63q65 0 97.5 25t42.5 84z" />
    <glyph glyph-name="G" unicode="G" horiz-adv-x="808" 
d="M356 32q81 0 139 45t71 131q7 53 -1.5 73t-48.5 20h-43l8 57q99 -2 154 -2l154 2l-8 -57h-34q-22 0 -33 -12.5t-15 -40.5q-27 -181 -31 -248h-67q-1 69 -12 120q-31 -62 -97.5 -103.5t-145.5 -41.5q-159 0 -234 90.5t-47 280.5q27 183 133.5 273.5t257.5 90.5
q87 0 168 -44q52 -28 59 23q10 -1 33 -1t33 1q-47 -124 -54 -242q-16 1 -30 1l-31 -1q31 208 -183 208q-107 0 -170.5 -75.5t-87.5 -233.5q-46 -314 163 -314z" />
    <glyph glyph-name="H" unicode="H" horiz-adv-x="854" 
d="M-2 -2l8 61h56q35 0 47 7t19 33q8 27 41.5 240t34.5 242t-8 39.5t-36 10.5h-63l8 58q111 -2 173 -2q37 0 104 1t69 1l-8 -58h-63q-27 0 -40 -10.5t-20 -39.5q-7 -26 -37 -218q158 -2 329 0q29 186 31 218q1 29 -8.5 39.5t-36.5 10.5h-63l8 58q112 -2 174 -2q37 0 104 1
t69 1l-8 -58h-64q-27 0 -40 -10.5t-20 -39.5t-40.5 -242.5t-35.5 -239.5q-1 -25 8 -32.5t44 -7.5h57l-8 -61q-111 2 -173 2l-174 -2l8 61h57q35 0 47 7.5t19 32.5q9 34 37 212q-194 2 -330 -1q-28 -174 -30 -211q-2 -26 7.5 -33t43.5 -7h57l-8 -61q-111 2 -173 2z" />
    <glyph glyph-name="I" unicode="I" horiz-adv-x="414" 
d="M-4 -2l8 61h56q35 0 47 7t19 33t40.5 239t35.5 243q1 29 -8 39.5t-36 10.5h-63l8 58q111 -2 173 -2q37 0 104 1t69 1l-8 -58h-63q-27 0 -40 -10.5t-20 -39.5t-40.5 -242.5t-35.5 -239.5t7.5 -33t43.5 -7h57l-8 -61q-111 2 -173 2z" />
    <glyph glyph-name="J" unicode="J" horiz-adv-x="568" 
d="M66 93q-18 0 -31 5q27 -66 115 -66q64 0 100 39t51 125q59 341 61 385q1 29 -8 39.5t-36 10.5h-52l9 58q105 -2 164 -2q35 0 98 1t66 1l-9 -58h-57q-28 0 -40.5 -10.5t-18.5 -39.5l-61 -384q-32 -222 -258 -222q-93 0 -135 49.5t-32 114.5q6 38 30.5 62.5t64.5 24.5
q32 0 49 -19.5t12 -50.5q-10 -63 -82 -63z" />
    <glyph glyph-name="K" unicode="K" horiz-adv-x="834" 
d="M-2 -2l9 61h56q33 0 46 10.5t21 41.5q7 30 39.5 237t34.5 231q3 52 -47 52h-61l9 58q112 -2 174 -2q37 0 104 1t69 1l-9 -58h-63q-48 0 -60 -52q-6 -29 -41 -244l298 238q22 17 12.5 37.5t-41.5 20.5h-42l9 58q112 -2 174 -2q37 0 104 1t69 1l-9 -58h-47q-47 0 -82.5 -15
t-81.5 -51l-174 -137q132 -225 178 -296q31 -48 43 -58q20 -15 58 -15h31l-9 -61q-111 2 -173 2l-174 -2l9 61h43q34 0 45.5 15.5t-2.5 40.5q-80 145 -141 241l-108 -85q-22 -149 -22 -160q-1 -26 8.5 -39t37.5 -13h61l-9 -61q-111 2 -173 2z" />
    <glyph glyph-name="L" unicode="L" horiz-adv-x="677" 
d="M452 689l-8 -58h-63q-28 0 -41 -10.5t-20 -39.5q-8 -29 -41.5 -244t-34.5 -238t9 -31.5t34 -8.5h88q81 0 125.5 41t66.5 130l9 36h61q-32 -137 -50 -270q-47 4 -187 4h-233l-169 -2l9 61h57q34 0 45.5 7.5t18.5 33.5q7 27 41 240t35 241q1 29 -8 39.5t-36 10.5h-63l8 58
q112 -2 174 -2q36 0 102 1t71 1z" />
    <glyph glyph-name="M" unicode="M" horiz-adv-x="982" 
d="M424 48q-109 357 -160 514q-49 -290 -65 -438q-7 -65 53 -65h54l-9 -61q-87 2 -140 2l-150 -2l9 61h47q58 0 72 65q6 26 36.5 225.5t33.5 229.5q6 52 -47 52h-54l9 58q120 -4 241 0q64 -218 149 -478q174 288 286 478q112 -4 225 0l-7 -58h-60q-50 0 -63 -56
q-7 -28 -38 -229t-33 -228q-3 -29 7.5 -44t42.5 -15h62l-7 -61q-111 2 -174 2l-175 -2l9 61h54q58 0 68 59q31 189 70 446q-178 -288 -313 -516h-33z" />
    <glyph glyph-name="N" unicode="N" horiz-adv-x="822" 
d="M102 689q114 -4 227 0l270 -496q48 308 55 387q2 29 -8 40t-38 11h-64l9 58q3 0 62 -1t91 -1l152 2l-9 -58h-64q-27 0 -40 -10.5t-20 -40.5q-17 -65 -87 -580h-77l-297 550q-20 -114 -42 -263t-24 -177q-3 -51 67 -51h48l-9 -61q-97 2 -152 2l-153 -2l9 61h46q66 0 78 51
q7 31 39.5 237.5t32.5 233.5q0 29 -10.5 39.5t-37.5 10.5h-63z" />
    <glyph glyph-name="O" unicode="O" horiz-adv-x="782" 
d="M356 30q110 0 172 76.5t86 240.5q26 170 -13.5 239.5t-149.5 69.5q-105 0 -169.5 -74.5t-88.5 -235.5q-25 -172 12.5 -244t150.5 -72zM348 -25q-166 0 -238 95t-45 276q27 177 134.5 270.5t259.5 93.5q337 0 282 -363q-26 -178 -134 -275t-259 -97z" />
    <glyph glyph-name="P" unicode="P" horiz-adv-x="696" 
d="M364 240q-38 0 -98 3q-18 -117 -18 -129q-2 -31 8.5 -43t48.5 -12h49l-8 -61q-109 2 -171 2l-171 -2l9 61h47q34 0 49 10.5t22 37.5q6 24 39 233.5t36 241.5q3 28 -7 38.5t-38 10.5h-64l9 59q48 -3 169 -3h156q127 0 195.5 -53.5t50.5 -173.5q-17 -108 -103 -164
t-210 -56zM322 573q-8 -34 -47 -273h76q91 0 139 40.5t60 120.5q13 93 -20 132t-123 39h-27q-44 0 -58 -59z" />
    <glyph glyph-name="Q" unicode="Q" horiz-adv-x="782" 
d="M348 -25q-166 0 -238 95t-45 276q27 177 134.5 270.5t259.5 93.5q337 0 282 -363q-20 -137 -90.5 -227t-174.5 -124q2 -65 16 -92t48 -27t51.5 20t20.5 65l41 -2q-12 -87 -51.5 -127t-121.5 -40q-161 0 -122 182h-10zM354 214q58 0 87.5 -36.5t33.5 -117.5
q106 64 139 287q26 170 -13.5 239.5t-149.5 69.5q-105 0 -169.5 -74.5t-88.5 -235.5q-31 -212 36 -276q-5 16 -3 36q4 47 38.5 77.5t89.5 30.5zM257 95q0 -28 16.5 -43.5t39 -19t58.5 -2.5q16 80 3.5 112.5t-47.5 32.5q-30 0 -49.5 -21t-20.5 -59z" />
    <glyph glyph-name="R" unicode="R" horiz-adv-x="792" 
d="M587 191q-1 -84 9 -114.5t39 -30.5q26 0 42.5 46.5t15.5 113.5l51 5q2 -45 -4.5 -83.5t-22.5 -72.5t-48 -53t-77 -19q-94 0 -121 46.5t-17 149.5q8 77 -18.5 104.5t-83.5 27.5h-81q-28 -186 -27 -205q2 -26 12.5 -36.5t38.5 -10.5h57l-9 -61q-110 2 -172 2l-173 -2l9 61
h51q35 0 48.5 7.5t21.5 32.5q8 24 40.5 236.5t35.5 245.5q2 29 -7.5 39.5t-36.5 10.5h-64l8 59q2 0 71 -1.5t104 -1.5q23 0 86 1t83 1q127 0 187.5 -50t46.5 -142q-11 -72 -63.5 -118t-122.5 -54q52 -14 72 -46.5t19 -87.5zM318 585q-7 -21 -39 -226h91q91 0 135.5 31.5
t55.5 106.5q11 74 -23 107t-115 33h-35q-32 0 -46.5 -12t-23.5 -40z" />
    <glyph glyph-name="S" unicode="S" horiz-adv-x="657" 
d="M363 655q-157 0 -173 -101q-9 -61 33 -87.5t158 -42.5q248 -34 214 -252q-13 -87 -83 -139.5t-195 -52.5q-57 0 -112.5 12.5t-80.5 26.5q-52 28 -61 -21q-32 4 -64 0q46 121 53 243q7 -1 29.5 -1t29.5 1q-15 -104 35 -154.5t176 -50.5q160 0 177 111q10 66 -35 97.5
t-161 47.5q-231 31 -201 229q14 91 87 142t188 47q80 -3 154 -41q15 -12 30.5 -10t20.5 30q10 -1 30.5 -1t30.5 1q-40 -102 -44 -219q-7 1 -29.5 1t-29.5 -1q27 185 -177 185z" />
    <glyph glyph-name="T" unicode="T" horiz-adv-x="711" 
d="M573 630h-106q-75 -458 -82 -531q-2 -21 9 -30.5t41 -9.5h58l-8 -61q-111 2 -173 2l-173 -2l8 61h57q34 0 46 7t19 33q13 51 84 531h-104q-44 0 -68.5 -22t-35.5 -71l-19 -90q-25 3 -57 0q24 131 33 245q73 -5 156 -5h324q61 0 154 5q-32 -151 -43 -245q-27 3 -55 0
l11 90q10 93 -76 93z" />
    <glyph glyph-name="U" unicode="U" horiz-adv-x="834" 
d="M140 282q40 247 43 290q2 33 -6.5 46t-36.5 13h-46l9 58q104 -2 163 -2q35 0 97.5 1t65.5 1l-9 -58h-46q-30 0 -43.5 -12t-24.5 -47q-4 -14 -11 -58t-17.5 -122.5t-16.5 -118.5q-17 -120 19.5 -171t128.5 -51t141.5 49t69.5 173q44 282 45 299q5 59 -49 59h-42l9 58
q92 -2 144 -2q31 0 85 1t58 1l-9 -58h-43q-50 0 -61 -60l-43 -290q-45 -301 -325 -301q-149 0 -211 71.5t-38 230.5z" />
    <glyph glyph-name="V" unicode="V" horiz-adv-x="763" 
d="M307 552q22 -133 90 -457q141 288 213 456q19 41 9 60.5t-51 19.5h-30l7 58q85 -2 133 -2q28 0 78 1t54 1l-7 -58h-28q-39 0 -62 -17.5t-46 -62.5q-122 -242 -270 -557q-49 4 -97 0q-79 413 -118 568q-9 37 -25.5 53t-55.5 16h-21l7 58q103 -2 161 -2q34 0 96 1t64 1
l-7 -58h-38q-31 0 -47 -20.5t-9 -58.5z" />
    <glyph glyph-name="W" unicode="W" horiz-adv-x="1094" 
d="M752 -6q-52 4 -102 0q-33 259 -70 508q-158 -345 -227 -508q-51 4 -101 0q-32 276 -75 569q-5 38 -19.5 53t-54.5 15h-29l9 58q102 -2 160 -2q35 0 97 1t63 1l-9 -58h-38q-33 0 -46 -16t-9 -52l60 -455q60 129 202 456q29 67 -38 67h-28l9 58q90 -2 141 -2q30 0 84.5 1
t56.5 1l-9 -58h-32q-25 0 -40 -16.5t-11 -46.5q28 -238 61 -459q149 336 191 444q30 78 -41 78h-26l9 58q82 -2 128 -2q27 0 76 1t51 1l-9 -58h-42q-33 0 -54.5 -18t-41.5 -61q-132 -290 -246 -558z" />
    <glyph glyph-name="X" unicode="X" horiz-adv-x="780" 
d="M453 136q-26 55 -77 152q-119 -126 -136 -150q-26 -38 -21.5 -58.5t36.5 -20.5h33l-9 -61q-93 2 -146 2l-146 -2l9 61h20q37 0 69 14.5t47.5 28.5t54.5 53q96 96 165 178q-63 119 -125 227q-22 38 -44 54.5t-63 16.5h-39l9 58q120 -2 187 -2l186 2l-9 -58h-34
q-34 0 -51 -22t-2 -54q20 -44 74 -149q80 80 134 147q26 32 18 55t-45 23h-23l9 58q92 -2 143 -2l152 2l-9 -58h-26q-36 0 -62 -10t-40.5 -22.5t-47.5 -46.5q-164 -171 -180 -188q80 -150 129 -234q22 -38 46 -54.5t61 -16.5h34l-9 -61q-116 2 -182 2l-182 -2l9 61h44
q30 0 42 19.5t-3 57.5z" />
    <glyph glyph-name="Y" unicode="Y" horiz-adv-x="810" 
d="M672 561q-69 -93 -221 -315l-20 -136q-5 -32 4 -42t48 -10h68l-9 -60q-118 2 -185 2l-186 -2l9 60h67q39 0 50.5 10.5t16.5 41.5l19 125q-68 184 -129 332q-14 34 -38 49t-69 15h-16l9 58q116 -2 181 -2l181 2l-9 -58h-45q-81 0 -60 -67q19 -61 102 -252q135 197 166 252
q21 30 16 48.5t-50 18.5h-36l9 58q98 -2 153 -2l152 2l-9 -58h-26q-57 0 -85 -14.5t-58 -55.5z" />
    <glyph glyph-name="Z" unicode="Z" horiz-adv-x="649" 
d="M-2 0l9 58q135 140 494 570h-181q-94 0 -124.5 -22t-48.5 -110l-10 -49q-29 4 -57 0q26 107 39 243q98 -3 189 -3h353l-9 -59q-158 -168 -491 -569h219q77 0 110 28t46 113l6 44q30 -4 61 0q-20 -89 -41 -247q-98 3 -184 3h-380z" />
    <glyph glyph-name="bracketleft" unicode="[" horiz-adv-x="271" 
d="M40 78l94 498q8 47 16 103t12 89l3 32q90 -4 181 0l-9 -54h-30q-27 0 -39.5 -10t-21.5 -39q-9 -27 -77 -389.5t-70 -390.5t7.5 -38.5t42.5 -10.5h23l-10 -55q-90 4 -179 0q25 97 57 265z" />
    <glyph glyph-name="backslash" unicode="\" horiz-adv-x="385" 
d="M300 -180q-32 155 -105.5 433.5t-124.5 436.5q13 -2 39.5 -2t39.5 2q32 -154 105 -432t124 -438q-12 2 -38.5 2t-39.5 -2z" />
    <glyph glyph-name="bracketright" unicode="]" horiz-adv-x="271" 
d="M235 548l-89 -471q-12 -71 -21 -137t-11 -96l-3 -31q-86 4 -172 0l8 55h21q31 0 43.5 10.5t19.5 38.5q7 29 74 391t69 389q2 28 -7.5 38.5t-36.5 10.5h-30l9 54q93 -4 186 0q-39 -131 -60 -252z" />
    <glyph glyph-name="asciicircum" unicode="^" 
d="M354 710h18q20 -43 75.5 -144t78.5 -135l-47 -31q-22 28 -63.5 127t-56.5 155q-31 -57 -103 -153.5t-108 -128.5l-36 31q152 166 242 279z" />
    <glyph glyph-name="underscore" unicode="_" horiz-adv-x="500" 
d="M-6 -197q3 11 12 76q79 -1 249.5 -1t250.5 1q-5 -22 -13 -76q-79 1 -249 1t-250 -1z" />
    <glyph glyph-name="grave" unicode="`" horiz-adv-x="532" 
d="M363 536l-8 -10q-112 56 -156 91q-19 15 -16.5 34.5t19.5 25t38 -6.5q10 -8 21.5 -19t26 -27.5t24 -27t27.5 -32t24 -28.5z" />
    <glyph glyph-name="a" unicode="a" horiz-adv-x="532" 
d="M524 167q-7 -88 -45 -136t-86 -48q-56 0 -77 28t-11 95q-29 -60 -70.5 -91.5t-89.5 -31.5q-129 0 -104 203q17 136 76 211.5t137 75.5q98 0 109 -104q3 5 29 39.5t36 50.5h44q-34 -134 -65 -308q-12 -69 -9.5 -95.5t20.5 -26.5q51 0 70 143zM186 32q47 0 87 61t60 174
q14 77 2.5 117t-54.5 40q-47 0 -80 -54.5t-55 -184.5q-14 -91 -5 -122t45 -31z" />
    <glyph glyph-name="b" unicode="b" horiz-adv-x="507" 
d="M104 639h-25l4 50q87 -4 174 0q-1 -35 -13 -95l-50 -249q56 128 154 128q59 0 90.5 -48t17.5 -155q-18 -136 -76.5 -211.5t-136.5 -75.5q-108 0 -111 124q-55 -50 -81 -107h-26q79 365 119 593q4 25 -3.5 35.5t-36.5 10.5zM311 424q-47 0 -87 -61t-60 -174
q-14 -77 -2.5 -117t54.5 -40q47 0 80 54.5t55 184.5q14 91 5 122t-45 31z" />
    <glyph glyph-name="c" unicode="c" horiz-adv-x="439" 
d="M201 -17q-199 0 -153 245q22 120 85.5 182.5t149.5 62.5q61 0 91.5 -28t30.5 -77q0 -40 -18.5 -61t-50.5 -21q-25 0 -40 14.5t-11 41.5q3 28 26.5 39.5t50.5 5.5q-13 45 -75 45q-52 0 -78 -40.5t-50 -161.5q-22 -122 -6 -164t71 -42q91 0 119 124l37 -10
q-20 -75 -67 -115t-112 -40z" />
    <glyph glyph-name="d" unicode="d" horiz-adv-x="538" 
d="M497 594q-76 -353 -90 -441q-12 -74 -9.5 -99t23.5 -25q49 0 66 143l36 -5q-7 -83 -42 -133.5t-88 -50.5q-55 0 -77 26.5t-15 88.5q-57 -115 -152 -115q-59 0 -90 48t-18 155q17 136 76 211.5t137 75.5q84 0 104 -77l39 197q5 25 -2.5 35.5t-37.5 10.5h-25l7 50
q84 -4 168 0q2 -44 -10 -95zM186 32q47 0 87 61t60 174q14 77 2.5 117t-54.5 40q-47 0 -80 -54.5t-55 -184.5q-14 -91 -5 -122t45 -31z" />
    <glyph glyph-name="e" unicode="e" horiz-adv-x="448" 
d="M346 148l37 -10q-21 -78 -62 -116.5t-112 -38.5q-105 0 -144.5 59.5t-16.5 185.5q23 120 86 182.5t149 62.5q73 0 100 -39t19 -100q-6 -42 -32.5 -71t-66.5 -42t-75.5 -17.5t-74.5 -4.5q-16 -91 -1 -133t64 -42q52 0 83 25.5t47 98.5zM272 432q-45 0 -70 -49t-44 -158
q72 -1 106.5 17t47.5 79q11 35 1.5 73t-41.5 38z" />
    <glyph glyph-name="f" unicode="f" horiz-adv-x="348" 
d="M366 675q-49 0 -81.5 -51t-54.5 -167l109 3l-3 -45l-114 3l-8 -59q-22 -165 -51.5 -278t-66.5 -174.5t-76.5 -87t-89.5 -25.5q-54 0 -76.5 25t-13.5 63q10 46 59 46q23 0 35 -13.5t8 -36.5q-4 -22 -22 -32t-42 -5q13 -16 48 -16q63 0 89 68t55 276q21 147 51 248l-61 -2
l3 46l72 -2q48 139 110 194t126 55q41 0 64.5 -29.5t18.5 -72.5q-9 -84 -76 -84q-25 0 -40.5 14t-11.5 42q5 29 31.5 42t57.5 1q2 54 -49 54z" />
    <glyph glyph-name="g" unicode="g" horiz-adv-x="492" 
d="M286 33l15 75q-53 -125 -152 -125q-59 0 -90 48t-18 155q17 136 76 211.5t137 75.5q98 0 109 -102q76 37 86 118h30q-55 -244 -85 -419q-23 -136 -91.5 -206t-168.5 -70q-66 0 -97.5 36.5t-16.5 82.5q16 50 69 50q26 0 40.5 -15t10.5 -41q-5 -29 -30 -41.5t-56 0.5
q15 -41 81 -41t97.5 50.5t53.5 157.5zM186 32q47 0 87 61t60 174q14 77 2.5 117t-54.5 40q-47 0 -80 -54.5t-55 -184.5q-14 -91 -5 -122t45 -31z" />
    <glyph glyph-name="h" unicode="h" horiz-adv-x="544" 
d="M490 172l36 -5q-5 -73 -39.5 -128.5t-95.5 -55.5q-127 0 -82 165l34 123q43 153 -23 153q-110 0 -175 -330l-19 -96q-33 2 -51 2l-51 -2q71 309 119 595q4 25 -3.5 35.5t-36.5 10.5h-25l4 50q87 -4 174 0q-1 -35 -13 -95l-51 -260q58 139 173 139q70 0 89 -48t-9 -155
l-31 -117q-18 -67 -16 -95.5t26 -28.5q50 0 66 143z" />
    <glyph glyph-name="i" unicode="i" horiz-adv-x="324" 
d="M290 628q-2 -28 -23 -47.5t-52 -19.5q-28 0 -43.5 19.5t-13.5 47.5t22.5 47t52.5 19q28 0 43.5 -19t13.5 -47zM233 306l-47 -175q-14 -55 -10 -77t27 -22q48 0 65 140l36 -5q-3 -43 -15.5 -81.5t-44.5 -70.5t-79 -32q-54 0 -78 37t-6 105l53 196q28 103 -6 103
q-55 0 -74 -146l-37 5q7 78 40.5 134t93.5 56q127 0 82 -167z" />
    <glyph glyph-name="j" unicode="j" horiz-adv-x="279" 
d="M290 628q-2 -28 -23 -47.5t-52 -19.5q-28 0 -43.5 19.5t-13.5 47.5t22.5 47t52.5 19q28 0 43.5 -19t13.5 -47zM230 306l-55 -283q-23 -119 -77 -174t-138 -55q-46 0 -69 19t-23 49q0 31 17 48.5t44 17.5q20 0 32 -10.5t12 -28.5q0 -28 -19.5 -41t-44.5 -7q12 -16 47 -16
q52 0 73.5 43t45.5 168l54 285q19 103 -9 103q-52 0 -71 -146l-37 5q9 87 43.5 138.5t95.5 51.5q48 0 69.5 -25.5t19 -62.5t-9.5 -79z" />
    <glyph glyph-name="k" unicode="k" horiz-adv-x="513" 
d="M462 172l36 -5q-7 -77 -41 -130.5t-96 -53.5q-61 0 -86 34t-6 97q17 56 -5.5 77t-94.5 16q-7 -26 -43 -209q-33 2 -51 2l-51 -2q95 436 119 595q4 25 -3.5 35.5t-36.5 10.5h-25l4 50q87 -4 174 0q-1 -33 -13 -95l-50 -252q59 131 163 131q119 0 89 -123
q-10 -38 -48 -71.5t-89 -50.5q88 -16 62 -133q-7 -32 1 -49t24 -17q51 0 67 143zM310 414q-42 0 -74.5 -40.5t-61.5 -145.5q147 3 171 109q8 39 -2.5 58t-32.5 19z" />
    <glyph glyph-name="l" unicode="l" horiz-adv-x="283" 
d="M242 594q-26 -122 -86 -441q-14 -67 -11.5 -95.5t26.5 -28.5q50 0 66 143l36 -5q-5 -73 -39.5 -128.5t-95.5 -55.5q-63 0 -83 39.5t1 125.5q44 183 86 445q4 25 -3.5 35.5t-36.5 10.5h-25l7 50q84 -4 168 0q1 -38 -10 -95z" />
    <glyph glyph-name="m" unicode="m" horiz-adv-x="839" 
d="M49 278l-37 5q4 46 17 86t43.5 72t73.5 32q98 0 86 -125q60 125 168 125q56 0 76 -30.5t13 -98.5q31 66 76 97.5t94 31.5q69 0 87.5 -47.5t-7.5 -155.5l-31 -117q-18 -67 -16 -95.5t26 -28.5q47 0 66 143l36 -5q-5 -73 -39.5 -128.5t-95.5 -55.5q-127 0 -82 165l33 123
q41 153 -22 153q-50 0 -91.5 -66t-75.5 -230l-27 -130q-33 2 -52 2l-52 -2q39 160 62 273q17 88 11.5 120.5t-34.5 32.5q-107 0 -168 -296l-27 -130q-33 2 -51 2l-51 -2q37 156 65 296q8 43 11.5 63t4 38t-4 23.5t-15.5 5.5q-51 0 -70 -146z" />
    <glyph glyph-name="n" unicode="n" horiz-adv-x="580" 
d="M49 278l-37 5q4 46 17 86t43.5 72t73.5 32q101 0 85 -129q59 129 169 129q70 0 89 -48t-9 -155l-31 -117q-18 -67 -16 -95.5t26 -28.5q50 0 66 143l36 -5q-5 -73 -39.5 -128.5t-95.5 -55.5q-127 0 -82 165l34 123q43 153 -23 153q-51 0 -92.5 -66.5t-75.5 -229.5
l-27 -130q-33 2 -51 2l-51 -2q21 82 66 296q16 74 15.5 102t-22.5 28q-24 0 -42 -39t-26 -107z" />
    <glyph glyph-name="o" unicode="o" horiz-adv-x="463" 
d="M195 24q50 0 84.5 75t49.5 205q9 77 -8 102.5t-55 25.5q-51 0 -84.5 -77.5t-48.5 -202.5q-9 -75 8.5 -101.5t53.5 -26.5zM194 -17q-189 0 -162 215q5 41 19.5 84t40.5 88.5t71.5 74t102.5 28.5q84 0 128 -46.5t36 -143.5q-4 -53 -18.5 -102.5t-41 -95.5t-72 -74
t-104.5 -28z" />
    <glyph glyph-name="p" unicode="p" horiz-adv-x="544" 
d="M146 473q98 0 86 -120q57 120 153 120q59 0 90.5 -48t17.5 -155q-18 -136 -76.5 -211.5t-136.5 -75.5q-84 0 -104 75l-25 -126q-7 -33 4 -46t46 -13h27l-11 -50q-88 2 -137 2l-137 -2l11 50h25q30 0 46.5 13t23.5 46q46 202 74 362q14 83 13 106.5t-20 23.5
q-23 0 -41 -40.5t-26 -105.5l-37 5q3 33 11.5 64t24 60.5t41 47.5t57.5 18zM348 424q-47 0 -87 -61t-60 -174q-14 -77 -2.5 -117t54.5 -40q47 0 80 54.5t55 184.5q14 91 5 122t-45 31z" />
    <glyph glyph-name="q" unicode="q" horiz-adv-x="502" 
d="M479 489q-24 -103 -61 -287.5t-55 -289.5q-4 -22 2.5 -30.5t32.5 -8.5h49q-1 -5 -5.5 -25t-6.5 -25q-91 2 -142 2l-142 -2q1 3 5.5 23.5t6.5 26.5h55q36 0 45 41l38 195q-54 -126 -152 -126q-59 0 -90.5 48t-17.5 155q18 136 76.5 211.5t136.5 75.5q98 0 109 -102
q76 37 86 118h30zM186 32q47 0 87 61t60 174q14 77 2.5 117t-54.5 40q-47 0 -80 -54.5t-55 -184.5q-14 -91 -5 -122t45 -31z" />
    <glyph glyph-name="r" unicode="r" horiz-adv-x="434" 
d="M295 345q5 30 36.5 41t53.5 -3q-2 24 -15 38t-35 14q-40 0 -68.5 -37.5t-40.5 -91.5l-65 -308q-33 2 -51 2l-51 -2q15 58 65 296q21 103 16 119q-3 11 -16 11q-55 0 -74 -146l-37 5q4 46 17 86t43.5 72t73.5 32q76 0 86 -77q39 77 112 77q38 0 59.5 -25.5t16.5 -71.5
q-10 -90 -76 -90q-26 0 -41 15t-9 44z" />
    <glyph glyph-name="s" unicode="s" horiz-adv-x="410" 
d="M256 440q-88 0 -110 -52q-30 -77 84 -108q162 -44 129 -172q-15 -58 -66 -91.5t-127 -33.5q-74 0 -117.5 30.5t-32.5 86.5q5 22 22 36.5t41 14.5q23 0 35 -15t7 -39q-4 -22 -23 -30.5t-40 -2.5q26 -43 108 -43q101 0 119 60q10 36 -10 61.5t-86 44.5q-80 23 -108.5 63.5
t-12.5 102.5q15 54 65.5 87t125.5 33q68 0 103 -29.5t28 -77.5q-8 -50 -60 -50q-22 0 -34 13.5t-9 33.5q4 24 21.5 34t40.5 6q-27 37 -93 37z" />
    <glyph glyph-name="t" unicode="t" horiz-adv-x="323" 
d="M238 172l36 -5q-6 -92 -38 -138t-97 -46q-128 0 -100 160q5 27 28 128t31 145l-54 -1l4 44q77 0 112.5 39t66.5 136h31q-41 -149 -46 -177l108 2l-5 -44l-111 1l-53 -267q-12 -63 -7.5 -90t29.5 -27q26 0 43.5 35t21.5 105z" />
    <glyph glyph-name="u" unicode="u" horiz-adv-x="583" 
d="M528 172l36 -5q-5 -70 -39 -127t-92 -57q-57 0 -77 28t-10 96q-59 -124 -167 -124q-70 0 -88.5 49t9.5 156l30 117q12 47 14.5 74t-2.5 36t-16 9q-55 0 -74 -146l-36 5q6 74 38.5 132t94.5 58t83 -48.5t2 -118.5l-33 -119q-43 -155 22 -155q47 0 89.5 61t71.5 197l35 169
q33 -1 51 -1l51 1q-39 -162 -65 -295q-17 -82 -16.5 -108.5t18.5 -26.5q51 0 70 143z" />
    <glyph glyph-name="v" unicode="v" horiz-adv-x="499" 
d="M51 278l-37 5q4 46 17 86t43.5 72t73.5 32q61 0 80.5 -47.5t-2.5 -131.5l-30 -119q-21 -79 -17.5 -111t42.5 -32q62 0 112 79t66 175q8 47 8 88q-7 -5 -24 -5q-25 0 -40.5 14t-10.5 42q8 48 60 48q73 0 58 -119q-5 -50 -25 -110.5t-52.5 -120.5t-82.5 -100t-107 -40
q-73 0 -92 43.5t7 149.5l32 130q18 76 18 90q0 28 -23 28q-55 0 -74 -146z" />
    <glyph glyph-name="w" unicode="w" horiz-adv-x="752" 
d="M175 -17q-140 0 -77 205l36 117q37 119 -2 119q-55 0 -74 -146l-36 5q6 74 38.5 132t94.5 58t82 -49.5t-3 -117.5l-35 -119q-46 -155 20 -155q98 0 150 251l37 178q35 -2 54 -2l53 2l-67 -268q-16 -65 -17.5 -100t9 -48t35.5 -13q62 0 112 79t66 175q9 54 8 88
q-7 -5 -24 -5q-25 0 -40.5 14t-10.5 42q8 48 60 48q71 0 58 -119q-6 -50 -26 -110.5t-52 -120.5t-82 -100t-107 -40t-82.5 26t-21.5 91q-53 -117 -156 -117z" />
    <glyph glyph-name="x" unicode="x" horiz-adv-x="537" 
d="M487 170q-2 -84 -40.5 -135.5t-121.5 -51.5q-115 0 -134 99q-17 -45 -48.5 -72t-71.5 -27q-48 0 -68 30.5t-7 76.5q8 27 26.5 44t44.5 17q23 0 34.5 -14t6.5 -40q-6 -25 -33.5 -32.5t-45.5 4.5q-4 -49 47 -49q27 0 48.5 17t36.5 49.5t25 62.5t20 73q25 88 21.5 145
t-48.5 57q-46 0 -66.5 -43t-11.5 -104l-32 5q-13 78 24 134.5t112 56.5q113 0 128 -95q43 95 124 95q38 0 59.5 -25.5t16.5 -71.5q-10 -90 -76 -90q-26 0 -41 15t-9 44q6 31 37 41t53 -3q-2 24 -15 38t-35 14q-47 0 -75 -46t-51 -142q-26 -101 -19 -158t52 -57q91 0 101 138
h32z" />
    <glyph glyph-name="y" unicode="y" horiz-adv-x="550" 
d="M52 278l-36 5q3 45 16 85.5t44 72.5t74 32q129 0 83 -167l-33 -119q-42 -155 23 -155q42 0 89 60.5t72 197.5l32 171q33 -2 51 -2l51 2l-77 -391q-26 -135 -97.5 -205.5t-171.5 -70.5q-66 0 -97.5 36.5t-16.5 82.5q16 50 69 50q26 0 40.5 -15t10.5 -41q-5 -29 -30 -41.5
t-56 0.5q15 -41 81 -41q67 0 102.5 52.5t56.5 155.5l15 79q-57 -129 -168 -129q-70 0 -88.5 46.5t8.5 158.5l29 117q30 119 -4 119q-31 0 -47 -37.5t-25 -108.5z" />
    <glyph glyph-name="z" unicode="z" horiz-adv-x="464" 
d="M100 278l-33 4q-6 99 31.5 153t95.5 54q64 0 110 -56q66 -82 108 -50q-27 6 -29 44q-1 46 34 46t34 -48q-1 -34 -27 -63.5t-103 -86.5q-1 -1 -90.5 -61.5t-131.5 -95.5q67 37 123 7q29 -16 39.5 -21t27.5 -9.5t36 -4.5q39 1 60 19t25 63l31 -5q-10 -94 -42.5 -138.5
t-92.5 -45.5q-41 -1 -70.5 14.5t-57.5 50.5q-30 38 -67 43t-57 -18q28 -10 26 -46q-2 -42 -34 -42q-14 0 -24.5 11t-9.5 33q1 38 30 72.5t104 90.5q22 17 106 71.5t115 78.5q-60 -23 -131 26q-42 29 -71 29q-73 0 -65 -119z" />
    <glyph glyph-name="braceleft" unicode="{" horiz-adv-x="302" 
d="M52 320l5 34h10q21 0 35.5 9t21 26.5t9.5 36t1.5 44t-3.5 43t-6 40.5q-1 4 -1 6q-21 134 34.5 198.5t188.5 72.5v-34q-48 -3 -75 -22t-42 -69t-15 -142q0 -30 -1 -51t-4.5 -49t-11.5 -47.5t-20.5 -37.5t-33 -28.5t-47.5 -12.5q22 -2 37.5 -11t24 -20t11.5 -30.5
t2.5 -34.5t-5.5 -40.5t-8.5 -40t-11.5 -41.5q-15 -54 -22.5 -87.5t-9.5 -65.5t6 -49.5t26.5 -28t50.5 -11.5l-8 -34q-77 -4 -124 24.5t-55 90t42 156.5q13 25 22 44t19.5 45t13.5 45t2 36.5t-13.5 26.5t-34.5 9h-10z" />
    <glyph glyph-name="bar" unicode="|" horiz-adv-x="300" 
d="M65 -123q0 10 10 10t10 -10t-10 -10t-10 10zM73 -39q0 6 4.5 10.5t11.5 4.5q6 0 10.5 -4.5t4.5 -10.5q0 -7 -4.5 -11.5t-10.5 -4.5q-16 0 -16 16zM82 44q0 8 6 14t14 6t14 -6t6 -14t-6 -14t-14 -6t-14 6t-6 14zM91 128q0 10 7.5 17t17.5 7t17 -7t7 -17t-7 -17.5t-17 -7.5
t-17.5 7.5t-7.5 17.5zM102 211q0 11 8 19.5t19 8.5t19.5 -8.5t8.5 -19.5t-8.5 -19t-19.5 -8t-19 8t-8 19zM114 295q0 12 8.5 20.5t20.5 8.5t20.5 -8.5t8.5 -20.5t-8.5 -20.5t-20.5 -8.5t-20.5 8.5t-8.5 20.5zM127 378q0 12 8.5 20.5t20.5 8.5t20.5 -8.5t8.5 -20.5
t-8.5 -20.5t-20.5 -8.5t-20.5 8.5t-8.5 20.5zM142 462q0 11 8.5 19t19.5 8t19 -8t8 -19t-8 -19.5t-19 -8.5t-19.5 8.5t-8.5 19.5zM159 545q0 10 7 17.5t17 7.5q11 0 18 -7t7 -18q0 -10 -7.5 -17t-17.5 -7t-17 7t-7 17zM177 629q0 8 6 14t14 6t14 -6t6 -14t-6 -14t-14 -6
t-14 6t-6 14zM195 712q0 7 4.5 11.5t10.5 4.5q16 0 16 -16q0 -6 -4.5 -10.5t-11.5 -4.5q-6 0 -10.5 4.5t-4.5 10.5zM214 796q0 10 10 10t10 -10t-10 -10t-10 10z" />
    <glyph glyph-name="braceright" unicode="}" horiz-adv-x="302" 
d="M279 354l-5 -34h-10q-33 0 -51.5 -16t-22.5 -46.5t-0.5 -64t13.5 -79.5q15 -59 8 -103t-24.5 -75t-50.5 -50.5t-69.5 -29.5t-81.5 -13v34q78 10 104 59.5t26 182.5q0 51 3.5 82t14.5 64.5t36.5 50.5t65.5 21q-23 2 -38.5 10.5t-24 20t-11.5 31.5t-2.5 36t6 42t10 42.5
t12.5 43.5q26 92 27.5 142t-17 69t-60.5 22v34q122 6 162 -74t-25 -197q-18 -32 -30.5 -63.5t-21 -65.5t3 -55t43.5 -21h10z" />
    <glyph glyph-name="asciitilde" unicode="~" horiz-adv-x="532" 
d="M461 675l22 3q19 -83 -18.5 -123.5t-99.5 -35.5q-39 4 -60 22t-40 51q-16 30 -23 41t-19 20t-27 9q-56 0 -45 -109l-22 -2q-18 84 17.5 124t100.5 35q32 -4 53.5 -20t42.5 -52q16 -29 23.5 -40t20.5 -21.5t28 -10.5q57 0 46 109z" />
    <glyph glyph-name="exclamdown" unicode="&#xa1;" horiz-adv-x="302" 
d="M107 405q0 32 19 50t52 18q31 0 50.5 -18t19.5 -51q0 -31 -20 -50t-50 -19q-32 0 -51.5 19t-19.5 51zM142 255q2 12 14 10q14 -3 11 -14q-21 -121 -24.5 -185t11.5 -172q24 -144 -82 -144q-49 0 -66.5 46t22.5 121q48 80 70 148.5t44 189.5z" />
    <glyph glyph-name="cent" unicode="&#xa2;" horiz-adv-x="482" 
d="M264 359l-62 -214q15 -4 39 -4q66 0 108 22q-45 10 -39 56q2 25 18 41t45 16q30 0 43.5 -18.5t8.5 -50.5q-6 -49 -63 -84.5t-143 -35.5q-22 0 -33 1l-38 -134h-42l46 141q-71 19 -101 79.5t-16 155.5q17 113 88 180t176 67h1l38 133h41l-45 -135q57 -8 89 -35.5t29 -69.5
q-2 -28 -20 -46t-46 -18t-41 16t-10 41q5 38 41 52q-26 14 -56 15zM152 331q-20 -136 22 -171l65 199l48 171q-58 -5 -89 -48t-46 -151z" />
    <glyph glyph-name="sterling" unicode="&#xa3;" 
d="M154 251v41q18 -2 73 -2q-15 135 -2 201q19 96 91.5 155t179.5 59q90 0 129.5 -43t25.5 -116q-17 -88 -97 -88q-30 0 -48 18t-13 48q5 27 25 43t51 16q25 0 41 -14q5 39 -22 64t-72 25q-118 0 -162 -168q-8 -31 -14 -64t-12.5 -74t-10.5 -62q53 0 103 2v-41q-9 0 -47.5 1
t-63.5 1q-13 -57 -32 -107q81 -25 133 -25q51 0 84 11t53 44l35 -5q1 -79 -46 -133.5t-141 -54.5q-101 0 -173 59q-46 -57 -129 -57q-51 0 -75.5 27t-14.5 70q8 38 45 62.5t90 24.5q44 0 93 -11q6 39 -1 96zM101 18q61 0 93 48q-19 17 -30 25.5t-28.5 16.5t-34.5 8
q-50 0 -60 -38q-6 -26 9 -43t51 -17z" />
    <glyph glyph-name="yen" unicode="&#xa5;" 
d="M129 349l107 -3q-24 90 -63 221q-12 37 -27 50.5t-50 13.5h-13l9 59q87 -3 139 -3l145 3l-9 -59h-20q-61 0 -51 -67q12 -80 59 -230q85 145 123 230q6 14 9 22t4.5 18t-1.5 15t-12 8.5t-24 3.5h-19l9 59q89 -3 133 -3l115 3l-9 -59h-20q-46 0 -65.5 -13.5t-46.5 -56.5
q-94 -146 -136 -215l107 3q-9 -36 -9 -57l-128 4l-13 -22l-9 -56l139 5q-5 -19 -9 -57l-137 5l-10 -61q-5 -32 3.5 -42t47.5 -10h38l-9 -58q-88 3 -155 3l-156 -3l9 58h37q39 0 51 10.5t17 41.5l9 61l-138 -5q9 27 9 57l137 -4l9 57l-6 20l-129 -4q9 36 9 57z" />
    <glyph glyph-name="brokenbar" unicode="&#xa6;" horiz-adv-x="300" 
d="M65 -123q0 10 10 10t10 -10t-10 -10t-10 10zM73 -39q0 6 4.5 10.5t11.5 4.5q6 0 10.5 -4.5t4.5 -10.5q0 -7 -4.5 -11.5t-10.5 -4.5q-16 0 -16 16zM82 44q0 8 6 14t14 6t14 -6t6 -14t-6 -14t-14 -6t-14 6t-6 14zM91 128q0 10 7.5 17t17.5 7t17 -7t7 -17t-7 -17.5t-17 -7.5
t-17.5 7.5t-7.5 17.5zM102 211q0 11 8 19.5t19 8.5t19.5 -8.5t8.5 -19.5t-8.5 -19t-19.5 -8t-19 8t-8 19zM142 462q0 11 8.5 19t19.5 8t19 -8t8 -19t-8 -19.5t-19 -8.5t-19.5 8.5t-8.5 19.5zM159 545q0 10 7 17.5t17 7.5q11 0 18 -7t7 -18q0 -10 -7.5 -17t-17.5 -7t-17 7
t-7 17zM177 629q0 8 6 14t14 6t14 -6t6 -14t-6 -14t-14 -6t-14 6t-6 14zM195 712q0 7 4.5 11.5t10.5 4.5q16 0 16 -16q0 -6 -4.5 -10.5t-11.5 -4.5q-6 0 -10.5 4.5t-4.5 10.5zM214 796q0 10 10 10t10 -10t-10 -10t-10 10z" />
    <glyph glyph-name="section" unicode="&#xa7;" horiz-adv-x="649" 
d="M436 652l8 -10q-43 -45 -64.5 -79.5t-45.5 -116.5t-47 -224q-18 -108 -42.5 -188.5t-49.5 -125.5t-55 -71.5t-54.5 -34.5t-52.5 -8q-54 0 -76 34.5t-14 79.5q13 72 75 72q24 0 39.5 -14t11.5 -41q-5 -31 -31 -43t-58 1q-2 -56 54 -56q39 0 68 32t57.5 121t52.5 242
q16 105 39 179.5t53.5 122t59.5 74.5t72 54zM212 -150l-8 10q43 45 64.5 79.5t45.5 116.5t47 224q18 108 42.5 188.5t49.5 125.5t55 71.5t54.5 34.5t52.5 8q54 0 76 -34.5t14 -79.5q-13 -72 -75 -72q-24 0 -39.5 14t-11.5 41q4 31 31 43.5t58 -1.5q2 56 -54 56
q-39 0 -68 -32t-57.5 -121t-52.5 -242q-16 -105 -39 -179.5t-53.5 -122t-59.5 -74.5t-72 -54z" />
    <glyph glyph-name="dieresis" unicode="&#xa8;" horiz-adv-x="533" 
d="M226 591q-3 -26 -21 -41.5t-42 -15.5t-39 15.5t-12 41.5q2 26 19.5 41.5t42.5 15.5q24 0 39 -15.5t13 -41.5zM410 591q-3 -26 -21 -41.5t-42 -15.5t-39 15.5t-12 41.5q2 26 20 41.5t42 15.5t39 -15.5t13 -41.5z" />
    <glyph glyph-name="copyright" unicode="&#xa9;" horiz-adv-x="842" 
d="M383 29q157 0 243.5 86.5t103.5 228.5q18 142 -47.5 229t-222.5 87q-151 0 -241 -88t-107 -228q-17 -142 48.5 -228.5t222.5 -86.5zM377 -16q-177 0 -260 97.5t-63 262.5q20 161 134.5 261t277.5 100q170 0 256.5 -99t65.5 -262q-20 -165 -127 -262.5t-284 -97.5z
M454 567q52 0 96 -23q36 -22 41 15q20 -4 41 0q-26 -71 -36 -144q-9 1 -19 1l-20 -1q9 50 -16 80t-79 30q-68 0 -107 -41t-54 -137q-16 -103 8.5 -142.5t85.5 -39.5q121 0 153 135h4q3 0 8 -0.5t10 -0.5q7 0 16 1h10q-19 -89 -68 -133t-140 -44q-97 0 -145 57t-32 167
q16 109 84 164.5t159 55.5z" />
    <glyph glyph-name="ordfeminine" unicode="&#xaa;" horiz-adv-x="450" 
d="M50 220q7 27 11 63q176 -3 350 0q-7 -28 -11 -63q-174 3 -350 0zM440 494q-5 -64 -32.5 -100.5t-64.5 -36.5q-38 0 -53.5 17.5t-11.5 59.5q-39 -77 -110 -77q-91 0 -74 143q12 99 54 152t97 53q68 0 78 -70q45 57 45 58h38q-24 -97 -45 -217q-15 -78 7 -78q34 0 46 98z
M202 399q32 0 58.5 41t39.5 119q10 53 2.5 78t-35.5 25q-31 0 -53 -37t-37 -125q-10 -60 -4 -80.5t29 -20.5z" />
    <glyph glyph-name="guillemotleft" unicode="&#xab;" horiz-adv-x="401" 
d="M232 426l10 -9q-21 -38 -63 -86.5t-83 -77.5q23 -29 48.5 -78.5t36.5 -89.5l-14 -9q-24 31 -71 82.5t-76 78.5l9 49q103 62 203 140zM392 426l10 -9q-21 -38 -63 -86.5t-83 -77.5q23 -29 48.5 -78.5t36.5 -89.5l-14 -9q-24 31 -71 82.5t-76 78.5l9 49q103 62 203 140z
" />
    <glyph glyph-name="registered" unicode="&#xae;" horiz-adv-x="842" 
d="M383 29q157 0 243.5 86.5t103.5 228.5q18 142 -47.5 229t-222.5 87q-151 0 -241 -88t-107 -228q-17 -142 48.5 -228.5t222.5 -86.5zM377 -16q-177 0 -260 97.5t-63 262.5q20 161 134.5 261t277.5 100q170 0 256.5 -99t65.5 -262q-20 -165 -127 -262.5t-284 -97.5z
M551 263q-1 -45 6 -63t22 -18q16 0 25 26.5t8 64.5l32 3q3 -59 -19 -98.5t-77 -39.5q-57 0 -74.5 28.5t-10.5 88.5q4 47 -12 63.5t-51 16.5h-43q-16 -98 -16 -115q0 -12 1.5 -17.5t8 -9.5t20.5 -4h32l-5 -42q-69 2 -107 2l-108 -2l6 42h30q21 0 29.5 5t12.5 21t23.5 134.5
t21.5 137.5q1 18 -4.5 25t-21.5 7h-37l4 41q4 0 50 -0.5t61 -0.5h104q80 0 117 -27.5t29 -82.5q-6 -44 -37.5 -71.5t-75.5 -33.5q56 -15 56 -81zM383 490q-3 -11 -21 -123h52q54 0 80 18t33 61q6 42 -13 59.5t-67 17.5h-20q-19 0 -28.5 -7.5t-15.5 -25.5z" />
    <glyph glyph-name="macron" unicode="&#xaf;" horiz-adv-x="532" 
d="M129 565q9 33 9 62q128 -4 256 0q-9 -27 -9 -62q-128 4 -256 0z" />
    <glyph glyph-name="degree" unicode="&#xb0;" horiz-adv-x="336" 
d="M195 405q89 0 108 126q18 128 -72 128t-108 -128q-11 -72 8.5 -99t63.5 -27zM190 372q-135 0 -112 159q11 80 55.5 120t102.5 40q136 0 113 -160q-11 -80 -55.5 -119.5t-103.5 -39.5z" />
    <glyph glyph-name="plusminus" unicode="&#xb1;" 
d="M40 0q8 30 11 58q94 -2 184 -2q26 123 44 177q-52 -7 -208 -11l11 57q126 0 203 -11q4 81 27 205h57q-21 -116 -49 -205q83 11 208 11l-11 -57q-156 4 -204 11q-3 -46 -22 -177q98 0 200 2q-8 -32 -11 -58q-219 4 -440 0z" />
    <glyph glyph-name="acute" unicode="&#xb4;" horiz-adv-x="532" 
d="M173 526l-8 10q90 109 123 134q20 14 38.5 6.5t19.5 -25t-17 -34.5q-48 -37 -156 -91z" />
    <glyph glyph-name="paragraph" unicode="&#xb6;" horiz-adv-x="532" 
d="M269 35q1 5 8.5 43t17 86.5t15.5 75.5q-117 6 -170.5 70t-36.5 155q41 224 310 224h163l-9 -48h-32q-26 0 -40 -10.5t-19 -38.5l-104 -557q-24 -128 -79 -184.5t-150 -56.5q-68 0 -94 31.5t-21 72.5q9 68 73 68q25 0 37.5 -15t9.5 -36q-4 -30 -28.5 -41.5t-57.5 -1.5
q7 -50 68 -50q53 0 82.5 43.5t56.5 169.5z" />
    <glyph glyph-name="periodcentered" unicode="&#xb7;" horiz-adv-x="261" 
d="M218 243q-2 -32 -23 -50t-54 -18q-31 0 -48.5 18t-14.5 51q3 31 24.5 50t51.5 19q32 0 49.5 -19t14.5 -51z" />
    <glyph glyph-name="cedilla" unicode="&#xb8;" horiz-adv-x="532" 
d="M213 -115l-10 18q37 22 54.5 45t25.5 59l16 -7q0 -47 -38 -81q45 8 79.5 -12t30.5 -65t-37.5 -70.5t-88.5 -25.5q-38 0 -62.5 18t-31.5 44l22 15q23 -37 65 -37q58 0 63 56q3 32 -24.5 44.5t-63.5 -1.5z" />
    <glyph glyph-name="ordmasculine" unicode="&#xba;" horiz-adv-x="388" 
d="M40 220q7 27 11 63q156 -3 310 0q-7 -28 -11 -63q-154 3 -310 0zM217 395q66 0 89 186q6 50 -4.5 67.5t-34.5 17.5q-67 0 -89 -180q-11 -91 39 -91zM215 357q-64 0 -95.5 37.5t-21.5 117.5q5 48 22.5 89.5t55.5 72.5t91 31q61 0 93 -35t26 -107q-6 -85 -48.5 -145.5
t-122.5 -60.5z" />
    <glyph glyph-name="guillemotright" unicode="&#xbb;" horiz-adv-x="401" 
d="M71 417l14 9q24 -31 71 -82.5t76 -78.5l-9 -49q-103 -62 -203 -140l-10 9q21 38 63 86.5t83 77.5q-23 29 -48.5 78.5t-36.5 89.5zM231 417l14 9q24 -31 71 -82.5t76 -78.5l-9 -49q-103 -62 -203 -140l-10 9q21 38 63 86.5t83 77.5q-23 29 -48.5 78.5t-36.5 89.5z" />
    <glyph glyph-name="onequarter" unicode="&#xbc;" horiz-adv-x="378" 
d="M200 460q12 57 25 161l-61 -2l5 34h18q70 0 89 60h37q-13 -57 -23 -115l-21 -138q-2 -12 4 -18.5t22 -6.5h35l-5 -32q-64 1 -100 1l-101 -1l5 32h37q31 0 34 25zM146 29l5 27q-58 1 -127 -1l3 22l200 209h42q-22 -100 -38 -209l57 1l-5 -24h-56l-3 -25q-1 -11 3.5 -14.5
t21.5 -3.5h24l-5 -32q-64 1 -96 1l-87 -1l5 32h23q18 0 24.5 3t8.5 15zM155 75q13 68 23 130l-119 -129q26 -1 96 -1zM12 344q0 8 5.5 13.5t14.5 5.5q8 0 13.5 -5.5t5.5 -13.5q0 -9 -5.5 -14.5t-13.5 -5.5q-20 0 -20 20zM77 344q0 17 18 17q7 0 12 -5t5 -12q0 -18 -17 -18
q-18 0 -18 18zM142 344q0 15 16 15q6 0 10.5 -4.5t4.5 -10.5q0 -16 -15 -16q-16 0 -16 16zM205 344q0 15 16 15q6 0 10.5 -4.5t4.5 -10.5q0 -16 -15 -16q-16 0 -16 16zM266 344q0 17 18 17q7 0 12 -5t5 -12q0 -18 -17 -18q-18 0 -18 18zM327 344q0 8 5.5 13.5t14.5 5.5
q7 0 13 -5.5t6 -13.5q0 -9 -5.5 -14.5t-13.5 -5.5q-20 0 -20 20z" />
    <glyph glyph-name="onehalf" unicode="&#xbd;" horiz-adv-x="378" 
d="M200 460q12 57 25 161l-61 -2l5 34h18q70 0 89 60h37q-13 -57 -23 -115l-21 -138q-2 -12 4 -18.5t22 -6.5h35l-5 -32q-64 1 -100 1l-101 -1l5 32h37q31 0 34 25zM303 71q7 -39 -14.5 -70t-66.5 -31q-17 0 -32.5 5.5t-22.5 9.5t-27 18q-23 18 -42 18q-13 0 -17 -6.5
t4 -13.5q10 -8 6.5 -19.5t-16.5 -11.5q-20 0 -20 27q4 54 76 92q63 33 88.5 54.5t31.5 54.5q5 29 -7.5 46.5t-43.5 17.5q-54 0 -80 -36q14 4 23 4q19 0 27.5 -10t5.5 -24q-6 -31 -46 -31q-42 0 -36 44q5 32 41 56.5t87 24.5q54 0 79.5 -24.5t18.5 -65.5t-50.5 -71.5
t-129.5 -58.5q-32 -9 -48 -31q20 14 43.5 14t54 -7t46.5 -7q22 0 33 6t12 24zM12 344q0 8 5.5 13.5t14.5 5.5q8 0 13.5 -5.5t5.5 -13.5q0 -9 -5.5 -14.5t-13.5 -5.5q-20 0 -20 20zM77 344q0 17 18 17q7 0 12 -5t5 -12q0 -18 -17 -18q-18 0 -18 18zM142 344q0 15 16 15
q6 0 10.5 -4.5t4.5 -10.5q0 -16 -15 -16q-16 0 -16 16zM205 344q0 15 16 15q6 0 10.5 -4.5t4.5 -10.5q0 -16 -15 -16q-16 0 -16 16zM266 344q0 17 18 17q7 0 12 -5t5 -12q0 -18 -17 -18q-18 0 -18 18zM327 344q0 8 5.5 13.5t14.5 5.5q7 0 13 -5.5t6 -13.5q0 -9 -5.5 -14.5
t-13.5 -5.5q-20 0 -20 20z" />
    <glyph glyph-name="threequarters" unicode="&#xbe;" horiz-adv-x="378" 
d="M368 635q-8 -51 -72 -70q36 -5 52.5 -27t11.5 -51q-16 -91 -156 -91q-51 0 -80 22t-23 55q8 43 52 43q20 0 29 -9.5t7 -23.5q-3 -32 -42 -32q-11 0 -23 5q18 -37 73 -37q76 0 87 68q5 32 -11 47t-56 15h-17l4 24h16q36 1 54.5 15t23.5 45q5 25 -7.5 39.5t-41.5 14.5
q-51 0 -77 -32q12 4 22 4q18 0 26 -9t6 -23q-5 -32 -43 -32q-21 0 -31.5 11t-7.5 32q5 32 41.5 54.5t86.5 22.5q57 0 79.5 -22t16.5 -58zM146 29l5 27q-58 1 -127 -1l3 22l200 209h42q-22 -100 -38 -209l57 1l-5 -24h-56l-3 -25q-1 -11 3.5 -14.5t21.5 -3.5h24l-5 -32
q-64 1 -96 1l-87 -1l5 32h23q18 0 24.5 3t8.5 15zM155 75q13 68 23 130l-119 -129q26 -1 96 -1zM12 344q0 8 5.5 13.5t14.5 5.5q8 0 13.5 -5.5t5.5 -13.5q0 -9 -5.5 -14.5t-13.5 -5.5q-20 0 -20 20zM77 344q0 17 18 17q7 0 12 -5t5 -12q0 -18 -17 -18q-18 0 -18 18zM142 344
q0 15 16 15q6 0 10.5 -4.5t4.5 -10.5q0 -16 -15 -16q-16 0 -16 16zM205 344q0 15 16 15q6 0 10.5 -4.5t4.5 -10.5q0 -16 -15 -16q-16 0 -16 16zM266 344q0 17 18 17q7 0 12 -5t5 -12q0 -18 -17 -18q-18 0 -18 18zM327 344q0 8 5.5 13.5t14.5 5.5q7 0 13 -5.5t6 -13.5
q0 -9 -5.5 -14.5t-13.5 -5.5q-20 0 -20 20z" />
    <glyph glyph-name="questiondown" unicode="&#xbf;" horiz-adv-x="540" 
d="M206 188l-13 23q25 28 65.5 45.5t78.5 15.5q27 -2 43.5 -15.5t16.5 -37.5q0 -27 -23 -48t-79 -48q-72 -34 -104 -74.5t-37 -104.5q-5 -66 25 -102t89 -36q55 0 97.5 26t62.5 70q-25 -17 -55 -15q-30 1 -44.5 20t-10.5 50t27 49.5t56 18.5q82 0 70 -101q-9 -73 -80 -123.5
t-167 -50.5q-103 0 -149.5 44t-41.5 117q4 72 55.5 125.5t158.5 100.5q67 30 88 45t21 31q0 26 -31 27q-56 3 -119 -52zM274 405q0 32 19 50t52 18q31 0 50.5 -18t19.5 -51q0 -31 -20 -50t-50 -19q-32 0 -51.5 19t-19.5 51z" />
    <glyph glyph-name="Agrave" unicode="&#xc0;" horiz-adv-x="875" 
d="M545 215q-137 4 -282 0l-31 -62q-47 -94 40 -94h43l-10 -61q-98 2 -153 2l-154 -2l9 61h36q41 0 66 18.5t50 64.5q145 268 287 554q36 -2 56 -2l55 2q57 -270 134 -555q12 -45 28 -63.5t46 -18.5h47l-9 -61q-114 2 -178 2l-179 -2l10 61h44q74 0 57 96q-6 32 -12 60z
M289 266q125 -2 246 0q-30 140 -76 327q-125 -239 -170 -327zM545 766l-8 -10q-112 56 -156 91q-19 15 -16.5 34.5t19.5 25t38 -6.5q10 -8 21.5 -19t26 -27.5t24 -27t27.5 -32t24 -28.5z" />
    <glyph glyph-name="Aacute" unicode="&#xc1;" horiz-adv-x="875" 
d="M545 215q-137 4 -282 0l-31 -62q-47 -94 40 -94h43l-10 -61q-98 2 -153 2l-154 -2l9 61h36q41 0 66 18.5t50 64.5q145 268 287 554q36 -2 56 -2l55 2q57 -270 134 -555q12 -45 28 -63.5t46 -18.5h47l-9 -61q-114 2 -178 2l-179 -2l10 61h44q74 0 57 96q-6 32 -12 60z
M289 266q125 -2 246 0q-30 140 -76 327q-125 -239 -170 -327zM498 756l-8 10q90 109 123 134q20 14 38.5 6.5t19.5 -25t-17 -34.5q-48 -37 -156 -91z" />
    <glyph glyph-name="Acircumflex" unicode="&#xc2;" horiz-adv-x="875" 
d="M545 215q-137 4 -282 0l-31 -62q-47 -94 40 -94h43l-10 -61q-98 2 -153 2l-154 -2l9 61h36q41 0 66 18.5t50 64.5q145 268 287 554q36 -2 56 -2l55 2q57 -270 134 -555q12 -45 28 -63.5t46 -18.5h47l-9 -61q-114 2 -178 2l-179 -2l10 61h44q74 0 57 96q-6 32 -12 60z
M289 266q125 -2 246 0q-30 140 -76 327q-125 -239 -170 -327zM648 766l-9 -10q-62 34 -108 92q-35 -34 -148 -92l-7 10q38 64 136 141h49q45 -40 87 -141z" />
    <glyph glyph-name="Atilde" unicode="&#xc3;" horiz-adv-x="875" 
d="M545 215q-137 4 -282 0l-31 -62q-47 -94 40 -94h43l-10 -61q-98 2 -153 2l-154 -2l9 61h36q41 0 66 18.5t50 64.5q145 268 287 554q36 -2 56 -2l55 2q57 -270 134 -555q12 -45 28 -63.5t46 -18.5h47l-9 -61q-114 2 -178 2l-179 -2l10 61h44q74 0 57 96q-6 32 -12 60z
M289 266q125 -2 246 0q-30 140 -76 327q-125 -239 -170 -327zM642 868l19 2q15 -70 -16.5 -104t-83.5 -30q-33 3 -50.5 18t-33.5 44q-14 26 -19.5 34.5t-15.5 16.5t-23 8q-47 0 -38 -92l-19 -2q-15 71 15 104.5t85 29.5q27 -3 45 -16.5t36 -44.5q11 -19 15 -26t12 -17
t15.5 -13.5t17.5 -3.5q48 0 39 92z" />
    <glyph glyph-name="Adieresis" unicode="&#xc4;" horiz-adv-x="875" 
d="M545 215q-137 4 -282 0l-31 -62q-47 -94 40 -94h43l-10 -61q-98 2 -153 2l-154 -2l9 61h36q41 0 66 18.5t50 64.5q145 268 287 554q36 -2 56 -2l55 2q57 -270 134 -555q12 -45 28 -63.5t46 -18.5h47l-9 -61q-114 2 -178 2l-179 -2l10 61h44q74 0 57 96q-6 32 -12 60z
M289 266q125 -2 246 0q-30 140 -76 327q-125 -239 -170 -327zM475 821q-3 -26 -21 -41.5t-42 -15.5t-39 15.5t-12 41.5q2 26 19.5 41.5t42.5 15.5q24 0 39 -15.5t13 -41.5zM659 821q-3 -26 -21 -41.5t-42 -15.5t-39 15.5t-12 41.5q2 26 20 41.5t42 15.5t39 -15.5t13 -41.5z
" />
    <glyph glyph-name="Aring" unicode="&#xc5;" horiz-adv-x="875" 
d="M545 215q-137 4 -282 0l-31 -62q-47 -94 40 -94h43l-10 -61q-98 2 -153 2l-154 -2l9 61h36q41 0 66 18.5t50 64.5q145 268 287 554q36 -2 56 -2l55 2q57 -270 134 -555q12 -45 28 -63.5t46 -18.5h47l-9 -61q-114 2 -178 2l-179 -2l10 61h44q74 0 57 96q-6 32 -12 60z
M289 266q125 -2 246 0q-30 140 -76 327q-125 -239 -170 -327zM461 850q-3 -25 8 -38.5t33 -13.5q21 0 35.5 14t17.5 38q2 24 -9 37t-33 13q-47 0 -52 -50zM424 850q4 37 29 60t62 23t58.5 -23t17.5 -60q-5 -37 -30 -60.5t-62 -23.5t-58 23.5t-17 60.5z" />
    <glyph glyph-name="AE" unicode="&#xc6;" horiz-adv-x="1070" 
d="M1028 264q-20 -79 -40 -268q-46 4 -197 4h-280l-167 -2l10 61h52q57 0 69 60q4 17 14 77q-70 1 -198 -1l-28 -42q-18 -28 -24.5 -47.5t3 -33t40.5 -13.5h33l-10 -61q-98 2 -153 2l-154 -2l9 61h35q41 0 70 18t63 65q216 282 312 423q24 35 17 54.5t-40 19.5h-25l9 54
q58 -6 170 -6h269q139 0 203 8q-13 -51 -43 -250l-54 -1l1 6q8 50 9 79t-3.5 51t-22 31t-42 13t-67.5 4h-150q-28 0 -38 -10.5t-16 -36.5q-7 -25 -36 -206h63q64 0 97 26.5t44 89.5l2 15h55q-21 -81 -32 -154q-12 -71 -15 -160h-55l2 12q9 65 -16.5 94t-97.5 29h-55
q-25 -159 -31 -216q-2 -20 10 -36t34 -16h143q100 0 136 40t54 154l2 11h60zM326 247q85 -2 171 0q33 196 47 301q-107 -140 -218 -301z" />
    <glyph glyph-name="Ccedilla" unicode="&#xc7;" horiz-adv-x="738" 
d="M265 -115l-10 18q54 33 70 73q-149 5 -218.5 95.5t-41.5 274.5q28 186 127.5 275t255.5 89q81 0 165 -44q48 -25 55 23q10 -1 33 -1t33 1q-47 -124 -54 -242q-10 1 -30 1q-22 0 -31 -1q14 95 -29.5 151.5t-142.5 56.5q-207 0 -254 -309q-46 -311 163 -311q207 0 261 233
q16 -2 33 -2q18 0 36 2q-33 -148 -112 -220.5t-227 -72.5q-9 -34 -34 -56q45 8 79.5 -12t30.5 -65t-37.5 -70.5t-88.5 -25.5q-38 0 -62.5 18t-31.5 44l22 15q23 -37 65 -37q58 0 63 56q3 32 -24.5 44.5t-63.5 -1.5z" />
    <glyph glyph-name="Egrave" unicode="&#xc8;" horiz-adv-x="724" 
d="M486 491l2 15h55q-22 -89 -31 -154q-12 -80 -15 -160h-53l1 12q8 66 -17.5 94.5t-97.5 28.5h-55q-30 -191 -30 -216q-1 -25 12 -38.5t35 -13.5h139q98 0 135 39.5t55 154.5l1 11h61q-21 -86 -40 -268q-53 4 -183 4h-291l-169 -2l9 61h55q32 0 45 14.5t21 45.5
q7 27 38.5 230.5t32.5 231.5t-8.5 39t-36.5 11h-63l9 59q8 0 86.5 -1.5t88.5 -1.5h259q144 0 208 8q-22 -102 -44 -248h-53l1 8q5 41 6.5 64t-1 45.5t-10.5 32.5t-25 18t-40 10.5t-60 2.5h-146q-25 0 -36 -9t-18 -38q-7 -26 -35 -206h57q68 0 102.5 25.5t43.5 90.5zM526 766
l-8 -10q-112 56 -156 91q-19 15 -16.5 34.5t19.5 25t38 -6.5q10 -8 21.5 -19t26 -27.5t24 -27t27.5 -32t24 -28.5z" />
    <glyph glyph-name="Eacute" unicode="&#xc9;" horiz-adv-x="724" 
d="M486 491l2 15h55q-22 -89 -31 -154q-12 -80 -15 -160h-53l1 12q8 66 -17.5 94.5t-97.5 28.5h-55q-30 -191 -30 -216q-1 -25 12 -38.5t35 -13.5h139q98 0 135 39.5t55 154.5l1 11h61q-21 -86 -40 -268q-53 4 -183 4h-291l-169 -2l9 61h55q32 0 45 14.5t21 45.5
q7 27 38.5 230.5t32.5 231.5t-8.5 39t-36.5 11h-63l9 59q8 0 86.5 -1.5t88.5 -1.5h259q144 0 208 8q-22 -102 -44 -248h-53l1 8q5 41 6.5 64t-1 45.5t-10.5 32.5t-25 18t-40 10.5t-60 2.5h-146q-25 0 -36 -9t-18 -38q-7 -26 -35 -206h57q68 0 102.5 25.5t43.5 90.5zM432 756
l-8 10q90 109 123 134q20 14 38.5 6.5t19.5 -25t-17 -34.5q-48 -37 -156 -91z" />
    <glyph glyph-name="Ecircumflex" unicode="&#xca;" horiz-adv-x="724" 
d="M486 491l2 15h55q-22 -89 -31 -154q-12 -80 -15 -160h-53l1 12q8 66 -17.5 94.5t-97.5 28.5h-55q-30 -191 -30 -216q-1 -25 12 -38.5t35 -13.5h139q98 0 135 39.5t55 154.5l1 11h61q-21 -86 -40 -268q-53 4 -183 4h-291l-169 -2l9 61h55q32 0 45 14.5t21 45.5
q7 27 38.5 230.5t32.5 231.5t-8.5 39t-36.5 11h-63l9 59q8 0 86.5 -1.5t88.5 -1.5h259q144 0 208 8q-22 -102 -44 -248h-53l1 8q5 41 6.5 64t-1 45.5t-10.5 32.5t-25 18t-40 10.5t-60 2.5h-146q-25 0 -36 -9t-18 -38q-7 -26 -35 -206h57q68 0 102.5 25.5t43.5 90.5zM593 766
l-9 -10q-62 34 -108 92q-35 -34 -148 -92l-7 10q38 64 136 141h49q45 -40 87 -141z" />
    <glyph glyph-name="Edieresis" unicode="&#xcb;" horiz-adv-x="724" 
d="M486 491l2 15h55q-22 -89 -31 -154q-12 -80 -15 -160h-53l1 12q8 66 -17.5 94.5t-97.5 28.5h-55q-30 -191 -30 -216q-1 -25 12 -38.5t35 -13.5h139q98 0 135 39.5t55 154.5l1 11h61q-21 -86 -40 -268q-53 4 -183 4h-291l-169 -2l9 61h55q32 0 45 14.5t21 45.5
q7 27 38.5 230.5t32.5 231.5t-8.5 39t-36.5 11h-63l9 59q8 0 86.5 -1.5t88.5 -1.5h259q144 0 208 8q-22 -102 -44 -248h-53l1 8q5 41 6.5 64t-1 45.5t-10.5 32.5t-25 18t-40 10.5t-60 2.5h-146q-25 0 -36 -9t-18 -38q-7 -26 -35 -206h57q68 0 102.5 25.5t43.5 90.5zM438 821
q-3 -26 -21 -41.5t-42 -15.5t-39 15.5t-12 41.5q2 26 19.5 41.5t42.5 15.5q24 0 39 -15.5t13 -41.5zM622 821q-3 -26 -21 -41.5t-42 -15.5t-39 15.5t-12 41.5q2 26 20 41.5t42 15.5t39 -15.5t13 -41.5z" />
    <glyph glyph-name="Igrave" unicode="&#xcc;" horiz-adv-x="414" 
d="M-4 -2l8 61h56q35 0 47 7t19 33t40.5 239t35.5 243q1 29 -8 39.5t-36 10.5h-63l8 58q111 -2 173 -2q37 0 104 1t69 1l-8 -58h-63q-27 0 -40 -10.5t-20 -39.5t-40.5 -242.5t-35.5 -239.5t7.5 -33t43.5 -7h57l-8 -61q-111 2 -173 2zM327 766l-8 -10q-112 56 -156 91
q-19 15 -16.5 34.5t19.5 25t38 -6.5q10 -8 21.5 -19t26 -27.5t24 -27t27.5 -32t24 -28.5z" />
    <glyph glyph-name="Iacute" unicode="&#xcd;" horiz-adv-x="414" 
d="M-4 -2l8 61h56q35 0 47 7t19 33t40.5 239t35.5 243q1 29 -8 39.5t-36 10.5h-63l8 58q111 -2 173 -2q37 0 104 1t69 1l-8 -58h-63q-27 0 -40 -10.5t-20 -39.5t-40.5 -242.5t-35.5 -239.5t7.5 -33t43.5 -7h57l-8 -61q-111 2 -173 2zM269 756l-8 10q90 109 123 134
q20 14 38.5 6.5t19.5 -25t-17 -34.5q-48 -37 -156 -91z" />
    <glyph glyph-name="Icircumflex" unicode="&#xce;" horiz-adv-x="414" 
d="M-4 -2l8 61h56q35 0 47 7t19 33t40.5 239t35.5 243q1 29 -8 39.5t-36 10.5h-63l8 58q111 -2 173 -2q37 0 104 1t69 1l-8 -58h-63q-27 0 -40 -10.5t-20 -39.5t-40.5 -242.5t-35.5 -239.5t7.5 -33t43.5 -7h57l-8 -61q-111 2 -173 2zM419 766l-9 -10q-62 34 -108 92
q-35 -34 -148 -92l-7 10q38 64 136 141h49q45 -40 87 -141z" />
    <glyph glyph-name="Idieresis" unicode="&#xcf;" horiz-adv-x="414" 
d="M-4 -2l8 61h56q35 0 47 7t19 33t40.5 239t35.5 243q1 29 -8 39.5t-36 10.5h-63l8 58q111 -2 173 -2q37 0 104 1t69 1l-8 -58h-63q-27 0 -40 -10.5t-20 -39.5t-40.5 -242.5t-35.5 -239.5t7.5 -33t43.5 -7h57l-8 -61q-111 2 -173 2zM263 821q-3 -26 -21 -41.5t-42 -15.5
t-39 15.5t-12 41.5q2 26 19.5 41.5t42.5 15.5q24 0 39 -15.5t13 -41.5zM447 821q-3 -26 -21 -41.5t-42 -15.5t-39 15.5t-12 41.5q2 26 20 41.5t42 15.5t39 -15.5t13 -41.5z" />
    <glyph glyph-name="Eth" unicode="&#xd0;" horiz-adv-x="789" 
d="M446 688q182 0 255.5 -86.5t46.5 -280.5q-23 -166 -129 -244.5t-276 -78.5q-122 2 -173 2l-172 -2l9 61h56q35 0 46.5 7.5t18.5 33.5q6 24 36 227q-20 0 -47.5 -0.5t-33.5 -0.5q7 26 7 60q34 -2 83 -2q26 173 27 198q1 29 -8.5 39t-36.5 10h-64l9 58q1 0 68.5 -1
t107.5 -1q36 0 94.5 0.5t75.5 0.5zM249 101q-2 -27 9.5 -39t39.5 -12h39q127 0 194.5 60t90.5 214q27 179 -13.5 247t-182.5 68h-51q-38 0 -52 -45q-7 -20 -34 -210q93 0 147 2q-7 -21 -7 -60q-27 1 -149 1q-28 -193 -31 -226z" />
    <glyph glyph-name="Ntilde" unicode="&#xd1;" horiz-adv-x="822" 
d="M102 689q114 -4 227 0l270 -496q48 308 55 387q2 29 -8 40t-38 11h-64l9 58q3 0 62 -1t91 -1l152 2l-9 -58h-64q-27 0 -40 -10.5t-20 -40.5q-17 -65 -87 -580h-77l-297 550q-20 -114 -42 -263t-24 -177q-3 -51 67 -51h48l-9 -61q-97 2 -152 2l-153 -2l9 61h46q66 0 78 51
q7 31 39.5 237.5t32.5 233.5q0 29 -10.5 39.5t-37.5 10.5h-63zM652 878l19 2q15 -70 -16.5 -104t-83.5 -30q-33 3 -50.5 18t-33.5 44q-14 26 -19.5 34.5t-15.5 16.5t-23 8q-47 0 -38 -92l-19 -2q-15 71 15 104.5t85 29.5q27 -3 45 -16.5t36 -44.5q11 -19 15 -26t12 -17
t15.5 -13.5t17.5 -3.5q48 0 39 92z" />
    <glyph glyph-name="Ograve" unicode="&#xd2;" horiz-adv-x="782" 
d="M356 30q110 0 172 76.5t86 240.5q26 170 -13.5 239.5t-149.5 69.5q-105 0 -169.5 -74.5t-88.5 -235.5q-25 -172 12.5 -244t150.5 -72zM348 -25q-166 0 -238 95t-45 276q27 177 134.5 270.5t259.5 93.5q337 0 282 -363q-26 -178 -134 -275t-259 -97zM482 766l-8 -10
q-112 56 -156 91q-19 15 -16.5 34.5t19.5 25t38 -6.5q10 -8 21.5 -19t26 -27.5t24 -27t27.5 -32t24 -28.5z" />
    <glyph glyph-name="Oacute" unicode="&#xd3;" horiz-adv-x="782" 
d="M356 30q110 0 172 76.5t86 240.5q26 170 -13.5 239.5t-149.5 69.5q-105 0 -169.5 -74.5t-88.5 -235.5q-25 -172 12.5 -244t150.5 -72zM348 -25q-166 0 -238 95t-45 276q27 177 134.5 270.5t259.5 93.5q337 0 282 -363q-26 -178 -134 -275t-259 -97zM464 756l-8 10
q90 109 123 134q20 14 38.5 6.5t19.5 -25t-17 -34.5q-48 -37 -156 -91z" />
    <glyph glyph-name="Ocircumflex" unicode="&#xd4;" horiz-adv-x="782" 
d="M356 30q110 0 172 76.5t86 240.5q26 170 -13.5 239.5t-149.5 69.5q-105 0 -169.5 -74.5t-88.5 -235.5q-25 -172 12.5 -244t150.5 -72zM348 -25q-166 0 -238 95t-45 276q27 177 134.5 270.5t259.5 93.5q337 0 282 -363q-26 -178 -134 -275t-259 -97zM616 766l-9 -10
q-62 34 -108 92q-35 -34 -148 -92l-7 10q38 64 136 141h49q45 -40 87 -141z" />
    <glyph glyph-name="Otilde" unicode="&#xd5;" horiz-adv-x="782" 
d="M356 30q110 0 172 76.5t86 240.5q26 170 -13.5 239.5t-149.5 69.5q-105 0 -169.5 -74.5t-88.5 -235.5q-25 -172 12.5 -244t150.5 -72zM348 -25q-166 0 -238 95t-45 276q27 177 134.5 270.5t259.5 93.5q337 0 282 -363q-26 -178 -134 -275t-259 -97zM627 878l19 2
q15 -70 -16.5 -104t-83.5 -30q-33 3 -50.5 18t-33.5 44q-14 26 -19.5 34.5t-15.5 16.5t-23 8q-47 0 -38 -92l-19 -2q-15 71 15 104.5t85 29.5q27 -3 45 -16.5t36 -44.5q11 -19 15 -26t12 -17t15.5 -13.5t17.5 -3.5q48 0 39 92z" />
    <glyph glyph-name="Odieresis" unicode="&#xd6;" horiz-adv-x="782" 
d="M356 30q110 0 172 76.5t86 240.5q26 170 -13.5 239.5t-149.5 69.5q-105 0 -169.5 -74.5t-88.5 -235.5q-25 -172 12.5 -244t150.5 -72zM348 -25q-166 0 -238 95t-45 276q27 177 134.5 270.5t259.5 93.5q337 0 282 -363q-26 -178 -134 -275t-259 -97zM444 821
q-3 -26 -21 -41.5t-42 -15.5t-39 15.5t-12 41.5q2 26 19.5 41.5t42.5 15.5q24 0 39 -15.5t13 -41.5zM628 821q-3 -26 -21 -41.5t-42 -15.5t-39 15.5t-12 41.5q2 26 20 41.5t42 15.5t39 -15.5t13 -41.5z" />
    <glyph glyph-name="multiply" unicode="&#xd7;" 
d="M452 111l-48 -40q-86 113 -110 154q-19 -20 -49.5 -48.5t-63.5 -57.5t-41 -37l-34 41q103 84 168 127q-30 27 -128 137l48 40q75 -93 109 -152q68 71 156 143l32 -40q-117 -95 -168 -129q50 -45 129 -138z" />
    <glyph glyph-name="Oslash" unicode="&#xd8;" horiz-adv-x="782" 
d="M348 -25q-115 0 -186 46l-63 -64l-25 20l53 73q-92 94 -62 296q27 177 134.5 270.5t259.5 93.5q110 0 180 -41l62 65l23 -18l-50 -72q98 -89 67 -297q-26 -178 -134 -275t-259 -97zM356 30q110 0 172 76.5t86 240.5q21 142 -3 214l-201 -228l-194 -249q40 -54 140 -54z
M193 346q-21 -143 1 -216l193 224l198 254q-41 48 -134 48q-105 0 -169.5 -74.5t-88.5 -235.5z" />
    <glyph glyph-name="Ugrave" unicode="&#xd9;" horiz-adv-x="834" 
d="M140 282q40 247 43 290q2 33 -6.5 46t-36.5 13h-46l9 58q104 -2 163 -2q35 0 97.5 1t65.5 1l-9 -58h-46q-30 0 -43.5 -12t-24.5 -47q-4 -14 -11 -58t-17.5 -122.5t-16.5 -118.5q-17 -120 19.5 -171t128.5 -51t141.5 49t69.5 173q44 282 45 299q5 59 -49 59h-42l9 58
q92 -2 144 -2q31 0 85 1t58 1l-9 -58h-43q-50 0 -61 -60l-43 -290q-45 -301 -325 -301q-149 0 -211 71.5t-38 230.5zM573 766l-8 -10q-112 56 -156 91q-19 15 -16.5 34.5t19.5 25t38 -6.5q10 -8 21.5 -19t26 -27.5t24 -27t27.5 -32t24 -28.5z" />
    <glyph glyph-name="Uacute" unicode="&#xda;" horiz-adv-x="834" 
d="M140 282q40 247 43 290q2 33 -6.5 46t-36.5 13h-46l9 58q104 -2 163 -2q35 0 97.5 1t65.5 1l-9 -58h-46q-30 0 -43.5 -12t-24.5 -47q-4 -14 -11 -58t-17.5 -122.5t-16.5 -118.5q-17 -120 19.5 -171t128.5 -51t141.5 49t69.5 173q44 282 45 299q5 59 -49 59h-42l9 58
q92 -2 144 -2q31 0 85 1t58 1l-9 -58h-43q-50 0 -61 -60l-43 -290q-45 -301 -325 -301q-149 0 -211 71.5t-38 230.5zM488 756l-8 10q90 109 123 134q20 14 38.5 6.5t19.5 -25t-17 -34.5q-48 -37 -156 -91z" />
    <glyph glyph-name="Ucircumflex" unicode="&#xdb;" horiz-adv-x="834" 
d="M140 282q40 247 43 290q2 33 -6.5 46t-36.5 13h-46l9 58q104 -2 163 -2q35 0 97.5 1t65.5 1l-9 -58h-46q-30 0 -43.5 -12t-24.5 -47q-4 -14 -11 -58t-17.5 -122.5t-16.5 -118.5q-17 -120 19.5 -171t128.5 -51t141.5 49t69.5 173q44 282 45 299q5 59 -49 59h-42l9 58
q92 -2 144 -2q31 0 85 1t58 1l-9 -58h-43q-50 0 -61 -60l-43 -290q-45 -301 -325 -301q-149 0 -211 71.5t-38 230.5zM656 766l-9 -10q-62 34 -108 92q-35 -34 -148 -92l-7 10q38 64 136 141h49q45 -40 87 -141z" />
    <glyph glyph-name="Udieresis" unicode="&#xdc;" horiz-adv-x="834" 
d="M140 282q40 247 43 290q2 33 -6.5 46t-36.5 13h-46l9 58q104 -2 163 -2q35 0 97.5 1t65.5 1l-9 -58h-46q-30 0 -43.5 -12t-24.5 -47q-4 -14 -11 -58t-17.5 -122.5t-16.5 -118.5q-17 -120 19.5 -171t128.5 -51t141.5 49t69.5 173q44 282 45 299q5 59 -49 59h-42l9 58
q92 -2 144 -2q31 0 85 1t58 1l-9 -58h-43q-50 0 -61 -60l-43 -290q-45 -301 -325 -301q-149 0 -211 71.5t-38 230.5zM491 821q-3 -26 -21 -41.5t-42 -15.5t-39 15.5t-12 41.5q2 26 19.5 41.5t42.5 15.5q24 0 39 -15.5t13 -41.5zM675 821q-3 -26 -21 -41.5t-42 -15.5
t-39 15.5t-12 41.5q2 26 20 41.5t42 15.5t39 -15.5t13 -41.5z" />
    <glyph glyph-name="Yacute" unicode="&#xdd;" horiz-adv-x="810" 
d="M672 561q-69 -93 -221 -315l-20 -136q-5 -32 4 -42t48 -10h68l-9 -60q-118 2 -185 2l-186 -2l9 60h67q39 0 50.5 10.5t16.5 41.5l19 125q-68 184 -129 332q-14 34 -38 49t-69 15h-16l9 58q116 -2 181 -2l181 2l-9 -58h-45q-81 0 -60 -67q19 -61 102 -252q135 197 166 252
q21 30 16 48.5t-50 18.5h-36l9 58q98 -2 153 -2l152 2l-9 -58h-26q-57 0 -85 -14.5t-58 -55.5zM525 756l-8 10q90 109 123 134q20 14 38.5 6.5t19.5 -25t-17 -34.5q-48 -37 -156 -91z" />
    <glyph glyph-name="Thorn" unicode="&#xde;" horiz-adv-x="646" 
d="M-1 -2l8 61h56q35 0 47 7t19 33t40.5 239t35.5 243q1 29 -8 39.5t-36 10.5h-63l8 58q111 -2 173 -2q37 0 104 1t69 1l-8 -58h-63q-27 0 -40 -10.5t-20 -39.5q-1 -3 -2.5 -10t-3.5 -18.5t-4 -21.5q76 12 133 12q123 0 181 -54t39 -161q-18 -99 -92 -140.5t-218 -41.5
q-52 0 -102 13q-7 -54 -7 -60q-2 -26 7.5 -33t43.5 -7h57l-8 -61q-111 2 -173 2zM394 479q-35 0 -93 -7l-40 -254q37 -8 81 -8q96 0 137.5 26.5t55.5 96.5q14 74 -23.5 110t-117.5 36z" />
    <glyph glyph-name="germandbls" unicode="&#xdf;" horiz-adv-x="567" 
d="M60 415l3 39l70 1q48 143 112.5 198t141.5 55q88 0 126 -53t25 -134q-20 -124 -129 -156q83 -6 114 -56t21 -141q-22 -182 -203 -182q-66 0 -94.5 43t-11.5 125l38 3q-15 -64 -1 -94t61 -30q36 0 59 32t36 104q17 93 -12 132.5t-110 35.5l6 35q90 0 113 149q12 74 -2 114
t-52 40q-39 0 -65.5 -25t-50.5 -96t-41 -195q-22 -165 -51.5 -278t-66.5 -174.5t-76.5 -87t-89.5 -25.5q-54 0 -76.5 25t-13.5 63q10 46 59 46q23 0 35 -13.5t8 -36.5q-4 -22 -22 -32t-42 -5q13 -16 48 -16q63 0 89 68t55 276q20 141 50 247z" />
    <glyph glyph-name="agrave" unicode="&#xe0;" horiz-adv-x="532" 
d="M524 167q-7 -88 -45 -136t-86 -48q-56 0 -77 28t-11 95q-29 -60 -70.5 -91.5t-89.5 -31.5q-129 0 -104 203q17 136 76 211.5t137 75.5q98 0 109 -104q3 5 29 39.5t36 50.5h44q-34 -134 -65 -308q-12 -69 -9.5 -95.5t20.5 -26.5q51 0 70 143zM186 32q47 0 87 61t60 174
q14 77 2.5 117t-54.5 40q-47 0 -80 -54.5t-55 -184.5q-14 -91 -5 -122t45 -31zM339 536l-8 -10q-112 56 -156 91q-19 15 -16.5 34.5t19.5 25t38 -6.5q10 -8 21.5 -19t26 -27.5t24 -27t27.5 -32t24 -28.5z" />
    <glyph glyph-name="aacute" unicode="&#xe1;" horiz-adv-x="532" 
d="M524 167q-7 -88 -45 -136t-86 -48q-56 0 -77 28t-11 95q-29 -60 -70.5 -91.5t-89.5 -31.5q-129 0 -104 203q17 136 76 211.5t137 75.5q98 0 109 -104q3 5 29 39.5t36 50.5h44q-34 -134 -65 -308q-12 -69 -9.5 -95.5t20.5 -26.5q51 0 70 143zM186 32q47 0 87 61t60 174
q14 77 2.5 117t-54.5 40q-47 0 -80 -54.5t-55 -184.5q-14 -91 -5 -122t45 -31zM262 526l-8 10q90 109 123 134q20 14 38.5 6.5t19.5 -25t-17 -34.5q-48 -37 -156 -91z" />
    <glyph glyph-name="acircumflex" unicode="&#xe2;" horiz-adv-x="532" 
d="M524 167q-7 -88 -45 -136t-86 -48q-56 0 -77 28t-11 95q-29 -60 -70.5 -91.5t-89.5 -31.5q-129 0 -104 203q17 136 76 211.5t137 75.5q98 0 109 -104q3 5 29 39.5t36 50.5h44q-34 -134 -65 -308q-12 -69 -9.5 -95.5t20.5 -26.5q51 0 70 143zM186 32q47 0 87 61t60 174
q14 77 2.5 117t-54.5 40q-47 0 -80 -54.5t-55 -184.5q-14 -91 -5 -122t45 -31zM472 536l-9 -10q-62 34 -108 92q-35 -34 -148 -92l-7 10q38 64 136 141h49q45 -40 87 -141z" />
    <glyph glyph-name="atilde" unicode="&#xe3;" horiz-adv-x="532" 
d="M524 167q-7 -88 -45 -136t-86 -48q-56 0 -77 28t-11 95q-29 -60 -70.5 -91.5t-89.5 -31.5q-129 0 -104 203q17 136 76 211.5t137 75.5q98 0 109 -104q3 5 29 39.5t36 50.5h44q-34 -134 -65 -308q-12 -69 -9.5 -95.5t20.5 -26.5q51 0 70 143zM186 32q47 0 87 61t60 174
q14 77 2.5 117t-54.5 40q-47 0 -80 -54.5t-55 -184.5q-14 -91 -5 -122t45 -31zM482 648l19 2q15 -70 -16.5 -104t-83.5 -30q-33 3 -50.5 18t-33.5 44q-14 26 -19.5 34.5t-15.5 16.5t-23 8q-47 0 -38 -92l-19 -2q-15 71 15 104.5t85 29.5q27 -3 45 -16.5t36 -44.5
q11 -19 15 -26t12 -17t15.5 -13.5t17.5 -3.5q48 0 39 92z" />
    <glyph glyph-name="adieresis" unicode="&#xe4;" horiz-adv-x="532" 
d="M524 167q-7 -88 -45 -136t-86 -48q-56 0 -77 28t-11 95q-29 -60 -70.5 -91.5t-89.5 -31.5q-129 0 -104 203q17 136 76 211.5t137 75.5q98 0 109 -104q3 5 29 39.5t36 50.5h44q-34 -134 -65 -308q-12 -69 -9.5 -95.5t20.5 -26.5q51 0 70 143zM186 32q47 0 87 61t60 174
q14 77 2.5 117t-54.5 40q-47 0 -80 -54.5t-55 -184.5q-14 -91 -5 -122t45 -31zM299 591q-3 -26 -21 -41.5t-42 -15.5t-39 15.5t-12 41.5q2 26 19.5 41.5t42.5 15.5q24 0 39 -15.5t13 -41.5zM483 591q-3 -26 -21 -41.5t-42 -15.5t-39 15.5t-12 41.5q2 26 20 41.5t42 15.5
t39 -15.5t13 -41.5z" />
    <glyph glyph-name="aring" unicode="&#xe5;" horiz-adv-x="532" 
d="M524 167q-7 -88 -45 -136t-86 -48q-56 0 -77 28t-11 95q-29 -60 -70.5 -91.5t-89.5 -31.5q-129 0 -104 203q17 136 76 211.5t137 75.5q98 0 109 -104q3 5 29 39.5t36 50.5h44q-34 -134 -65 -308q-12 -69 -9.5 -95.5t20.5 -26.5q51 0 70 143zM186 32q47 0 87 61t60 174
q14 77 2.5 117t-54.5 40q-47 0 -80 -54.5t-55 -184.5q-14 -91 -5 -122t45 -31zM273 605q-3 -25 8 -38.5t33 -13.5q21 0 35.5 14t17.5 38q2 24 -9 37t-33 13q-47 0 -52 -50zM236 605q4 37 29 60t62 23t58.5 -23t17.5 -60q-5 -37 -30 -60.5t-62 -23.5t-58 23.5t-17 60.5z" />
    <glyph glyph-name="ae" unicode="&#xe6;" horiz-adv-x="727" 
d="M625 148l37 -10q-21 -78 -62 -116.5t-112 -38.5q-82 0 -123 35.5t-45 110.5q-28 -70 -73 -108t-98 -38q-59 0 -90 48t-18 155q17 136 76 211.5t137 75.5q113 0 110 -134q66 134 198 134q73 0 100 -37t19 -97q-6 -42 -33 -72t-66.5 -43.5t-75.5 -19t-74 -5.5
q-16 -90 -1 -132.5t64 -42.5q50 0 82 26t48 98zM186 32q47 0 87 61t60 174q14 77 2.5 117t-54.5 40q-47 0 -80 -54.5t-55 -184.5q-14 -91 -5 -122t45 -31zM438 230q-1 -2 -1 -5q71 0 106 20t48 81q11 35 1.5 70.5t-41.5 35.5q-42 0 -65.5 -41t-47.5 -161z" />
    <glyph glyph-name="ccedilla" unicode="&#xe7;" horiz-adv-x="439" 
d="M113 -115l-10 18q57 35 74 81q-172 15 -129 244q22 120 85.5 182.5t149.5 62.5q61 0 91.5 -28t30.5 -77q0 -40 -18.5 -61t-50.5 -21q-25 0 -40 14.5t-11 41.5q3 28 26.5 39.5t50.5 5.5q-13 45 -75 45q-52 0 -78 -40.5t-50 -161.5q-22 -122 -6 -164t71 -42q91 0 119 124
l37 -10q-20 -75 -67 -115t-112 -40h-4q-7 -38 -36 -64q45 8 79.5 -12t30.5 -65t-37.5 -70.5t-88.5 -25.5q-38 0 -62.5 18t-31.5 44l22 15q23 -37 65 -37q58 0 63 56q3 32 -24.5 44.5t-63.5 -1.5z" />
    <glyph glyph-name="egrave" unicode="&#xe8;" horiz-adv-x="448" 
d="M346 148l37 -10q-21 -78 -62 -116.5t-112 -38.5q-105 0 -144.5 59.5t-16.5 185.5q23 120 86 182.5t149 62.5q73 0 100 -39t19 -100q-6 -42 -32.5 -71t-66.5 -42t-75.5 -17.5t-74.5 -4.5q-16 -91 -1 -133t64 -42q52 0 83 25.5t47 98.5zM272 432q-45 0 -70 -49t-44 -158
q72 -1 106.5 17t47.5 79q11 35 1.5 73t-41.5 38zM358 536l-8 -10q-112 56 -156 91q-19 15 -16.5 34.5t19.5 25t38 -6.5q10 -8 21.5 -19t26 -27.5t24 -27t27.5 -32t24 -28.5z" />
    <glyph glyph-name="eacute" unicode="&#xe9;" horiz-adv-x="448" 
d="M346 148l37 -10q-21 -78 -62 -116.5t-112 -38.5q-105 0 -144.5 59.5t-16.5 185.5q23 120 86 182.5t149 62.5q73 0 100 -39t19 -100q-6 -42 -32.5 -71t-66.5 -42t-75.5 -17.5t-74.5 -4.5q-16 -91 -1 -133t64 -42q52 0 83 25.5t47 98.5zM272 432q-45 0 -70 -49t-44 -158
q72 -1 106.5 17t47.5 79q11 35 1.5 73t-41.5 38zM263 526l-8 10q90 109 123 134q20 14 38.5 6.5t19.5 -25t-17 -34.5q-48 -37 -156 -91z" />
    <glyph glyph-name="ecircumflex" unicode="&#xea;" horiz-adv-x="448" 
d="M346 148l37 -10q-21 -78 -62 -116.5t-112 -38.5q-105 0 -144.5 59.5t-16.5 185.5q23 120 86 182.5t149 62.5q73 0 100 -39t19 -100q-6 -42 -32.5 -71t-66.5 -42t-75.5 -17.5t-74.5 -4.5q-16 -91 -1 -133t64 -42q52 0 83 25.5t47 98.5zM272 432q-45 0 -70 -49t-44 -158
q72 -1 106.5 17t47.5 79q11 35 1.5 73t-41.5 38zM418 536l-9 -10q-62 34 -108 92q-35 -34 -148 -92l-7 10q38 64 136 141h49q45 -40 87 -141z" />
    <glyph glyph-name="edieresis" unicode="&#xeb;" horiz-adv-x="448" 
d="M346 148l37 -10q-21 -78 -62 -116.5t-112 -38.5q-105 0 -144.5 59.5t-16.5 185.5q23 120 86 182.5t149 62.5q73 0 100 -39t19 -100q-6 -42 -32.5 -71t-66.5 -42t-75.5 -17.5t-74.5 -4.5q-16 -91 -1 -133t64 -42q52 0 83 25.5t47 98.5zM272 432q-45 0 -70 -49t-44 -158
q72 -1 106.5 17t47.5 79q11 35 1.5 73t-41.5 38zM269 591q-3 -26 -21 -41.5t-42 -15.5t-39 15.5t-12 41.5q2 26 19.5 41.5t42.5 15.5q24 0 39 -15.5t13 -41.5zM453 591q-3 -26 -21 -41.5t-42 -15.5t-39 15.5t-12 41.5q2 26 20 41.5t42 15.5t39 -15.5t13 -41.5z" />
    <glyph glyph-name="igrave" unicode="&#xec;" horiz-adv-x="324" 
d="M233 306l-47 -175q-23 -99 17 -99q52 0 70 140l36 -5q-3 -44 -16.5 -83.5t-44.5 -70t-74 -30.5q-62 0 -86.5 36.5t-6.5 105.5l53 196q28 103 -6 103q-55 0 -74 -146l-37 5q7 78 40.5 134t93.5 56q127 0 82 -167zM243 536l-8 -10q-112 56 -156 91q-19 15 -16.5 34.5
t19.5 25t38 -6.5q10 -8 21.5 -19t26 -27.5t24 -27t27.5 -32t24 -28.5z" />
    <glyph glyph-name="iacute" unicode="&#xed;" horiz-adv-x="324" 
d="M233 306l-47 -175q-23 -99 17 -99q52 0 70 140l36 -5q-3 -44 -16.5 -83.5t-44.5 -70t-74 -30.5q-62 0 -86.5 36.5t-6.5 105.5l53 196q28 103 -6 103q-55 0 -74 -146l-37 5q7 78 40.5 134t93.5 56q127 0 82 -167zM163 526l-8 10q90 109 123 134q20 14 38.5 6.5t19.5 -25
t-17 -34.5q-48 -37 -156 -91z" />
    <glyph glyph-name="icircumflex" unicode="&#xee;" horiz-adv-x="324" 
d="M233 306l-47 -175q-23 -99 17 -99q52 0 70 140l36 -5q-3 -44 -16.5 -83.5t-44.5 -70t-74 -30.5q-62 0 -86.5 36.5t-6.5 105.5l53 196q28 103 -6 103q-55 0 -74 -146l-37 5q7 78 40.5 134t93.5 56q127 0 82 -167zM323 536l-9 -10q-62 34 -108 92q-35 -34 -148 -92l-7 10
q38 64 136 141h49q45 -40 87 -141z" />
    <glyph glyph-name="idieresis" unicode="&#xef;" horiz-adv-x="324" 
d="M233 306l-47 -175q-23 -99 17 -99q52 0 70 140l36 -5q-3 -44 -16.5 -83.5t-44.5 -70t-74 -30.5q-62 0 -86.5 36.5t-6.5 105.5l53 196q28 103 -6 103q-55 0 -74 -146l-37 5q7 78 40.5 134t93.5 56q127 0 82 -167zM178 591q-3 -26 -21 -41.5t-42 -15.5t-39 15.5t-12 41.5
q2 26 19.5 41.5t42.5 15.5q24 0 39 -15.5t13 -41.5zM362 591q-3 -26 -21 -41.5t-42 -15.5t-39 15.5t-12 41.5q2 26 20 41.5t42 15.5t39 -15.5t13 -41.5z" />
    <glyph glyph-name="eth" unicode="&#xf0;" horiz-adv-x="489" 
d="M233 527l-15 25l94 56q-45 36 -163 32l8 49q118 3 191 -57q23 17 85 61l14 -25q-11 -7 -84 -49q99 -100 79 -308q-16 -170 -79.5 -249t-157.5 -79q-191 0 -161 215q18 130 76.5 202t140.5 72q69 0 90 -59q6 59 0.5 107.5t-26.5 74.5zM144 152q-8 -68 7.5 -98t54.5 -30
q48 0 81 66t53 214q19 128 -60 128q-48 0 -84 -71t-52 -209z" />
    <glyph glyph-name="ntilde" unicode="&#xf1;" horiz-adv-x="580" 
d="M49 278l-37 5q4 46 17 86t43.5 72t73.5 32q101 0 85 -129q59 129 169 129q70 0 89 -48t-9 -155l-31 -117q-18 -67 -16 -95.5t26 -28.5q50 0 66 143l36 -5q-5 -73 -39.5 -128.5t-95.5 -55.5q-127 0 -82 165l34 123q43 153 -23 153q-51 0 -92.5 -66.5t-75.5 -229.5
l-27 -130q-33 2 -51 2l-51 -2q21 82 66 296q16 74 15.5 102t-22.5 28q-24 0 -42 -39t-26 -107zM491 648l19 2q15 -70 -16.5 -104t-83.5 -30q-33 3 -50.5 18t-33.5 44q-14 26 -19.5 34.5t-15.5 16.5t-23 8q-47 0 -38 -92l-19 -2q-15 71 15 104.5t85 29.5q27 -3 45 -16.5
t36 -44.5q11 -19 15 -26t12 -17t15.5 -13.5t17.5 -3.5q48 0 39 92z" />
    <glyph glyph-name="ograve" unicode="&#xf2;" horiz-adv-x="463" 
d="M195 24q50 0 84.5 75t49.5 205q9 77 -8 102.5t-55 25.5q-51 0 -84.5 -77.5t-48.5 -202.5q-9 -75 8.5 -101.5t53.5 -26.5zM194 -17q-189 0 -162 215q5 41 19.5 84t40.5 88.5t71.5 74t102.5 28.5q84 0 128 -46.5t36 -143.5q-4 -53 -18.5 -102.5t-41 -95.5t-72 -74
t-104.5 -28zM344 536l-8 -10q-112 56 -156 91q-19 15 -16.5 34.5t19.5 25t38 -6.5q10 -8 21.5 -19t26 -27.5t24 -27t27.5 -32t24 -28.5z" />
    <glyph glyph-name="oacute" unicode="&#xf3;" horiz-adv-x="463" 
d="M195 24q50 0 84.5 75t49.5 205q9 77 -8 102.5t-55 25.5q-51 0 -84.5 -77.5t-48.5 -202.5q-9 -75 8.5 -101.5t53.5 -26.5zM194 -17q-189 0 -162 215q5 41 19.5 84t40.5 88.5t71.5 74t102.5 28.5q84 0 128 -46.5t36 -143.5q-4 -53 -18.5 -102.5t-41 -95.5t-72 -74
t-104.5 -28zM252 526l-8 10q90 109 123 134q20 14 38.5 6.5t19.5 -25t-17 -34.5q-48 -37 -156 -91z" />
    <glyph glyph-name="ocircumflex" unicode="&#xf4;" horiz-adv-x="463" 
d="M195 24q50 0 84.5 75t49.5 205q9 77 -8 102.5t-55 25.5q-51 0 -84.5 -77.5t-48.5 -202.5q-9 -75 8.5 -101.5t53.5 -26.5zM194 -17q-189 0 -162 215q5 41 19.5 84t40.5 88.5t71.5 74t102.5 28.5q84 0 128 -46.5t36 -143.5q-4 -53 -18.5 -102.5t-41 -95.5t-72 -74
t-104.5 -28zM422 536l-9 -10q-62 34 -108 92q-35 -34 -148 -92l-7 10q38 64 136 141h49q45 -40 87 -141z" />
    <glyph glyph-name="otilde" unicode="&#xf5;" horiz-adv-x="463" 
d="M195 24q50 0 84.5 75t49.5 205q9 77 -8 102.5t-55 25.5q-51 0 -84.5 -77.5t-48.5 -202.5q-9 -75 8.5 -101.5t53.5 -26.5zM194 -17q-189 0 -162 215q5 41 19.5 84t40.5 88.5t71.5 74t102.5 28.5q84 0 128 -46.5t36 -143.5q-4 -53 -18.5 -102.5t-41 -95.5t-72 -74
t-104.5 -28zM438 648l19 2q15 -70 -16.5 -104t-83.5 -30q-33 3 -50.5 18t-33.5 44q-14 26 -19.5 34.5t-15.5 16.5t-23 8q-47 0 -38 -92l-19 -2q-15 71 15 104.5t85 29.5q27 -3 45 -16.5t36 -44.5q11 -19 15 -26t12 -17t15.5 -13.5t17.5 -3.5q48 0 39 92z" />
    <glyph glyph-name="odieresis" unicode="&#xf6;" horiz-adv-x="463" 
d="M195 24q50 0 84.5 75t49.5 205q9 77 -8 102.5t-55 25.5q-51 0 -84.5 -77.5t-48.5 -202.5q-9 -75 8.5 -101.5t53.5 -26.5zM194 -17q-189 0 -162 215q5 41 19.5 84t40.5 88.5t71.5 74t102.5 28.5q84 0 128 -46.5t36 -143.5q-4 -53 -18.5 -102.5t-41 -95.5t-72 -74
t-104.5 -28zM269 591q-3 -26 -21 -41.5t-42 -15.5t-39 15.5t-12 41.5q2 26 19.5 41.5t42.5 15.5q24 0 39 -15.5t13 -41.5zM453 591q-3 -26 -21 -41.5t-42 -15.5t-39 15.5t-12 41.5q2 26 20 41.5t42 15.5t39 -15.5t13 -41.5z" />
    <glyph glyph-name="divide" unicode="&#xf7;" 
d="M338 118q0 -25 -16 -40t-42 -15q-27 0 -43 14.5t-16 41.5q0 24 17 40t42 16q27 0 42.5 -16t15.5 -41zM91 222l11 57q133 0 200 -14q74 14 206 14l-11 -57q-150 4 -200 14q-55 -10 -206 -14zM378 381q0 -25 -16 -40t-42 -15q-27 0 -43 14.5t-16 41.5q0 24 17 40t42 16
q27 0 42.5 -16t15.5 -41z" />
    <glyph glyph-name="oslash" unicode="&#xf8;" horiz-adv-x="463" 
d="M194 -17q-42 0 -77 12l-44 -67l-12 8l33 69q-80 48 -62 193q5 41 19.5 84t40.5 88.5t71.5 74t102.5 28.5q44 0 76 -13l46 72l11 -5l-35 -77q76 -45 66 -167q-4 -53 -18.5 -102.5t-41 -95.5t-72 -74t-104.5 -28zM195 24q50 0 84.5 75t49.5 205q5 46 0 78l-92 -160
l-92 -178q15 -20 50 -20zM133 152q-6 -49 0 -76l93 164l89 173q-15 19 -49 19q-51 0 -84.5 -77.5t-48.5 -202.5z" />
    <glyph glyph-name="ugrave" unicode="&#xf9;" horiz-adv-x="583" 
d="M528 172l36 -5q-5 -70 -39 -127t-92 -57q-57 0 -77 28t-10 96q-59 -124 -167 -124q-70 0 -88.5 49t9.5 156l30 117q12 47 14.5 74t-2.5 36t-16 9q-55 0 -74 -146l-36 5q6 74 38.5 132t94.5 58t83 -48.5t2 -118.5l-33 -119q-39 -155 22 -155q47 0 89.5 61t71.5 197l35 169
q33 -1 51 -1l51 1q-39 -162 -65 -295q-17 -82 -16.5 -108.5t18.5 -26.5q51 0 70 143zM376 536l-8 -10q-112 56 -156 91q-19 15 -16.5 34.5t19.5 25t38 -6.5q10 -8 21.5 -19t26 -27.5t24 -27t27.5 -32t24 -28.5z" />
    <glyph glyph-name="uacute" unicode="&#xfa;" horiz-adv-x="583" 
d="M528 172l36 -5q-5 -70 -39 -127t-92 -57q-57 0 -77 28t-10 96q-59 -124 -167 -124q-70 0 -88.5 49t9.5 156l30 117q12 47 14.5 74t-2.5 36t-16 9q-55 0 -74 -146l-36 5q6 74 38.5 132t94.5 58t83 -48.5t2 -118.5l-33 -119q-39 -155 22 -155q47 0 89.5 61t71.5 197l35 169
q33 -1 51 -1l51 1q-39 -162 -65 -295q-17 -82 -16.5 -108.5t18.5 -26.5q51 0 70 143zM286 526l-8 10q90 109 123 134q20 14 38.5 6.5t19.5 -25t-17 -34.5q-48 -37 -156 -91z" />
    <glyph glyph-name="ucircumflex" unicode="&#xfb;" horiz-adv-x="583" 
d="M528 172l36 -5q-5 -70 -39 -127t-92 -57q-57 0 -77 28t-10 96q-59 -124 -167 -124q-70 0 -88.5 49t9.5 156l30 117q12 47 14.5 74t-2.5 36t-16 9q-55 0 -74 -146l-36 5q6 74 38.5 132t94.5 58t83 -48.5t2 -118.5l-33 -119q-39 -155 22 -155q47 0 89.5 61t71.5 197l35 169
q33 -1 51 -1l51 1q-39 -162 -65 -295q-17 -82 -16.5 -108.5t18.5 -26.5q51 0 70 143zM470 536l-9 -10q-62 34 -108 92q-35 -34 -148 -92l-7 10q38 64 136 141h49q45 -40 87 -141z" />
    <glyph glyph-name="udieresis" unicode="&#xfc;" horiz-adv-x="583" 
d="M528 172l36 -5q-5 -70 -39 -127t-92 -57q-57 0 -77 28t-10 96q-59 -124 -167 -124q-70 0 -88.5 49t9.5 156l30 117q12 47 14.5 74t-2.5 36t-16 9q-55 0 -74 -146l-36 5q6 74 38.5 132t94.5 58t83 -48.5t2 -118.5l-33 -119q-39 -155 22 -155q47 0 89.5 61t71.5 197l35 169
q33 -1 51 -1l51 1q-39 -162 -65 -295q-17 -82 -16.5 -108.5t18.5 -26.5q51 0 70 143zM303 591q-3 -26 -21 -41.5t-42 -15.5t-39 15.5t-12 41.5q2 26 19.5 41.5t42.5 15.5q24 0 39 -15.5t13 -41.5zM487 591q-3 -26 -21 -41.5t-42 -15.5t-39 15.5t-12 41.5q2 26 20 41.5
t42 15.5t39 -15.5t13 -41.5z" />
    <glyph glyph-name="yacute" unicode="&#xfd;" horiz-adv-x="550" 
d="M52 278l-36 5q3 45 16 85.5t44 72.5t74 32q129 0 83 -167l-33 -119q-42 -155 23 -155q97 0 149 207l44 222q33 -2 51 -2l51 2l-77 -391q-26 -135 -97.5 -205.5t-171.5 -70.5q-66 0 -97.5 36.5t-16.5 82.5q16 50 69 50q26 0 40.5 -15t10.5 -41q-5 -29 -30 -41.5t-56 0.5
q15 -41 81 -41q67 0 102.5 52.5t56.5 155.5l15 79q-57 -129 -168 -129q-70 0 -88.5 46.5t8.5 158.5l29 117q30 119 -4 119q-31 0 -47 -37.5t-25 -108.5zM277 526l-8 10q90 109 123 134q20 14 38.5 6.5t19.5 -25t-17 -34.5q-48 -37 -156 -91z" />
    <glyph glyph-name="thorn" unicode="&#xfe;" horiz-adv-x="507" 
d="M244 595l-50 -250q56 128 154 128q59 0 90.5 -48t17.5 -155q-18 -136 -76.5 -211.5t-136.5 -75.5q-84 0 -105 76q-19 -95 -24 -127q-5 -34 5 -46.5t45 -12.5h27l-11 -50q-88 2 -137 2l-137 -2l11 50h25q30 0 45.5 13t24.5 46q9 35 61.5 296.5t70.5 365.5q4 25 -3.5 35.5
t-36.5 10.5h-25l4 50q87 -4 174 0q-1 -35 -13 -95zM311 424q-47 0 -87 -61t-60 -174q-14 -77 -2.5 -117t54.5 -40q47 0 80 54.5t55 184.5q14 91 5 122t-45 31z" />
    <glyph glyph-name="ydieresis" unicode="&#xff;" horiz-adv-x="550" 
d="M52 278l-36 5q3 45 16 85.5t44 72.5t74 32q129 0 83 -167l-33 -119q-42 -155 23 -155q97 0 149 207l44 222q33 -2 51 -2l51 2l-77 -391q-26 -135 -97.5 -205.5t-171.5 -70.5q-66 0 -97.5 36.5t-16.5 82.5q16 50 69 50q26 0 40.5 -15t10.5 -41q-5 -29 -30 -41.5t-56 0.5
q15 -41 81 -41q67 0 102.5 52.5t56.5 155.5l15 79q-57 -129 -168 -129q-70 0 -88.5 46.5t8.5 158.5l29 117q30 119 -4 119q-31 0 -47 -37.5t-25 -108.5zM292 591q-3 -26 -21 -41.5t-42 -15.5t-39 15.5t-12 41.5q2 26 19.5 41.5t42.5 15.5q24 0 39 -15.5t13 -41.5zM476 591
q-3 -26 -21 -41.5t-42 -15.5t-39 15.5t-12 41.5q2 26 20 41.5t42 15.5t39 -15.5t13 -41.5z" />
    <glyph glyph-name="Amacron" unicode="&#x100;" horiz-adv-x="875" 
d="M545 215q-137 4 -282 0l-31 -62q-47 -94 40 -94h43l-10 -61q-98 2 -153 2l-154 -2l9 61h36q41 0 66 18.5t50 64.5q145 268 287 554q36 -2 56 -2l55 2q57 -270 134 -555q12 -45 28 -63.5t46 -18.5h47l-9 -61q-114 2 -178 2l-179 -2l10 61h44q74 0 57 96q-6 32 -12 60z
M289 266q125 -2 246 0q-30 140 -76 327q-125 -239 -170 -327zM387 775q9 33 9 62q128 -4 256 0q-9 -27 -9 -62q-128 4 -256 0z" />
    <glyph glyph-name="amacron" unicode="&#x101;" horiz-adv-x="532" 
d="M524 167q-7 -88 -45 -136t-86 -48q-56 0 -77 28t-11 95q-29 -60 -70.5 -91.5t-89.5 -31.5q-129 0 -104 203q17 136 76 211.5t137 75.5q98 0 109 -104q3 5 29 39.5t36 50.5h44q-34 -134 -65 -308q-12 -69 -9.5 -95.5t20.5 -26.5q51 0 70 143zM186 32q47 0 87 61t60 174
q14 77 2.5 117t-54.5 40q-47 0 -80 -54.5t-55 -184.5q-14 -91 -5 -122t45 -31zM172 537q9 33 9 62q128 -4 256 0q-9 -27 -9 -62q-128 4 -256 0z" />
    <glyph glyph-name="Abreve" unicode="&#x102;" horiz-adv-x="875" 
d="M545 215q-137 4 -282 0l-31 -62q-47 -94 40 -94h43l-10 -61q-98 2 -153 2l-154 -2l9 61h36q41 0 66 18.5t50 64.5q145 268 287 554q36 -2 56 -2l55 2q57 -270 134 -555q12 -45 28 -63.5t46 -18.5h47l-9 -61q-114 2 -178 2l-179 -2l10 61h44q74 0 57 96q-6 32 -12 60z
M289 266q125 -2 246 0q-30 140 -76 327q-125 -239 -170 -327zM515 751q-70 0 -99 41t-15 104l14 2q-1 -47 24 -62.5t82 -15.5t85 15.5t35 62.5l14 -2q3 -63 -33.5 -104t-106.5 -41z" />
    <glyph glyph-name="abreve" unicode="&#x103;" horiz-adv-x="532" 
d="M524 167q-7 -88 -45 -136t-86 -48q-56 0 -77 28t-11 95q-29 -60 -70.5 -91.5t-89.5 -31.5q-129 0 -104 203q17 136 76 211.5t137 75.5q98 0 109 -104q3 5 29 39.5t36 50.5h44q-34 -134 -65 -308q-12 -69 -9.5 -95.5t20.5 -26.5q51 0 70 143zM186 32q47 0 87 61t60 174
q14 77 2.5 117t-54.5 40q-47 0 -80 -54.5t-55 -184.5q-14 -91 -5 -122t45 -31zM326 536q-70 0 -99 41t-15 104l14 2q-1 -47 24 -62.5t82 -15.5t85 15.5t35 62.5l14 -2q3 -63 -33.5 -104t-106.5 -41z" />
    <glyph glyph-name="Aogonek" unicode="&#x104;" horiz-adv-x="875" 
d="M797 -84q-19 -122 -133 -122q-46 0 -71 25t-20 67q9 70 97 114h-45l-179 -2l10 61h44q74 0 57 96q-6 32 -12 60q-137 4 -282 0l-31 -62q-47 -94 40 -94h43l-10 -61q-98 2 -153 2l-154 -2l9 61h36q41 0 66 18.5t50 64.5q145 268 287 554q36 -2 56 -2l55 2
q57 -270 134 -555q12 -45 28 -63.5t46 -18.5h47l-9 -61q-43 1 -89 2q-68 -38 -72 -93q-3 -28 12.5 -43t40.5 -15q58 0 77 71zM289 266q125 -2 246 0q-30 140 -76 327q-125 -239 -170 -327z" />
    <glyph glyph-name="aogonek" unicode="&#x105;" horiz-adv-x="532" 
d="M557 -84q-19 -122 -133 -122q-46 0 -71 25t-20 67q7 61 78 99q-14 -2 -18 -2q-56 0 -77 28t-11 95q-29 -60 -70.5 -91.5t-89.5 -31.5q-129 0 -104 203q17 136 76 211.5t137 75.5q98 0 109 -104q3 5 29 39.5t36 50.5h44q-34 -134 -65 -308q-12 -69 -9.5 -95.5t20.5 -26.5
q51 0 70 143l36 -5q-8 -95 -64 -156q-54 -60 -58 -104q-3 -28 12.5 -43t40.5 -15q58 0 77 71zM186 32q47 0 87 61t60 174q14 77 2.5 117t-54.5 40q-47 0 -80 -54.5t-55 -184.5q-14 -91 -5 -122t45 -31z" />
    <glyph glyph-name="Cacute" unicode="&#x106;" horiz-adv-x="738" 
d="M448 710q81 0 165 -44q48 -25 55 23q10 -1 33 -1t33 1q-47 -124 -54 -242q-10 1 -30 1q-22 0 -31 -1q14 95 -29.5 151.5t-142.5 56.5q-207 0 -254 -309q-46 -311 163 -311q207 0 261 233q16 -2 33 -2q18 0 36 2q-33 -148 -112 -220.5t-227 -72.5q-159 0 -234.5 90.5
t-47.5 280.5q28 186 127.5 275t255.5 89zM467 756l-8 10q90 109 123 134q20 14 38.5 6.5t19.5 -25t-17 -34.5q-48 -37 -156 -91z" />
    <glyph glyph-name="cacute" unicode="&#x107;" horiz-adv-x="439" 
d="M201 -17q-199 0 -153 245q22 120 85.5 182.5t149.5 62.5q61 0 91.5 -28t30.5 -77q0 -40 -18.5 -61t-50.5 -21q-25 0 -40 14.5t-11 41.5q3 28 26.5 39.5t50.5 5.5q-13 45 -75 45q-52 0 -78 -40.5t-50 -161.5q-22 -122 -6 -164t71 -42q91 0 119 124l37 -10
q-20 -75 -67 -115t-112 -40zM264 526l-8 10q90 109 123 134q20 14 38.5 6.5t19.5 -25t-17 -34.5q-48 -37 -156 -91z" />
    <glyph glyph-name="Ccircumflex" unicode="&#x108;" horiz-adv-x="738" 
d="M448 710q81 0 165 -44q48 -25 55 23q10 -1 33 -1t33 1q-47 -124 -54 -242q-10 1 -30 1q-22 0 -31 -1q14 95 -29.5 151.5t-142.5 56.5q-207 0 -254 -309q-46 -311 163 -311q207 0 261 233q16 -2 33 -2q18 0 36 2q-33 -148 -112 -220.5t-227 -72.5q-159 0 -234.5 90.5
t-47.5 280.5q28 186 127.5 275t255.5 89zM619 766l-9 -10q-62 34 -108 92q-35 -34 -148 -92l-7 10q38 64 136 141h49q45 -40 87 -141z" />
    <glyph glyph-name="ccircumflex" unicode="&#x109;" horiz-adv-x="439" 
d="M201 -17q-199 0 -153 245q22 120 85.5 182.5t149.5 62.5q61 0 91.5 -28t30.5 -77q0 -40 -18.5 -61t-50.5 -21q-25 0 -40 14.5t-11 41.5q3 28 26.5 39.5t50.5 5.5q-13 45 -75 45q-52 0 -78 -40.5t-50 -161.5q-22 -122 -6 -164t71 -42q91 0 119 124l37 -10
q-20 -75 -67 -115t-112 -40zM417 536l-9 -10q-62 34 -108 92q-35 -34 -148 -92l-7 10q38 64 136 141h49q45 -40 87 -141z" />
    <glyph glyph-name="Cdotaccent" unicode="&#x10a;" horiz-adv-x="738" 
d="M448 710q81 0 165 -44q48 -25 55 23q10 -1 33 -1t33 1q-47 -124 -54 -242q-10 1 -30 1q-22 0 -31 -1q14 95 -29.5 151.5t-142.5 56.5q-207 0 -254 -309q-46 -311 163 -311q207 0 261 233q16 -2 33 -2q18 0 36 2q-33 -148 -112 -220.5t-227 -72.5q-159 0 -234.5 90.5
t-47.5 280.5q28 186 127.5 275t255.5 89zM537 831q0 -23 -15.5 -38.5t-38.5 -15.5q-22 0 -37.5 16t-15.5 38t15.5 38t37.5 16q23 0 38.5 -15.5t15.5 -38.5z" />
    <glyph glyph-name="cdotaccent" unicode="&#x10b;" horiz-adv-x="439" 
d="M201 -17q-199 0 -153 245q22 120 85.5 182.5t149.5 62.5q61 0 91.5 -28t30.5 -77q0 -40 -18.5 -61t-50.5 -21q-25 0 -40 14.5t-11 41.5q3 28 26.5 39.5t50.5 5.5q-13 45 -75 45q-52 0 -78 -40.5t-50 -161.5q-22 -122 -6 -164t71 -42q91 0 119 124l37 -10
q-20 -75 -67 -115t-112 -40zM335 601q0 -23 -15.5 -38.5t-38.5 -15.5q-22 0 -37.5 16t-15.5 38t15.5 38t37.5 16q23 0 38.5 -15.5t15.5 -38.5z" />
    <glyph glyph-name="Ccaron" unicode="&#x10c;" horiz-adv-x="738" 
d="M448 710q81 0 165 -44q48 -25 55 23q10 -1 33 -1t33 1q-47 -124 -54 -242q-10 1 -30 1q-22 0 -31 -1q14 95 -29.5 151.5t-142.5 56.5q-207 0 -254 -309q-46 -311 163 -311q207 0 261 233q16 -2 33 -2q18 0 36 2q-33 -148 -112 -220.5t-227 -72.5q-159 0 -234.5 90.5
t-47.5 280.5q28 186 127.5 275t255.5 89zM349 907l9 10q28 -15 68 -46t61 -54q87 80 127 100l7 -10q-21 -36 -58 -76.5t-68 -64.5h-49q-25 22 -53.5 63t-43.5 78z" />
    <glyph glyph-name="ccaron" unicode="&#x10d;" horiz-adv-x="439" 
d="M201 -17q-199 0 -153 245q22 120 85.5 182.5t149.5 62.5q61 0 91.5 -28t30.5 -77q0 -40 -18.5 -61t-50.5 -21q-25 0 -40 14.5t-11 41.5q3 28 26.5 39.5t50.5 5.5q-13 45 -75 45q-52 0 -78 -40.5t-50 -161.5q-22 -122 -6 -164t71 -42q91 0 119 124l37 -10
q-20 -75 -67 -115t-112 -40zM173 677l9 10q28 -15 68 -46t61 -54q87 80 127 100l7 -10q-21 -36 -58 -76.5t-68 -64.5h-49q-25 22 -53.5 63t-43.5 78z" />
    <glyph glyph-name="Dcaron" unicode="&#x10e;" horiz-adv-x="789" 
d="M446 688q182 0 255.5 -86.5t46.5 -280.5q-23 -166 -129 -244.5t-276 -78.5q-122 2 -173 2l-172 -2l9 61h56q35 0 46.5 7.5t18.5 33.5t39 239.5t33 242.5t-8.5 39t-36.5 10h-64l9 58q1 0 68.5 -1t107.5 -1q36 0 94.5 0.5t75.5 0.5zM249 101q-2 -27 9.5 -39t39.5 -12h39
q127 0 194.5 60t90.5 214q27 179 -13.5 247t-182.5 68h-51q-38 0 -52 -45q-6 -19 -38.5 -237.5t-35.5 -255.5zM319 907l9 10q28 -15 68 -46t61 -54q87 80 127 100l7 -10q-21 -36 -58 -76.5t-68 -64.5h-49q-25 22 -53.5 63t-43.5 78z" />
    <glyph glyph-name="dcaron" unicode="&#x10f;" horiz-adv-x="667" 
d="M497 594q-76 -353 -90 -441q-12 -74 -9.5 -99t23.5 -25q49 0 66 143l36 -5q-7 -83 -42 -133.5t-88 -50.5q-55 0 -77 26.5t-15 88.5q-57 -115 -152 -115q-59 0 -90 48t-18 155q17 136 76 211.5t137 75.5q84 0 104 -77l39 197q5 25 -2.5 35.5t-37.5 10.5h-25l7 50
q84 -4 168 0q2 -44 -10 -95zM186 32q47 0 87 61t60 174q14 77 2.5 117t-54.5 40q-47 0 -80 -54.5t-55 -184.5q-14 -91 -5 -122t45 -31zM610 588q-43 0 -40 48q2 23 19 38.5t42 15.5q58 0 53 -70q-3 -50 -42.5 -90t-106.5 -57l-4 20q56 15 90 46.5t36 76.5q-12 -28 -47 -28z
" />
    <glyph glyph-name="Dcroat" unicode="&#x110;" horiz-adv-x="789" 
d="M446 688q182 0 255.5 -86.5t46.5 -280.5q-23 -166 -129 -244.5t-276 -78.5q-122 2 -173 2l-172 -2l9 61h56q35 0 46.5 7.5t18.5 33.5q6 24 36 227q-20 0 -47.5 -0.5t-33.5 -0.5q7 26 7 60q34 -2 83 -2q26 173 27 198q1 29 -8.5 39t-36.5 10h-64l9 58q1 0 68.5 -1
t107.5 -1q36 0 94.5 0.5t75.5 0.5zM249 101q-2 -27 9.5 -39t39.5 -12h39q127 0 194.5 60t90.5 214q27 179 -13.5 247t-182.5 68h-51q-38 0 -52 -45q-7 -20 -34 -210q93 0 147 2q-7 -21 -7 -60q-27 1 -149 1q-28 -193 -31 -226z" />
    <glyph glyph-name="dcroat" unicode="&#x111;" horiz-adv-x="538" 
d="M497 594l-6 -27q35 0 73 2q-7 -21 -7 -50q-9 0 -34.5 0.5t-41.5 0.5q-60 -280 -74 -367q-12 -74 -9.5 -99t23.5 -25q49 0 66 143l36 -5q-7 -83 -42 -133.5t-88 -50.5q-55 0 -77 26.5t-15 88.5q-57 -115 -152 -115q-59 0 -90 48t-18 155q17 136 76 211.5t137 75.5
q84 0 104 -77l24 124q-17 0 -44.5 -0.5t-36.5 -0.5q7 26 7 50q42 -2 84 -2l5 26q5 25 -2.5 35.5t-37.5 10.5h-25l7 50q84 -4 168 0q2 -44 -10 -95zM186 32q47 0 87 61t60 174q14 77 2.5 117t-54.5 40q-47 0 -80 -54.5t-55 -184.5q-14 -91 -5 -122t45 -31z" />
    <glyph glyph-name="Emacron" unicode="&#x112;" horiz-adv-x="724" 
d="M486 491l2 15h55q-22 -89 -31 -154q-12 -80 -15 -160h-53l1 12q8 66 -17.5 94.5t-97.5 28.5h-55q-30 -191 -30 -216q-1 -25 12 -38.5t35 -13.5h139q98 0 135 39.5t55 154.5l1 11h61q-21 -86 -40 -268q-53 4 -183 4h-291l-169 -2l9 61h55q32 0 45 14.5t21 45.5
q7 27 38.5 230.5t32.5 231.5t-8.5 39t-36.5 11h-63l9 59q8 0 86.5 -1.5t88.5 -1.5h259q144 0 208 8q-22 -102 -44 -248h-53l1 8q5 41 6.5 64t-1 45.5t-10.5 32.5t-25 18t-40 10.5t-60 2.5h-146q-25 0 -36 -9t-18 -38q-7 -26 -35 -206h57q68 0 102.5 25.5t43.5 90.5zM332 775
q9 33 9 62q128 -4 256 0q-9 -27 -9 -62q-128 4 -256 0z" />
    <glyph glyph-name="emacron" unicode="&#x113;" horiz-adv-x="448" 
d="M346 148l37 -10q-21 -78 -62 -116.5t-112 -38.5q-105 0 -144.5 59.5t-16.5 185.5q23 120 86 182.5t149 62.5q73 0 100 -39t19 -100q-6 -42 -32.5 -71t-66.5 -42t-75.5 -17.5t-74.5 -4.5q-16 -91 -1 -133t64 -42q52 0 83 25.5t47 98.5zM272 432q-45 0 -70 -49t-44 -158
q72 -1 106.5 17t47.5 79q11 35 1.5 73t-41.5 38zM166 537q9 33 9 62q128 -4 256 0q-9 -27 -9 -62q-128 4 -256 0z" />
    <glyph glyph-name="Ebreve" unicode="&#x114;" horiz-adv-x="724" 
d="M486 491l2 15h55q-22 -89 -31 -154q-12 -80 -15 -160h-53l1 12q8 66 -17.5 94.5t-97.5 28.5h-55q-30 -191 -30 -216q-1 -25 12 -38.5t35 -13.5h139q98 0 135 39.5t55 154.5l1 11h61q-21 -86 -40 -268q-53 4 -183 4h-291l-169 -2l9 61h55q32 0 45 14.5t21 45.5
q7 27 38.5 230.5t32.5 231.5t-8.5 39t-36.5 11h-63l9 59q8 0 86.5 -1.5t88.5 -1.5h259q144 0 208 8q-22 -102 -44 -248h-53l1 8q5 41 6.5 64t-1 45.5t-10.5 32.5t-25 18t-40 10.5t-60 2.5h-146q-25 0 -36 -9t-18 -38q-7 -26 -35 -206h57q68 0 102.5 25.5t43.5 90.5zM472 751
q-70 0 -99 41t-15 104l14 2q-1 -47 24 -62.5t82 -15.5t85 15.5t35 62.5l14 -2q3 -63 -33.5 -104t-106.5 -41z" />
    <glyph glyph-name="ebreve" unicode="&#x115;" horiz-adv-x="448" 
d="M346 148l37 -10q-21 -78 -62 -116.5t-112 -38.5q-105 0 -144.5 59.5t-16.5 185.5q23 120 86 182.5t149 62.5q73 0 100 -39t19 -100q-6 -42 -32.5 -71t-66.5 -42t-75.5 -17.5t-74.5 -4.5q-16 -91 -1 -133t64 -42q52 0 83 25.5t47 98.5zM272 432q-45 0 -70 -49t-44 -158
q72 -1 106.5 17t47.5 79q11 35 1.5 73t-41.5 38zM296 536q-70 0 -99 41t-15 104l14 2q-1 -47 24 -62.5t82 -15.5t85 15.5t35 62.5l14 -2q3 -63 -33.5 -104t-106.5 -41z" />
    <glyph glyph-name="Edotaccent" unicode="&#x116;" horiz-adv-x="724" 
d="M486 491l2 15h55q-22 -89 -31 -154q-12 -80 -15 -160h-53l1 12q8 66 -17.5 94.5t-97.5 28.5h-55q-30 -191 -30 -216q-1 -25 12 -38.5t35 -13.5h139q98 0 135 39.5t55 154.5l1 11h61q-21 -86 -40 -268q-53 4 -183 4h-291l-169 -2l9 61h55q32 0 45 14.5t21 45.5
q7 27 38.5 230.5t32.5 231.5t-8.5 39t-36.5 11h-63l9 59q8 0 86.5 -1.5t88.5 -1.5h259q144 0 208 8q-22 -102 -44 -248h-53l1 8q5 41 6.5 64t-1 45.5t-10.5 32.5t-25 18t-40 10.5t-60 2.5h-146q-25 0 -36 -9t-18 -38q-7 -26 -35 -206h57q68 0 102.5 25.5t43.5 90.5zM503 831
q0 -23 -15.5 -38.5t-38.5 -15.5q-22 0 -37.5 16t-15.5 38t15.5 38t37.5 16q23 0 38.5 -15.5t15.5 -38.5z" />
    <glyph glyph-name="edotaccent" unicode="&#x117;" horiz-adv-x="448" 
d="M346 148l37 -10q-21 -78 -62 -116.5t-112 -38.5q-105 0 -144.5 59.5t-16.5 185.5q23 120 86 182.5t149 62.5q73 0 100 -39t19 -100q-6 -42 -32.5 -71t-66.5 -42t-75.5 -17.5t-74.5 -4.5q-16 -91 -1 -133t64 -42q52 0 83 25.5t47 98.5zM272 432q-45 0 -70 -49t-44 -158
q72 -1 106.5 17t47.5 79q11 35 1.5 73t-41.5 38zM334 601q0 -23 -16 -38.5t-38 -15.5t-37.5 16t-15.5 38t15.5 38t37.5 16t38 -15.5t16 -38.5z" />
    <glyph glyph-name="Eogonek" unicode="&#x118;" horiz-adv-x="724" 
d="M644 -84q-19 -122 -133 -122q-46 0 -71 25t-20 67q9 70 97 114h-348l-169 -2l9 61h55q32 0 45 14.5t21 45.5q7 27 38.5 230.5t32.5 231.5t-8.5 39t-36.5 11h-63l9 59q8 0 86.5 -1.5t88.5 -1.5h259q144 0 208 8q-22 -102 -44 -248h-53l1 8q5 41 6.5 64t-1 45.5t-10.5 32.5
t-25 18t-40 10.5t-60 2.5h-146q-25 0 -36 -9t-18 -38q-7 -26 -35 -206h57q68 0 102.5 25.5t43.5 90.5l2 15h55q-22 -89 -31 -154q-12 -80 -15 -160h-53l1 12q8 66 -17.5 94.5t-97.5 28.5h-55q-30 -191 -30 -216q-1 -25 12 -38.5t35 -13.5h139q98 0 135 39.5t55 154.5l1 11
h61q-21 -86 -40 -268q-28 2 -82 4q-68 -38 -72 -93q-3 -28 12.5 -43t40.5 -15q58 0 77 71z" />
    <glyph glyph-name="eogonek" unicode="&#x119;" horiz-adv-x="448" 
d="M395 -84q-19 -122 -133 -122q-46 0 -71 25t-20 67q7 63 79 101q-26 -4 -41 -4q-105 0 -144.5 59.5t-16.5 185.5q23 120 86 182.5t149 62.5q73 0 100 -39t19 -100q-6 -42 -32.5 -71t-66.5 -42t-75.5 -17.5t-74.5 -4.5q-16 -91 -1 -133t64 -42q52 0 83 25.5t47 98.5l37 -10
q-13 -48 -31 -76t-49 -55q-58 -49 -63 -100q-3 -28 12.5 -43t40.5 -15q58 0 77 71zM159 230q-1 -2 -1 -5q72 -1 106.5 17t47.5 79q11 35 1.5 73t-41.5 38q-42 0 -65.5 -41t-47.5 -161z" />
    <glyph glyph-name="Ecaron" unicode="&#x11a;" horiz-adv-x="724" 
d="M486 491l2 15h55q-22 -89 -31 -154q-12 -80 -15 -160h-53l1 12q8 66 -17.5 94.5t-97.5 28.5h-55q-30 -191 -30 -216q-1 -25 12 -38.5t35 -13.5h139q98 0 135 39.5t55 154.5l1 11h61q-21 -86 -40 -268q-53 4 -183 4h-291l-169 -2l9 61h55q32 0 45 14.5t21 45.5
q7 27 38.5 230.5t32.5 231.5t-8.5 39t-36.5 11h-63l9 59q8 0 86.5 -1.5t88.5 -1.5h259q144 0 208 8q-22 -102 -44 -248h-53l1 8q5 41 6.5 64t-1 45.5t-10.5 32.5t-25 18t-40 10.5t-60 2.5h-146q-25 0 -36 -9t-18 -38q-7 -26 -35 -206h57q68 0 102.5 25.5t43.5 90.5zM315 907
l9 10q28 -15 68 -46t61 -54q87 80 127 100l7 -10q-21 -36 -58 -76.5t-68 -64.5h-49q-25 22 -53.5 63t-43.5 78z" />
    <glyph glyph-name="ecaron" unicode="&#x11b;" horiz-adv-x="448" 
d="M346 148l37 -10q-21 -78 -62 -116.5t-112 -38.5q-105 0 -144.5 59.5t-16.5 185.5q23 120 86 182.5t149 62.5q73 0 100 -39t19 -100q-6 -42 -32.5 -71t-66.5 -42t-75.5 -17.5t-74.5 -4.5q-16 -91 -1 -133t64 -42q52 0 83 25.5t47 98.5zM272 432q-45 0 -70 -49t-44 -158
q72 -1 106.5 17t47.5 79q11 35 1.5 73t-41.5 38zM176 677l9 10q28 -15 68 -46t61 -54q87 80 127 100l7 -10q-21 -36 -58 -76.5t-68 -64.5h-49q-25 22 -53.5 63t-43.5 78z" />
    <glyph glyph-name="Gcircumflex" unicode="&#x11c;" horiz-adv-x="808" 
d="M356 32q81 0 139 45t71 131q7 53 -1.5 73t-48.5 20h-43l8 57q99 -2 154 -2l154 2l-8 -57h-34q-22 0 -33 -12.5t-15 -40.5q-27 -181 -31 -248h-67q-1 69 -12 120q-31 -62 -97.5 -103.5t-145.5 -41.5q-159 0 -234 90.5t-47 280.5q27 183 133.5 273.5t257.5 90.5
q87 0 168 -44q52 -28 59 23q10 -1 33 -1t33 1q-47 -124 -54 -242q-16 1 -30 1l-31 -1q31 208 -183 208q-107 0 -170.5 -75.5t-87.5 -233.5q-46 -314 163 -314zM608 766l-9 -10q-62 34 -108 92q-35 -34 -148 -92l-7 10q38 64 136 141h49q45 -40 87 -141z" />
    <glyph glyph-name="gcircumflex" unicode="&#x11d;" horiz-adv-x="492" 
d="M286 33l15 75q-53 -125 -152 -125q-59 0 -90 48t-18 155q17 136 76 211.5t137 75.5q98 0 109 -102q76 37 86 118h30q-55 -244 -85 -419q-23 -136 -91.5 -206t-168.5 -70q-66 0 -97.5 36.5t-16.5 82.5q16 50 69 50q26 0 40.5 -15t10.5 -41q-5 -29 -30 -41.5t-56 0.5
q15 -41 81 -41t97.5 50.5t53.5 157.5zM186 32q47 0 87 61t60 174q14 77 2.5 117t-54.5 40q-47 0 -80 -54.5t-55 -184.5q-14 -91 -5 -122t45 -31zM457 536l-9 -10q-62 34 -108 92q-35 -34 -148 -92l-7 10q38 64 136 141h49q45 -40 87 -141z" />
    <glyph glyph-name="Gbreve" unicode="&#x11e;" horiz-adv-x="808" 
d="M356 32q81 0 139 45t71 131q7 53 -1.5 73t-48.5 20h-43l8 57q99 -2 154 -2l154 2l-8 -57h-34q-22 0 -33 -12.5t-15 -40.5q-27 -181 -31 -248h-67q-1 69 -12 120q-31 -62 -97.5 -103.5t-145.5 -41.5q-159 0 -234 90.5t-47 280.5q27 183 133.5 273.5t257.5 90.5
q87 0 168 -44q52 -28 59 23q10 -1 33 -1t33 1q-47 -124 -54 -242q-16 1 -30 1l-31 -1q31 208 -183 208q-107 0 -170.5 -75.5t-87.5 -233.5q-46 -314 163 -314zM468 751q-70 0 -99 41t-15 104l14 2q-1 -47 24 -62.5t82 -15.5t85 15.5t35 62.5l14 -2q3 -63 -33.5 -104
t-106.5 -41z" />
    <glyph glyph-name="gbreve" unicode="&#x11f;" horiz-adv-x="492" 
d="M286 33l15 75q-53 -125 -152 -125q-59 0 -90 48t-18 155q17 136 76 211.5t137 75.5q98 0 109 -102q76 37 86 118h30q-55 -244 -85 -419q-23 -136 -91.5 -206t-168.5 -70q-66 0 -97.5 36.5t-16.5 82.5q16 50 69 50q26 0 40.5 -15t10.5 -41q-5 -29 -30 -41.5t-56 0.5
q15 -41 81 -41t97.5 50.5t53.5 157.5zM186 32q47 0 87 61t60 174q14 77 2.5 117t-54.5 40q-47 0 -80 -54.5t-55 -184.5q-14 -91 -5 -122t45 -31zM311 536q-70 0 -99 41t-15 104l14 2q-1 -47 24 -62.5t82 -15.5t85 15.5t35 62.5l14 -2q3 -63 -33.5 -104t-106.5 -41z" />
    <glyph glyph-name="Gdotaccent" unicode="&#x120;" horiz-adv-x="808" 
d="M356 32q81 0 139 45t71 131q7 53 -1.5 73t-48.5 20h-43l8 57q99 -2 154 -2l154 2l-8 -57h-34q-22 0 -33 -12.5t-15 -40.5q-27 -181 -31 -248h-67q-1 69 -12 120q-31 -62 -97.5 -103.5t-145.5 -41.5q-159 0 -234 90.5t-47 280.5q27 183 133.5 273.5t257.5 90.5
q87 0 168 -44q52 -28 59 23q10 -1 33 -1t33 1q-47 -124 -54 -242q-16 1 -30 1l-31 -1q31 208 -183 208q-107 0 -170.5 -75.5t-87.5 -233.5q-46 -314 163 -314zM554 833q0 -23 -16 -38.5t-38 -15.5t-37.5 16t-15.5 38t15.5 38t37.5 16t38 -15.5t16 -38.5z" />
    <glyph glyph-name="gdotaccent" unicode="&#x121;" horiz-adv-x="492" 
d="M286 33l15 75q-53 -125 -152 -125q-59 0 -90 48t-18 155q17 136 76 211.5t137 75.5q98 0 109 -102q76 37 86 118h30q-55 -244 -85 -419q-23 -136 -91.5 -206t-168.5 -70q-66 0 -97.5 36.5t-16.5 82.5q16 50 69 50q26 0 40.5 -15t10.5 -41q-5 -29 -30 -41.5t-56 0.5
q15 -41 81 -41t97.5 50.5t53.5 157.5zM186 32q47 0 87 61t60 174q14 77 2.5 117t-54.5 40q-47 0 -80 -54.5t-55 -184.5q-14 -91 -5 -122t45 -31zM375 601q0 -23 -15.5 -38.5t-38.5 -15.5q-22 0 -37.5 16t-15.5 38t15.5 38t37.5 16q23 0 38.5 -15.5t15.5 -38.5z" />
    <glyph glyph-name="Gcommaaccent" unicode="&#x122;" horiz-adv-x="808" 
d="M356 32q81 0 139 45t71 131q7 53 -1.5 73t-48.5 20h-43l8 57q99 -2 154 -2l154 2l-8 -57h-34q-22 0 -33 -12.5t-15 -40.5q-27 -181 -31 -248h-67q-1 69 -12 120q-31 -62 -97.5 -103.5t-145.5 -41.5q-159 0 -234 90.5t-47 280.5q27 183 133.5 273.5t257.5 90.5
q87 0 168 -44q52 -28 59 23q10 -1 33 -1t33 1q-47 -124 -54 -242q-16 1 -30 1l-31 -1q31 208 -183 208q-107 0 -170.5 -75.5t-87.5 -233.5q-46 -314 163 -314zM356 -154q-43 0 -40 48q2 23 19 38.5t42 15.5q58 0 53 -70q-3 -50 -42.5 -90t-106.5 -57l-4 20q56 15 90 46.5
t36 76.5q-12 -28 -47 -28z" />
    <glyph glyph-name="gcommaaccent" unicode="&#x123;" horiz-adv-x="492" 
d="M286 33l15 75q-53 -125 -152 -125q-59 0 -90 48t-18 155q17 136 76 211.5t137 75.5q98 0 109 -102q76 37 86 118h30q-55 -244 -85 -419q-23 -136 -91.5 -206t-168.5 -70q-66 0 -97.5 36.5t-16.5 82.5q16 50 69 50q26 0 40.5 -15t10.5 -41q-5 -29 -30 -41.5t-56 0.5
q15 -41 81 -41t97.5 50.5t53.5 157.5zM186 32q47 0 87 61t60 174q14 77 2.5 117t-54.5 40q-47 0 -80 -54.5t-55 -184.5q-14 -91 -5 -122t45 -31zM305 622q43 0 40 -48q-2 -23 -19 -38.5t-42 -15.5q-58 0 -53 70q3 50 42.5 90t106.5 57l4 -20q-56 -15 -90 -46.5t-36 -76.5
q12 28 47 28z" />
    <glyph glyph-name="Hcircumflex" unicode="&#x124;" horiz-adv-x="854" 
d="M-2 -2l8 61h56q35 0 47 7t19 33q8 27 41.5 240t34.5 242t-8 39.5t-36 10.5h-63l8 58q111 -2 173 -2q37 0 104 1t69 1l-8 -58h-63q-27 0 -40 -10.5t-20 -39.5q-7 -26 -37 -218q158 -2 329 0q29 186 31 218q1 29 -8.5 39.5t-36.5 10.5h-63l8 58q112 -2 174 -2q37 0 104 1
t69 1l-8 -58h-64q-27 0 -40 -10.5t-20 -39.5t-40.5 -242.5t-35.5 -239.5q-1 -25 8 -32.5t44 -7.5h57l-8 -61q-111 2 -173 2l-174 -2l8 61h57q35 0 47 7.5t19 32.5q9 34 37 212q-194 2 -330 -1q-28 -174 -30 -211q-2 -26 7.5 -33t43.5 -7h57l-8 -61q-111 2 -173 2zM657 766
l-9 -10q-62 34 -108 92q-35 -34 -148 -92l-7 10q38 64 136 141h49q45 -40 87 -141z" />
    <glyph glyph-name="hcircumflex" unicode="&#x125;" horiz-adv-x="544" 
d="M490 172l36 -5q-5 -73 -39.5 -128.5t-95.5 -55.5q-127 0 -82 165l34 123q43 153 -23 153q-110 0 -175 -330l-19 -96q-33 2 -51 2l-51 -2q71 309 119 595q4 25 -3.5 35.5t-36.5 10.5h-25l4 50q87 -4 174 0q-1 -35 -13 -95l-51 -260q58 139 173 139q70 0 89 -48t-9 -155
l-31 -117q-18 -67 -16 -95.5t26 -28.5q50 0 66 143zM336 726l-9 -10q-62 34 -108 92q-35 -34 -148 -92l-7 10q38 64 136 141h49q45 -40 87 -141z" />
    <glyph glyph-name="Hbar" unicode="&#x126;" horiz-adv-x="854" 
d="M-2 -2l8 61h56q35 0 47 7t19 33q14 48 61 371q-16 0 -36.5 -0.5t-22.5 -0.5q7 26 7 50q9 -1 59 -1q8 50 8 63q1 29 -8 39.5t-36 10.5h-63l8 58q111 -2 173 -2q37 0 104 1t69 1l-8 -58h-63q-27 0 -40 -10.5t-20 -39.5q-6 -23 -12 -64h327q2 15 4 28.5t3 24t1 11.5
q1 29 -8.5 39.5t-36.5 10.5h-63l8 58q112 -2 174 -2q37 0 104 1t69 1l-8 -58h-64q-27 0 -40 -10.5t-20 -39.5q-5 -21 -12 -63q48 0 57 1q-7 -21 -7 -50q-2 0 -22 0.5t-36 0.5q-54 -318 -56 -371q-1 -25 8 -32.5t44 -7.5h57l-8 -61q-111 2 -173 2l-174 -2l8 61h57
q35 0 47 7.5t19 32.5q9 34 37 212q-194 2 -330 -1q-28 -174 -30 -211q-2 -26 7.5 -33t43.5 -7h57l-8 -61q-111 2 -173 2zM612 363l16 107q-164 2 -328 0q-1 -4 -17 -107q158 -2 329 0z" />
    <glyph glyph-name="hbar" unicode="&#x127;" horiz-adv-x="544" 
d="M490 172l36 -5q-5 -73 -39.5 -128.5t-95.5 -55.5q-127 0 -82 165l34 123q43 153 -23 153q-110 0 -175 -330l-19 -96q-33 2 -51 2l-51 -2q59 258 106 522q-17 0 -45 -0.5t-37 -0.5q7 26 7 50q42 -2 83 -2l5 26q4 25 -3.5 35.5t-36.5 10.5h-25l4 50q87 -4 174 0
q-1 -35 -13 -95l-5 -27q35 0 73 2q-7 -21 -7 -50q-9 0 -34.5 0.5t-41.5 0.5l-36 -186q58 139 173 139q70 0 89 -48t-9 -155l-31 -117q-18 -67 -16 -95.5t26 -28.5q50 0 66 143z" />
    <glyph glyph-name="Itilde" unicode="&#x128;" horiz-adv-x="414" 
d="M-4 -2l8 61h56q35 0 47 7t19 33t40.5 239t35.5 243q1 29 -8 39.5t-36 10.5h-63l8 58q111 -2 173 -2q37 0 104 1t69 1l-8 -58h-63q-27 0 -40 -10.5t-20 -39.5t-40.5 -242.5t-35.5 -239.5t7.5 -33t43.5 -7h57l-8 -61q-111 2 -173 2zM413 878l19 2q15 -70 -16.5 -104
t-83.5 -30q-33 3 -50.5 18t-33.5 44q-14 26 -19.5 34.5t-15.5 16.5t-23 8q-47 0 -38 -92l-19 -2q-15 71 15 104.5t85 29.5q27 -3 45 -16.5t36 -44.5q11 -19 15 -26t12 -17t15.5 -13.5t17.5 -3.5q48 0 39 92z" />
    <glyph glyph-name="itilde" unicode="&#x129;" horiz-adv-x="324" 
d="M233 306l-47 -175q-23 -99 17 -99q52 0 70 140l36 -5q-3 -44 -16.5 -83.5t-44.5 -70t-74 -30.5q-62 0 -86.5 36.5t-6.5 105.5l53 196q28 103 -6 103q-55 0 -74 -146l-37 5q7 78 40.5 134t93.5 56q127 0 82 -167zM333 648l19 2q15 -70 -16.5 -104t-83.5 -30
q-33 3 -50.5 18t-33.5 44q-14 26 -19.5 34.5t-15.5 16.5t-23 8q-47 0 -38 -92l-19 -2q-15 71 15 104.5t85 29.5q27 -3 45 -16.5t36 -44.5q11 -19 15 -26t12 -17t15.5 -13.5t17.5 -3.5q48 0 39 92z" />
    <glyph glyph-name="Imacron" unicode="&#x12a;" horiz-adv-x="414" 
d="M-4 -2l8 61h56q35 0 47 7t19 33t40.5 239t35.5 243q1 29 -8 39.5t-36 10.5h-63l8 58q111 -2 173 -2q37 0 104 1t69 1l-8 -58h-63q-27 0 -40 -10.5t-20 -39.5t-40.5 -242.5t-35.5 -239.5t7.5 -33t43.5 -7h57l-8 -61q-111 2 -173 2zM164 775q9 33 9 62q128 -4 256 0
q-9 -27 -9 -62q-128 4 -256 0z" />
    <glyph glyph-name="imacron" unicode="&#x12b;" horiz-adv-x="324" 
d="M233 306l-47 -175q-23 -99 17 -99q52 0 70 140l36 -5q-3 -44 -16.5 -83.5t-44.5 -70t-74 -30.5q-62 0 -86.5 36.5t-6.5 105.5l53 196q28 103 -6 103q-55 0 -74 -146l-37 5q7 78 40.5 134t93.5 56q127 0 82 -167zM78 537q9 33 9 62q128 -4 256 0q-9 -27 -9 -62
q-128 4 -256 0z" />
    <glyph glyph-name="Ibreve" unicode="&#x12c;" horiz-adv-x="414" 
d="M-4 -2l8 61h56q35 0 47 7t19 33t40.5 239t35.5 243q1 29 -8 39.5t-36 10.5h-63l8 58q111 -2 173 -2q37 0 104 1t69 1l-8 -58h-63q-27 0 -40 -10.5t-20 -39.5t-40.5 -242.5t-35.5 -239.5t7.5 -33t43.5 -7h57l-8 -61q-111 2 -173 2zM270 751q-70 0 -99 41t-15 104l14 2
q-1 -47 24 -62.5t82 -15.5t85 15.5t35 62.5l14 -2q3 -63 -33.5 -104t-106.5 -41z" />
    <glyph glyph-name="ibreve" unicode="&#x12d;" horiz-adv-x="324" 
d="M233 306l-47 -175q-23 -99 17 -99q52 0 70 140l36 -5q-3 -44 -16.5 -83.5t-44.5 -70t-74 -30.5q-62 0 -86.5 36.5t-6.5 105.5l53 196q28 103 -6 103q-55 0 -74 -146l-37 5q7 78 40.5 134t93.5 56q127 0 82 -167zM186 536q-70 0 -99 41t-15 104l14 2q-1 -47 24 -62.5
t82 -15.5t85 15.5t35 62.5l14 -2q3 -63 -33.5 -104t-106.5 -41z" />
    <glyph glyph-name="Iogonek" unicode="&#x12e;" horiz-adv-x="414" 
d="M279 -84q-19 -122 -133 -122q-46 0 -71 25t-20 67q9 70 97 114l-156 -2l8 61h56q35 0 47 7t19 33t40.5 239t35.5 243q1 29 -8 39.5t-36 10.5h-63l8 58q111 -2 173 -2q37 0 104 1t69 1l-8 -58h-63q-27 0 -40 -10.5t-20 -39.5t-40.5 -242.5t-35.5 -239.5t7.5 -33t43.5 -7
h57l-8 -61q-83 2 -145 2q-69 -36 -73 -93q-3 -28 12.5 -43t40.5 -15q58 0 77 71z" />
    <glyph glyph-name="iogonek" unicode="&#x12f;" horiz-adv-x="324" 
d="M337 -84q-19 -122 -133 -122q-46 0 -71 25t-20 67q8 65 81 102q-18 -5 -29 -5q-54 0 -78 37t-6 105l53 196q28 103 -6 103q-55 0 -74 -146l-37 5q7 78 40.5 134t93.5 56q125 0 82 -167l-47 -175q-14 -55 -10 -77t27 -22q48 0 65 140l36 -5q-8 -95 -64 -156
q-54 -60 -58 -104q-3 -28 12.5 -43t40.5 -15q58 0 77 71zM290 628q-2 -28 -23 -47.5t-52 -19.5q-28 0 -43.5 19.5t-13.5 47.5t22.5 47t52.5 19q28 0 43.5 -19t13.5 -47z" />
    <glyph glyph-name="Idotaccent" unicode="&#x130;" horiz-adv-x="414" 
d="M-4 -2l8 61h56q35 0 47 7t19 33t40.5 239t35.5 243q1 29 -8 39.5t-36 10.5h-63l8 58q111 -2 173 -2q37 0 104 1t69 1l-8 -58h-63q-27 0 -40 -10.5t-20 -39.5t-40.5 -242.5t-35.5 -239.5t7.5 -33t43.5 -7h57l-8 -61q-111 2 -173 2zM353 831q0 -23 -15.5 -38.5t-38.5 -15.5
q-22 0 -37.5 16t-15.5 38t15.5 38t37.5 16q23 0 38.5 -15.5t15.5 -38.5z" />
    <glyph glyph-name="dotlessi" unicode="&#x131;" horiz-adv-x="324" 
d="M233 306l-47 -175q-23 -99 17 -99q52 0 70 140l36 -5q-3 -44 -16.5 -83.5t-44.5 -70t-74 -30.5q-62 0 -86.5 36.5t-6.5 105.5l53 196q28 103 -6 103q-55 0 -74 -146l-37 5q7 78 40.5 134t93.5 56q127 0 82 -167z" />
    <glyph glyph-name="IJ" unicode="&#x132;" horiz-adv-x="952" 
d="M-4 -2l8 61h56q35 0 47 7t19 33t40.5 239t35.5 243q1 29 -8 39.5t-36 10.5h-63l8 58q111 -2 173 -2q37 0 104 1t69 1l-8 -58h-63q-27 0 -40 -10.5t-20 -39.5t-40.5 -242.5t-35.5 -239.5t7.5 -33t43.5 -7h57l-8 -61q-111 2 -173 2zM450 93q-18 0 -31 5q27 -66 115 -66
q64 0 100 39t51 125q59 341 61 385q1 29 -8 39.5t-36 10.5h-52l9 58q105 -2 164 -2q35 0 98 1t66 1l-9 -58h-57q-28 0 -40.5 -10.5t-18.5 -39.5l-61 -384q-32 -222 -258 -222q-93 0 -135 49.5t-32 114.5q6 38 30.5 62.5t64.5 24.5q32 0 49 -19.5t12 -50.5q-10 -63 -82 -63z
" />
    <glyph glyph-name="ij" unicode="&#x133;" horiz-adv-x="553" 
d="M300 628q-2 -28 -23 -47.5t-52 -19.5q-28 0 -43.5 19.5t-13.5 47.5t22.5 47t52.5 19q28 0 43.5 -19t13.5 -47zM520 628q-2 -28 -23 -47.5t-52 -19.5q-28 0 -43.5 19.5t-13.5 47.5t22.5 47t52.5 19q28 0 43.5 -19t13.5 -47zM52 278l-36 5q3 45 16 85.5t44 72.5t74 32
q129 0 83 -167l-33 -119q-42 -155 23 -155q97 0 149 207l44 222q33 -2 51 -2l51 2l-77 -391q-26 -135 -97.5 -205.5t-171.5 -70.5q-66 0 -97.5 36.5t-16.5 82.5q16 50 69 50q26 0 40.5 -15t10.5 -41q-5 -29 -30 -41.5t-56 0.5q15 -41 81 -41q67 0 102.5 52.5t56.5 155.5
l15 79q-57 -129 -168 -129q-70 0 -88.5 46.5t8.5 158.5l29 117q30 119 -4 119q-31 0 -47 -37.5t-25 -108.5z" />
    <glyph glyph-name="Jcircumflex" unicode="&#x134;" horiz-adv-x="568" 
d="M66 93q-18 0 -31 5q27 -66 115 -66q64 0 100 39t51 125q59 341 61 385q1 29 -8 39.5t-36 10.5h-52l9 58q105 -2 164 -2q35 0 98 1t66 1l-9 -58h-57q-28 0 -40.5 -10.5t-18.5 -39.5l-61 -384q-32 -222 -258 -222q-93 0 -135 49.5t-32 114.5q6 38 30.5 62.5t64.5 24.5
q32 0 49 -19.5t12 -50.5q-10 -63 -82 -63zM584 766l-9 -10q-62 34 -108 92q-35 -34 -148 -92l-7 10q38 64 136 141h49q45 -40 87 -141z" />
    <glyph glyph-name="jcircumflex" unicode="&#x135;" horiz-adv-x="279" 
d="M230 306l-55 -283q-23 -119 -77 -174t-138 -55q-46 0 -69 19t-23 49q0 31 17 48.5t44 17.5q20 0 32 -10.5t12 -28.5q0 -28 -19.5 -41t-44.5 -7q12 -16 47 -16q52 0 73.5 43t45.5 168l54 285q19 103 -9 103q-52 0 -71 -146l-37 5q9 87 43.5 138.5t95.5 51.5
q48 0 69.5 -25.5t19 -62.5t-9.5 -79zM311 536l-9 -10q-62 34 -108 92q-35 -34 -148 -92l-7 10q38 64 136 141h49q45 -40 87 -141z" />
    <glyph glyph-name="Kcommaaccent" unicode="&#x136;" horiz-adv-x="834" 
d="M-2 -2l9 61h56q33 0 46 10.5t21 41.5q7 30 39.5 237t34.5 231q3 52 -47 52h-61l9 58q112 -2 174 -2q37 0 104 1t69 1l-9 -58h-63q-48 0 -60 -52q-6 -29 -41 -244l298 238q22 17 12.5 37.5t-41.5 20.5h-42l9 58q112 -2 174 -2q37 0 104 1t69 1l-9 -58h-47q-47 0 -82.5 -15
t-81.5 -51l-174 -137q132 -225 178 -296q31 -48 43 -58q20 -15 58 -15h31l-9 -61q-111 2 -173 2l-174 -2l9 61h43q34 0 45.5 15.5t-2.5 40.5q-80 145 -141 241l-108 -85q-22 -149 -22 -160q-1 -26 8.5 -39t37.5 -13h61l-9 -61q-111 2 -173 2zM347 -154q-43 0 -40 48
q2 23 19 38.5t42 15.5q58 0 53 -70q-3 -50 -42.5 -90t-106.5 -57l-4 20q56 15 90 46.5t36 76.5q-12 -28 -47 -28z" />
    <glyph glyph-name="kcommaaccent" unicode="&#x137;" horiz-adv-x="513" 
d="M462 172l36 -5q-7 -77 -41 -130.5t-96 -53.5q-61 0 -86 34t-6 97q17 56 -5.5 77t-94.5 16q-7 -26 -43 -209q-33 2 -51 2l-51 -2q95 436 119 595q4 25 -3.5 35.5t-36.5 10.5h-25l4 50q87 -4 174 0q-1 -33 -13 -95l-50 -252q59 131 163 131q119 0 89 -123
q-10 -38 -48 -71.5t-89 -50.5q88 -16 62 -133q-7 -32 1 -49t24 -17q51 0 67 143zM310 414q-42 0 -74.5 -40.5t-61.5 -145.5q147 3 171 109q8 39 -2.5 58t-32.5 19zM198 -154q-43 0 -40 48q2 23 19 38.5t42 15.5q58 0 53 -70q-3 -50 -42.5 -90t-106.5 -57l-4 20
q56 15 90 46.5t36 76.5q-12 -28 -47 -28z" />
    <glyph glyph-name="kgreenlandic" unicode="&#x138;" horiz-adv-x="549" 
d="M49 278l-37 5q4 46 17 86t43.5 72t73.5 32q98 0 86 -125q59 125 160 125q119 0 89 -123q-10 -38 -48 -71.5t-89 -50.5q88 -16 62 -133q-7 -32 1 -49t24 -17q50 0 67 143l36 -5q-7 -77 -41 -130.5t-96 -53.5q-61 0 -86 34t-6 97q17 56 -5.5 77t-94.5 17l-6 -25l-39 -185
q-33 2 -51 2l-51 -2q21 82 66 296q16 74 15.5 102t-22.5 28q-24 0 -42 -39t-26 -107zM346 414q-41 0 -73.5 -40.5t-61.5 -145.5q146 3 170 109q8 39 -2.5 58t-32.5 19z" />
    <glyph glyph-name="Lacute" unicode="&#x139;" horiz-adv-x="677" 
d="M452 689l-8 -58h-63q-28 0 -41 -10.5t-20 -39.5q-8 -29 -41.5 -244t-34.5 -238t9 -31.5t34 -8.5h88q81 0 125.5 41t66.5 130l9 36h61q-32 -137 -50 -270q-47 4 -187 4h-233l-169 -2l9 61h57q34 0 45.5 7.5t18.5 33.5q7 27 41 240t35 241q1 29 -8 39.5t-36 10.5h-63l8 58
q112 -2 174 -2q36 0 102 1t71 1zM263 756l-8 10q90 109 123 134q20 14 38.5 6.5t19.5 -25t-17 -34.5q-48 -37 -156 -91z" />
    <glyph glyph-name="lacute" unicode="&#x13a;" horiz-adv-x="283" 
d="M242 594q-26 -122 -86 -441q-14 -67 -11.5 -95.5t26.5 -28.5q50 0 66 143l36 -5q-5 -73 -39.5 -128.5t-95.5 -55.5q-63 0 -83 39.5t1 125.5q44 183 86 445q4 25 -3.5 35.5t-36.5 10.5h-25l7 50q84 -4 168 0q1 -38 -10 -95zM164 724l-8 10q90 109 123 134q20 14 38.5 6.5
t19.5 -25t-17 -34.5q-48 -37 -156 -91z" />
    <glyph glyph-name="Lcommaaccent" unicode="&#x13b;" horiz-adv-x="678" 
d="M453 689l-8 -58h-63q-28 0 -41 -10.5t-20 -39.5q-8 -29 -41.5 -244t-34.5 -238t9 -31.5t34 -8.5h88q81 0 125.5 41t66.5 130l9 36h61q-32 -137 -50 -270q-47 4 -187 4h-233l-169 -2l9 61h57q34 0 45.5 7.5t18.5 33.5q7 27 41 240t35 241q1 29 -8 39.5t-36 10.5h-63l8 58
q112 -2 174 -2q36 0 102 1t71 1zM250 -154q-43 0 -40 48q2 23 19 38.5t42 15.5q58 0 53 -70q-3 -50 -42.5 -90t-106.5 -57l-4 20q56 15 90 46.5t36 76.5q-12 -28 -47 -28z" />
    <glyph glyph-name="lcommaaccent" unicode="&#x13c;" horiz-adv-x="283" 
d="M242 594q-26 -122 -86 -441q-14 -67 -11.5 -95.5t26.5 -28.5q50 0 66 143l36 -5q-5 -73 -39.5 -128.5t-95.5 -55.5q-63 0 -83 39.5t1 125.5q44 183 86 445q4 25 -3.5 35.5t-36.5 10.5h-25l7 50q84 -4 168 0q1 -38 -10 -95zM89 -154q-43 0 -40 48q2 23 19 38.5t42 15.5
q58 0 53 -70q-3 -50 -42.5 -90t-106.5 -57l-4 20q56 15 90 46.5t36 76.5q-12 -28 -47 -28z" />
    <glyph glyph-name="Lcaron" unicode="&#x13d;" horiz-adv-x="677" 
d="M452 689l-8 -58h-63q-28 0 -41 -10.5t-20 -39.5q-8 -29 -41.5 -244t-34.5 -238t9 -31.5t34 -8.5h88q81 0 125.5 41t66.5 130l9 36h61q-32 -137 -50 -270q-47 4 -187 4h-233l-169 -2l9 61h57q34 0 45.5 7.5t18.5 33.5q7 27 41 240t35 241q1 29 -8 39.5t-36 10.5h-63l8 58
q112 -2 174 -2q36 0 102 1t71 1zM591 613q-43 0 -40 48q2 23 19 38.5t42 15.5q58 0 53 -70q-3 -50 -42.5 -90t-106.5 -57l-4 20q56 15 90 46.5t36 76.5q-12 -28 -47 -28z" />
    <glyph glyph-name="lcaron" unicode="&#x13e;" horiz-adv-x="410" 
d="M242 594q-26 -122 -86 -441q-14 -67 -11.5 -95.5t26.5 -28.5q50 0 66 143l36 -5q-5 -73 -39.5 -128.5t-95.5 -55.5q-63 0 -83 39.5t1 125.5q44 183 86 445q4 25 -3.5 35.5t-36.5 10.5h-25l7 50q84 -4 168 0q1 -38 -10 -95zM353 588q-43 0 -40 48q2 23 19 38.5t42 15.5
q58 0 53 -70q-3 -50 -42.5 -90t-106.5 -57l-4 20q56 15 90 46.5t36 76.5q-12 -28 -47 -28z" />
    <glyph glyph-name="Ldot" unicode="&#x13f;" horiz-adv-x="677" 
d="M452 689l-8 -58h-63q-28 0 -41 -10.5t-20 -39.5q-8 -29 -41.5 -244t-34.5 -238t9 -31.5t34 -8.5h88q81 0 125.5 41t66.5 130l9 36h61q-32 -137 -50 -270q-47 4 -187 4h-233l-169 -2l9 61h57q34 0 45.5 7.5t18.5 33.5q7 27 41 240t35 241q1 29 -8 39.5t-36 10.5h-63l8 58
q112 -2 174 -2q36 0 102 1t71 1zM522 356q0 -22 -16 -38t-38 -16t-37.5 16t-15.5 38t15.5 38t37.5 16t38 -16t16 -38z" />
    <glyph glyph-name="ldot" unicode="&#x140;" horiz-adv-x="417" 
d="M242 594q-26 -122 -86 -441q-14 -67 -11.5 -95.5t26.5 -28.5q50 0 66 143l36 -5q-5 -73 -39.5 -128.5t-95.5 -55.5q-63 0 -83 39.5t1 125.5q44 183 86 445q4 25 -3.5 35.5t-36.5 10.5h-25l7 50q84 -4 168 0q1 -38 -10 -95zM411 324q0 -22 -15.5 -38t-38.5 -16
q-22 0 -37.5 16t-15.5 38t15.5 38t37.5 16q23 0 38.5 -16t15.5 -38z" />
    <glyph glyph-name="Lslash" unicode="&#x141;" horiz-adv-x="676" 
d="M451 689l-8 -58h-63q-28 0 -41 -10.5t-20 -39.5q-4 -14 -30 -170l72 37l22 -45q-23 -10 -103 -49q-37 -230 -37 -255q-1 -23 9 -31.5t34 -8.5h88q81 0 125.5 41t66.5 130l9 36h61q-32 -137 -50 -270q-47 4 -187 4h-233l-169 -2l9 61h57q34 0 45.5 7.5t18.5 33.5
q5 20 33 195l-38 -20l-22 45q32 14 70 33q31 195 33 228q1 29 -8 39.5t-36 10.5h-63l8 58q112 -2 174 -2q36 0 102 1t71 1z" />
    <glyph glyph-name="lslash" unicode="&#x142;" horiz-adv-x="283" 
d="M242 594q-22 -101 -35 -171l50 31l25 -43q-45 -25 -87 -50q-7 -33 -13.5 -69t-14 -77t-11.5 -62q-14 -67 -11.5 -95.5t26.5 -28.5q50 0 66 143l36 -5q-5 -73 -39.5 -128.5t-95.5 -55.5q-63 0 -83 39.5t1 125.5q12 51 32 148l-29 -18l-25 43q38 20 67 38q24 123 41 234
q4 25 -3.5 35.5t-36.5 10.5h-25l7 50q84 -4 168 0q1 -38 -10 -95z" />
    <glyph glyph-name="Nacute" unicode="&#x143;" horiz-adv-x="822" 
d="M102 689q114 -4 227 0l270 -496q48 308 55 387q2 29 -8 40t-38 11h-64l9 58q3 0 62 -1t91 -1l152 2l-9 -58h-64q-27 0 -40 -10.5t-20 -40.5q-17 -65 -87 -580h-77l-297 550q-20 -114 -42 -263t-24 -177q-3 -51 67 -51h48l-9 -61q-97 2 -152 2l-153 -2l9 61h46q66 0 78 51
q7 31 39.5 237.5t32.5 233.5q0 29 -10.5 39.5t-37.5 10.5h-63zM488 756l-8 10q90 109 123 134q20 14 38.5 6.5t19.5 -25t-17 -34.5q-48 -37 -156 -91z" />
    <glyph glyph-name="nacute" unicode="&#x144;" horiz-adv-x="580" 
d="M49 278l-37 5q4 46 17 86t43.5 72t73.5 32q101 0 85 -129q59 129 169 129q70 0 89 -48t-9 -155l-31 -117q-18 -67 -16 -95.5t26 -28.5q50 0 66 143l36 -5q-5 -73 -39.5 -128.5t-95.5 -55.5q-127 0 -82 165l34 123q43 153 -23 153q-51 0 -92.5 -66.5t-75.5 -229.5
l-27 -130q-33 2 -51 2l-51 -2q21 82 66 296q16 74 15.5 102t-22.5 28q-24 0 -42 -39t-26 -107zM328 526l-8 10q90 109 123 134q20 14 38.5 6.5t19.5 -25t-17 -34.5q-48 -37 -156 -91z" />
    <glyph glyph-name="Ncommaaccent" unicode="&#x145;" horiz-adv-x="822" 
d="M102 689q114 -4 227 0l270 -496q48 308 55 387q2 29 -8 40t-38 11h-64l9 58q3 0 62 -1t91 -1l152 2l-9 -58h-64q-27 0 -40 -10.5t-20 -40.5q-17 -65 -87 -580h-77l-297 550q-20 -114 -42 -263t-24 -177q-3 -51 67 -51h48l-9 -61q-97 2 -152 2l-153 -2l9 61h46q66 0 78 51
q7 31 39.5 237.5t32.5 233.5q0 29 -10.5 39.5t-37.5 10.5h-63zM360 -154q-43 0 -40 48q2 23 19 38.5t42 15.5q58 0 53 -70q-3 -50 -42.5 -90t-106.5 -57l-4 20q56 15 90 46.5t36 76.5q-12 -28 -47 -28z" />
    <glyph glyph-name="ncommaaccent" unicode="&#x146;" horiz-adv-x="580" 
d="M49 278l-37 5q4 46 17 86t43.5 72t73.5 32q101 0 85 -129q59 129 169 129q70 0 89 -48t-9 -155l-31 -117q-18 -67 -16 -95.5t26 -28.5q50 0 66 143l36 -5q-5 -73 -39.5 -128.5t-95.5 -55.5q-127 0 -82 165l34 123q43 153 -23 153q-51 0 -92.5 -66.5t-75.5 -229.5
l-27 -130q-33 2 -51 2l-51 -2q21 82 66 296q16 74 15.5 102t-22.5 28q-24 0 -42 -39t-26 -107zM235 -154q-43 0 -40 48q2 23 19 38.5t42 15.5q58 0 53 -70q-3 -50 -42.5 -90t-106.5 -57l-4 20q56 15 90 46.5t36 76.5q-12 -28 -47 -28z" />
    <glyph glyph-name="Ncaron" unicode="&#x147;" horiz-adv-x="822" 
d="M102 689q114 -4 227 0l270 -496q48 308 55 387q2 29 -8 40t-38 11h-64l9 58q3 0 62 -1t91 -1l152 2l-9 -58h-64q-27 0 -40 -10.5t-20 -40.5q-17 -65 -87 -580h-77l-297 550q-20 -114 -42 -263t-24 -177q-3 -51 67 -51h48l-9 -61q-97 2 -152 2l-153 -2l9 61h46q66 0 78 51
q7 31 39.5 237.5t32.5 233.5q0 29 -10.5 39.5t-37.5 10.5h-63zM371 907l9 10q28 -15 68 -46t61 -54q87 80 127 100l7 -10q-21 -36 -58 -76.5t-68 -64.5h-49q-25 22 -53.5 63t-43.5 78z" />
    <glyph glyph-name="ncaron" unicode="&#x148;" horiz-adv-x="580" 
d="M49 278l-37 5q4 46 17 86t43.5 72t73.5 32q101 0 85 -129q59 129 169 129q70 0 89 -48t-9 -155l-31 -117q-18 -67 -16 -95.5t26 -28.5q50 0 66 143l36 -5q-5 -73 -39.5 -128.5t-95.5 -55.5q-127 0 -82 165l34 123q43 153 -23 153q-51 0 -92.5 -66.5t-75.5 -229.5
l-27 -130q-33 2 -51 2l-51 -2q21 82 66 296q16 74 15.5 102t-22.5 28q-24 0 -42 -39t-26 -107zM225 677l9 10q28 -15 68 -46t61 -54q87 80 127 100l7 -10q-21 -36 -58 -76.5t-68 -64.5h-49q-25 22 -53.5 63t-43.5 78z" />
    <glyph glyph-name="napostrophe" unicode="&#x149;" horiz-adv-x="580" 
d="M49 278l-37 5q4 46 17 86t43.5 72t73.5 32q101 0 85 -129q59 129 169 129q70 0 89 -48t-9 -155l-31 -117q-18 -67 -16 -95.5t26 -28.5q50 0 66 143l36 -5q-5 -73 -39.5 -128.5t-95.5 -55.5q-127 0 -82 165l34 123q43 153 -23 153q-51 0 -92.5 -66.5t-75.5 -229.5
l-27 -130q-33 2 -51 2l-51 -2q21 82 66 296q16 74 15.5 102t-22.5 28q-24 0 -42 -39t-26 -107zM133 613q-43 0 -40 48q2 23 19 38.5t42 15.5q58 0 53 -70q-3 -50 -42.5 -90t-106.5 -57l-4 20q56 15 90 46.5t36 76.5q-12 -28 -47 -28z" />
    <glyph glyph-name="Eng" unicode="&#x14a;" horiz-adv-x="822" 
d="M102 689q114 -4 227 0l270 -496q48 308 55 387q2 29 -8 40t-38 11h-64l9 58q3 0 62 -1t91 -1l152 2l-9 -58h-64q-27 0 -40 -10.5t-20 -40.5q-17 -65 -87 -580q-15 -109 -64.5 -157.5t-134.5 -48.5q-46 0 -69 19t-23 49q0 31 17.5 48.5t43.5 17.5q20 0 32 -10.5t12 -28.5
q0 -28 -19 -40.5t-45 -6.5q14 -17 53 -17q56 0 93 41t42 134h-15l-297 550q-20 -114 -42 -263t-24 -177q-3 -51 67 -51h48l-9 -61q-97 2 -152 2l-153 -2l9 61h46q66 0 78 51q7 31 39.5 237.5t32.5 233.5q0 29 -10.5 39.5t-37.5 10.5h-63z" />
    <glyph glyph-name="eng" unicode="&#x14b;" horiz-adv-x="533" 
d="M49 278l-37 5q4 46 17 86t43.5 72t73.5 32q101 0 85 -129q59 129 169 129q68 0 85.5 -51.5t-7.5 -151.5l-55 -247q-29 -121 -84.5 -175t-139.5 -54q-46 0 -69 19t-23 49q0 31 17.5 48.5t43.5 17.5q20 0 32 -10.5t12 -28.5q0 -29 -19.5 -40.5t-46.5 -5.5q14 -18 49 -18
q50 0 74.5 42t46.5 135l60 257q14 63 15.5 100t-7.5 51t-29 14q-48 0 -92.5 -69t-73.5 -221l-29 -136q-33 2 -51 2l-51 -2q21 82 66 296q16 74 15.5 102t-22.5 28q-24 0 -42 -39t-26 -107z" />
    <glyph glyph-name="Omacron" unicode="&#x14c;" horiz-adv-x="782" 
d="M356 30q110 0 172 76.5t86 240.5q26 170 -13.5 239.5t-149.5 69.5q-105 0 -169.5 -74.5t-88.5 -235.5q-25 -172 12.5 -244t150.5 -72zM348 -25q-166 0 -238 95t-45 276q27 177 134.5 270.5t259.5 93.5q337 0 282 -363q-26 -178 -134 -275t-259 -97zM363 775q9 33 9 62
q128 -4 256 0q-9 -27 -9 -62q-128 4 -256 0z" />
    <glyph glyph-name="omacron" unicode="&#x14d;" horiz-adv-x="463" 
d="M195 24q50 0 84.5 75t49.5 205q9 77 -8 102.5t-55 25.5q-51 0 -84.5 -77.5t-48.5 -202.5q-9 -75 8.5 -101.5t53.5 -26.5zM194 -17q-189 0 -162 215q5 41 19.5 84t40.5 88.5t71.5 74t102.5 28.5q84 0 128 -46.5t36 -143.5q-4 -53 -18.5 -102.5t-41 -95.5t-72 -74
t-104.5 -28zM165 537q9 33 9 62q128 -4 256 0q-9 -27 -9 -62q-128 4 -256 0z" />
    <glyph glyph-name="Obreve" unicode="&#x14e;" horiz-adv-x="782" 
d="M356 30q110 0 172 76.5t86 240.5q26 170 -13.5 239.5t-149.5 69.5q-105 0 -169.5 -74.5t-88.5 -235.5q-25 -172 12.5 -244t150.5 -72zM348 -25q-166 0 -238 95t-45 276q27 177 134.5 270.5t259.5 93.5q337 0 282 -363q-26 -178 -134 -275t-259 -97zM490 751q-70 0 -99 41
t-15 104l14 2q-1 -47 24 -62.5t82 -15.5t85 15.5t35 62.5l14 -2q3 -63 -33.5 -104t-106.5 -41z" />
    <glyph glyph-name="obreve" unicode="&#x14f;" horiz-adv-x="463" 
d="M195 24q50 0 84.5 75t49.5 205q9 77 -8 102.5t-55 25.5q-51 0 -84.5 -77.5t-48.5 -202.5q-9 -75 8.5 -101.5t53.5 -26.5zM194 -17q-189 0 -162 215q5 41 19.5 84t40.5 88.5t71.5 74t102.5 28.5q84 0 128 -46.5t36 -143.5q-4 -53 -18.5 -102.5t-41 -95.5t-72 -74
t-104.5 -28zM316 536q-70 0 -99 41t-15 104l14 2q-1 -47 24 -62.5t82 -15.5t85 15.5t35 62.5l14 -2q3 -63 -33.5 -104t-106.5 -41z" />
    <glyph glyph-name="Ohungarumlaut" unicode="&#x150;" horiz-adv-x="782" 
d="M356 30q110 0 172 76.5t86 240.5q26 170 -13.5 239.5t-149.5 69.5q-105 0 -169.5 -74.5t-88.5 -235.5q-25 -172 12.5 -244t150.5 -72zM348 -25q-166 0 -238 95t-45 276q27 177 134.5 270.5t259.5 93.5q337 0 282 -363q-26 -178 -134 -275t-259 -97zM368 750l-9 8
q74 118 103 148q17 17 36.5 13.5t23 -20.5t-12.5 -36q-48 -50 -141 -113zM532 750l-9 8q72 117 103 148q17 17 36.5 13t23 -20.5t-12.5 -35.5q-48 -50 -141 -113z" />
    <glyph glyph-name="ohungarumlaut" unicode="&#x151;" horiz-adv-x="463" 
d="M195 24q50 0 84.5 75t49.5 205q9 77 -8 102.5t-55 25.5q-51 0 -84.5 -77.5t-48.5 -202.5q-9 -75 8.5 -101.5t53.5 -26.5zM194 -17q-189 0 -162 215q5 41 19.5 84t40.5 88.5t71.5 74t102.5 28.5q84 0 128 -46.5t36 -143.5q-4 -53 -18.5 -102.5t-41 -95.5t-72 -74
t-104.5 -28zM202 520l-9 8q74 118 103 148q17 17 36.5 13.5t23 -20.5t-12.5 -36q-48 -50 -141 -113zM366 520l-9 8q72 117 103 148q17 17 36.5 13t23 -20.5t-12.5 -35.5q-48 -50 -141 -113z" />
    <glyph glyph-name="OE" unicode="&#x152;" horiz-adv-x="1116" 
d="M878 491l2 15h55q-22 -89 -31 -154q-12 -80 -15 -160h-53l1 12q8 66 -17.5 94.5t-97.5 28.5h-55q-30 -191 -30 -216q-1 -25 12 -38.5t35 -13.5h139q98 0 135 39.5t55 154.5l1 11h61q-21 -86 -40 -268q-46 4 -197 4h-350q-69 -25 -140 -25q-166 0 -238 95t-45 276
q27 177 134.5 270.5t259.5 93.5q82 0 139 -22h71h41t96 0.5t122 0.5q160 0 208 6q-21 -98 -44 -250l-54 -1l2 11q7 41 10 66t0 46.5t-10.5 32t-26 17.5t-42 9t-61.5 2h-146q-25 0 -36 -9t-18 -38q-7 -26 -35 -206h69q61 0 92.5 26.5t41.5 89.5zM515 72q7 26 45.5 270.5
t40.5 273.5q-44 40 -140 40q-112 0 -177.5 -73t-90.5 -237q-26 -171 12 -243.5t151 -72.5q45 0 89.5 13.5t69.5 28.5z" />
    <glyph glyph-name="oe" unicode="&#x153;" horiz-adv-x="720" 
d="M481 -17q-105 0 -145 58q-58 -58 -142 -58q-189 0 -162 215q5 41 19.5 84t40.5 88.5t71.5 74t102.5 28.5q100 0 140 -63q62 63 149 63q73 0 100 -37t19 -97q-6 -42 -33 -72t-66.5 -43.5t-75.5 -19t-74 -5.5q-16 -90 -1 -132.5t64 -42.5q50 0 82 26t48 98l37 -10
q-21 -78 -62 -116.5t-112 -38.5zM195 24q50 0 84.5 75t49.5 205q9 77 -8 102.5t-55 25.5q-51 0 -84.5 -77.5t-48.5 -202.5q-9 -75 8.5 -101.5t53.5 -26.5zM431 230q-1 -2 -1 -5q71 0 106 20t48 81q11 35 1.5 70.5t-41.5 35.5q-42 0 -65.5 -41t-47.5 -161z" />
    <glyph glyph-name="Racute" unicode="&#x154;" horiz-adv-x="792" 
d="M587 191q-1 -84 9 -114.5t39 -30.5q26 0 42.5 46.5t15.5 113.5l51 5q2 -45 -4.5 -83.5t-22.5 -72.5t-48 -53t-77 -19q-94 0 -121 46.5t-17 149.5q8 77 -18.5 104.5t-83.5 27.5h-81q-28 -186 -27 -205q2 -26 12.5 -36.5t38.5 -10.5h57l-9 -61q-110 2 -172 2l-173 -2l9 61
h51q35 0 48.5 7.5t21.5 32.5q8 24 40.5 236.5t35.5 245.5q2 29 -7.5 39.5t-36.5 10.5h-64l8 59q2 0 71 -1.5t104 -1.5q23 0 86 1t83 1q127 0 187.5 -50t46.5 -142q-11 -72 -63.5 -118t-122.5 -54q52 -14 72 -46.5t19 -87.5zM318 585q-7 -21 -39 -226h91q91 0 135.5 31.5
t55.5 106.5q11 74 -23 107t-115 33h-35q-32 0 -46.5 -12t-23.5 -40zM433 756l-8 10q90 109 123 134q20 14 38.5 6.5t19.5 -25t-17 -34.5q-48 -37 -156 -91z" />
    <glyph glyph-name="racute" unicode="&#x155;" horiz-adv-x="434" 
d="M295 345q5 30 36.5 41t53.5 -3q-2 24 -15 38t-35 14q-40 0 -68.5 -37.5t-40.5 -91.5l-65 -308q-33 2 -51 2l-51 -2q15 58 65 296q21 103 16 119q-3 11 -16 11q-55 0 -74 -146l-37 5q4 46 17 86t43.5 72t73.5 32q76 0 86 -77q39 77 112 77q38 0 59.5 -25.5t16.5 -71.5
q-10 -90 -76 -90q-26 0 -41 15t-9 44zM252 526l-8 10q90 109 123 134q20 14 38.5 6.5t19.5 -25t-17 -34.5q-48 -37 -156 -91z" />
    <glyph glyph-name="Rcommaaccent" unicode="&#x156;" horiz-adv-x="792" 
d="M587 191q-1 -84 9 -114.5t39 -30.5q26 0 42.5 46.5t15.5 113.5l51 5q2 -45 -4.5 -83.5t-22.5 -72.5t-48 -53t-77 -19q-94 0 -121 46.5t-17 149.5q8 77 -18.5 104.5t-83.5 27.5h-81q-28 -186 -27 -205q2 -26 12.5 -36.5t38.5 -10.5h57l-9 -61q-110 2 -172 2l-173 -2l9 61
h51q35 0 48.5 7.5t21.5 32.5q8 24 40.5 236.5t35.5 245.5q2 29 -7.5 39.5t-36.5 10.5h-64l8 59q2 0 71 -1.5t104 -1.5q23 0 86 1t83 1q127 0 187.5 -50t46.5 -142q-11 -72 -63.5 -118t-122.5 -54q52 -14 72 -46.5t19 -87.5zM318 585q-7 -21 -39 -226h91q91 0 135.5 31.5
t55.5 106.5q11 74 -23 107t-115 33h-35q-32 0 -46.5 -12t-23.5 -40zM304 -154q-43 0 -40 48q2 23 19 38.5t42 15.5q58 0 53 -70q-3 -50 -42.5 -90t-106.5 -57l-4 20q56 15 90 46.5t36 76.5q-12 -28 -47 -28z" />
    <glyph glyph-name="rcommaaccent" unicode="&#x157;" horiz-adv-x="418" 
d="M295 345q5 30 36.5 41t53.5 -3q-2 24 -15 38t-35 14q-40 0 -68.5 -37.5t-40.5 -91.5l-65 -308q-33 2 -51 2l-51 -2q15 58 65 296q21 103 16 119q-3 11 -16 11q-55 0 -74 -146l-37 5q4 46 17 86t43.5 72t73.5 32q76 0 86 -77q39 77 112 77q38 0 59.5 -25.5t16.5 -71.5
q-10 -90 -76 -90q-26 0 -41 15t-9 44zM76 -154q-43 0 -40 48q2 23 19 38.5t42 15.5q58 0 53 -70q-3 -50 -42.5 -90t-106.5 -57l-4 20q56 15 90 46.5t36 76.5q-12 -28 -47 -28z" />
    <glyph glyph-name="Rcaron" unicode="&#x158;" horiz-adv-x="792" 
d="M587 191q-1 -84 9 -114.5t39 -30.5q26 0 42.5 46.5t15.5 113.5l51 5q2 -45 -4.5 -83.5t-22.5 -72.5t-48 -53t-77 -19q-94 0 -121 46.5t-17 149.5q8 77 -18.5 104.5t-83.5 27.5h-81q-28 -186 -27 -205q2 -26 12.5 -36.5t38.5 -10.5h57l-9 -61q-110 2 -172 2l-173 -2l9 61
h51q35 0 48.5 7.5t21.5 32.5q8 24 40.5 236.5t35.5 245.5q2 29 -7.5 39.5t-36.5 10.5h-64l8 59q2 0 71 -1.5t104 -1.5q23 0 86 1t83 1q127 0 187.5 -50t46.5 -142q-11 -72 -63.5 -118t-122.5 -54q52 -14 72 -46.5t19 -87.5zM318 585q-7 -21 -39 -226h91q91 0 135.5 31.5
t55.5 106.5q11 74 -23 107t-115 33h-35q-32 0 -46.5 -12t-23.5 -40zM315 907l9 10q28 -15 68 -46t61 -54q87 80 127 100l7 -10q-21 -36 -58 -76.5t-68 -64.5h-49q-25 22 -53.5 63t-43.5 78z" />
    <glyph glyph-name="rcaron" unicode="&#x159;" horiz-adv-x="434" 
d="M295 345q5 30 36.5 41t53.5 -3q-2 24 -15 38t-35 14q-40 0 -68.5 -37.5t-40.5 -91.5l-65 -308q-33 2 -51 2l-51 -2q15 58 65 296q21 103 16 119q-3 11 -16 11q-55 0 -74 -146l-37 5q4 46 17 86t43.5 72t73.5 32q76 0 86 -77q39 77 112 77q38 0 59.5 -25.5t16.5 -71.5
q-10 -90 -76 -90q-26 0 -41 15t-9 44zM135 677l9 10q28 -15 68 -46t61 -54q87 80 127 100l7 -10q-21 -36 -58 -76.5t-68 -64.5h-49q-25 22 -53.5 63t-43.5 78z" />
    <glyph glyph-name="Sacute" unicode="&#x15a;" horiz-adv-x="657" 
d="M363 655q-157 0 -173 -101q-9 -61 33 -87.5t158 -42.5q248 -34 214 -252q-13 -87 -83 -139.5t-195 -52.5q-57 0 -112.5 12.5t-80.5 26.5q-52 28 -61 -21q-32 4 -64 0q46 121 53 243q7 -1 29.5 -1t29.5 1q-15 -104 35 -154.5t176 -50.5q160 0 177 111q10 66 -35 97.5
t-161 47.5q-231 31 -201 229q14 91 87 142t188 47q80 -3 154 -41q15 -12 30.5 -10t20.5 30q10 -1 30.5 -1t30.5 1q-40 -102 -44 -219q-7 1 -29.5 1t-29.5 -1q27 185 -177 185zM380 756l-8 10q90 109 123 134q20 14 38.5 6.5t19.5 -25t-17 -34.5q-48 -37 -156 -91z" />
    <glyph glyph-name="sacute" unicode="&#x15b;" horiz-adv-x="410" 
d="M256 440q-88 0 -110 -52q-30 -77 84 -108q162 -44 129 -172q-15 -58 -66 -91.5t-127 -33.5q-74 0 -117.5 30.5t-32.5 86.5q5 22 22 36.5t41 14.5q23 0 35 -15t7 -39q-4 -22 -23 -30.5t-40 -2.5q26 -43 108 -43q101 0 119 60q10 36 -10 61.5t-86 44.5q-80 23 -108.5 63.5
t-12.5 102.5q15 54 65.5 87t125.5 33q68 0 103 -29.5t28 -77.5q-8 -50 -60 -50q-22 0 -34 13.5t-9 33.5q4 24 21.5 34t40.5 6q-27 37 -93 37zM239 526l-8 10q90 109 123 134q20 14 38.5 6.5t19.5 -25t-17 -34.5q-48 -37 -156 -91z" />
    <glyph glyph-name="Scircumflex" unicode="&#x15c;" horiz-adv-x="657" 
d="M363 655q-157 0 -173 -101q-9 -61 33 -87.5t158 -42.5q248 -34 214 -252q-13 -87 -83 -139.5t-195 -52.5q-57 0 -112.5 12.5t-80.5 26.5q-52 28 -61 -21q-32 4 -64 0q46 121 53 243q7 -1 29.5 -1t29.5 1q-15 -104 35 -154.5t176 -50.5q160 0 177 111q10 66 -35 97.5
t-161 47.5q-231 31 -201 229q14 91 87 142t188 47q80 -3 154 -41q15 -12 30.5 -10t20.5 30q10 -1 30.5 -1t30.5 1q-40 -102 -44 -219q-7 1 -29.5 1t-29.5 -1q27 185 -177 185zM533 766l-9 -10q-62 34 -108 92q-35 -34 -148 -92l-7 10q38 64 136 141h49q45 -40 87 -141z" />
    <glyph glyph-name="scircumflex" unicode="&#x15d;" horiz-adv-x="410" 
d="M256 440q-88 0 -110 -52q-30 -77 84 -108q162 -44 129 -172q-15 -58 -66 -91.5t-127 -33.5q-74 0 -117.5 30.5t-32.5 86.5q5 22 22 36.5t41 14.5q23 0 35 -15t7 -39q-4 -22 -23 -30.5t-40 -2.5q26 -43 108 -43q101 0 119 60q10 36 -10 61.5t-86 44.5q-80 23 -108.5 63.5
t-12.5 102.5q15 54 65.5 87t125.5 33q68 0 103 -29.5t28 -77.5q-8 -50 -60 -50q-22 0 -34 13.5t-9 33.5q4 24 21.5 34t40.5 6q-27 37 -93 37zM392 536l-9 -10q-62 34 -108 92q-35 -34 -148 -92l-7 10q38 64 136 141h49q45 -40 87 -141z" />
    <glyph glyph-name="Scedilla" unicode="&#x15e;" horiz-adv-x="657" 
d="M233 -115l-10 18q55 33 72 78q-113 5 -171 38q-52 28 -61 -21q-32 4 -64 0q46 121 53 243q7 -1 29.5 -1t29.5 1q-15 -104 35 -154.5t176 -50.5q160 0 177 111q10 66 -35 97.5t-161 47.5q-231 31 -201 229q14 91 87 142t188 47q80 -3 154 -41q15 -12 30.5 -10t20.5 30
q10 -1 30.5 -1t30.5 1q-40 -102 -44 -219q-7 1 -29.5 1t-29.5 -1q27 185 -177 185q-157 0 -173 -101q-9 -61 33 -87.5t158 -42.5q248 -34 214 -252q-13 -87 -83 -139.5t-195 -52.5h-1q-7 -36 -35 -61q45 8 79.5 -12t30.5 -65t-37.5 -70.5t-88.5 -25.5q-38 0 -62.5 18
t-31.5 44l22 15q23 -37 65 -37q58 0 63 56q3 32 -24.5 44.5t-63.5 -1.5z" />
    <glyph glyph-name="scedilla" unicode="&#x15f;" horiz-adv-x="410" 
d="M97 -115l-10 18q58 35 73 80q-72 2 -113.5 31.5t-30.5 85.5q5 22 22 36.5t41 14.5q23 0 35 -15t7 -39q-4 -22 -23 -30.5t-40 -2.5q26 -43 108 -43q101 0 119 60q10 36 -10 61.5t-86 44.5q-80 23 -108.5 63.5t-12.5 102.5q15 54 65.5 87t125.5 33q68 0 103 -29.5t28 -77.5
q-8 -50 -60 -50q-22 0 -34 13.5t-9 33.5q4 24 21.5 34t40.5 6q-27 37 -93 37q-88 0 -110 -52q-30 -77 84 -108q162 -44 129 -172q-14 -55 -61 -88t-117 -36q-7 -39 -36 -65q45 8 79.5 -12t30.5 -65t-37.5 -70.5t-88.5 -25.5q-38 0 -62.5 18t-31.5 44l22 15q23 -37 65 -37
q58 0 63 56q3 32 -24.5 44.5t-63.5 -1.5z" />
    <glyph glyph-name="Scaron" unicode="&#x160;" horiz-adv-x="657" 
d="M363 655q-157 0 -173 -101q-9 -61 33 -87.5t158 -42.5q248 -34 214 -252q-13 -87 -83 -139.5t-195 -52.5q-57 0 -112.5 12.5t-80.5 26.5q-52 28 -61 -21q-32 4 -64 0q46 121 53 243q7 -1 29.5 -1t29.5 1q-15 -104 35 -154.5t176 -50.5q160 0 177 111q10 66 -35 97.5
t-161 47.5q-231 31 -201 229q14 91 87 142t188 47q80 -3 154 -41q15 -12 30.5 -10t20.5 30q10 -1 30.5 -1t30.5 1q-40 -102 -44 -219q-7 1 -29.5 1t-29.5 -1q27 185 -177 185zM282 907l9 10q28 -15 68 -46t61 -54q87 80 127 100l7 -10q-21 -36 -58 -76.5t-68 -64.5h-49
q-25 22 -53.5 63t-43.5 78z" />
    <glyph glyph-name="scaron" unicode="&#x161;" horiz-adv-x="410" 
d="M256 440q-88 0 -110 -52q-30 -77 84 -108q162 -44 129 -172q-15 -58 -66 -91.5t-127 -33.5q-74 0 -117.5 30.5t-32.5 86.5q5 22 22 36.5t41 14.5q23 0 35 -15t7 -39q-4 -22 -23 -30.5t-40 -2.5q26 -43 108 -43q101 0 119 60q10 36 -10 61.5t-86 44.5q-80 23 -108.5 63.5
t-12.5 102.5q15 54 65.5 87t125.5 33q68 0 103 -29.5t28 -77.5q-8 -50 -60 -50q-22 0 -34 13.5t-9 33.5q4 24 21.5 34t40.5 6q-27 37 -93 37zM146 677l9 10q28 -15 68 -46t61 -54q87 80 127 100l7 -10q-21 -36 -58 -76.5t-68 -64.5h-49q-25 22 -53.5 63t-43.5 78z" />
    <glyph glyph-name="Tcommaaccent" unicode="&#x162;" horiz-adv-x="711" 
d="M243 -115l-10 18q36 22 53.5 43.5t24.5 53.5l-172 -2l8 61h57q34 0 46 7t19 33q13 51 84 531h-104q-44 0 -68.5 -22t-35.5 -71l-19 -90q-25 3 -57 0q24 131 33 245q73 -5 156 -5h324q61 0 154 5q-32 -151 -43 -245q-27 3 -55 0l11 90q10 93 -76 93h-106
q-75 -458 -82 -531q-2 -21 9 -30.5t41 -9.5h58l-8 -61q-93 2 -156 2q0 -47 -38 -81q45 8 79.5 -12t30.5 -65t-37.5 -70.5t-88.5 -25.5q-38 0 -62.5 18t-31.5 44l22 15q23 -37 65 -37q58 0 63 56q3 32 -24.5 44.5t-63.5 -1.5z" />
    <glyph glyph-name="tcommaaccent" unicode="&#x163;" horiz-adv-x="333" 
d="M63 -115l-10 18q31 19 48 37.5t25 43.5q-114 7 -87 159q5 27 28 128t31 145l-54 -1l4 44q77 0 112.5 39t66.5 136h31q-41 -149 -46 -177l108 2l-5 -44l-111 1l-53 -267q-12 -63 -7.5 -90t29.5 -27q26 0 43.5 35t21.5 105l36 -5q-6 -89 -36.5 -135t-90.5 -49
q-7 -38 -36 -64q45 8 79.5 -12t30.5 -65t-37.5 -70.5t-88.5 -25.5q-38 0 -62.5 18t-31.5 44l22 15q23 -37 65 -37q58 0 63 56q3 32 -24.5 44.5t-63.5 -1.5z" />
    <glyph glyph-name="Tcaron" unicode="&#x164;" horiz-adv-x="711" 
d="M573 630h-106q-75 -458 -82 -531q-2 -21 9 -30.5t41 -9.5h58l-8 -61q-111 2 -173 2l-173 -2l8 61h57q34 0 46 7t19 33q13 51 84 531h-104q-44 0 -68.5 -22t-35.5 -71l-19 -90q-25 3 -57 0q24 131 33 245q73 -5 156 -5h324q61 0 154 5q-32 -151 -43 -245q-27 3 -55 0
l11 90q10 93 -76 93zM307 907l9 10q28 -15 68 -46t61 -54q87 80 127 100l7 -10q-21 -36 -58 -76.5t-68 -64.5h-49q-25 22 -53.5 63t-43.5 78z" />
    <glyph glyph-name="tcaron" unicode="&#x165;" horiz-adv-x="446" 
d="M238 172l36 -5q-6 -92 -38 -138t-97 -46q-128 0 -100 160q5 27 28 128t31 145l-54 -1l4 44q77 0 112.5 39t66.5 136h31q-41 -149 -46 -177l108 2l-5 -44l-111 1l-53 -267q-12 -63 -7.5 -90t29.5 -27q26 0 43.5 35t21.5 105zM389 588q-43 0 -40 48q2 23 19 38.5t42 15.5
q58 0 53 -70q-3 -50 -42.5 -90t-106.5 -57l-4 20q56 15 90 46.5t36 76.5q-12 -28 -47 -28z" />
    <glyph glyph-name="Tbar" unicode="&#x166;" horiz-adv-x="711" 
d="M573 630h-106l-51 -314l140 7l-10 -56q-18 0 -136 6q-22 -140 -25 -174q-2 -21 9 -30.5t41 -9.5h58l-8 -61q-111 2 -173 2l-173 -2l8 61h57q34 0 46 7t19 33q8 35 30 175q-109 -7 -142 -7l10 56q18 0 138 -8q18 110 48 315h-104q-44 0 -68.5 -22t-35.5 -71l-19 -90
q-25 3 -57 0q24 131 33 245q73 -5 156 -5h324q61 0 154 5q-32 -151 -43 -245q-27 3 -55 0l11 90q10 93 -76 93z" />
    <glyph glyph-name="tbar" unicode="&#x167;" horiz-adv-x="323" 
d="M238 172l36 -5q-6 -92 -38 -138t-97 -46q-128 0 -100 160l7.5 35t11.5 51.5t11 50.5q-18 -2 -48 -4l6 45l50 -4l21 99l-54 -1l4 44q77 0 112.5 39t66.5 136h31q-41 -149 -46 -177l108 2l-5 -44l-111 1l-20 -100l115 5l-8 -45q-33 3 -114 5l-26 -132q-12 -63 -7.5 -90
t29.5 -27q26 0 43.5 35t21.5 105z" />
    <glyph glyph-name="Utilde" unicode="&#x168;" horiz-adv-x="834" 
d="M140 282q40 247 43 290q2 33 -6.5 46t-36.5 13h-46l9 58q104 -2 163 -2q35 0 97.5 1t65.5 1l-9 -58h-46q-30 0 -43.5 -12t-24.5 -47q-4 -14 -11 -58t-17.5 -122.5t-16.5 -118.5q-17 -120 19.5 -171t128.5 -51t141.5 49t69.5 173q44 282 45 299q5 59 -49 59h-42l9 58
q92 -2 144 -2q31 0 85 1t58 1l-9 -58h-43q-50 0 -61 -60l-43 -290q-45 -301 -325 -301q-149 0 -211 71.5t-38 230.5zM653 878l19 2q15 -70 -16.5 -104t-83.5 -30q-33 3 -50.5 18t-33.5 44q-14 26 -19.5 34.5t-15.5 16.5t-23 8q-47 0 -38 -92l-19 -2q-15 71 15 104.5t85 29.5
q27 -3 45 -16.5t36 -44.5q11 -19 15 -26t12 -17t15.5 -13.5t17.5 -3.5q48 0 39 92z" />
    <glyph glyph-name="utilde" unicode="&#x169;" horiz-adv-x="583" 
d="M528 172l36 -5q-5 -70 -39 -127t-92 -57q-57 0 -77 28t-10 96q-59 -124 -167 -124q-70 0 -88.5 49t9.5 156l30 117q12 47 14.5 74t-2.5 36t-16 9q-55 0 -74 -146l-36 5q6 74 38.5 132t94.5 58t83 -48.5t2 -118.5l-33 -119q-43 -155 22 -155q47 0 89.5 61t71.5 197l35 169
q33 -1 51 -1l51 1q-39 -162 -65 -295q-17 -82 -16.5 -108.5t18.5 -26.5q51 0 70 143zM448 648l19 2q15 -70 -16.5 -104t-83.5 -30q-33 3 -50.5 18t-33.5 44q-14 26 -19.5 34.5t-15.5 16.5t-23 8q-47 0 -38 -92l-19 -2q-15 71 15 104.5t85 29.5q27 -3 45 -16.5t36 -44.5
q11 -19 15 -26t12 -17t15.5 -13.5t17.5 -3.5q48 0 39 92z" />
    <glyph glyph-name="Umacron" unicode="&#x16a;" horiz-adv-x="834" 
d="M140 282q40 247 43 290q2 33 -6.5 46t-36.5 13h-46l9 58q104 -2 163 -2q35 0 97.5 1t65.5 1l-9 -58h-46q-30 0 -43.5 -12t-24.5 -47q-4 -14 -11 -58t-17.5 -122.5t-16.5 -118.5q-17 -120 19.5 -171t128.5 -51t141.5 49t69.5 173q44 282 45 299q5 59 -49 59h-42l9 58
q92 -2 144 -2q31 0 85 1t58 1l-9 -58h-43q-50 0 -61 -60l-43 -290q-45 -301 -325 -301q-149 0 -211 71.5t-38 230.5zM388 775q9 33 9 62q128 -4 256 0q-9 -27 -9 -62q-128 4 -256 0z" />
    <glyph glyph-name="umacron" unicode="&#x16b;" horiz-adv-x="583" 
d="M528 172l36 -5q-5 -70 -39 -127t-92 -57q-57 0 -77 28t-10 96q-59 -124 -167 -124q-70 0 -88.5 49t9.5 156l30 117q12 47 14.5 74t-2.5 36t-16 9q-55 0 -74 -146l-36 5q6 74 38.5 132t94.5 58t83 -48.5t2 -118.5l-33 -119q-43 -155 22 -155q47 0 89.5 61t71.5 197l35 169
q33 -1 51 -1l51 1q-39 -162 -65 -295q-17 -82 -16.5 -108.5t18.5 -26.5q51 0 70 143zM205 537q9 33 9 62q128 -4 256 0q-9 -27 -9 -62q-128 4 -256 0z" />
    <glyph glyph-name="Ubreve" unicode="&#x16c;" horiz-adv-x="834" 
d="M140 282q40 247 43 290q2 33 -6.5 46t-36.5 13h-46l9 58q104 -2 163 -2q35 0 97.5 1t65.5 1l-9 -58h-46q-30 0 -43.5 -12t-24.5 -47q-4 -14 -11 -58t-17.5 -122.5t-16.5 -118.5q-17 -120 19.5 -171t128.5 -51t141.5 49t69.5 173q44 282 45 299q5 59 -49 59h-42l9 58
q92 -2 144 -2q31 0 85 1t58 1l-9 -58h-43q-50 0 -61 -60l-43 -290q-45 -301 -325 -301q-149 0 -211 71.5t-38 230.5zM507 751q-70 0 -99 41t-15 104l14 2q-1 -47 24 -62.5t82 -15.5t85 15.5t35 62.5l14 -2q3 -63 -33.5 -104t-106.5 -41z" />
    <glyph glyph-name="ubreve" unicode="&#x16d;" horiz-adv-x="583" 
d="M528 172l36 -5q-5 -70 -39 -127t-92 -57q-57 0 -77 28t-10 96q-59 -124 -167 -124q-70 0 -88.5 49t9.5 156l30 117q12 47 14.5 74t-2.5 36t-16 9q-55 0 -74 -146l-36 5q6 74 38.5 132t94.5 58t83 -48.5t2 -118.5l-33 -119q-39 -155 22 -155q47 0 89.5 61t71.5 197l35 169
q33 -1 51 -1l51 1q-39 -162 -65 -295q-17 -82 -16.5 -108.5t18.5 -26.5q51 0 70 143zM338 536q-70 0 -99 41t-15 104l14 2q-1 -47 24 -62.5t82 -15.5t85 15.5t35 62.5l14 -2q3 -63 -33.5 -104t-106.5 -41z" />
    <glyph glyph-name="Uring" unicode="&#x16e;" horiz-adv-x="834" 
d="M140 282q40 247 43 290q2 33 -6.5 46t-36.5 13h-46l9 58q104 -2 163 -2q35 0 97.5 1t65.5 1l-9 -58h-46q-30 0 -43.5 -12t-24.5 -47q-4 -14 -11 -58t-17.5 -122.5t-16.5 -118.5q-17 -120 19.5 -171t128.5 -51t141.5 49t69.5 173q44 282 45 299q5 59 -49 59h-42l9 58
q92 -2 144 -2q31 0 85 1t58 1l-9 -58h-43q-50 0 -61 -60l-43 -290q-45 -301 -325 -301q-149 0 -211 71.5t-38 230.5zM485 850q-3 -25 8 -38.5t33 -13.5q21 0 35.5 14t17.5 38q2 24 -9 37t-33 13q-47 0 -52 -50zM448 850q4 37 29 60t62 23t58.5 -23t17.5 -60
q-5 -37 -30 -60.5t-62 -23.5t-58 23.5t-17 60.5z" />
    <glyph glyph-name="uring" unicode="&#x16f;" horiz-adv-x="583" 
d="M528 172l36 -5q-5 -70 -39 -127t-92 -57q-57 0 -77 28t-10 96q-59 -124 -167 -124q-70 0 -88.5 49t9.5 156l30 117q12 47 14.5 74t-2.5 36t-16 9q-55 0 -74 -146l-36 5q6 74 38.5 132t94.5 58t83 -48.5t2 -118.5l-33 -119q-43 -155 22 -155q47 0 89.5 61t71.5 197l35 169
q33 -1 51 -1l51 1q-39 -162 -65 -295q-17 -82 -16.5 -108.5t18.5 -26.5q51 0 70 143zM296 605q-3 -25 8 -38.5t33 -13.5q21 0 35.5 14t17.5 38q2 24 -9 37t-33 13q-47 0 -52 -50zM259 605q4 37 29 60t62 23t58.5 -23t17.5 -60q-5 -37 -30 -60.5t-62 -23.5t-58 23.5t-17 60.5
z" />
    <glyph glyph-name="Uhungarumlaut" unicode="&#x170;" horiz-adv-x="834" 
d="M140 282q40 247 43 290q2 33 -6.5 46t-36.5 13h-46l9 58q104 -2 163 -2q35 0 97.5 1t65.5 1l-9 -58h-46q-30 0 -43.5 -12t-24.5 -47q-4 -14 -11 -58t-17.5 -122.5t-16.5 -118.5q-17 -120 19.5 -171t128.5 -51t141.5 49t69.5 173q44 282 45 299q5 59 -49 59h-42l9 58
q92 -2 144 -2q31 0 85 1t58 1l-9 -58h-43q-50 0 -61 -60l-43 -290q-45 -301 -325 -301q-149 0 -211 71.5t-38 230.5zM406 750l-9 8q74 118 103 148q17 17 36.5 13.5t23 -20.5t-12.5 -36q-48 -50 -141 -113zM570 750l-9 8q72 117 103 148q17 17 36.5 13t23 -20.5t-12.5 -35.5
q-48 -50 -141 -113z" />
    <glyph glyph-name="uhungarumlaut" unicode="&#x171;" horiz-adv-x="583" 
d="M528 172l36 -5q-5 -70 -39 -127t-92 -57q-57 0 -77 28t-10 96q-59 -124 -167 -124q-70 0 -88.5 49t9.5 156l30 117q12 47 14.5 74t-2.5 36t-16 9q-55 0 -74 -146l-36 5q6 74 38.5 132t94.5 58t83 -48.5t2 -118.5l-33 -119q-43 -155 22 -155q47 0 89.5 61t71.5 197l35 169
q33 -1 51 -1l51 1q-39 -162 -65 -295q-17 -82 -16.5 -108.5t18.5 -26.5q51 0 70 143zM254 520l-9 8q74 118 103 148q17 17 36.5 13.5t23 -20.5t-12.5 -36q-48 -50 -141 -113zM418 520l-9 8q72 117 103 148q17 17 36.5 13t23 -20.5t-12.5 -35.5q-48 -50 -141 -113z" />
    <glyph glyph-name="Uogonek" unicode="&#x172;" horiz-adv-x="834" 
d="M140 282q40 247 43 290q2 33 -6.5 46t-36.5 13h-46l9 58q104 -2 163 -2q35 0 97.5 1t65.5 1l-9 -58h-46q-30 0 -43.5 -12t-24.5 -47q-4 -14 -11 -58t-17.5 -122.5t-16.5 -118.5q-17 -120 19.5 -171t128.5 -51t141.5 49t69.5 173q44 282 45 299q5 59 -49 59h-42l9 58
q92 -2 144 -2q31 0 85 1t58 1l-9 -58h-43q-50 0 -61 -60l-43 -290q-44 -288 -303 -300q-27 -37 -31 -74q-3 -28 12.5 -43t40.5 -15q58 0 77 71l25 -4q-19 -122 -133 -122q-46 0 -71 25t-20 67q7 59 69 94q-144 2 -204 74t-36 228z" />
    <glyph glyph-name="uogonek" unicode="&#x173;" horiz-adv-x="583" 
d="M597 -84q-19 -122 -133 -122q-46 0 -71 25t-20 67q7 61 78 99q-14 -2 -18 -2q-57 0 -77 28t-10 96q-59 -124 -167 -124q-70 0 -88.5 49t9.5 156l30 117q12 47 14.5 74t-2.5 36t-16 9q-55 0 -74 -146l-36 5q6 74 38.5 132t94.5 58t81.5 -46t3.5 -121l-33 -119
q-39 -155 22 -155q98 0 154 227l42 200q33 -1 51 -1l51 1q-47 -195 -65 -295q-9 -42 -13 -67.5t-3.5 -41t5 -21t13.5 -5.5q51 0 70 143l36 -5q-8 -95 -64 -156q-54 -60 -58 -104q-3 -28 12.5 -43t40.5 -15q58 0 77 71z" />
    <glyph glyph-name="Wcircumflex" unicode="&#x174;" horiz-adv-x="1094" 
d="M752 -6q-52 4 -102 0q-33 259 -70 508q-158 -345 -227 -508q-51 4 -101 0q-32 276 -75 569q-5 38 -19.5 53t-54.5 15h-29l9 58q102 -2 160 -2q35 0 97 1t63 1l-9 -58h-38q-33 0 -46 -16t-9 -52l60 -455q60 129 202 456q29 67 -38 67h-28l9 58q90 -2 141 -2q30 0 84.5 1
t56.5 1l-9 -58h-32q-25 0 -40 -16.5t-11 -46.5q28 -238 61 -459q149 336 191 444q30 78 -41 78h-26l9 58q82 -2 128 -2q27 0 76 1t51 1l-9 -58h-42q-33 0 -54.5 -18t-41.5 -61q-132 -290 -246 -558zM788 766l-9 -10q-62 34 -108 92q-35 -34 -148 -92l-7 10q38 64 136 141h49
q45 -40 87 -141z" />
    <glyph glyph-name="wcircumflex" unicode="&#x175;" horiz-adv-x="752" 
d="M175 -17q-140 0 -77 205l36 117q37 119 -2 119q-55 0 -74 -146l-36 5q6 74 38.5 132t94.5 58t82 -49.5t-3 -117.5l-35 -119q-46 -155 20 -155q98 0 150 251l37 178q35 -2 54 -2l53 2l-67 -268q-16 -65 -17.5 -100t9 -48t35.5 -13q62 0 112 79t66 175q9 54 8 88
q-7 -5 -24 -5q-25 0 -40.5 14t-10.5 42q8 48 60 48q71 0 58 -119q-6 -50 -26 -110.5t-52 -120.5t-82 -100t-107 -40t-82.5 26t-21.5 91q-53 -117 -156 -117zM603 536l-9 -10q-62 34 -108 92q-35 -34 -148 -92l-7 10q38 64 136 141h49q45 -40 87 -141z" />
    <glyph glyph-name="Ycircumflex" unicode="&#x176;" horiz-adv-x="810" 
d="M672 561q-69 -93 -221 -315l-20 -136q-5 -32 4 -42t48 -10h68l-9 -60q-118 2 -185 2l-186 -2l9 60h67q39 0 50.5 10.5t16.5 41.5l19 125q-68 184 -129 332q-14 34 -38 49t-69 15h-16l9 58q116 -2 181 -2l181 2l-9 -58h-45q-81 0 -60 -67q19 -61 102 -252q135 197 166 252
q21 30 16 48.5t-50 18.5h-36l9 58q98 -2 153 -2l152 2l-9 -58h-26q-57 0 -85 -14.5t-58 -55.5zM641 766l-9 -10q-62 34 -108 92q-35 -34 -148 -92l-7 10q38 64 136 141h49q45 -40 87 -141z" />
    <glyph glyph-name="ycircumflex" unicode="&#x177;" horiz-adv-x="550" 
d="M52 278l-36 5q3 45 16 85.5t44 72.5t74 32q129 0 83 -167l-33 -119q-42 -155 23 -155q41 0 86 53.5t68 172.5l39 203q33 -2 51 -2l51 2l-77 -391q-26 -135 -97.5 -205.5t-171.5 -70.5q-66 0 -97.5 36.5t-16.5 82.5q16 50 69 50q26 0 40.5 -15t10.5 -41q-5 -29 -30 -41.5
t-56 0.5q15 -41 81 -41q67 0 102.5 52.5t56.5 155.5l15 79q-57 -129 -168 -129q-70 0 -88.5 46.5t8.5 158.5l29 117q30 119 -4 119q-31 0 -47 -37.5t-25 -108.5zM461 536l-9 -10q-62 34 -108 92q-35 -34 -148 -92l-7 10q38 64 136 141h49q45 -40 87 -141z" />
    <glyph glyph-name="Ydieresis" unicode="&#x178;" horiz-adv-x="810" 
d="M672 561q-69 -93 -221 -315l-20 -136q-5 -32 4 -42t48 -10h68l-9 -60q-118 2 -185 2l-186 -2l9 60h67q39 0 50.5 10.5t16.5 41.5l19 125q-68 184 -129 332q-14 34 -38 49t-69 15h-16l9 58q116 -2 181 -2l181 2l-9 -58h-45q-81 0 -60 -67q19 -61 102 -252q135 197 166 252
q21 30 16 48.5t-50 18.5h-36l9 58q98 -2 153 -2l152 2l-9 -58h-26q-57 0 -85 -14.5t-58 -55.5zM480 821q-3 -26 -21 -41.5t-42 -15.5t-39 15.5t-12 41.5q2 26 19.5 41.5t42.5 15.5q24 0 39 -15.5t13 -41.5zM664 821q-3 -26 -21 -41.5t-42 -15.5t-39 15.5t-12 41.5
q2 26 20 41.5t42 15.5t39 -15.5t13 -41.5z" />
    <glyph glyph-name="Zacute" unicode="&#x179;" horiz-adv-x="649" 
d="M-2 0l9 58q135 140 494 570h-181q-94 0 -124.5 -22t-48.5 -110l-10 -49q-29 4 -57 0q26 107 39 243q98 -3 189 -3h353l-9 -59q-158 -168 -491 -569h219q77 0 110 28t46 113l6 44q30 -4 61 0q-20 -89 -41 -247q-98 3 -184 3h-380zM384 756l-8 10q90 109 123 134
q20 14 38.5 6.5t19.5 -25t-17 -34.5q-48 -37 -156 -91z" />
    <glyph glyph-name="zacute" unicode="&#x17a;" horiz-adv-x="464" 
d="M100 278l-33 4q-6 99 31.5 153t95.5 54q64 0 110 -56q66 -82 108 -50q-27 6 -29 44q-1 46 34 46t34 -48q-1 -34 -27 -63.5t-103 -86.5q-1 -1 -90.5 -61.5t-131.5 -95.5q67 37 123 7q29 -16 39.5 -21t27.5 -9.5t36 -4.5q39 1 60 19t25 63l31 -5q-10 -94 -42.5 -138.5
t-92.5 -45.5q-41 -1 -70.5 14.5t-57.5 50.5q-30 38 -67 43t-57 -18q28 -10 26 -46q-2 -42 -34 -42q-14 0 -24.5 11t-9.5 33q1 38 30 72.5t104 90.5q22 17 106 71.5t115 78.5q-60 -23 -131 26q-42 29 -71 29q-73 0 -65 -119zM272 526l-8 10q90 109 123 134q20 14 38.5 6.5
t19.5 -25t-17 -34.5q-48 -37 -156 -91z" />
    <glyph glyph-name="Zdotaccent" unicode="&#x17b;" horiz-adv-x="649" 
d="M-2 0l9 58q135 140 494 570h-181q-94 0 -124.5 -22t-48.5 -110l-10 -49q-29 4 -57 0q26 107 39 243q98 -3 189 -3h353l-9 -59q-158 -168 -491 -569h219q77 0 110 28t46 113l6 44q30 -4 61 0q-20 -89 -41 -247q-98 3 -184 3h-380zM455 831q0 -23 -15.5 -38.5t-38.5 -15.5
q-22 0 -37.5 16t-15.5 38t15.5 38t37.5 16q23 0 38.5 -15.5t15.5 -38.5z" />
    <glyph glyph-name="zdotaccent" unicode="&#x17c;" horiz-adv-x="464" 
d="M100 278l-33 4q-6 99 31.5 153t95.5 54q64 0 110 -56q66 -82 108 -50q-27 6 -29 44q-1 46 34 46t34 -48q-1 -34 -27 -63.5t-103 -86.5q-1 -1 -90.5 -61.5t-131.5 -95.5q67 37 123 7q29 -16 39.5 -21t27.5 -9.5t36 -4.5q39 1 60 19t25 63l31 -5q-10 -94 -42.5 -138.5
t-92.5 -45.5q-41 -1 -70.5 14.5t-57.5 50.5q-30 38 -67 43t-57 -18q28 -10 26 -46q-2 -42 -34 -42q-14 0 -24.5 11t-9.5 33q1 38 30 72.5t104 90.5q22 17 106 71.5t115 78.5q-60 -23 -131 26q-42 29 -71 29q-73 0 -65 -119zM343 601q0 -23 -15.5 -38.5t-38.5 -15.5
q-22 0 -37.5 16t-15.5 38t15.5 38t37.5 16q23 0 38.5 -15.5t15.5 -38.5z" />
    <glyph glyph-name="Zcaron" unicode="&#x17d;" horiz-adv-x="649" 
d="M-2 0l9 58q135 140 494 570h-181q-94 0 -124.5 -22t-48.5 -110l-10 -49q-29 4 -57 0q26 107 39 243q98 -3 189 -3h353l-9 -59q-158 -168 -491 -569h219q77 0 110 28t46 113l6 44q30 -4 61 0q-20 -89 -41 -247q-98 3 -184 3h-380zM267 907l9 10q28 -15 68 -46t61 -54
q87 80 127 100l7 -10q-21 -36 -58 -76.5t-68 -64.5h-49q-25 22 -53.5 63t-43.5 78z" />
    <glyph glyph-name="zcaron" unicode="&#x17e;" horiz-adv-x="464" 
d="M100 278l-33 4q-6 99 31.5 153t95.5 54q64 0 110 -56q66 -82 108 -50q-27 6 -29 44q-1 46 34 46t34 -48q-1 -34 -27 -63.5t-103 -86.5q-1 -1 -90.5 -61.5t-131.5 -95.5q67 37 123 7q29 -16 39.5 -21t27.5 -9.5t36 -4.5q39 1 60 19t25 63l31 -5q-10 -94 -42.5 -138.5
t-92.5 -45.5q-41 -1 -70.5 14.5t-57.5 50.5q-30 38 -67 43t-57 -18q28 -10 26 -46q-2 -42 -34 -42q-14 0 -24.5 11t-9.5 33q1 38 30 72.5t104 90.5q22 17 106 71.5t115 78.5q-60 -23 -131 26q-42 29 -71 29q-73 0 -65 -119zM149 677l9 10q28 -15 68 -46t61 -54
q87 80 127 100l7 -10q-21 -36 -58 -76.5t-68 -64.5h-49q-25 22 -53.5 63t-43.5 78z" />
    <glyph glyph-name="longs" unicode="&#x17f;" horiz-adv-x="348" 
d="M366 675q-58 0 -93.5 -73t-58.5 -243q-22 -165 -51.5 -278t-66.5 -174.5t-76.5 -87t-89.5 -25.5q-54 0 -76.5 25t-13.5 63q10 46 59 46q23 0 35 -13.5t8 -36.5q-4 -22 -22 -32t-42 -5q13 -16 48 -16q63 0 89 68t55 276q18 131 46.5 231t59 157t66.5 92.5t66.5 47
t62.5 11.5q41 0 64.5 -29.5t18.5 -72.5q-9 -84 -76 -84q-25 0 -40.5 14t-11.5 42q5 29 31.5 42t57.5 1q2 54 -49 54z" />
    <glyph glyph-name="florin" unicode="&#x192;" horiz-adv-x="473" 
d="M130 331l7 44l65 -2q14 94 40.5 161.5t62.5 104t73.5 52.5t81.5 16q59 0 82 -30t15 -78q-5 -30 -22.5 -47.5t-47.5 -17.5q-29 0 -41 14t-8 36q3 21 21.5 34.5t45.5 13.5q7 0 10 -1q-10 34 -49 34q-33 0 -57 -21t-46 -88.5t-32 -182.5l80 3l-7 -45l-77 2
q-23 -219 -95 -312t-182 -93q-57 0 -83 28.5t-19 70.5q5 30 24.5 49.5t48.5 19.5q25 0 37.5 -13.5t8.5 -36.5q-3 -20 -21.5 -32.5t-39.5 -11.5q-9 0 -18 3q11 -34 63 -34q66 0 96 70.5t49 276.5q0 2 0.5 7t0.5 8z" />
    <glyph glyph-name="uni01B5" unicode="&#x1b5;" horiz-adv-x="649" 
d="M-2 0l9 58q79 81 219 244q-96 -6 -114 -6v54q27 0 149 -8q93 109 240 286h-181q-94 0 -124.5 -22t-48.5 -110l-10 -49q-29 4 -57 0q26 107 39 243q98 -3 189 -3h353l-9 -59q-93 -99 -252 -285q95 6 111 7v-54q-14 0 -36 1.5t-54.5 3.5t-53.5 3q-58 -68 -206 -245h219
q77 0 110 28t46 113l6 44q30 -4 61 0q-20 -89 -41 -247q-98 3 -184 3h-380z" />
    <glyph glyph-name="uni01B6" unicode="&#x1b6;" horiz-adv-x="464" 
d="M100 278l-33 4q-6 99 31.5 153t95.5 54q64 0 110 -56q66 -82 108 -50q-27 6 -29 44q-1 46 34 46t34 -48q-1 -34 -27 -63.5t-103 -86.5l-48 -33q93 28 108 31l7 -34q-46 -9 -150 -20q-96 -65 -139 -101q67 37 123 7q29 -16 39.5 -21t27.5 -9.5t36 -4.5q39 1 60 19t25 63
l31 -5q-10 -94 -42.5 -138.5t-92.5 -45.5q-41 -1 -70.5 14.5t-57.5 50.5q-30 38 -67 43t-57 -18q28 -10 26 -46q-2 -42 -34 -42q-14 0 -24.5 11t-9.5 33q1 38 30 72.5t104 90.5l11 8q-74 -27 -105 -32l-7 34l142 19q18 12 57.5 38t70.5 46.5t52 36.5q-60 -23 -131 26
q-42 29 -71 29q-73 0 -65 -119z" />
    <glyph glyph-name="uni01FA" unicode="&#x1fa;" horiz-adv-x="882" 
d="M545 215q-137 4 -282 0l-31 -62q-47 -94 40 -94h43l-10 -61q-98 2 -153 2l-154 -2l9 61h36q41 0 66 18.5t50 64.5q145 268 287 554q36 -2 56 -2l55 2q57 -270 134 -555q12 -45 28 -63.5t46 -18.5h47l-9 -61q-114 2 -178 2l-179 -2l10 61h44q74 0 57 96q-6 32 -12 60z
M289 266q125 -2 246 0q-30 140 -76 327q-125 -239 -170 -327zM474 850q-3 -25 8 -38.5t33 -13.5q21 0 35.5 14t17.5 38q2 24 -9 37t-33 13q-47 0 -52 -50zM437 850q4 37 29 60t62 23t58.5 -23t17.5 -60q-5 -37 -30 -60.5t-62 -23.5t-58 23.5t-17 60.5zM485 945l-8 10
q90 109 123 134q20 14 38.5 6.5t19.5 -25t-17 -34.5q-48 -37 -156 -91z" />
    <glyph glyph-name="aringacute" unicode="&#x1fb;" horiz-adv-x="532" 
d="M524 167q-7 -88 -45 -136t-86 -48q-56 0 -77 28t-11 95q-29 -60 -70.5 -91.5t-89.5 -31.5q-129 0 -104 203q17 136 76 211.5t137 75.5q98 0 109 -104q3 5 29 39.5t36 50.5h44q-34 -134 -65 -308q-12 -69 -9.5 -95.5t20.5 -26.5q51 0 70 143zM186 32q47 0 87 61t60 174
q14 77 2.5 117t-54.5 40q-47 0 -80 -54.5t-55 -184.5q-14 -91 -5 -122t45 -31zM275 605q-3 -25 8 -38.5t33 -13.5q21 0 35.5 14t17.5 38q2 24 -9 37t-33 13q-47 0 -52 -50zM238 605q4 37 29 60t62 23t58.5 -23t17.5 -60q-5 -37 -30 -60.5t-62 -23.5t-58 23.5t-17 60.5z
M304 731l-8 10q90 109 123 134q20 14 38.5 6.5t19.5 -25t-17 -34.5q-48 -37 -156 -91z" />
    <glyph glyph-name="AEacute" unicode="&#x1fc;" horiz-adv-x="1070" 
d="M1028 264q-20 -79 -40 -268q-46 4 -197 4h-280l-167 -2l10 61h52q57 0 69 60q4 17 14 77q-70 1 -198 -1l-28 -42q-18 -28 -24.5 -47.5t3 -33t40.5 -13.5h33l-10 -61q-98 2 -153 2l-154 -2l9 61h35q41 0 70 18t63 65q216 282 312 423q24 35 17 54.5t-40 19.5h-25l9 54
q58 -6 170 -6h269q139 0 203 8q-13 -51 -43 -250l-54 -1l1 6q8 50 9 79t-3.5 51t-22 31t-42 13t-67.5 4h-150q-28 0 -38 -10.5t-16 -36.5q-7 -25 -36 -206h63q64 0 97 26.5t44 89.5l2 15h55q-21 -81 -32 -154q-12 -71 -15 -160h-55l2 12q9 65 -16.5 94t-97.5 29h-55
q-25 -159 -31 -216q-2 -20 10 -36t34 -16h143q100 0 136 40t54 154l2 11h60zM326 247q85 -2 171 0q33 196 47 301q-107 -140 -218 -301zM751 726l-8 10q90 109 123 134q20 14 38.5 6.5t19.5 -25t-17 -34.5q-48 -37 -156 -91z" />
    <glyph glyph-name="aeacute" unicode="&#x1fd;" horiz-adv-x="727" 
d="M625 148l37 -10q-21 -78 -62 -116.5t-112 -38.5q-82 0 -123 35.5t-45 110.5q-28 -70 -73 -108t-98 -38q-59 0 -90 48t-18 155q17 136 76 211.5t137 75.5q113 0 110 -134q66 134 198 134q73 0 100 -37t19 -97q-6 -42 -33 -72t-66.5 -43.5t-75.5 -19t-74 -5.5
q-16 -90 -1 -132.5t64 -42.5q50 0 82 26t48 98zM186 32q47 0 87 61t60 174q14 77 2.5 117t-54.5 40q-47 0 -80 -54.5t-55 -184.5q-14 -91 -5 -122t45 -31zM438 230q-1 -2 -1 -5q71 0 106 20t48 81q11 35 1.5 70.5t-41.5 35.5q-42 0 -65.5 -41t-47.5 -161zM388 526l-8 10
q90 109 123 134q20 14 38.5 6.5t19.5 -25t-17 -34.5q-48 -37 -156 -91z" />
    <glyph glyph-name="Oslashacute" unicode="&#x1fe;" horiz-adv-x="782" 
d="M348 -25q-115 0 -186 46l-63 -64l-25 20l53 73q-92 94 -62 296q27 177 134.5 270.5t259.5 93.5q110 0 180 -41l62 65l23 -18l-50 -72q98 -89 67 -297q-26 -178 -134 -275t-259 -97zM356 30q110 0 172 76.5t86 240.5q21 142 -3 214l-201 -228l-194 -249q40 -54 140 -54z
M193 346q-21 -143 1 -216l193 224l198 254q-41 48 -134 48q-105 0 -169.5 -74.5t-88.5 -235.5zM445 756l-8 10q90 109 123 134q20 14 38.5 6.5t19.5 -25t-17 -34.5q-48 -37 -156 -91z" />
    <glyph glyph-name="oslashacute" unicode="&#x1ff;" horiz-adv-x="463" 
d="M194 -17q-42 0 -77 12l-44 -67l-12 8l33 69q-80 48 -62 193q5 41 19.5 84t40.5 88.5t71.5 74t102.5 28.5q44 0 77 -13l29 42l11 -5l-19 -47q76 -44 66 -167q-4 -53 -18.5 -102.5t-41 -95.5t-72 -74t-104.5 -28zM195 24q50 0 84.5 75t49.5 205q5 46 0 78l-92 -160
l-92 -178q15 -20 50 -20zM133 152q-6 -49 0 -76l93 164l89 173q-15 19 -49 19q-51 0 -84.5 -77.5t-48.5 -202.5zM283 526l-8 10q90 109 123 134q20 14 38.5 6.5t19.5 -25t-17 -34.5q-48 -37 -156 -91z" />
    <glyph glyph-name="Scommaaccent" unicode="&#x218;" horiz-adv-x="657" 
d="M363 655q-157 0 -173 -101q-9 -61 33 -87.5t158 -42.5q248 -34 214 -252q-13 -87 -83 -139.5t-195 -52.5q-57 0 -112.5 12.5t-80.5 26.5q-52 28 -61 -21q-32 4 -64 0q46 121 53 243q7 -1 29.5 -1t29.5 1q-15 -104 35 -154.5t176 -50.5q160 0 177 111q10 66 -35 97.5
t-161 47.5q-231 31 -201 229q14 91 87 142t188 47q80 -3 154 -41q15 -12 30.5 -10t20.5 30q10 -1 30.5 -1t30.5 1q-40 -102 -44 -219q-7 1 -29.5 1t-29.5 -1q27 185 -177 185zM251 -154q-43 0 -40 48q2 23 19 38.5t42 15.5q58 0 53 -70q-3 -50 -42.5 -90t-106.5 -57l-4 20
q56 15 90 46.5t36 76.5q-12 -28 -47 -28z" />
    <glyph glyph-name="scommaaccent" unicode="&#x219;" horiz-adv-x="410" 
d="M256 440q-88 0 -110 -52q-30 -77 84 -108q162 -44 129 -172q-15 -58 -66 -91.5t-127 -33.5q-74 0 -117.5 30.5t-32.5 86.5q5 22 22 36.5t41 14.5q23 0 35 -15t7 -39q-4 -22 -23 -30.5t-40 -2.5q26 -43 108 -43q101 0 119 60q10 36 -10 61.5t-86 44.5q-80 23 -108.5 63.5
t-12.5 102.5q15 54 65.5 87t125.5 33q68 0 103 -29.5t28 -77.5q-8 -50 -60 -50q-22 0 -34 13.5t-9 33.5q4 24 21.5 34t40.5 6q-27 37 -93 37zM147 -154q-43 0 -40 48q2 23 19 38.5t42 15.5q58 0 53 -70q-3 -50 -42.5 -90t-106.5 -57l-4 20q56 15 90 46.5t36 76.5
q-12 -28 -47 -28z" />
    <glyph glyph-name="uni021A" unicode="&#x21a;" horiz-adv-x="711" 
d="M573 630h-106q-75 -458 -82 -531q-2 -21 9 -30.5t41 -9.5h58l-8 -61q-111 2 -173 2l-173 -2l8 61h57q34 0 46 7t19 33q13 51 84 531h-104q-44 0 -68.5 -22t-35.5 -71l-19 -90q-25 3 -57 0q24 131 33 245q73 -5 156 -5h324q61 0 154 5q-32 -151 -43 -245q-27 3 -55 0
l11 90q10 93 -76 93zM278 -154q-43 0 -40 48q2 23 19 38.5t42 15.5q58 0 53 -70q-3 -50 -42.5 -90t-106.5 -57l-4 20q56 15 90 46.5t36 76.5q-12 -28 -47 -28z" />
    <glyph glyph-name="uni021B" unicode="&#x21b;" horiz-adv-x="333" 
d="M238 172l36 -5q-6 -92 -38 -138t-97 -46q-128 0 -100 160q5 27 28 128t31 145l-54 -1l4 44q77 0 112.5 39t66.5 136h31q-41 -149 -46 -177l108 2l-5 -44l-111 1l-53 -267q-12 -63 -7.5 -90t29.5 -27q26 0 43.5 35t21.5 105zM91 -154q-43 0 -40 48q2 23 19 38.5t42 15.5
q58 0 53 -70q-3 -50 -42.5 -90t-106.5 -57l-4 20q56 15 90 46.5t36 76.5q-12 -28 -47 -28z" />
    <glyph glyph-name="uni0237" unicode="&#x237;" horiz-adv-x="279" 
d="M230 306l-55 -283q-23 -119 -77 -174t-138 -55q-46 0 -69 19t-23 49q0 31 17 48.5t44 17.5q20 0 32 -10.5t12 -28.5q0 -28 -19.5 -41t-44.5 -7q12 -16 47 -16q52 0 73.5 43t45.5 168l54 285q19 103 -9 103q-52 0 -71 -146l-37 5q9 87 43.5 138.5t95.5 51.5
q48 0 69.5 -25.5t19 -62.5t-9.5 -79z" />
    <glyph glyph-name="circumflex" unicode="&#x2c6;" horiz-adv-x="532" 
d="M383 536l-9 -10q-62 34 -108 92q-35 -34 -148 -92l-7 10q38 64 136 141h49q45 -40 87 -141z" />
    <glyph glyph-name="caron" unicode="&#x2c7;" horiz-adv-x="532" 
d="M124 677l9 10q28 -15 68 -46t61 -54q87 80 127 100l7 -10q-21 -36 -58 -76.5t-68 -64.5h-49q-25 22 -53.5 63t-43.5 78z" />
    <glyph glyph-name="breve" unicode="&#x2d8;" horiz-adv-x="532" 
d="M247 536q-70 0 -99 41t-15 104l14 2q-1 -47 24 -62.5t82 -15.5t85 15.5t35 62.5l14 -2q3 -63 -33.5 -104t-106.5 -41z" />
    <glyph glyph-name="dotaccent" unicode="&#x2d9;" horiz-adv-x="532" 
d="M328 601q0 -23 -16 -38.5t-38 -15.5t-37.5 16t-15.5 38t15.5 38t37.5 16t38 -15.5t16 -38.5z" />
    <glyph glyph-name="ring" unicode="&#x2da;" horiz-adv-x="532" 
d="M225 620q-3 -25 8 -38.5t33 -13.5q21 0 35.5 14t17.5 38q2 24 -9 37t-33 13q-47 0 -52 -50zM188 620q4 37 29 60t62 23t58.5 -23t17.5 -60q-5 -37 -30 -60.5t-62 -23.5t-58 23.5t-17 60.5z" />
    <glyph glyph-name="ogonek" unicode="&#x2db;" horiz-adv-x="532" 
d="M403 -84q-19 -122 -133 -122q-46 0 -71 25t-20 67q7 54 52.5 86.5t120.5 57.5l16 -10q-50 -16 -83 -45t-37 -68q-3 -28 12.5 -43t40.5 -15q58 0 77 71z" />
    <glyph glyph-name="tilde" unicode="&#x2dc;" horiz-adv-x="532" 
d="M391 648l19 2q15 -70 -16.5 -104t-83.5 -30q-33 3 -50.5 18t-33.5 44q-14 26 -19.5 34.5t-15.5 16.5t-23 8q-47 0 -38 -92l-19 -2q-15 71 15 104.5t85 29.5q27 -3 45 -16.5t36 -44.5q11 -19 15 -26t12 -17t15.5 -13.5t17.5 -3.5q48 0 39 92z" />
    <glyph glyph-name="hungarumlaut" unicode="&#x2dd;" horiz-adv-x="532" 
d="M116 520l-9 8q74 118 103 148q17 17 36.5 13.5t23 -20.5t-12.5 -36q-48 -50 -141 -113zM280 520l-9 8q72 117 103 148q17 17 36.5 13t23 -20.5t-12.5 -35.5q-48 -50 -141 -113z" />
    <glyph glyph-name="Wgrave" unicode="&#x1e80;" horiz-adv-x="1094" 
d="M752 -6q-52 4 -102 0q-33 259 -70 508q-158 -345 -227 -508q-51 4 -101 0q-32 276 -75 569q-5 38 -19.5 53t-54.5 15h-29l9 58q102 -2 160 -2q35 0 97 1t63 1l-9 -58h-38q-33 0 -46 -16t-9 -52l60 -455q60 129 202 456q29 67 -38 67h-28l9 58q90 -2 141 -2q30 0 84.5 1
t56.5 1l-9 -58h-32q-25 0 -40 -16.5t-11 -46.5q28 -238 61 -459q149 336 191 444q30 78 -41 78h-26l9 58q82 -2 128 -2q27 0 76 1t51 1l-9 -58h-42q-33 0 -54.5 -18t-41.5 -61q-132 -290 -246 -558zM679 766l-8 -10q-112 56 -156 91q-19 15 -16.5 34.5t19.5 25t38 -6.5
q10 -8 21.5 -19t26 -27.5t24 -27t27.5 -32t24 -28.5z" />
    <glyph glyph-name="wgrave" unicode="&#x1e81;" horiz-adv-x="752" 
d="M175 -17q-140 0 -77 205l36 117q37 119 -2 119q-55 0 -74 -146l-36 5q6 74 38.5 132t94.5 58t82 -49.5t-3 -117.5l-35 -119q-46 -155 20 -155q98 0 150 251l37 178q35 -2 54 -2l53 2l-67 -268q-16 -65 -17.5 -100t9 -48t35.5 -13q62 0 112 79t66 175q9 54 8 88
q-7 -5 -24 -5q-25 0 -40.5 14t-10.5 42q8 48 60 48q71 0 58 -119q-6 -50 -26 -110.5t-52 -120.5t-82 -100t-107 -40t-82.5 26t-21.5 91q-53 -117 -156 -117zM488 536l-8 -10q-112 56 -156 91q-19 15 -16.5 34.5t19.5 25t38 -6.5q10 -8 21.5 -19t26 -27.5t24 -27t27.5 -32
t24 -28.5z" />
    <glyph glyph-name="Wacute" unicode="&#x1e82;" horiz-adv-x="1094" 
d="M752 -6q-52 4 -102 0q-33 259 -70 508q-158 -345 -227 -508q-51 4 -101 0q-32 276 -75 569q-5 38 -19.5 53t-54.5 15h-29l9 58q102 -2 160 -2q35 0 97 1t63 1l-9 -58h-38q-33 0 -46 -16t-9 -52l60 -455q60 129 202 456q29 67 -38 67h-28l9 58q90 -2 141 -2q30 0 84.5 1
t56.5 1l-9 -58h-32q-25 0 -40 -16.5t-11 -46.5q28 -238 61 -459q149 336 191 444q30 78 -41 78h-26l9 58q82 -2 128 -2q27 0 76 1t51 1l-9 -58h-42q-33 0 -54.5 -18t-41.5 -61q-132 -290 -246 -558zM633 756l-8 10q90 109 123 134q20 14 38.5 6.5t19.5 -25t-17 -34.5
q-48 -37 -156 -91z" />
    <glyph glyph-name="wacute" unicode="&#x1e83;" horiz-adv-x="752" 
d="M175 -17q-140 0 -77 205l36 117q37 119 -2 119q-55 0 -74 -146l-36 5q6 74 38.5 132t94.5 58t82 -49.5t-3 -117.5l-35 -119q-46 -155 20 -155q98 0 150 251l37 178q35 -2 54 -2l53 2l-67 -268q-16 -65 -17.5 -100t9 -48t35.5 -13q62 0 112 79t66 175q9 54 8 88
q-7 -5 -24 -5q-25 0 -40.5 14t-10.5 42q8 48 60 48q71 0 58 -119q-6 -50 -26 -110.5t-52 -120.5t-82 -100t-107 -40t-82.5 26t-21.5 91q-53 -117 -156 -117zM456 526l-8 10q90 109 123 134q20 14 38.5 6.5t19.5 -25t-17 -34.5q-48 -37 -156 -91z" />
    <glyph glyph-name="Wdieresis" unicode="&#x1e84;" horiz-adv-x="1094" 
d="M752 -6q-52 4 -102 0q-33 259 -70 508q-158 -345 -227 -508q-51 4 -101 0q-32 276 -75 569q-5 38 -19.5 53t-54.5 15h-29l9 58q102 -2 160 -2q35 0 97 1t63 1l-9 -58h-38q-33 0 -46 -16t-9 -52l60 -455q60 129 202 456q29 67 -38 67h-28l9 58q90 -2 141 -2q30 0 84.5 1
t56.5 1l-9 -58h-32q-25 0 -40 -16.5t-11 -46.5q28 -238 61 -459q149 336 191 444q30 78 -41 78h-26l9 58q82 -2 128 -2q27 0 76 1t51 1l-9 -58h-42q-33 0 -54.5 -18t-41.5 -61q-132 -290 -246 -558zM628 821q-3 -26 -21 -41.5t-42 -15.5t-39 15.5t-12 41.5q2 26 19.5 41.5
t42.5 15.5q24 0 39 -15.5t13 -41.5zM812 821q-3 -26 -21 -41.5t-42 -15.5t-39 15.5t-12 41.5q2 26 20 41.5t42 15.5t39 -15.5t13 -41.5z" />
    <glyph glyph-name="wdieresis" unicode="&#x1e85;" horiz-adv-x="752" 
d="M175 -17q-140 0 -77 205l36 117q37 119 -2 119q-55 0 -74 -146l-36 5q6 74 38.5 132t94.5 58t82 -49.5t-3 -117.5l-35 -119q-46 -155 20 -155q98 0 150 251l37 178q35 -2 54 -2l53 2l-67 -268q-16 -65 -17.5 -100t9 -48t35.5 -13q62 0 112 79t66 175q9 54 8 88
q-7 -5 -24 -5q-25 0 -40.5 14t-10.5 42q8 48 60 48q71 0 58 -119q-6 -50 -26 -110.5t-52 -120.5t-82 -100t-107 -40t-82.5 26t-21.5 91q-53 -117 -156 -117zM447 591q-3 -26 -21 -41.5t-42 -15.5t-39 15.5t-12 41.5q2 26 19.5 41.5t42.5 15.5q24 0 39 -15.5t13 -41.5z
M631 591q-3 -26 -21 -41.5t-42 -15.5t-39 15.5t-12 41.5q2 26 20 41.5t42 15.5t39 -15.5t13 -41.5z" />
    <glyph glyph-name="uni1E8A" unicode="&#x1e8a;" horiz-adv-x="780" 
d="M453 136q-26 55 -77 152q-119 -126 -136 -150q-26 -38 -21.5 -58.5t36.5 -20.5h33l-9 -61q-93 2 -146 2l-146 -2l9 61h20q37 0 69 14.5t47.5 28.5t54.5 53q96 96 165 178q-63 119 -125 227q-22 38 -44 54.5t-63 16.5h-39l9 58q120 -2 187 -2l186 2l-9 -58h-34
q-34 0 -51 -22t-2 -54q20 -44 74 -149q80 80 134 147q26 32 18 55t-45 23h-23l9 58q92 -2 143 -2l152 2l-9 -58h-26q-36 0 -62 -10t-40.5 -22.5t-47.5 -46.5q-164 -171 -180 -188q80 -150 129 -234q22 -38 46 -54.5t61 -16.5h34l-9 -61q-116 2 -182 2l-182 -2l9 61h44
q30 0 42 19.5t-3 57.5zM568 831q0 -23 -16 -38.5t-38 -15.5t-37.5 16t-15.5 38t15.5 38t37.5 16t38 -15.5t16 -38.5z" />
    <glyph glyph-name="uni1E8B" unicode="&#x1e8b;" horiz-adv-x="537" 
d="M487 170q-2 -84 -40.5 -135.5t-121.5 -51.5q-115 0 -134 99q-17 -45 -48.5 -72t-71.5 -27q-48 0 -68 30.5t-7 76.5q8 27 26.5 44t44.5 17q23 0 34.5 -14t6.5 -40q-6 -25 -33.5 -32.5t-45.5 4.5q-4 -49 47 -49q27 0 48.5 17t36.5 49.5t25 62.5t20 73q25 88 21.5 145
t-48.5 57q-46 0 -66.5 -43t-11.5 -104l-32 5q-13 78 24 134.5t112 56.5q113 0 128 -95q43 95 124 95q38 0 59.5 -25.5t16.5 -71.5q-10 -90 -76 -90q-26 0 -41 15t-9 44q6 31 37 41t53 -3q-2 24 -15 38t-35 14q-47 0 -75 -46t-51 -142q-26 -101 -19 -158t52 -57q91 0 101 138
h32zM406 601q0 -23 -16 -38.5t-38 -15.5t-37.5 16t-15.5 38t15.5 38t37.5 16t38 -15.5t16 -38.5z" />
    <glyph glyph-name="Ygrave" unicode="&#x1ef2;" horiz-adv-x="810" 
d="M672 561q-69 -93 -221 -315l-20 -136q-5 -32 4 -42t48 -10h68l-9 -60q-118 2 -185 2l-186 -2l9 60h67q39 0 50.5 10.5t16.5 41.5l19 125q-68 184 -129 332q-14 34 -38 49t-69 15h-16l9 58q116 -2 181 -2l181 2l-9 -58h-45q-81 0 -60 -67q19 -61 102 -252q135 197 166 252
q21 30 16 48.5t-50 18.5h-36l9 58q98 -2 153 -2l152 2l-9 -58h-26q-57 0 -85 -14.5t-58 -55.5zM537 766l-8 -10q-112 56 -156 91q-19 15 -16.5 34.5t19.5 25t38 -6.5q10 -8 21.5 -19t26 -27.5t24 -27t27.5 -32t24 -28.5z" />
    <glyph glyph-name="ygrave" unicode="&#x1ef3;" horiz-adv-x="550" 
d="M52 278l-36 5q3 45 16 85.5t44 72.5t74 32q129 0 83 -167l-33 -119q-42 -155 23 -155q18 0 37.5 11t41.5 34t41 67.5t31 103.5l42 213q33 -2 51 -2l51 2l-77 -391q-26 -135 -97.5 -205.5t-171.5 -70.5q-66 0 -97.5 36.5t-16.5 82.5q16 50 69 50q26 0 40.5 -15t10.5 -41
q-5 -29 -30 -41.5t-56 0.5q15 -41 81 -41q67 0 102.5 52.5t56.5 155.5l15 79q-57 -129 -168 -129q-70 0 -88.5 46.5t8.5 158.5l29 117q30 119 -4 119q-31 0 -47 -37.5t-25 -108.5zM359 536l-8 -10q-112 56 -156 91q-19 15 -16.5 34.5t19.5 25t38 -6.5q10 -8 21.5 -19
t26 -27.5t24 -27t27.5 -32t24 -28.5z" />
    <glyph glyph-name="uni2009" unicode="&#x2009;" horiz-adv-x="100" 
 />
    <glyph glyph-name="endash" unicode="&#x2013;" horiz-adv-x="500" 
d="M30 206q14 57 16 76q210 -4 420 0q-11 -34 -16 -76q-210 4 -420 0z" />
    <glyph glyph-name="emdash" unicode="&#x2014;" horiz-adv-x="1000" 
d="M40 206q13 45 16 76q455 -4 910 0q-11 -34 -16 -76q-369 5 -910 0z" />
    <glyph glyph-name="quoteleft" unicode="&#x2018;" horiz-adv-x="253" 
d="M165 552q48 0 44 -54q-2 -26 -21.5 -43t-47.5 -17q-34 0 -49 23.5t-12 62.5q5 62 55 111.5t132 69.5l5 -24q-71 -20 -114 -60.5t-45 -98.5q17 30 53 30z" />
    <glyph glyph-name="quoteright" unicode="&#x2019;" horiz-adv-x="253" 
d="M175 591q-48 0 -44 54q2 26 21.5 43t47.5 17q34 0 49 -23.5t12 -62.5q-5 -62 -55 -111.5t-132 -69.5l-5 24q71 20 113.5 60t45.5 99q-16 -30 -53 -30z" />
    <glyph glyph-name="quotesinglbase" unicode="&#x201a;" horiz-adv-x="253" 
d="M84 11q-48 0 -44 54q2 26 21.5 43t47.5 17q34 0 49 -23.5t12 -62.5q-5 -62 -55 -111.5t-132 -69.5l-5 24q71 20 113.5 60t45.5 99q-16 -30 -53 -30z" />
    <glyph glyph-name="quotedblleft" unicode="&#x201c;" horiz-adv-x="441" 
d="M165 552q48 0 44 -54q-2 -26 -21.5 -43t-47.5 -17q-34 0 -49 23.5t-12 62.5q5 62 55 111.5t132 69.5l5 -24q-71 -20 -114 -60.5t-45 -98.5q17 30 53 30zM353 552q48 0 44 -54q-2 -26 -21.5 -43t-47.5 -17q-34 0 -49 23.5t-12 62.5q5 62 55 111.5t132 69.5l5 -24
q-71 -20 -114 -60.5t-45 -98.5q17 30 53 30z" />
    <glyph glyph-name="quotedblright" unicode="&#x201d;" horiz-adv-x="441" 
d="M175 591q-48 0 -44 54q2 26 21.5 43t47.5 17q34 0 49 -23.5t12 -62.5q-5 -62 -55 -111.5t-132 -69.5l-5 24q71 20 113.5 60t45.5 99q-16 -30 -53 -30zM363 591q-48 0 -44 54q2 26 21.5 43t47.5 17q34 0 49 -23.5t12 -62.5q-5 -62 -55 -111.5t-132 -69.5l-5 24
q71 20 113.5 60t45.5 99q-16 -30 -53 -30z" />
    <glyph glyph-name="quotedblbase" unicode="&#x201e;" horiz-adv-x="441" 
d="M84 11q-48 0 -44 54q2 26 21.5 43t47.5 17q34 0 49 -23.5t12 -62.5q-5 -62 -55 -111.5t-132 -69.5l-5 24q71 20 113.5 60t45.5 99q-16 -30 -53 -30zM272 11q-48 0 -44 54q2 26 21.5 43t47.5 17q34 0 49 -23.5t12 -62.5q-5 -62 -55 -111.5t-132 -69.5l-5 24
q71 20 113.5 60t45.5 99q-16 -30 -53 -30z" />
    <glyph glyph-name="dagger" unicode="&#x2020;" 
d="M251 482q-108 -35 -108 26q0 64 108 26q31 -11 52 -15q6 19 27 22q10 56 5 91q-16 127 53 127q25 0 33.5 -15t1 -39.5t-16 -42.5t-18.5 -35q-22 -37 -37 -89q12 -6 17 -19q18 2 59 15q108 38 108 -26t-108 -26q-36 11 -59 15q-7 -21 -30 -23q-18 -109 26 -130l-5 -23
q-31 -12 -51.5 -52.5t-36.5 -114.5q-17 -76 -11 -121q20 -127 -53 -127q-25 0 -33.5 15t-1 39.5t16 42.5t18.5 35q26 44 43 116q31 142 -19 167l5 23q53 21 81 135q-9 6 -14 17q-6 -1 -52 -14z" />
    <glyph glyph-name="daggerdbl" unicode="&#x2021;" 
d="M251 482q-108 -35 -108 26q0 64 108 26q31 -11 52 -15q6 19 27 22q10 56 5 91q-16 127 53 127q25 0 33.5 -15t1 -39.5t-16 -42.5t-18.5 -35q-22 -37 -37 -89q12 -6 17 -19q18 2 59 15q108 38 108 -26t-108 -26q-36 11 -59 15q-7 -21 -30 -23q-18 -109 26 -130l-5 -23
q-56 -22 -86 -155q26 2 75 17q108 38 108 -26q0 -61 -108 -26q-51 15 -79 17q-15 -73 -9 -115q20 -127 -53 -127q-25 0 -33.5 15t-1 39.5t16 42.5t18.5 35q25 40 41 110q-27 -2 -76 -17q-108 -38 -108 26t108 26q43 -16 80 -17q25 130 -21 155l5 23q53 21 81 135
q-9 6 -14 17q-6 -1 -52 -14z" />
    <glyph glyph-name="bullet" unicode="&#x2022;" horiz-adv-x="449" 
d="M411 241q0 -79 -47.5 -124t-127.5 -45q-77 0 -125.5 45t-48.5 127q0 77 49 124t125 47q79 0 127 -48t48 -126z" />
    <glyph glyph-name="ellipsis" unicode="&#x2026;" horiz-adv-x="723" 
d="M172 55q-2 -32 -23 -50t-54 -18q-31 0 -48.5 18t-14.5 51q3 31 24.5 50t51.5 19q32 0 49.5 -19t14.5 -51zM413 55q-2 -32 -23 -50t-54 -18q-31 0 -48.5 18t-14.5 51q3 31 24.5 50t51.5 19q32 0 49.5 -19t14.5 -51zM654 55q-2 -32 -23 -50t-54 -18q-31 0 -48.5 18
t-14.5 51q3 31 24.5 50t51.5 19q32 0 49.5 -19t14.5 -51z" />
    <glyph glyph-name="perthousand" unicode="&#x2030;" horiz-adv-x="901" 
d="M188 422q31 0 52.5 29t34.5 104q13 69 5.5 102t-36.5 33q-61 0 -85 -135q-13 -74 -6 -103.5t35 -29.5zM189 396q-62 0 -91 40t-15 119q14 82 59.5 121t102.5 39q131 0 105 -160q-14 -82 -59 -120.5t-102 -38.5zM100 85q0 8 8 8t8 -8t-8 -8t-8 8zM137 139q0 13 13 13
t13 -13q0 -14 -13 -14t-13 14zM174 192q0 8 5 13t13 5t13 -5t5 -13t-5 -13t-13 -5t-13 5t-5 13zM212 246q0 8 6.5 14.5t15.5 6.5t15.5 -6.5t6.5 -14.5q0 -9 -6.5 -15.5t-15.5 -6.5t-15.5 6.5t-6.5 15.5zM252 299q0 10 7 17t17 7t17 -7t7 -17t-7 -17t-17 -7t-17 7t-7 17z
M293 353q0 10 7.5 17t17.5 7t17.5 -7t7.5 -17q0 -11 -7.5 -18t-17.5 -7t-17.5 7t-7.5 18zM336 406q0 10 7 17t17 7t17 -7t7 -17t-7 -17t-17 -7t-17 7t-7 17zM380 460q0 8 6.5 14.5t15.5 6.5t15.5 -6.5t6.5 -14.5q0 -9 -6.5 -15.5t-15.5 -6.5t-15.5 6.5t-6.5 15.5zM426 513
q0 7 5 12.5t13 5.5t13 -5.5t5 -12.5t-5 -12.5t-13 -5.5t-13 5.5t-5 12.5zM473 567q0 13 13 13t13 -13q0 -14 -13 -14t-13 14zM520 620q0 8 8 8t8 -8t-8 -8t-8 8zM376 -3q31 0 52.5 29t34.5 104q13 69 5.5 102t-36.5 33q-61 0 -85 -135q-13 -74 -6 -103.5t35 -29.5zM377 -29
q-62 0 -91 40t-15 119q14 82 59.5 121t102.5 39q131 0 105 -160q-14 -82 -59 -120.5t-102 -38.5zM677 -3q31 0 52.5 29t34.5 104q13 69 5.5 102t-36.5 33q-61 0 -85 -135q-13 -74 -6 -103.5t35 -29.5zM678 -29q-62 0 -91 40t-15 119q14 82 59.5 121t102.5 39q131 0 105 -160
q-14 -82 -59 -120.5t-102 -38.5z" />
    <glyph glyph-name="guilsinglleft" unicode="&#x2039;" horiz-adv-x="271" 
d="M242 426l10 -9q-21 -38 -63 -86.5t-83 -77.5q23 -29 48.5 -78.5t36.5 -89.5l-14 -9q-24 31 -71 82.5t-76 78.5l9 49q103 62 203 140z" />
    <glyph glyph-name="guilsinglright" unicode="&#x203a;" horiz-adv-x="271" 
d="M91 417l14 9q24 -31 71 -82.5t76 -78.5l-9 -49q-103 -62 -203 -140l-10 9q21 38 63 86.5t83 77.5q-23 29 -48.5 78.5t-36.5 89.5z" />
    <glyph glyph-name="fraction" unicode="&#x2044;" horiz-adv-x="150" 
d="M-219 -32q0 8 8 8t8 -8t-8 -8t-8 8zM-179 24q0 12 12 12t12 -12t-12 -12t-12 12zM-139 80q0 16 16 16t16 -16t-16 -16t-16 16zM-98 136q0 19 19 19t19 -19q0 -8 -5.5 -13.5t-13.5 -5.5t-13.5 5.5t-5.5 13.5zM-57 192q0 9 6.5 15.5t15.5 6.5t15.5 -6.5t6.5 -15.5
t-6.5 -15.5t-15.5 -6.5t-15.5 6.5t-6.5 15.5zM-15 248q0 10 7 17t17 7t17 -7t7 -17t-7 -16.5t-17 -6.5t-17 6.5t-7 16.5zM28 304q0 10 7 17.5t18 7.5t18 -7.5t7 -17.5t-7.5 -17t-17.5 -7t-17.5 7t-7.5 17zM72 361q0 10 7.5 17t17.5 7t17.5 -7t7.5 -17q0 -11 -7 -18t-18 -7
t-18 7t-7 18zM117 417q0 10 7 16.5t17 6.5t17 -6.5t7 -16.5t-7 -17t-17 -7t-17 7t-7 17zM163 473q0 9 6.5 15.5t15.5 6.5t15.5 -6.5t6.5 -15.5t-6.5 -15.5t-15.5 -6.5t-15.5 6.5t-6.5 15.5zM210 529q0 8 5.5 13.5t13.5 5.5t13.5 -5.5t5.5 -13.5q0 -19 -19 -19t-19 19z
M257 585q0 16 16 16t16 -16t-16 -16t-16 16zM305 641q0 12 12 12t12 -12t-12 -12t-12 12zM353 697q0 8 8 8t8 -8t-8 -8t-8 8z" />
    <glyph glyph-name="Euro" unicode="&#x20ac;" 
d="M42 428l48 -2q40 125 126.5 192t203.5 67q107 0 151.5 -40t35.5 -98q-12 -77 -83 -77q-35 0 -52.5 20.5t-9.5 52.5q12 53 74 53q14 0 24 -3q-32 46 -115 46q-97 0 -153 -50.5t-85 -165.5l197 5l-8 -50l-199 4q-9 -42 -15 -96l198 5l-7 -50l-195 3q-6 -107 31 -162
t126 -55q81 0 123 39q-34 0 -50.5 19.5t-10.5 47.5q10 59 76 59q33 0 51 -21t11 -59q-11 -59 -72.5 -95.5t-161.5 -36.5q-129 0 -190 62.5t-54 199.5l-46 -1l8 50l42 -2q6 52 15 90l-42 -1z" />
    <glyph glyph-name="uni2116" unicode="&#x2116;" horiz-adv-x="1080" 
d="M914 264q89 0 108 126q18 128 -72 128t-108 -128q-11 -72 8.5 -99t63.5 -27zM909 231q-135 0 -112 159q11 80 55.5 120t102.5 40q136 0 113 -160q-11 -80 -55.5 -119.5t-103.5 -39.5zM102 689q114 -4 227 0l270 -496q48 308 55 387q2 29 -8 40t-38 11h-64l9 58q3 0 62 -1
t91 -1l152 2l-9 -58h-64q-27 0 -40 -10.5t-20 -40.5q-17 -65 -87 -580h-77l-297 550q-20 -114 -42 -263t-24 -177q-3 -51 67 -51h48l-9 -61q-97 2 -152 2l-153 -2l9 61h46q66 0 78 51q7 31 39.5 237.5t32.5 233.5q0 29 -10.5 39.5t-37.5 10.5h-63zM952 55q-2 -32 -23 -50
t-54 -18q-31 0 -48.5 18t-14.5 51q3 31 24.5 50t51.5 19q32 0 49.5 -19t14.5 -51z" />
    <glyph glyph-name="trademark" unicode="&#x2122;" horiz-adv-x="723" 
d="M771 655h-18q-22 0 -27 -23q-3 -14 -14 -74t-12 -74q-2 -13 2 -19t17 -6h17q0 -10 -6 -34q-49 1 -77 1l-76 -1q6 24 6 34h18q23 0 30 25q2 10 10.5 61t12.5 70q-65 -87 -116 -169h-17q-28 93 -58 168q-1 -8 -10 -61t-11 -68q-5 -26 20 -26h21q0 -10 -6 -34q-39 1 -61 1
l-62 -1q6 24 6 34h17q23 0 30 26q19 86 26 148q1 22 -20 22h-17q0 10 6 34q60 -2 121 0q16 -58 49 -142q87 129 95 142q54 -2 110 0q-6 -24 -6 -34zM176 688h127q57 0 71 2q-13 -49 -20 -106h-39l5 32q6 37 -24 37h-31q-28 -149 -29 -170q-2 -24 21 -24h19q-6 -18 -6 -34
q-50 1 -77 1l-77 -1q6 24 6 34h18q24 0 29 24q16 70 30 170h-30q-28 0 -36 -37l-7 -32h-39q12 44 17 106q15 -2 72 -2z" />
    <glyph glyph-name="onethird" unicode="&#x2153;" horiz-adv-x="378" 
d="M298 210q-8 -51 -72 -70q36 -5 52.5 -27t11.5 -51q-16 -91 -156 -91q-51 0 -80 22t-23 55q8 43 52 43q20 0 29 -9.5t7 -23.5q-3 -32 -42 -32q-11 0 -23 5q18 -37 73 -37q76 0 87 68q5 32 -11 47t-56 15h-17l4 24h16q36 1 54.5 15t23.5 45q5 25 -7.5 39.5t-41.5 14.5
q-51 0 -77 -32q12 4 22 4q18 0 26 -9t6 -23q-5 -32 -43 -32q-21 0 -31.5 11t-7.5 32q5 32 41.5 54.5t86.5 22.5q57 0 79.5 -22t16.5 -58zM200 460q15 82 25 161l-61 -2l5 34h18q70 0 89 60h37q-14 -57 -23 -115l-21 -138q-2 -12 4 -18.5t22 -6.5h35l-5 -32q-64 1 -100 1
l-101 -1l5 32h37q29 0 34 25zM12 344q0 8 5.5 13.5t14.5 5.5q8 0 13.5 -5.5t5.5 -13.5q0 -9 -5.5 -14.5t-13.5 -5.5q-20 0 -20 20zM77 344q0 17 18 17q7 0 12 -5t5 -12q0 -18 -17 -18q-18 0 -18 18zM142 344q0 15 16 15q6 0 10.5 -4.5t4.5 -10.5q0 -16 -15 -16q-16 0 -16 16
zM205 344q0 15 16 15q6 0 10.5 -4.5t4.5 -10.5q0 -16 -15 -16q-16 0 -16 16zM266 344q0 17 18 17q7 0 12 -5t5 -12q0 -18 -17 -18q-18 0 -18 18zM327 344q0 8 5.5 13.5t14.5 5.5q7 0 13 -5.5t6 -13.5q0 -9 -5.5 -14.5t-13.5 -5.5q-20 0 -20 20z" />
    <glyph glyph-name="twothirds" unicode="&#x2154;" horiz-adv-x="378" 
d="M361 496q7 -39 -14.5 -70t-66.5 -31q-17 0 -32.5 5.5t-22.5 9.5t-27 18q-23 18 -42 18q-13 0 -17 -6.5t4 -13.5q10 -8 6.5 -19.5t-16.5 -11.5q-20 0 -20 27q0 52 76 92q63 33 88.5 54.5t31.5 54.5q5 29 -7.5 46.5t-43.5 17.5q-54 0 -80 -36q14 4 23 4q19 0 27.5 -10
t5.5 -24q-6 -31 -46 -31q-42 0 -36 44q5 32 41 56.5t87 24.5q54 0 79.5 -24.5t18.5 -65.5t-50.5 -72t-129.5 -58q-33 -11 -48 -31q20 14 43.5 14t54 -7t46.5 -7q22 0 33 6t12 24zM298 210q-8 -51 -72 -70q36 -5 52.5 -27t11.5 -51q-16 -91 -156 -91q-51 0 -80 22t-23 55
q8 43 52 43q20 0 29 -9.5t7 -23.5q-3 -32 -42 -32q-11 0 -23 5q18 -37 73 -37q76 0 87 68q5 32 -11 47t-56 15h-17l4 24h16q36 1 54.5 15t23.5 45q5 25 -7.5 39.5t-41.5 14.5q-51 0 -77 -32q12 4 22 4q18 0 26 -9t6 -23q-5 -32 -43 -32q-21 0 -31.5 11t-7.5 32
q5 32 41.5 54.5t86.5 22.5q57 0 79.5 -22t16.5 -58zM12 344q0 8 5.5 13.5t14.5 5.5q8 0 13.5 -5.5t5.5 -13.5q0 -9 -5.5 -14.5t-13.5 -5.5q-20 0 -20 20zM77 344q0 17 18 17q7 0 12 -5t5 -12q0 -18 -17 -18q-18 0 -18 18zM142 344q0 15 16 15q6 0 10.5 -4.5t4.5 -10.5
q0 -16 -15 -16q-16 0 -16 16zM205 344q0 15 16 15q6 0 10.5 -4.5t4.5 -10.5q0 -16 -15 -16q-16 0 -16 16zM266 344q0 17 18 17q7 0 12 -5t5 -12q0 -18 -17 -18q-18 0 -18 18zM327 344q0 8 5.5 13.5t14.5 5.5q7 0 13 -5.5t6 -13.5q0 -9 -5.5 -14.5t-13.5 -5.5q-20 0 -20 20z
" />
    <glyph glyph-name="oneeighth" unicode="&#x215b;" horiz-adv-x="378" 
d="M200 460q15 82 25 161l-61 -2l5 34h18q70 0 89 60h37q-14 -57 -23 -115l-21 -138q-2 -12 4 -18.5t22 -6.5h35l-5 -32q-64 1 -100 1l-101 -1l5 32h37q29 0 34 25zM303 218q-8 -39 -57 -63q62 -27 49 -93q-9 -43 -49.5 -67t-98.5 -24q-67 0 -94 20t-21 58q8 45 72 66
q-45 28 -31 86q9 40 46 64.5t90 24.5q52 0 75.5 -19.5t18.5 -52.5zM155 96q-15 2 -34 10q-44 -21 -51 -56q-4 -23 16 -36.5t65 -13.5q42 0 68 13t29 32q4 20 -15.5 30.5t-77.5 20.5zM203 263q-34 0 -55 -12t-25 -32q-3 -20 13 -30.5t66 -21.5l22 -5q36 23 42 56
q3 20 -11.5 32.5t-51.5 12.5zM12 344q0 8 5.5 13.5t14.5 5.5q8 0 13.5 -5.5t5.5 -13.5q0 -9 -5.5 -14.5t-13.5 -5.5q-20 0 -20 20zM77 344q0 17 18 17q7 0 12 -5t5 -12q0 -18 -17 -18q-18 0 -18 18zM142 344q0 15 16 15q6 0 10.5 -4.5t4.5 -10.5q0 -16 -15 -16q-16 0 -16 16
zM205 344q0 15 16 15q6 0 10.5 -4.5t4.5 -10.5q0 -16 -15 -16q-16 0 -16 16zM266 344q0 17 18 17q7 0 12 -5t5 -12q0 -18 -17 -18q-18 0 -18 18zM327 344q0 8 5.5 13.5t14.5 5.5q7 0 13 -5.5t6 -13.5q0 -9 -5.5 -14.5t-13.5 -5.5q-20 0 -20 20z" />
    <glyph glyph-name="threeeighths" unicode="&#x215c;" horiz-adv-x="378" 
d="M368 635q-8 -51 -72 -70q36 -5 52.5 -27t11.5 -51q-16 -91 -156 -91q-51 0 -80 22t-23 55q8 43 52 43q20 0 29 -9.5t7 -23.5q-3 -32 -42 -32q-11 0 -23 5q18 -37 73 -37q76 0 87 68q5 32 -11 47t-56 15h-17l4 24h16q36 1 54.5 15t23.5 45q5 25 -7.5 39.5t-41.5 14.5
q-51 0 -77 -32q12 4 22 4q18 0 26 -9t6 -23q-5 -32 -43 -32q-21 0 -31.5 11t-7.5 32q5 32 41.5 54.5t86.5 22.5q57 0 79.5 -22t16.5 -58zM303 218q-8 -39 -57 -63q62 -27 49 -93q-9 -43 -49.5 -67t-98.5 -24q-67 0 -94 20t-21 58q8 45 72 66q-45 28 -31 86q9 40 46 64.5
t90 24.5q52 0 75.5 -19.5t18.5 -52.5zM155 96q-15 2 -34 10q-44 -21 -51 -56q-4 -23 16 -36.5t65 -13.5q42 0 68 13t29 32q4 20 -15.5 30.5t-77.5 20.5zM203 263q-34 0 -55 -12t-25 -32q-3 -20 13 -30.5t66 -21.5l22 -5q36 23 42 56q3 20 -11.5 32.5t-51.5 12.5zM12 344
q0 8 5.5 13.5t14.5 5.5q8 0 13.5 -5.5t5.5 -13.5q0 -9 -5.5 -14.5t-13.5 -5.5q-20 0 -20 20zM77 344q0 17 18 17q7 0 12 -5t5 -12q0 -18 -17 -18q-18 0 -18 18zM142 344q0 15 16 15q6 0 10.5 -4.5t4.5 -10.5q0 -16 -15 -16q-16 0 -16 16zM205 344q0 15 16 15q6 0 10.5 -4.5
t4.5 -10.5q0 -16 -15 -16q-16 0 -16 16zM266 344q0 17 18 17q7 0 12 -5t5 -12q0 -18 -17 -18q-18 0 -18 18zM327 344q0 8 5.5 13.5t14.5 5.5q7 0 13 -5.5t6 -13.5q0 -9 -5.5 -14.5t-13.5 -5.5q-20 0 -20 20z" />
    <glyph glyph-name="fiveeighths" unicode="&#x215d;" horiz-adv-x="378" 
d="M210 567q-37 0 -73 -22l-11 10q31 46 47 150q30 -10 92 -10q66 0 107 15l9 -16q-14 -25 -47 -42t-80 -17q-45 0 -69 12q-10 -43 -28 -73q44 21 90 21q58 0 82.5 -25.5t16.5 -72.5q-8 -48 -49 -74.5t-108 -26.5q-54 0 -78.5 19t-19.5 52q7 36 47 36q20 0 29 -10t7 -24
q-3 -30 -42 -30q-9 0 -14 1q18 -21 64 -21q72 0 86 76q12 72 -58 72zM303 218q-8 -39 -57 -63q62 -27 49 -93q-9 -43 -49.5 -67t-98.5 -24q-67 0 -94 20t-21 58q8 45 72 66q-45 28 -31 86q9 40 46 64.5t90 24.5q52 0 75.5 -19.5t18.5 -52.5zM155 96q-15 2 -34 10
q-44 -21 -51 -56q-4 -23 16 -36.5t65 -13.5q42 0 68 13t29 32q4 20 -15.5 30.5t-77.5 20.5zM203 263q-34 0 -55 -12t-25 -32q-3 -20 13 -30.5t66 -21.5l22 -5q36 23 42 56q3 20 -11.5 32.5t-51.5 12.5zM12 344q0 8 5.5 13.5t14.5 5.5q8 0 13.5 -5.5t5.5 -13.5
q0 -9 -5.5 -14.5t-13.5 -5.5q-20 0 -20 20zM77 344q0 17 18 17q7 0 12 -5t5 -12q0 -18 -17 -18q-18 0 -18 18zM142 344q0 15 16 15q6 0 10.5 -4.5t4.5 -10.5q0 -16 -15 -16q-16 0 -16 16zM205 344q0 15 16 15q6 0 10.5 -4.5t4.5 -10.5q0 -16 -15 -16q-16 0 -16 16zM266 344
q0 17 18 17q7 0 12 -5t5 -12q0 -18 -17 -18q-18 0 -18 18zM327 344q0 8 5.5 13.5t14.5 5.5q7 0 13 -5.5t6 -13.5q0 -9 -5.5 -14.5t-13.5 -5.5q-20 0 -20 20z" />
    <glyph glyph-name="seveneighths" unicode="&#x215e;" horiz-adv-x="378" 
d="M172 715l1 -26q20 22 56 22q35 0 65 -23q29 -22 54 -22q10 0 14 6.5t-3 14.5q-10 11 -7.5 20.5t15.5 9.5q8 0 15 -7t5 -21q-6 -36 -52 -70q-3 -2 -15.5 -12t-15.5 -12.5t-14 -12t-14 -14t-11 -14.5t-10.5 -17t-8 -19t-7 -23t-3.5 -26t-2 -31q0 -42 -39 -42
q-21 0 -32 10.5t-9 29.5q7 97 125 166q53 29 70 46q-29 -19 -68.5 -19t-68.5 14q-46 21 -53 -26q-14 2 -29 0q15 43 15 98h27zM303 218q-8 -39 -57 -63q62 -27 49 -93q-9 -43 -49.5 -67t-98.5 -24q-67 0 -94 20t-21 58q8 45 72 66q-45 28 -31 86q9 40 46 64.5t90 24.5
q52 0 75.5 -19.5t18.5 -52.5zM155 96q-15 2 -34 10q-44 -21 -51 -56q-4 -23 16 -36.5t65 -13.5q42 0 68 13t29 32q4 20 -15.5 30.5t-77.5 20.5zM203 263q-34 0 -55 -12t-25 -32q-3 -20 13 -30.5t66 -21.5l22 -5q36 23 42 56q3 20 -11.5 32.5t-51.5 12.5zM12 344
q0 8 5.5 13.5t14.5 5.5q8 0 13.5 -5.5t5.5 -13.5q0 -9 -5.5 -14.5t-13.5 -5.5q-20 0 -20 20zM77 344q0 17 18 17q7 0 12 -5t5 -12q0 -18 -17 -18q-18 0 -18 18zM142 344q0 15 16 15q6 0 10.5 -4.5t4.5 -10.5q0 -16 -15 -16q-16 0 -16 16zM205 344q0 15 16 15q6 0 10.5 -4.5
t4.5 -10.5q0 -16 -15 -16q-16 0 -16 16zM266 344q0 17 18 17q7 0 12 -5t5 -12q0 -18 -17 -18q-18 0 -18 18zM327 344q0 8 5.5 13.5t14.5 5.5q7 0 13 -5.5t6 -13.5q0 -9 -5.5 -14.5t-13.5 -5.5q-20 0 -20 20z" />
    <glyph glyph-name="minus" unicode="&#x2212;" 
d="M74 220q7 27 11 63q221 -4 440 0q-7 -28 -11 -63q-219 4 -440 0z" />
    <glyph glyph-name="notequal" unicode="&#x2260;" 
d="M89 302q7 30 11 58q110 -2 220 -2l41 132q15 -4 29 0q-31 -93 -43 -132q93 0 193 2q-8 -32 -11 -58q-51 1 -200 1q-23 -69 -34 -105q107 0 215 2q-8 -32 -11 -58q-55 1 -221 1l-44 -143q-14 4 -29 0l47 143q-144 0 -193 -1q7 30 11 58q102 -2 200 -2q22 72 33 105
q-160 0 -214 -1z" />
    <glyph glyph-name="lessequal" unicode="&#x2264;" 
d="M135 238l5 23q182 102 315 195l29 -51q-126 -82 -311 -156q140 -72 247 -158l-30 -35q45 0 101 2q-8 -32 -11 -58q-219 4 -440 0q8 30 11 58q75 -2 311 -2q-86 74 -227 182z" />
    <glyph glyph-name="greaterequal" unicode="&#x2265;" 
d="M448 260l-5 -23q-137 -81 -293 -181q188 -2 341 2q-8 -32 -11 -58q-219 4 -440 0q8 30 11 58q19 -1 68 -1l-17 31q122 82 308 161q-52 26 -129 77t-117 87l41 43q80 -77 243 -196z" />
    <glyph glyph-name="space_uni0326" horiz-adv-x="200" 
d="M118 249q-43 0 -40 48q2 23 19 38.5t42 15.5q58 0 53 -70q-3 -50 -42.5 -90t-106.5 -57l-4 20q56 15 90 46.5t36 76.5q-12 -28 -47 -28z" />
    <glyph glyph-name="dotlessI" horiz-adv-x="417" 
d="M-1 -2l8 61h56q35 0 47 7t19 33t40.5 239t35.5 243q1 29 -8 39.5t-36 10.5h-63l8 58q111 -2 173 -2q37 0 104 1t69 1l-8 -58h-63q-27 0 -40 -10.5t-20 -39.5t-40.5 -242.5t-35.5 -239.5t7.5 -33t43.5 -7h57l-8 -61q-111 2 -173 2z" />
    <glyph glyph-name="Jacute" horiz-adv-x="568" 
d="M66 93q-18 0 -31 5q27 -66 115 -66q64 0 100 39t51 125q59 341 61 385q1 29 -8 39.5t-36 10.5h-52l9 58q105 -2 164 -2q35 0 98 1t66 1l-9 -58h-57q-28 0 -40.5 -10.5t-18.5 -39.5l-61 -384q-32 -222 -258 -222q-93 0 -135 49.5t-32 114.5q6 38 30.5 62.5t64.5 24.5
q32 0 49 -19.5t12 -50.5q-10 -63 -82 -63zM425 756l-8 10q90 109 123 134q20 14 38.5 6.5t19.5 -25t-17 -34.5q-48 -37 -156 -91z" />
    <glyph glyph-name="idotaccent" horiz-adv-x="324" 
d="M290 628q-2 -28 -23 -47.5t-52 -19.5q-28 0 -43.5 19.5t-13.5 47.5t22.5 47t52.5 19q28 0 43.5 -19t13.5 -47zM233 306l-47 -175q-14 -55 -10 -77t27 -22q48 0 65 140l36 -5q-3 -43 -15.5 -81.5t-44.5 -70.5t-79 -32q-54 0 -78 37t-6 105l53 196q28 103 -6 103
q-55 0 -74 -146l-37 5q7 78 40.5 134t93.5 56q127 0 82 -167z" />
    <glyph glyph-name="jacute" horiz-adv-x="279" 
d="M230 306l-55 -283q-23 -119 -77 -174t-138 -55q-46 0 -69 19t-23 49q0 31 17 48.5t44 17.5q20 0 32 -10.5t12 -28.5q0 -28 -19.5 -41t-44.5 -7q12 -16 47 -16q52 0 73.5 43t45.5 168l54 285q19 103 -9 103q-52 0 -71 -146l-37 5q9 87 43.5 138.5t95.5 51.5
q48 0 69.5 -25.5t19 -62.5t-9.5 -79zM173 526l-8 10q90 109 123 134q20 14 38.5 6.5t19.5 -25t-17 -34.5q-48 -37 -156 -91z" />
    <glyph glyph-name="C.round" horiz-adv-x="738" 
d="M456 710q85 0 135 -33t64 -92q26 56 43 105q29 -4 57 0q-40 -127 -50 -214q-10 1 -44 1q-27 0 -37 -1q2 84 -44.5 131.5t-128.5 47.5q-107 0 -170.5 -75.5t-87.5 -233.5q-46 -311 163 -311q207 0 261 233q16 -2 33 -2q18 0 36 2q-33 -148 -112 -220.5t-227 -72.5
q-159 0 -234.5 90.5t-47.5 280.5q28 184 134.5 274t256.5 90z" />
    <glyph glyph-name="G.round" horiz-adv-x="808" 
d="M356 35q82 0 139.5 43.5t70.5 129.5q7 53 -1.5 73t-48.5 20h-43l8 57q99 -2 154 -2l154 2l-8 -57h-34q-22 0 -33 -12.5t-15 -40.5q-27 -181 -31 -248h-67q-2 72 -13 123q-31 -63 -96.5 -105.5t-145.5 -42.5q-159 0 -234 90.5t-47 280.5q27 183 133 273.5t257 90.5
q85 0 135.5 -32.5t64.5 -91.5q31 63 43 104q28 -4 57 0q-14 -42 -30 -110t-19 -104q-22 1 -41 1l-41 -1q2 84 -44.5 131.5t-128.5 47.5q-107 0 -170.5 -75.5t-87.5 -233.5q-46 -311 163 -311z" />
    <glyph glyph-name="S.round" horiz-adv-x="657" 
d="M363 655q-151 0 -173 -98q-14 -62 28.5 -89.5t155.5 -42.5q127 -17 182 -78.5t39 -174.5q-12 -86 -82.5 -139t-190.5 -53q-169 0 -232 89q-29 -29 -37 -71q-28 4 -56 0q32 113 45 232h53q8 -97 69 -145.5t163 -48.5q155 0 172 112q10 65 -34.5 96.5t-159.5 47.5
q-236 32 -203 229q15 90 87 139.5t188 49.5q123 0 180 -83q25 26 33 63q27 -4 54 0q-13 -39 -27 -107t-16 -106h-49q-8 93 -52.5 135.5t-136.5 42.5z" />
    <glyph glyph-name="Cacute.round" horiz-adv-x="738" 
d="M456 710q85 0 135 -33t64 -92q26 56 43 105q29 -4 57 0q-40 -127 -50 -214q-10 1 -44 1q-27 0 -37 -1q2 84 -44.5 131.5t-128.5 47.5q-107 0 -170.5 -75.5t-87.5 -233.5q-46 -311 163 -311q207 0 261 233q16 -2 33 -2q18 0 36 2q-33 -148 -112 -220.5t-227 -72.5
q-159 0 -234.5 90.5t-47.5 280.5q28 184 134.5 274t256.5 90zM467 756l-8 10q90 109 123 134q20 14 38.5 6.5t19.5 -25t-17 -34.5q-48 -37 -156 -91z" />
    <glyph glyph-name="Ccaron.round" horiz-adv-x="738" 
d="M456 710q85 0 135 -33t64 -92q26 56 43 105q29 -4 57 0q-40 -127 -50 -214q-10 1 -44 1q-27 0 -37 -1q2 84 -44.5 131.5t-128.5 47.5q-107 0 -170.5 -75.5t-87.5 -233.5q-46 -311 163 -311q207 0 261 233q16 -2 33 -2q18 0 36 2q-33 -148 -112 -220.5t-227 -72.5
q-159 0 -234.5 90.5t-47.5 280.5q28 184 134.5 274t256.5 90zM349 907l9 10q28 -15 68 -46t61 -54q87 80 127 100l7 -10q-21 -36 -58 -76.5t-68 -64.5h-49q-25 22 -53.5 63t-43.5 78z" />
    <glyph glyph-name="Ccedilla.round" horiz-adv-x="738" 
d="M265 -115l-10 18q54 33 70 73q-149 5 -218.5 95.5t-41.5 274.5t134.5 274t256.5 90q85 0 135 -33t64 -92q26 56 43 105q29 -4 57 0q-40 -127 -50 -214q-10 1 -44 1q-27 0 -37 -1q2 84 -44.5 131.5t-128.5 47.5q-107 0 -170.5 -75.5t-87.5 -233.5q-46 -311 163 -311
q207 0 261 233q16 -2 33 -2q18 0 36 2q-33 -148 -112 -220.5t-227 -72.5q-9 -34 -34 -56q45 8 79.5 -12t30.5 -65t-37.5 -70.5t-88.5 -25.5q-38 0 -62.5 18t-31.5 44l22 15q23 -37 65 -37q58 0 63 56q3 32 -24.5 44.5t-63.5 -1.5z" />
    <glyph glyph-name="Ccircumflex.round" horiz-adv-x="738" 
d="M456 710q85 0 135 -33t64 -92q26 56 43 105q29 -4 57 0q-40 -127 -50 -214q-10 1 -44 1q-27 0 -37 -1q2 84 -44.5 131.5t-128.5 47.5q-107 0 -170.5 -75.5t-87.5 -233.5q-46 -311 163 -311q207 0 261 233q16 -2 33 -2q18 0 36 2q-33 -148 -112 -220.5t-227 -72.5
q-159 0 -234.5 90.5t-47.5 280.5q28 184 134.5 274t256.5 90zM619 766l-9 -10q-62 34 -108 92q-35 -34 -148 -92l-7 10q38 64 136 141h49q45 -40 87 -141z" />
    <glyph glyph-name="Cdotaccent.round" horiz-adv-x="738" 
d="M456 710q85 0 135 -33t64 -92q26 56 43 105q29 -4 57 0q-40 -127 -50 -214q-10 1 -44 1q-27 0 -37 -1q2 84 -44.5 131.5t-128.5 47.5q-107 0 -170.5 -75.5t-87.5 -233.5q-46 -311 163 -311q207 0 261 233q16 -2 33 -2q18 0 36 2q-33 -148 -112 -220.5t-227 -72.5
q-159 0 -234.5 90.5t-47.5 280.5q28 184 134.5 274t256.5 90zM537 831q0 -23 -15.5 -38.5t-38.5 -15.5q-22 0 -37.5 16t-15.5 38t15.5 38t37.5 16q23 0 38.5 -15.5t15.5 -38.5z" />
    <glyph glyph-name="Gbreve.round" horiz-adv-x="808" 
d="M356 35q82 0 139.5 43.5t70.5 129.5q7 53 -1.5 73t-48.5 20h-43l8 57q99 -2 154 -2l154 2l-8 -57h-34q-22 0 -33 -12.5t-15 -40.5q-27 -181 -31 -248h-67q-2 72 -13 123q-31 -63 -96.5 -105.5t-145.5 -42.5q-159 0 -234 90.5t-47 280.5q27 183 133 273.5t257 90.5
q85 0 135.5 -32.5t64.5 -91.5q31 63 43 104q28 -4 57 0q-14 -42 -30 -110t-19 -104q-22 1 -41 1l-41 -1q2 84 -44.5 131.5t-128.5 47.5q-107 0 -170.5 -75.5t-87.5 -233.5q-46 -311 163 -311zM488 751q-70 0 -99 41t-15 104l14 2q-1 -47 24 -62.5t82 -15.5t85 15.5t35 62.5
l14 -2q3 -63 -33.5 -104t-106.5 -41z" />
    <glyph glyph-name="Gcircumflex.round" horiz-adv-x="808" 
d="M356 35q82 0 139.5 43.5t70.5 129.5q7 53 -1.5 73t-48.5 20h-43l8 57q99 -2 154 -2l154 2l-8 -57h-34q-22 0 -33 -12.5t-15 -40.5q-27 -181 -31 -248h-67q-2 72 -13 123q-31 -63 -96.5 -105.5t-145.5 -42.5q-159 0 -234 90.5t-47 280.5q27 183 133 273.5t257 90.5
q85 0 135.5 -32.5t64.5 -91.5q31 63 43 104q28 -4 57 0q-14 -42 -30 -110t-19 -104q-22 1 -41 1l-41 -1q2 84 -44.5 131.5t-128.5 47.5q-107 0 -170.5 -75.5t-87.5 -233.5q-46 -311 163 -311zM608 766l-9 -10q-62 34 -108 92q-35 -34 -148 -92l-7 10q38 64 136 141h49
q45 -40 87 -141z" />
    <glyph glyph-name="Gcommaaccent.round" horiz-adv-x="808" 
d="M356 35q82 0 139.5 43.5t70.5 129.5q7 53 -1.5 73t-48.5 20h-43l8 57q99 -2 154 -2l154 2l-8 -57h-34q-22 0 -33 -12.5t-15 -40.5q-27 -181 -31 -248h-67q-2 72 -13 123q-31 -63 -96.5 -105.5t-145.5 -42.5q-159 0 -234 90.5t-47 280.5q27 183 133 273.5t257 90.5
q85 0 135.5 -32.5t64.5 -91.5q31 63 43 104q28 -4 57 0q-14 -42 -30 -110t-19 -104q-22 1 -41 1l-41 -1q2 84 -44.5 131.5t-128.5 47.5q-107 0 -170.5 -75.5t-87.5 -233.5q-46 -311 163 -311zM356 -154q-43 0 -40 48q2 23 19 38.5t42 15.5q58 0 53 -70q-3 -50 -42.5 -90
t-106.5 -57l-4 20q56 15 90 46.5t36 76.5q-12 -28 -47 -28z" />
    <glyph glyph-name="Gdotaccent.round" horiz-adv-x="808" 
d="M356 35q82 0 139.5 43.5t70.5 129.5q7 53 -1.5 73t-48.5 20h-43l8 57q99 -2 154 -2l154 2l-8 -57h-34q-22 0 -33 -12.5t-15 -40.5q-27 -181 -31 -248h-67q-2 72 -13 123q-31 -63 -96.5 -105.5t-145.5 -42.5q-159 0 -234 90.5t-47 280.5q27 183 133 273.5t257 90.5
q85 0 135.5 -32.5t64.5 -91.5q31 63 43 104q28 -4 57 0q-14 -42 -30 -110t-19 -104q-22 1 -41 1l-41 -1q2 84 -44.5 131.5t-128.5 47.5q-107 0 -170.5 -75.5t-87.5 -233.5q-46 -311 163 -311zM554 833q0 -23 -16 -38.5t-38 -15.5t-37.5 16t-15.5 38t15.5 38t37.5 16
t38 -15.5t16 -38.5z" />
    <glyph glyph-name="Sacute.round" horiz-adv-x="657" 
d="M363 655q-151 0 -173 -98q-14 -62 28.5 -89.5t155.5 -42.5q127 -17 182 -78.5t39 -174.5q-12 -86 -82.5 -139t-190.5 -53q-169 0 -232 89q-29 -29 -37 -71q-28 4 -56 0q32 113 45 232h53q8 -97 69 -145.5t163 -48.5q155 0 172 112q10 65 -34.5 96.5t-159.5 47.5
q-236 32 -203 229q15 90 87 139.5t188 49.5q123 0 180 -83q25 26 33 63q27 -4 54 0q-13 -39 -27 -107t-16 -106h-49q-8 93 -52.5 135.5t-136.5 42.5zM380 756l-8 10q90 109 123 134q20 14 38.5 6.5t19.5 -25t-17 -34.5q-48 -37 -156 -91z" />
    <glyph glyph-name="Scaron.round" horiz-adv-x="657" 
d="M363 655q-151 0 -173 -98q-14 -62 28.5 -89.5t155.5 -42.5q127 -17 182 -78.5t39 -174.5q-12 -86 -82.5 -139t-190.5 -53q-169 0 -232 89q-29 -29 -37 -71q-28 4 -56 0q32 113 45 232h53q8 -97 69 -145.5t163 -48.5q155 0 172 112q10 65 -34.5 96.5t-159.5 47.5
q-236 32 -203 229q15 90 87 139.5t188 49.5q123 0 180 -83q25 26 33 63q27 -4 54 0q-13 -39 -27 -107t-16 -106h-49q-8 93 -52.5 135.5t-136.5 42.5zM282 907l9 10q28 -15 68 -46t61 -54q87 80 127 100l7 -10q-21 -36 -58 -76.5t-68 -64.5h-49q-25 22 -53.5 63t-43.5 78z
" />
    <glyph glyph-name="Scedilla.round" horiz-adv-x="657" 
d="M233 -115l-10 18q55 33 72 78q-150 8 -205 88q-29 -29 -37 -71q-28 4 -56 0q32 113 45 232h53q8 -97 69 -145.5t163 -48.5q155 0 172 112q10 65 -34.5 96.5t-159.5 47.5q-236 32 -203 229q15 90 87 139.5t188 49.5q123 0 180 -83q25 26 33 63q27 -4 54 0
q-13 -39 -27 -107t-16 -106h-49q-8 93 -52.5 135.5t-136.5 42.5q-151 0 -173 -98q-14 -62 28.5 -89.5t155.5 -42.5q127 -17 182 -78.5t39 -174.5q-12 -86 -82.5 -139t-190.5 -53h-6q-7 -36 -35 -61q45 8 79.5 -12t30.5 -65t-37.5 -70.5t-88.5 -25.5q-38 0 -62.5 18t-31.5 44
l22 15q23 -37 65 -37q58 0 63 56q3 32 -24.5 44.5t-63.5 -1.5z" />
    <glyph glyph-name="Scircumflex.round" horiz-adv-x="657" 
d="M363 655q-151 0 -173 -98q-14 -62 28.5 -89.5t155.5 -42.5q127 -17 182 -78.5t39 -174.5q-12 -86 -82.5 -139t-190.5 -53q-169 0 -232 89q-29 -29 -37 -71q-28 4 -56 0q32 113 45 232h53q8 -97 69 -145.5t163 -48.5q155 0 172 112q10 65 -34.5 96.5t-159.5 47.5
q-236 32 -203 229q15 90 87 139.5t188 49.5q123 0 180 -83q25 26 33 63q27 -4 54 0q-13 -39 -27 -107t-16 -106h-49q-8 93 -52.5 135.5t-136.5 42.5zM533 766l-9 -10q-62 34 -108 92q-35 -34 -148 -92l-7 10q38 64 136 141h49q45 -40 87 -141z" />
    <glyph glyph-name="Scommaaccent.round" horiz-adv-x="657" 
d="M363 655q-151 0 -173 -98q-14 -62 28.5 -89.5t155.5 -42.5q127 -17 182 -78.5t39 -174.5q-12 -86 -82.5 -139t-190.5 -53q-169 0 -232 89q-29 -29 -37 -71q-28 4 -56 0q32 113 45 232h53q8 -97 69 -145.5t163 -48.5q155 0 172 112q10 65 -34.5 96.5t-159.5 47.5
q-236 32 -203 229q15 90 87 139.5t188 49.5q123 0 180 -83q25 26 33 63q27 -4 54 0q-13 -39 -27 -107t-16 -106h-49q-8 93 -52.5 135.5t-136.5 42.5zM251 -154q-43 0 -40 48q2 23 19 38.5t42 15.5q58 0 53 -70q-3 -50 -42.5 -90t-106.5 -57l-4 20q56 15 90 46.5t36 76.5
q-12 -28 -47 -28z" />
    <glyph glyph-name="f.shy" horiz-adv-x="342" 
d="M54 415l3 44l73 -1q77 250 210 250q40 0 65.5 -28t21.5 -69q-3 -33 -23.5 -52.5t-49.5 -19.5q-18 0 -29 12.5t-7 35.5q3 23 24.5 34t47.5 4q-3 50 -54 50q-46 0 -68 -47.5t-41 -170.5l106 2l-3 -44l-109 1q-4 -40 -7 -57q-22 -165 -51.5 -278t-66.5 -174.5t-76.5 -87
t-89.5 -25.5q-54 0 -76.5 25t-13.5 63q5 22 23.5 34t39.5 12q20 0 32.5 -14t8.5 -36q-4 -18 -23.5 -29t-42.5 -8q13 -16 48 -16q63 0 89 68t55 276q20 144 48 247z" />
    <glyph glyph-name="j.shy" horiz-adv-x="279" 
d="M290 628q-2 -28 -23 -47.5t-52 -19.5q-28 0 -43.5 19.5t-13.5 47.5t22.5 47t52.5 19q28 0 43.5 -19t13.5 -47zM230 306l-55 -283q-23 -119 -77 -174t-138 -55q-46 0 -69 19t-23 49q0 31 17.5 48.5t43.5 17.5q20 0 32 -10.5t12 -28.5q0 -28 -19.5 -40t-45.5 -6
q12 -18 48 -18q52 0 73.5 43t45.5 168l54 285q19 103 -9 103q-52 0 -71 -146l-37 5q9 87 43.5 138.5t95.5 51.5q48 0 69.5 -25.5t19 -62.5t-9.5 -79z" />
    <glyph glyph-name="jacute.shy" horiz-adv-x="279" 
d="M230 306l-55 -283q-23 -119 -77 -174t-138 -55q-46 0 -69 19t-23 49q0 31 17.5 48.5t43.5 17.5q20 0 32 -10.5t12 -28.5q0 -28 -19.5 -40t-45.5 -6q12 -18 48 -18q52 0 73.5 43t45.5 168l54 285q19 103 -9 103q-52 0 -71 -146l-37 5q9 87 43.5 138.5t95.5 51.5
q48 0 69.5 -25.5t19 -62.5t-9.5 -79zM173 526l-8 10q90 109 123 134q20 14 38.5 6.5t19.5 -25t-17 -34.5q-48 -37 -156 -91z" />
    <glyph glyph-name="jcircumflex.shy" horiz-adv-x="279" 
d="M230 306l-55 -283q-23 -119 -77 -174t-138 -55q-46 0 -69 19t-23 49q0 31 17.5 48.5t43.5 17.5q20 0 32 -10.5t12 -28.5q0 -28 -19.5 -40t-45.5 -6q12 -18 48 -18q52 0 73.5 43t45.5 168l54 285q19 103 -9 103q-52 0 -71 -146l-37 5q9 87 43.5 138.5t95.5 51.5
q48 0 69.5 -25.5t19 -62.5t-9.5 -79zM311 536l-9 -10q-62 34 -108 92q-35 -34 -148 -92l-7 10q38 64 136 141h49q45 -40 87 -141z" />
    <glyph glyph-name="uni0237.shy" horiz-adv-x="279" 
d="M230 306l-55 -283q-23 -119 -77 -174t-138 -55q-46 0 -69 19t-23 49q0 31 17.5 48.5t43.5 17.5q20 0 32 -10.5t12 -28.5q0 -28 -19.5 -40t-45.5 -6q12 -18 48 -18q52 0 73.5 43t45.5 168l54 285q19 103 -9 103q-52 0 -71 -146l-37 5q9 87 43.5 138.5t95.5 51.5
q48 0 69.5 -25.5t19 -62.5t-9.5 -79z" />
    </font>
</defs>
</svg>
