<?xml version="1.0" standalone="no"?>
<!DOCTYPE svg PUBLIC "-//W3C//DTD SVG 1.1//EN" "http://www.w3.org/Graphics/SVG/1.1/DTD/svg11.dtd" >
<svg>
<metadata>
Created by FontForge 20110222 at Mon Apr 21 12:33:36 2014
 By Orthosie Webhosting
(C)2010 House Industries/Brand Design Co., Inc. All Rights Reserved.
</metadata>
<defs>
<font id="EamesCenturyModernExtraBold" horiz-adv-x="600" >
  <font-face 
    font-family="EamesCenturyModernExtraBold"
    font-weight="800"
    font-stretch="normal"
    units-per-em="1000"
    panose-1="2 0 9 3 7 7 5 2 2 3"
    ascent="820"
    descent="-180"
    x-height="475"
    cap-height="690"
    bbox="-221 -287 1140 1106.52"
    underline-thickness="50"
    underline-position="-50"
    unicode-range="U+0020-FB04"
  />
<missing-glyph horiz-adv-x="500" 
 />
    <glyph glyph-name="f_f" unicode="ff" horiz-adv-x="657" 
d="M624 90q-1 -14 -1 -46.5t1 -45.5q-94 2 -147 2l-147 -2q1 13 1 45.5t-1 46.5h13q18 0 25.5 10t9.5 32q3 50 1 257l-123 -1q-2 -224 0 -256q4 -42 40 -42h11q-1 -14 -1 -46.5t1 -45.5q-94 2 -147 2l-148 -2q1 14 1 46t-1 46h18q33 0 38 42q3 36 1 253l-54 -2q1 13 1 45
t-1 45l53 -2v22q-2 94 42.5 149.5t132.5 55.5q69 0 103.5 -31t34.5 -78q1 -78 -73 -78q-32 0 -49.5 17t-17.5 47q0 63 69 65h5q-15 6 -34 6q-50 0 -66 -45t20 -125l4 -8h139v5q-4 111 43.5 168t155.5 57q83 0 121.5 -33.5t39.5 -80.5q1 -34 -18.5 -53.5t-56.5 -19.5
q-33 0 -52 17t-19 47q0 32 20 48.5t52 16.5l15 -1q-19 7 -41 7q-55 0 -75 -35.5t-4 -126.5l2 -14l58 3q-1 -14 -1 -45.5t1 -44.5l-55 2q-4 -184 2 -253q3 -42 39 -42h19z" />
    <glyph glyph-name="f_i" unicode="fi" horiz-adv-x="635" 
d="M15 473l52 -2q-1 122 59 174.5t186 52.5q93 0 147 -30t54 -82q0 -75 -79 -75q-74 0 -74 65q0 48 44 60q-18 2 -29 2q-59 0 -89 -27.5t-30 -96.5v-42q256 0 310 6q-2 -60 -2 -180t2 -163q1 -26 11 -35.5t36 -9.5h10q-2 -51 0 -92q-95 2 -147 2l-148 -2q2 42 0 92h10
q20 0 29 9.5t10 34.5q2 29 2 102t-2 102q-3 27 -13.5 37.5t-37.5 12.5q-12 1 -71 1q0 -221 3 -257q2 -24 8.5 -33t27.5 -9h11q-1 -14 -1 -46.5t1 -45.5q-93 2 -145 2l-148 -2q1 14 1 46t-1 46h20q32 0 35 42v253l-52 -2q1 13 1 45t-1 45z" />
    <glyph glyph-name="f_l" unicode="fl" horiz-adv-x="633" 
d="M566 692q-2 -74 -2 -296t2 -252t12 -42t35 -12h10v-92q-97 2 -151 2l-142 -2v92h10q20 0 28 12t10 42q2 29 2 203.5t-2 199.5l-1 11q-14 -47 -72 -47q-33 0 -51.5 17.5t-18.5 47.5q0 32 23 49t60 15q-15 6 -37 6q-51 0 -67.5 -46.5t21.5 -123.5l3 -6l74 3v-90l-54 2
q-2 -221 0 -253q4 -42 35 -42h13q-1 -14 -1 -46.5t1 -45.5q-89 2 -143 2l-151 -2q1 14 1 46t-1 46h19q34 0 37 42q3 37 1 253l-54 -2q1 13 1 45t-1 45l53 -2v22q-2 94 42.5 149.5t132.5 55.5q46 0 80 -16v8q165 0 243 2z" />
    <glyph glyph-name="f_f_i" unicode="ffi" horiz-adv-x="948" 
d="M619 90q-1 -14 -1 -46t1 -46q-93 2 -145 2l-142 -2q1 13 1 45.5t-1 46.5h17q17 0 23.5 9.5t8.5 32.5t0 257l-127 -1q-4 -177 2 -256q4 -42 39 -42h15q-1 -14 -1 -46.5t1 -45.5q-95 2 -148 2l-150 -2q1 14 1 46t-1 46h20q31 0 36 42q3 36 1 253l-54 -2q1 13 1 45t-1 45
l53 -2v22q-2 97 44.5 151t135.5 54q69 0 101 -31t33 -79q0 -77 -73 -77q-32 0 -50 17t-18 48q0 33 20.5 48.5t47.5 15.5h10q-15 6 -36 6q-51 0 -68.5 -45t18.5 -125l4 -8h144v4q-1 120 59 173t186 53q98 0 146 -30.5t48 -81.5q0 -75 -84 -75q-35 0 -54.5 17.5t-19.5 47.5
q0 51 55 61q-20 4 -35 4q-59 0 -85.5 -26.5t-26.5 -97.5v-45q217 0 309 6q-1 -60 -1 -180t1 -163q1 -26 11 -35.5t36 -9.5h10v-92q-94 2 -147 2l-147 -2v92h9q20 0 29 9.5t10 34.5q2 29 2 102t-2 102q-1 26 -12 37.5t-34 12.5q-21 1 -75 1q0 -221 3 -257q2 -23 8.5 -32.5
t27.5 -9.5h11z" />
    <glyph glyph-name="f_f_l" unicode="ffl" horiz-adv-x="946" 
d="M15 473l53 -2v22q-2 94 42.5 149.5t132.5 55.5q69 0 102.5 -31.5t34.5 -81.5q1 -74 -72 -74q-33 0 -50 17.5t-17 47.5q0 32 20.5 48t50.5 16h5q-15 6 -36 6q-51 0 -67.5 -45t19.5 -125l4 -7l143 -1v25q-2 94 43 149.5t133 55.5q44 0 79 -15v7q165 0 243 2q-2 -74 -2 -296
t2 -252t12 -42t35 -12h11q-2 -51 0 -92q-95 2 -148 2l-147 -2q2 42 0 92h10q25 0 31 10.5t8 43.5q2 29 2 204t-2 205q-16 -42 -69 -42q-32 0 -49.5 17t-17.5 49q0 63 74 63h3q-15 6 -37 6q-50 0 -65.5 -45t20.5 -125l4 -7l72 4q-1 -14 -1 -45.5t1 -44.5l-54 3
q-2 -223 1 -254q3 -42 35 -42h12q-1 -14 -1 -46t1 -46q-92 2 -143 2l-144 -2q1 13 1 45.5t-1 46.5h14q17 0 24.5 10t9.5 32q3 36 1 256h-126q-2 -212 1 -256q4 -42 41 -42h13v-92q-97 2 -150 2l-148 -2q1 14 1 46t-1 46h18q33 0 38 42q3 36 1 253l-54 -2q1 13 1 45t-1 45z
" />
    <glyph glyph-name="f_j" unicode="fj" horiz-adv-x="591" 
d="M15 473l52 -2q-1 122 59 174.5t186 52.5q98 0 146 -30.5t48 -81.5q0 -75 -86 -75q-75 0 -75 67q0 45 48 59q-12 1 -25 1q-59 0 -85.5 -25.5t-26.5 -98.5v-41q273 0 310 3q-1 -19 -1 -206.5t1 -221.5q2 -131 -46 -189.5t-166 -58.5q-151 0 -151 103q0 35 21 54t50 19
q32 0 50.5 -16.5t18.5 -47.5q0 -28 -20 -46.5t-58 -18.5q17 -7 36 -7q41 0 58 26t18 99q4 315 0 372q-3 46 -43 46h-79q0 -217 3 -251q2 -24 8.5 -33t27.5 -9h25q-1 -14 -1 -46.5t1 -45.5q-107 2 -159 2l-148 -2q1 14 1 46t-1 46h20q31 0 35 42q1 10 1 46t-0.5 101.5
t-0.5 105.5l-52 -2q1 13 1 45t-1 45z" />
    <glyph glyph-name="f_t" unicode="ft" horiz-adv-x="691" 
d="M630 191l48 -2q10 -105 -22 -156t-125 -51q-75 0 -115 41.5t-39 117.5q0 7 2 105.5t2 139.5h-123q-2 -223 1 -254q3 -42 40 -42h15q-1 -14 -1 -46.5t1 -45.5q-97 2 -151 2l-151 -2q1 14 1 46t-1 46h18q33 0 38 42q3 36 1 252l-54 -1q1 13 1 45t-1 45l53 -3v23
q-2 94 42.5 149.5t132.5 55.5q70 0 106.5 -31.5t36.5 -78.5q0 -36 -18.5 -56.5t-52.5 -20.5q-33 0 -52 17t-19 46q0 32 22 50t59 13q-20 9 -44 9q-50 0 -65 -52t20 -118l9 -17h40q78 -1 121.5 18.5t64 56t37.5 108.5q40 -2 77 0q-7 -55 -9 -171l98 4v-92l-98 1v-203
q0 -57 6 -76.5t20 -19.5q37 0 28 106z" />
    <glyph glyph-name="t_t" unicode="tt" horiz-adv-x="704" 
d="M249 457l71 1q98 1 143 49t58 135q11 -1 38.5 -1t38.5 1q-9 -74 -9 -171l98 4q-1 -13 -1 -46t1 -46l-98 1v-203q0 -57 6 -76.5t20 -19.5q37 0 27 106l49 -2q10 -105 -22.5 -156t-125.5 -51q-85 0 -120 39t-33 120l4 244h-145v-204q0 -57 6 -76.5t20 -19.5q19 0 25 26.5
t-1 63.5l43 6q20 -93 -12.5 -146t-125.5 -53q-86 0 -121 39t-33 120q0 7 2 104.5t2 139.5h-43q1 11 1 37t-1 37q71 1 114 51t57 132q11 -1 38 -1t38 1q-7 -58 -9 -180v-5z" />
    <glyph glyph-name=".notdef" horiz-adv-x="500" 
 />
    <glyph glyph-name=".null" horiz-adv-x="0" 
 />
    <glyph glyph-name="nonmarkingreturn" horiz-adv-x="333" 
 />
    <glyph glyph-name="space" unicode=" " horiz-adv-x="218" 
 />
    <glyph glyph-name="exclam" unicode="!" horiz-adv-x="298" 
d="M246 69q0 -40 -26 -64.5t-70 -24.5q-41 0 -67 24.5t-26 66.5q0 41 26 66t67 25q43 0 69.5 -25.5t26.5 -67.5zM164 231q0 -15 -3.5 -20.5t-12.5 -5.5q-17 0 -17 26q0 54 -7 95t-12.5 58t-27.5 62.5t-30 64.5q-36 79 -8 139t102 60q73 0 101.5 -60t-9.5 -139
q-8 -17 -26 -53.5t-23 -49t-14 -41.5t-11 -60t-2 -76z" />
    <glyph glyph-name="quotedbl" unicode="&#x22;" horiz-adv-x="361" 
d="M119 416q0 -17 -14 -17q-13 0 -13 17q0 125 -23 178q-19 46 -8 78t46 32q33 0 44.5 -32t-9.5 -78q-23 -49 -23 -178zM269 416q0 -17 -14 -17q-13 0 -13 17q0 125 -23 178q-19 46 -8 78t46 32q33 0 44.5 -32t-9.5 -78q-23 -49 -23 -178z" />
    <glyph glyph-name="numbersign" unicode="#" horiz-adv-x="590" 
d="M158 0h-37l45 215q-90 0 -121 -1q1 4 4.5 22.5t4.5 22.5q62 -2 120 -2q22 110 32 165q-94 0 -136 -1q5 11 9 45q70 -2 135 -2q19 101 38 224h39q-23 -94 -50 -224h157q19 112 37 224h38q-18 -78 -48 -224q54 0 116 2l-8 -45q-41 1 -116 1q-19 -91 -32 -165q57 0 121 2
q-4 -15 -8 -45q-32 1 -120 1q-26 -143 -35 -215h-36q22 101 44 215h-158q-26 -143 -35 -215zM232 422q-20 -100 -31 -165h158q11 55 31 165h-158z" />
    <glyph glyph-name="dollar" unicode="$" horiz-adv-x="590" 
d="M273 787l-3 -106h51l-3 106h51l-3 -111q77 -12 120.5 -49t42.5 -88q-1 -32 -18.5 -50.5t-46.5 -18.5q-30 0 -47.5 14.5t-17.5 39.5q0 44 44 53q-31 22 -79 30l-5 -145q211 -27 211 -214q0 -93 -53 -152.5t-152 -76.5l4 -118h-51l3 113l-52 -1l4 -112h-51l3 115
q-93 11 -146.5 52.5t-52.5 100.5q1 32 20.5 51.5t51.5 19.5q31 0 48.5 -15t17.5 -42q0 -21 -12.5 -36.5t-34.5 -19.5q37 -29 110 -37l4 157q-96 15 -145 69.5t-49 138.5q0 83 49 142.5t139 77.5l-3 112h51zM263 243l4 -155l56 2l5 149q-10 1 -22 1.5t-25 1.5t-18 1zM263 470
q21 -3 64 -5l-4 146q-26 2 -55 -1zM443 169q0 52 -84 66l4 -139q80 20 80 73zM161 534q0 -44 69 -59l-3 127q-66 -21 -66 -68z" />
    <glyph glyph-name="percent" unicode="%" 
d="M91 85q0 9 9 9t9 -9t-9 -9t-9 9zM127 139q0 6 4.5 10.5t10.5 4.5t10.5 -4.5t4.5 -10.5q0 -7 -4.5 -11.5t-10.5 -4.5t-10.5 4.5t-4.5 11.5zM163 192q0 8 6.5 14.5t14.5 6.5t14.5 -6.5t6.5 -14.5t-6.5 -14.5t-14.5 -6.5t-14.5 6.5t-6.5 14.5zM201 246q0 10 7.5 17t17.5 7
t17.5 -7t7.5 -17t-7.5 -17.5t-17.5 -7.5t-17.5 7.5t-7.5 17.5zM241 299q0 11 8 19t19 8t19 -8t8 -19t-8 -19t-19 -8t-19 8t-8 19zM282 353q0 11 8.5 19t19.5 8t19.5 -8t8.5 -19q0 -12 -8.5 -20t-19.5 -8t-19.5 8t-8.5 20zM325 406q0 11 8 19t19 8t19 -8t8 -19t-8 -19t-19 -8
t-19 8t-8 19zM369 460q0 10 7.5 17t17.5 7t17.5 -7t7.5 -17t-7.5 -17.5t-17.5 -7.5t-17.5 7.5t-7.5 17.5zM415 513q0 8 6.5 14.5t14.5 6.5t14.5 -6.5t6.5 -14.5t-6.5 -14.5t-14.5 -6.5t-14.5 6.5t-6.5 14.5zM463 567q0 6 4.5 10.5t10.5 4.5t10.5 -4.5t4.5 -10.5
q0 -7 -4.5 -11.5t-10.5 -4.5t-10.5 4.5t-4.5 11.5zM511 620q0 9 9 9t9 -9t-9 -9t-9 9zM417 21q18 0 26 21.5t8 87.5t-8 87.5t-26 21.5t-26.5 -22t-8.5 -87q0 -67 8 -88t27 -21zM417 -29q-143 0 -143 159q0 85 41 122.5t102 37.5q143 0 143 -160q0 -84 -41 -121.5t-102 -37.5
zM187 445q19 0 27 21.5t8 87.5t-8.5 87.5t-26.5 21.5t-26.5 -22t-8.5 -87q0 -67 8 -88t27 -21zM187 395q-143 0 -143 159q0 84 41 122t102 38q143 0 143 -160q0 -85 -40.5 -122t-102.5 -37z" />
    <glyph glyph-name="ampersand" unicode="&#x26;" horiz-adv-x="812" 
d="M786 157q0 -82 -47 -127t-137 -45q-110 0 -178 55q-63 -58 -178 -58q-97 0 -154.5 48t-57.5 136q0 70 46.5 124.5t122.5 73.5q-33 72 -33 131q0 205 218 205q88 0 131 -43.5t43 -117.5q0 -67 -36 -119t-92 -82q51 -80 110 -155q31 39 33 76q0 44 -36 44h-19v67
q78 -2 121 -2l122 2q-1 -34 0 -67h-33q-25 0 -38 -11t-22 -36q-29 -79 -85 -123q30 -28 65 -28q59 0 68 60zM209 224q0 -66 49.5 -107t113.5 -24q-70 89 -130 197q-33 -20 -33 -66zM363 535q0 -65 37 -138q42 44 42 140q0 68 -38 68q-41 0 -41 -70z" />
    <glyph glyph-name="quotesingle" unicode="'" horiz-adv-x="212" 
d="M119 416q0 -17 -14 -17q-13 0 -13 17q0 125 -23 178q-19 46 -8 78t46 32q33 0 44.5 -32t-9.5 -78q-23 -49 -23 -178z" />
    <glyph glyph-name="parenleft" unicode="(" horiz-adv-x="315" 
d="M192 306q0 -209 19 -304t72 -166l-44 -36q-68 37 -112 94t-70.5 160t-26.5 252t26.5 252.5t70.5 160.5t112 94l44 -37q-52 -70 -71.5 -170t-19.5 -300z" />
    <glyph glyph-name="parenright" unicode=")" horiz-adv-x="315" 
d="M121 306q0 200 -19.5 300t-71.5 170l45 37q103 -57 155.5 -172.5t52.5 -334.5q0 -218 -52.5 -333.5t-155.5 -172.5l-45 36q53 71 72 166t19 304z" />
    <glyph glyph-name="asterisk" unicode="*" horiz-adv-x="500" 
d="M274 593q-14 -21 -15 -54l13 -8q31 18 41 41q1 2 7 19.5t13 26.5t20 17q24 14 48 8.5t38 -27.5q13 -24 5 -47.5t-31 -35.5q-13 -8 -27 -9t-30 2t-20 3q-22 1 -54 -16v-13q32 -17 56 -15q2 0 15.5 2.5t19.5 3t17.5 -1.5t22.5 -8q24 -14 31.5 -37t-5.5 -46q-14 -23 -39 -28
t-47 9q-12 7 -20 18.5t-14 27.5t-7 18q-10 21 -40 39l-12 -7q0 -35 15 -55q2 -3 10 -12.5t12 -15t8.5 -16.5t4.5 -23q0 -27 -17.5 -45.5t-42.5 -18.5q-27 0 -43.5 19t-16.5 45q0 14 6.5 27t17 25.5t12.5 15.5q13 19 14 54l-12 7q-33 -19 -41 -40q-1 -2 -7 -19.5t-13 -26.5
t-20 -17q-24 -14 -48 -8.5t-38 28.5q-13 24 -5 47t31 35q13 8 27 9t30 -2t20 -3q23 -1 54 15v13q-33 18 -56 16q-5 0 -16 -2.5t-18.5 -3t-19 1.5t-21.5 8q-24 14 -31.5 37t5.5 46q14 23 39 28t47 -9q9 -6 16.5 -15.5t11 -16.5t8 -18t5.5 -14q10 -21 40 -40l12 7
q-1 36 -16 56q-1 1 -13 15t-16.5 25t-4.5 27q0 27 17 45.5t43 18.5t43 -19t16 -45q0 -14 -5.5 -26.5t-17 -26.5t-12.5 -15z" />
    <glyph glyph-name="plus" unicode="+" 
d="M348 26h-97q5 124 13 189q-85 -13 -187 -13v97q91 0 187 -13q-13 85 -13 187h97q0 -91 -13 -187q96 13 188 13v-97q-104 0 -189 13q9 -64 14 -189z" />
    <glyph glyph-name="comma" unicode="," horiz-adv-x="255" 
d="M40 -77q62 11 94.5 46t32.5 89q-15 -29 -56 -29q-30 0 -48.5 18.5t-18.5 52.5q0 33 21.5 55t60.5 22q38 0 61 -26.5t23 -75.5q0 -65 -40 -114.5t-123 -62.5z" />
    <glyph glyph-name="hyphen" unicode="-" horiz-adv-x="271" 
d="M14 193q2 57 0 115q122 -4 243 0q-2 -57 0 -115q-121 4 -243 0z" />
    <glyph glyph-name="period" unicode="." horiz-adv-x="301" 
d="M251 81q0 -45 -26.5 -70t-74.5 -25q-46 0 -73 24.5t-27 71.5q0 41 28.5 68t71.5 27q48 0 74.5 -27t26.5 -69z" />
    <glyph glyph-name="slash" unicode="/" horiz-adv-x="378" 
d="M132 -175q-13 1 -60 1t-60 -1q49 164 123.5 439t110.5 426q60 -4 121 0q-48 -160 -123 -435.5t-112 -429.5z" />
    <glyph glyph-name="zero" unicode="0" horiz-adv-x="627" 
d="M235 278q0 -92 8 -140.5t24 -66t46 -17.5q44 0 61 46.5t17 180.5q0 137 -17 185t-61 48q-43 0 -60.5 -49.5t-17.5 -186.5zM34 280q0 149 74 227.5t205 78.5q280 0 280 -305q0 -153 -74 -226.5t-206 -73.5q-279 0 -279 299z" />
    <glyph glyph-name="one" unicode="1" horiz-adv-x="455" 
d="M129 146q2 47 0 237q-46 -22 -94 -11q1 14 1 49.5t-1 49.5h11q72 -4 107.5 24.5t40.5 93.5q22 -1 69.5 -1t69.5 1q-5 -85 -6 -127q-2 -122 1 -316q1 -30 12 -42.5t40 -12.5h42q-1 -14 -1 -46t1 -46q-124 2 -194 2l-196 -2q1 13 1 46t-1 46h45q32 0 41 12.5t11 42.5z" />
    <glyph glyph-name="two" unicode="2" horiz-adv-x="553" 
d="M497 236q23 -48 23 -100q1 -77 -39 -120t-110 -43q-50 -1 -86.5 17.5t-86.5 59.5q-42 33 -74 33q-24 0 -39 -12q8 2 16 2q22 0 33.5 -12.5t11.5 -32.5q0 -21 -13.5 -33t-37.5 -12q-27 0 -44.5 22t-17.5 59q0 135 142 192q72 29 102 63t30 86q0 95 -103 95q-62 0 -97 -37
q18 4 34 4q38 0 59.5 -21t21.5 -56t-23.5 -55.5t-65.5 -20.5t-66.5 26.5t-24.5 72.5q0 81 62.5 127t170.5 46q107 0 166 -44t59 -119q0 -84 -63 -135.5t-181 -65.5q-113 -14 -157 -74q51 42 180 23q28 -4 42.5 -6t38.5 -3.5t36.5 1.5t26 10t18 21t1.5 34z" />
    <glyph glyph-name="three" unicode="3" 
d="M537 399q0 -133 -137 -168q83 -10 124.5 -55.5t41.5 -118.5q0 -99 -76 -151t-219 -52q-109 0 -173.5 47.5t-64.5 122.5q0 47 28 76.5t71 29.5q41 0 64.5 -21t23.5 -59q0 -41 -28.5 -62t-75.5 -16q34 -43 107 -43q126 0 126 137q0 62 -32.5 93.5t-92.5 31.5h-31v66h23
q118 2 118 129q0 51 -28 82.5t-79 31.5q-67 0 -103 -36q11 3 25 3q38 0 60.5 -21t22.5 -55q0 -36 -23.5 -56.5t-62.5 -20.5q-42 0 -66.5 26t-24.5 70q0 73 67 124.5t180 51.5q111 0 173 -50t62 -137z" />
    <glyph glyph-name="four" unicode="4" horiz-adv-x="603" 
d="M267 25q2 18 2 61q-110 1 -239 -1v53q23 38 138.5 215.5t147.5 235.5q83 -2 166 0q-4 -230 -2 -446l87 3q-1 -9 -1 -32.5t1 -32.5l-87 2q0 -43 2 -57q2 -24 11.5 -35.5t32.5 -11.5h31v-93q-112 3 -184 3l-189 -3q2 46 0 93h36q25 0 34.5 10t12.5 36zM268 404
q-15 -26 -51 -85.5t-61 -102.5t-41 -75q46 -1 154 -1q0 187 -1 264z" />
    <glyph glyph-name="five" unicode="5" horiz-adv-x="599" 
d="M205 218q-62 0 -110 -31l-26 27q31 60 43 166.5t8 206.5q62 -22 194 -22q128 0 204 31l29 -21q0 -100 -61 -147t-159 -47q-101 0 -166 42q-7 -95 -32 -158q79 47 194 47q121 0 182 -57.5t61 -165.5q0 -114 -74.5 -174.5t-218.5 -60.5q-114 0 -177 46t-63 125q0 49 28 77
t72 28q41 0 64 -21t23 -58q0 -41 -28.5 -62.5t-74.5 -16.5q35 -38 99 -38q125 0 125 144q0 68 -34.5 104t-101.5 36z" />
    <glyph glyph-name="six" unicode="6" horiz-adv-x="607" 
d="M368 647q-70 0 -100.5 -63t-32.5 -215q42 69 144 69q195 0 195 -218q0 -108 -74.5 -171.5t-200.5 -63.5q-265 0 -265 336q0 192 80 290.5t211 98.5q99 0 155 -41t56 -104q0 -100 -96 -100q-42 0 -65 22.5t-23 58.5q0 39 25.5 60t67.5 20q-31 21 -77 21zM236 214
q0 -76 16.5 -112t58.5 -36q38 0 53 36.5t15 111.5q0 73 -16.5 106.5t-51.5 33.5q-40 0 -57.5 -32t-17.5 -108z" />
    <glyph glyph-name="seven" unicode="7" horiz-adv-x="552" 
d="M116 588l7 -62q30 64 107 64q61 0 116 -52q59 -58 107 -58q25 0 40 15q-25 -5 -46 7.5t-21 41.5q0 24 15.5 38.5t42.5 14.5q28 0 44.5 -19t16.5 -55q0 -94 -86 -180q-72 -71 -96 -139.5t-6 -191.5q11 -71 -20.5 -108t-92.5 -37q-119 0 -119 133q0 107 58.5 181t182.5 140
q72 39 103 80q-53 -48 -135 -48q-48 -1 -111 27q-36 15 -56 15q-51 0 -49 -64q-10 1 -37.5 1t-37.5 -1q4 40 3.5 122.5t-5.5 134.5q10 -2 37.5 -2t37.5 2z" />
    <glyph glyph-name="eight" unicode="8" horiz-adv-x="621" 
d="M546 551q0 -79 -74 -124q64 -29 91.5 -76.5t27.5 -117.5q0 -121 -77.5 -184.5t-218.5 -63.5q-261 0 -261 164q0 96 111 135q-95 59 -95 186q0 110 70 175t197 65q109 0 169 -43t60 -116zM262 242l-59 15q-43 -36 -43 -95q0 -44 38 -67.5t110 -23.5q70 0 106.5 21.5
t36.5 55.5t-36 52.5t-153 41.5zM315 631q-55 0 -86.5 -22.5t-31.5 -56.5q0 -36 34 -55.5t130 -36.5l41 -9q32 35 32 89q0 40 -28.5 65.5t-90.5 25.5z" />
    <glyph glyph-name="nine" unicode="9" horiz-adv-x="606" 
d="M221 -89q79 0 112.5 63t34.5 225q-17 -36 -52.5 -56.5t-81.5 -20.5q-95 0 -148.5 56t-53.5 158q0 111 72.5 180.5t195.5 69.5q272 0 272 -354q0 -80 -15.5 -145t-49.5 -119t-97 -84t-151 -30q-102 0 -160 39.5t-58 102.5q0 43 26.5 68t72.5 25q41 0 64.5 -21t23.5 -59
q0 -78 -97 -80q37 -18 90 -18zM367 365q0 83 -16.5 119t-57.5 36q-38 0 -53.5 -36.5t-15.5 -118.5q0 -87 17 -124.5t52 -37.5q38 0 56 36.5t18 125.5z" />
    <glyph glyph-name="colon" unicode=":" horiz-adv-x="258" 
d="M200 343q0 -31 -19 -48.5t-52 -17.5t-52 18t-19 49t19.5 49.5t51.5 18.5q33 0 52 -18.5t19 -50.5zM200 124q0 -30 -19 -47.5t-52 -17.5q-32 0 -51.5 17.5t-19.5 48.5q0 32 19 50t52 18t52 -18.5t19 -50.5z" />
    <glyph glyph-name="semicolon" unicode=";" horiz-adv-x="274" 
d="M70 126q0 31 20 50t54 19q37 0 57 -25.5t20 -70.5q0 -71 -52 -119t-132 -61l-7 25q152 30 150 152q-12 -34 -56 -34q-26 0 -40 16.5t-14 47.5zM216 343q0 -31 -19.5 -48.5t-52.5 -17.5q-32 0 -51 18t-19 49t19 49.5t51 18.5q33 0 52.5 -18.5t19.5 -50.5z" />
    <glyph glyph-name="less" unicode="&#x3c;" 
d="M139 222v54q210 130 279 180l40 -77q-69 -32 -243 -130q185 -104 243 -130l-40 -77q-69 50 -279 180z" />
    <glyph glyph-name="equal" unicode="=" 
d="M80 125q3 43 0 88q221 -4 440 0q-3 -44 0 -88q-219 4 -440 0zM80 289q3 43 0 88q221 -4 440 0q-3 -44 0 -88q-219 4 -440 0z" />
    <glyph glyph-name="greater" unicode="&#x3e;" 
d="M457 276v-54q-203 -125 -279 -180l-39 77q62 28 243 130q-168 94 -243 130l39 77q77 -55 279 -180z" />
    <glyph glyph-name="question" unicode="?" horiz-adv-x="535" 
d="M385 277l13 -31q-66 -44 -141 -44q-44 0 -69.5 19t-25.5 52q0 27 14.5 47t49.5 43q81 55 81 136q0 118 -112 118q-67 0 -100 -44q20 6 41 6q39 0 62 -22.5t23 -60.5q0 -37 -25.5 -59.5t-69.5 -22.5q-47 0 -72 27.5t-25 77.5q0 86 66 138.5t177 52.5q124 0 184 -52.5
t60 -142.5q0 -86 -52.5 -134t-155.5 -80q-29 -9 -39.5 -17t-10.5 -19q0 -8 8.5 -13.5t20.5 -5.5q45 0 98 31zM370 71q0 -43 -25 -67t-69 -24t-69.5 24t-25.5 67q0 42 25.5 66.5t69.5 24.5q43 0 68.5 -24.5t25.5 -66.5z" />
    <glyph glyph-name="at" unicode="@" horiz-adv-x="814" 
d="M656 435q-30 -115 -52 -251q-14 -89 31 -89q32 0 56.5 38t34.5 91q29 161 -30.5 256.5t-225.5 95.5q-142 0 -238 -83.5t-121 -242.5q-26 -172 43.5 -261.5t212.5 -89.5q157 0 259 87l24 -24q-46 -49 -122.5 -78t-159.5 -29q-194 0 -280.5 110t-57.5 289q26 169 147 266
t291 97q179 0 269.5 -101.5t50.5 -291.5q-18 -89 -72 -137t-137 -48q-120 0 -126 88q-47 -86 -145 -86q-59 0 -89 41.5t-18 125.5q17 125 74.5 184t132.5 59q91 0 103 -72q44 33 54 56q45 -4 91 0zM386 115q48 0 80 165q20 102 -21 102q-52 0 -82 -170q-18 -97 23 -97z" />
    <glyph glyph-name="A" unicode="A" horiz-adv-x="885" 
d="M460 109q72 0 35 99q-142 2 -222 1q-17 -52 -8 -76t47 -24h35q-1 -16 -1 -55.5t1 -55.5q-104 2 -163 2l-162 -2q1 16 1 55.5t-1 55.5h21q43 0 66 20t43 70q124 320 188 496q69 -2 107 -2l107 2q29 -83 94.5 -251.5t97.5 -245.5q22 -53 42.5 -71t50.5 -18h24
q-1 -17 -1 -56t1 -55q-141 2 -220 2l-221 -2q1 16 1 55.5t-1 55.5h38zM474 273q-34 100 -90 246q-53 -143 -88 -246q91 -2 178 0z" />
    <glyph glyph-name="B" unicode="B" horiz-adv-x="734" 
d="M711 204q2 -102 -64.5 -153.5t-228.5 -51.5q-13 0 -93.5 0.5t-111.5 0.5l-191 -1q1 16 1 55t-1 55h25q31 0 45 13t16 47q2 43 2 179t-2 173q-2 32 -14.5 46t-39.5 14h-32q2 56 0 109q3 0 89 -1t117 -1q23 0 91.5 0.5t89.5 0.5q275 0 275 -174q0 -123 -131 -155
q76 -13 116.5 -54t41.5 -102zM359 320h-40q0 -146 2 -167q2 -47 46 -47h23q52 0 73.5 25t21.5 85q0 56 -31 80t-95 24zM321 545q-2 -34 -2 -158h40q63 0 85.5 20.5t22.5 79.5q0 97 -87 97h-18q-39 0 -41 -39z" />
    <glyph glyph-name="C" unicode="C" horiz-adv-x="727" 
d="M551 664q29 -18 40.5 -12.5t15.5 41.5q14 -1 47.5 -1t46.5 1q-5 -35 -11.5 -123.5t-7.5 -139.5q-73 4 -149 0q-5 79 -32.5 119t-91.5 40q-71 0 -102.5 -52t-31.5 -191q0 -75 9.5 -125.5t29 -75.5t41 -34.5t51.5 -9.5q62 0 97 43t34 125q26 -1 81.5 -1t81.5 1
q-1 -155 -73 -220.5t-247 -65.5q-171 0 -259 84t-88 279q0 180 90.5 272t244.5 92q108 0 183 -46z" />
    <glyph glyph-name="D" unicode="D" horiz-adv-x="797" 
d="M425 688q178 0 257.5 -80.5t81.5 -257.5q4 -351 -333 -351q-135 1 -206 1l-203 -2q1 16 1 55.5t-1 55.5h24q34 0 47 12.5t15 47.5q2 43 2 179t-2 173q-4 60 -56 60h-30q1 17 1 55t-1 54q1 0 81 -1t122 -1h200zM321 153q2 -40 41 -40h24q56 0 89 18.5t51.5 71.5t18.5 148
q0 131 -37 179.5t-121 48.5h-25q-39 0 -41 -36q-3 -57 -2.5 -194t2.5 -196z" />
    <glyph glyph-name="E" unicode="E" horiz-adv-x="733" 
d="M423 467v31h85q-7 -102 -7 -152q0 -82 7 -153q-43 1 -83 0v28q-1 51 -18 71.5t-64 20.5h-22q0 -117 2 -141q3 -36 17.5 -49.5t45.5 -13.5h84q69 0 96 35t27 132q59 -2 118 0q-10 -106 -10 -281q-76 5 -229 5h-250q-30 0 -77.5 -0.5t-83.5 -1t-39 -0.5q1 16 1 55.5
t-1 55.5h25q33 0 46.5 15.5t15.5 50.5q2 38 2.5 166t-1.5 172q-2 37 -16.5 52.5t-43.5 15.5h-28q1 17 1 55t-1 54q3 0 84.5 -1t116.5 -1h245q184 0 239 7q-8 -118 -6 -265q-57 2 -111 0q0 91 -29 120.5t-91 29.5h-85q-59 0 -62 -60q-2 -58 -2 -140h23q46 0 62.5 19.5
t16.5 67.5z" />
    <glyph glyph-name="F" unicode="F" horiz-adv-x="718" 
d="M320 380h21q42 0 60.5 20t18.5 67v30h85q-7 -101 -7 -151q0 -83 7 -154q-43 1 -83 0v29q0 51 -17.5 70.5t-64.5 19.5h-20q0 -88 2 -136q2 -37 16 -51.5t50 -14.5h46q-1 -16 -1 -55.5t1 -55.5q-132 2 -206 2l-206 -2q1 16 1 55.5t-1 55.5h28q31 0 44.5 16t15.5 50
q2 42 2 169.5t-2 175.5q-3 61 -56 61h-32q1 17 1 55t-1 54q1 0 81 -1t122 -1q24 0 89.5 0.5t144.5 0.5q190 0 237 6q-8 -183 -6 -293q-67 2 -110 -1q1 107 -25 143t-96 36h-74q-59 0 -63 -60q-2 -22 -2 -140z" />
    <glyph glyph-name="G" unicode="G" horiz-adv-x="781" 
d="M367 710q109 0 184 -47q28 -19 40 -13t16 43q14 -1 47.5 -1t46.5 1q-5 -35 -11.5 -123.5t-7.5 -139.5q-73 4 -149 0q-5 79 -32.5 119t-91.5 40q-71 0 -102.5 -52t-31.5 -191q0 -75 10.5 -125.5t29.5 -75.5t40.5 -34.5t49.5 -9.5q114 0 114 120q0 37 -10 52.5t-39 15.5
h-33v82q111 -3 169 -3l163 3q-1 -45 0 -82h-23q-21 0 -28.5 -12t-7.5 -41q0 -147 14 -238q-60 4 -119 0q-8 32 -26 80q-27 -45 -84 -71.5t-129 -26.5q-158 0 -245.5 84.5t-87.5 281.5q0 180 90 272t244 92z" />
    <glyph glyph-name="H" unicode="H" horiz-adv-x="847" 
d="M22 -3q1 16 1 56t-1 56h30q32 0 43 10t13 42q2 40 2 185t-2 179q-2 30 -14 43t-38 13h-34q1 17 1 55t-1 54q122 -2 190 -2q30 0 76 0.5t80 1.5h33q-1 -16 -1 -54.5t1 -54.5h-26q-53 0 -57 -56q-2 -20 -2 -149q102 -2 214 0q0 130 -1 149q-4 56 -58 56h-26q1 16 1 54.5
t-1 54.5q121 -2 189 -2q31 0 76.5 0.5t79.5 1.5h33q-2 -55 0 -109h-32q-26 0 -38 -13t-14 -43q-2 -33 -2 -178.5t2 -184.5q2 -30 13 -41.5t42 -11.5h29q-2 -56 0 -112q-120 3 -189 3l-189 -3q1 17 1 56.5t-1 55.5h28q32 0 44 13t12 40q0 6 0.5 57t0.5 89q-112 2 -214 0
q0 -102 2 -146q2 -28 12.5 -40.5t42.5 -12.5h28q-1 -16 -1 -55.5t1 -56.5q-121 3 -189 3z" />
    <glyph glyph-name="I" unicode="I" horiz-adv-x="428" 
d="M24 -3q1 16 1 56t-1 56h32q29 0 39 12.5t13 40.5q2 35 2 182t-2 181q-2 30 -14 43t-38 13h-32q1 17 1 55t-1 54q123 -2 191 -2q30 0 76 0.5t80 1.5h34q-1 -16 -1 -54.5t1 -54.5h-32q-26 0 -38 -13t-14 -43q-3 -36 -2.5 -180.5t2.5 -182.5q2 -27 13 -40t39 -13h31
q-1 -16 -1 -55.5t1 -56.5q-121 3 -190 3z" />
    <glyph glyph-name="J" unicode="J" horiz-adv-x="591" 
d="M210 155q0 -43 -29 -66.5t-77 -22.5q28 -18 71 -18q51 0 77 31.5t30 114.5q2 59 2 178.5t-2 152.5q-2 30 -13.5 43t-38.5 13h-35q1 16 1 54.5t-1 54.5q120 -2 187 -2q30 0 75 0.5t79 1.5h33q-1 -16 -1 -54t1 -55h-22q-27 0 -39 -11.5t-13 -44.5v-324q1 -105 -70 -161.5
t-199 -56.5q-102 0 -157.5 42.5t-55.5 114.5q0 47 28 76t77 29q42 0 67 -24t25 -66z" />
    <glyph glyph-name="K" unicode="K" horiz-adv-x="837" 
d="M22 -2q1 16 1 55.5t-1 55.5h26q33 0 45 13t14 44q2 32 2 178.5t-2 179.5q-2 31 -15 44t-45 13h-25q1 17 1 55t-1 54q121 -2 189 -2q31 0 76.5 0.5t78.5 1.5h34q-1 -16 -1 -54.5t1 -54.5h-30q-26 0 -38 -13.5t-14 -43.5q-2 -21 -2 -165l178 148q25 20 16.5 47t-41.5 27
h-31q1 16 1 54.5t-1 54.5q121 -2 188 -2q30 0 75 0.5t77 1.5h33q-1 -16 -1 -54t1 -55h-36q-51 0 -88.5 -16.5t-84.5 -54.5l-65 -53q152 -253 179 -290q26 -35 40.5 -46.5t39.5 -11.5h19q-1 -17 -1 -55.5t1 -54.5q-123 2 -192 2l-192 -2q1 16 1 55t-1 55h19q59 0 12 85
q-22 39 -85 134l-61 -50q0 -82 2 -112q2 -29 12.5 -43t34.5 -14h29q-1 -16 -1 -55.5t1 -55.5q-119 2 -185 2z" />
    <glyph glyph-name="L" unicode="L" horiz-adv-x="664" 
d="M415 690q-1 -15 -1.5 -54.5t0.5 -54.5h-30q-31 0 -46.5 -14.5t-17.5 -48.5q-2 -39 -2 -172.5t2 -179.5q2 -34 17 -45.5t45 -11.5h38q43 0 66 12.5t38 55.5t17 126q15 -1 51.5 -1t52.5 1q-5 -132 -3 -307q-69 4 -214 4h-230q-124 0 -176 -1q1 16 1 55t-1 55h33
q32 0 42 14.5t12 51.5q2 43 2 176t-2 167q-5 63 -52 63h-32q1 17 1 55t-1 54q125 -2 196 -2q31 0 77.5 0.5t81 1t35.5 0.5z" />
    <glyph glyph-name="M" unicode="M" horiz-adv-x="989" 
d="M420 56q-72 154 -197 389q-3 -207 1 -263q2 -39 17.5 -56t49.5 -17h40q-1 -16 -1 -55.5t1 -55.5q-99 2 -155 2l-154 -2q1 16 1 55.5t-1 55.5h33q32 0 47 17t17 56q2 37 2 168.5t-2 167.5q-5 63 -61 63h-35v109q166 -4 335 0q68 -145 158 -312q78 160 146 312
q152 -4 305 0q-1 -16 -1 -54t1 -55h-32q-53 0 -58 -64q-2 -32 -2 -164t2 -174q2 -38 14 -54t45 -16h31q-1 -17 -1 -56t1 -55q-129 2 -201 2l-201 -2v111h33q31 0 44 17.5t15 53.5q1 29 1.5 122t-0.5 147q-125 -245 -189 -393h-49z" />
    <glyph glyph-name="N" unicode="N" horiz-adv-x="829" 
d="M336 690q108 -175 262 -399q2 141 -1 221q-4 69 -62 69h-46v109q1 0 29 -1t66.5 -1.5t63.5 -0.5l159 3q-1 -16 -1 -54t1 -55h-33q-58 0 -62 -69q-2 -43 -2 -221.5t2 -291.5q-92 4 -185 0q-117 188 -293 452q-2 -212 1 -276q3 -66 65 -66h46q-1 -16 -1 -55.5t1 -55.5
q-103 2 -162 2l-162 -2q1 16 1 55.5t-1 55.5h32q61 0 66 66q2 40 2 174.5t-2 168.5q-5 63 -64 63h-33q1 17 1 55t-1 54q157 -4 313 0z" />
    <glyph glyph-name="O" unicode="O" horiz-adv-x="789" 
d="M395 95q69 0 95 55.5t26 194.5q0 142 -25.5 196t-95.5 54q-68 0 -95 -56.5t-27 -194.5q0 -142 25 -195.5t97 -53.5zM395 -17q-181 0 -271.5 86t-90.5 275q0 182 96 272.5t266 90.5q183 0 272 -87t89 -275q0 -185 -98.5 -273.5t-262.5 -88.5z" />
    <glyph glyph-name="P" unicode="P" horiz-adv-x="714" 
d="M400 235q-37 0 -81 2q0 -37 2 -69q3 -60 57 -60h49q-1 -16 -1 -55t1 -55q-129 2 -203 2l-202 -2q1 16 1 55.5t-1 55.5h25q30 0 44.5 13.5t16.5 45.5q2 35 2 183.5t-2 180.5q-2 28 -12.5 38.5t-34.5 10.5h-39q2 56 0 109q8 0 109 -1t111 -1q24 0 80 0.5t76 0.5
q138 0 214.5 -55t76.5 -167q0 -115 -75 -173.5t-214 -58.5zM321 552q-3 -42 -3 -229h33q67 0 91.5 31t24.5 106q0 68 -22 96t-74 28h-18q-30 0 -32 -32z" />
    <glyph glyph-name="Q" unicode="Q" horiz-adv-x="789" 
d="M395 -17q-181 0 -271.5 86t-90.5 275q0 182 96 272.5t266 90.5q183 0 272 -87t89 -275q0 -231 -158 -317q13 -77 27.5 -103.5t40.5 -26.5q49 0 47 95l41 2q4 -85 -32 -131.5t-130 -46.5q-73 0 -116 42.5t-41 124.5q-13 -1 -40 -1zM427 243q48 0 82 -20q7 46 7 122
q0 142 -25.5 196t-95.5 54q-68 0 -95 -56.5t-27 -194.5q0 -102 12.5 -157t43.5 -76q-8 16 -8 38q0 42 29 68t77 26zM351 147q0 -24 13 -38t38 -14q28 0 51 13q6 91 -51 91q-21 0 -36 -13.5t-15 -38.5z" />
    <glyph glyph-name="R" unicode="R" horiz-adv-x="808" 
d="M670 181q9 -56 18.5 -75t28.5 -19q20 0 25 29.5t-7 83.5q16 -1 51 3q24 -98 -13 -162.5t-147 -64.5q-99 0 -136.5 44t-43.5 140q-5 81 -31.5 108.5t-84.5 27.5h-12q0 -101 3 -128q4 -60 57 -60h28v-110q-141 2 -191 2l-193 -2q1 16 1 55.5t-1 55.5h31q27 0 40 13.5
t15 45.5q2 34 2 178.5t-2 178.5q-2 30 -13 43t-38 13h-35q2 56 0 109q4 0 91.5 -1t116.5 -1q18 0 97.5 0.5t126.5 0.5q122 0 187.5 -48t65.5 -139q0 -72 -46.5 -118.5t-130.5 -54.5q66 -10 98 -47.5t42 -100.5zM321 544q-1 -12 -3 -170h46q60 0 84 24t24 82q0 54 -19.5 79
t-68.5 25h-24q-37 0 -39 -40z" />
    <glyph glyph-name="S" unicode="S" horiz-adv-x="694" 
d="M352 601q-69 0 -100.5 -18.5t-31.5 -47.5q0 -33 32 -46t124 -20q68 -5 120 -19t93.5 -40.5t63.5 -71.5t22 -107q0 -121 -75.5 -184.5t-219.5 -63.5q-107 0 -199 47q-49 27 -59 -36q-10 2 -44 2t-44 -2q14 138 8 233q11 -1 42 -1t42 1q50 -140 251 -140q134 0 134 71
q0 34 -39 49.5t-139 23.5q-282 19 -282 230q0 109 71 177.5t203 68.5q100 0 178 -40q21 -14 33 -10.5t15.5 10t7.5 26.5q10 -1 41 -1t41 1q-13 -89 -7 -209q-50 3 -84 1q-43 116 -198 116z" />
    <glyph glyph-name="T" unicode="T" horiz-adv-x="741" 
d="M515 575h-40q-2 -83 -1.5 -227t2.5 -173q3 -66 64 -66h33v-111q-129 2 -203 2l-203 -2q1 16 1 55t-1 56h32q62 0 67 66q2 32 2 173.5t-1 226.5h-41q-41 0 -59.5 -23.5t-20.5 -69.5l-4 -83q-17 1 -57.5 1t-57.5 -1q6 139 -5 294q59 -4 196 -4h305q148 0 195 4
q-11 -155 -5 -294q-17 1 -57 1t-57 -1l-4 83q-2 46 -20.5 69.5t-59.5 23.5z" />
    <glyph glyph-name="U" unicode="U" horiz-adv-x="815" 
d="M99 260q0 16 1 72.5t1 94.5t-1 90q-1 34 -14.5 49t-41.5 15h-22q1 17 1 55t-1 54q126 -2 196 -2q42 0 121 1t80 1v-109h-34q-60 0 -61 -64q-4 -143 0 -249q2 -88 31.5 -125t93.5 -37t94 37t32 125q4 149 0 249q-3 64 -58 64h-33q1 16 1 54.5t-1 54.5q95 -2 152 -2
q34 0 94 1t63 1v-109h-23q-53 0 -56 -64q-1 -40 -1 -83t0.5 -93.5t0.5 -76.5q0 -150 -76 -219t-221 -69q-166 0 -242 68t-76 216z" />
    <glyph glyph-name="V" unicode="V" horiz-adv-x="822" 
d="M369 491q33 -129 89 -298q70 196 93 297q12 44 4.5 67.5t-42.5 23.5h-22v109q102 -2 159 -2q33 0 92.5 1t62.5 1q-1 -16 -1 -54t1 -55h-24q-42 0 -64 -16t-41 -64q-28 -70 -82 -234.5t-84 -272.5q-111 2 -224 0q-25 96 -78 271.5t-76 238.5q-16 44 -35 60.5t-59 16.5h-21
v109q133 -2 207 -2q45 0 126 1l82 1v-109h-25q-60 0 -38 -90z" />
    <glyph glyph-name="W" unicode="W" horiz-adv-x="1157" 
d="M878 -6q-112 2 -224 0q-21 89 -91 343q-73 -255 -94 -343q-103 2 -203 0q-25 107 -73 286t-66 235q-11 35 -29 50.5t-54 15.5h-27v109q131 -2 206 -2q33 0 80.5 0.5t84 1t40.5 0.5v-109h-24q-29 0 -37.5 -15.5t-0.5 -50.5q22 -104 84 -317q66 222 84 317q6 37 -2 51.5
t-39 14.5h-16q1 16 1 54.5t-1 54.5q107 -2 168 -2q36 0 101 1t67 1q-1 -16 -1 -54t1 -55h-23q-27 0 -35 -14.5t-1 -49.5q23 -110 85 -321q61 216 79 316q8 33 0.5 51t-40.5 18h-19q1 17 1 55t-1 54q91 -2 142 -2q29 0 82.5 1t56.5 1q-1 -16 -1 -54.5t1 -54.5h-29
q-38 0 -58 -14.5t-33 -55.5q-9 -27 -69.5 -249t-72.5 -268z" />
    <glyph glyph-name="X" unicode="X" horiz-adv-x="826" 
d="M371 205q-14 26 -43 73l-46 -71q-21 -32 -24.5 -55.5t5.5 -33t25 -9.5h19v-111q-92 2 -143 2l-142 -2q1 16 1 55.5t-1 55.5h20q69 0 108.5 29.5t86.5 101.5l59 91q-55 90 -108 171q-29 45 -59.5 62t-76.5 17h-22q1 17 1 55t-1 54q3 0 95 -1t141 -1l228 2v-109h-12
q-29 0 -34 -24t16 -65q9 -18 52 -91l48 89q22 45 16 68t-30 23h-15q1 16 1 54.5t-1 54.5q84 -2 130 -2l129 2q-1 -16 -1 -54t1 -55h-17q-46 0 -75.5 -13t-44 -31t-34.5 -54l-74 -136q50 -81 107 -168q26 -38 52 -54t67 -16h29q-1 -17 -1 -56t1 -55q-147 2 -230 2l-228 -2
q1 16 1 55.5t-1 55.5h20q15 0 22.5 9t4 31.5t-21.5 55.5z" />
    <glyph glyph-name="Y" unicode="Y" horiz-adv-x="856" 
d="M678 505q-67 -120 -137 -269v-71q0 -29 12.5 -43t46.5 -14h40q-2 -56 0 -110q-141 2 -220 2l-222 -2q1 16 1 55t-1 55h42q34 0 43.5 13.5t9.5 43.5v72q-97 200 -144 282q-35 62 -116 62h-16v109q147 -2 230 -2l229 2q-1 -55 0 -109h-25q-68 0 -29 -93q25 -59 75 -147
q37 68 71 147q40 93 -25 93h-21v109q102 -2 159 -2l159 2q-2 -59 0 -109h-18q-64 0 -92 -17.5t-52 -58.5z" />
    <glyph glyph-name="Z" unicode="Z" horiz-adv-x="680" 
d="M22 0q1 15 1 50.5t-1 50.5q132 169 361 480h-80q-100 0 -133 -35t-33 -146q-14 1 -49.5 1t-49.5 -1q2 49 2.5 146.5t-1.5 145.5q174 -3 216 -3h394q-1 -15 -1 -50.5t1 -50.5q-132 -171 -357 -479h100q86 0 126 42t40 153q15 -1 50 -1t49 1q-5 -184 0 -307q-156 3 -200 3
h-435z" />
    <glyph glyph-name="bracketleft" unicode="[" horiz-adv-x="313" 
d="M56 147v365q0 164 -13 288q116 -4 234 0q-2 -43 0 -83h-24q-27 0 -39 -10.5t-13 -38.5t-1 -361.5t1 -361.5q2 -28 13.5 -38.5t45.5 -10.5h17q-2 -40 0 -83q-118 4 -234 0q2 22 7.5 141t5.5 193z" />
    <glyph glyph-name="backslash" unicode="\" horiz-adv-x="378" 
d="M246 -175q-36 151 -110.5 426t-123.5 439q60 -4 120 0q37 -154 112 -429.5t123 -435.5q-13 1 -60.5 1t-60.5 -1z" />
    <glyph glyph-name="bracketright" unicode="]" horiz-adv-x="313" 
d="M260 509v-401q0 -148 14 -295q-34 1 -116.5 1t-117.5 -1v83h16q34 0 45.5 10.5t13.5 38.5q1 19 1 361t-1 362q-1 28 -13 38.5t-39 10.5h-23v83q35 -1 117.5 -1t116.5 1q-14 -133 -14 -291z" />
    <glyph glyph-name="asciicircum" unicode="^" 
d="M288 710h18q27 -29 98 -130.5t100 -148.5l-72 -37q-23 43 -135 264q-19 -35 -71 -138t-65 -126l-71 37q37 59 103.5 154.5t94.5 124.5z" />
    <glyph glyph-name="underscore" unicode="_" horiz-adv-x="500" 
d="M0 -183q1 15 1 51t-1 52q80 -2 250 -2t250 2q-2 -51 0 -103q-80 1 -250 1t-250 -1z" />
    <glyph glyph-name="grave" unicode="`" horiz-adv-x="532" 
d="M386 550l-8 -12q-98 13 -172 58q-33 20 -35 50t22.5 40t64.5 -8q67 -38 128 -128z" />
    <glyph glyph-name="a" unicode="a" horiz-adv-x="565" 
d="M471 281v-127q0 -41 3 -54t15 -13q28 0 18 110l40 1q10 -102 -19 -158t-111 -56q-97 0 -123 71q-46 -71 -145 -71q-60 0 -96.5 29.5t-36.5 86.5q0 151 267 160v45q0 63 -24 86t-86 22q36 -19 36 -62q0 -35 -23 -54.5t-64 -19.5q-38 0 -60 20t-22 58q0 61 62 96.5
t152 35.5q120 0 168.5 -50t48.5 -156zM284 104q-1 8 -1 36v83q-39 -3 -58 -20.5t-19 -55.5q0 -34 10.5 -46.5t30.5 -12.5q25 0 37 16z" />
    <glyph glyph-name="b" unicode="b" horiz-adv-x="592" 
d="M394 -17q-127 0 -162 116q-39 -44 -44 -103q-64 2 -131 0q7 61 11 176q7 216 -2 380q-2 28 -9 38t-27 10h-18v90q206 0 245 3q-2 -107 -2 -261v-57q28 112 143 112q86 0 129 -59t43 -198q0 -132 -44.5 -189.5t-131.5 -57.5zM255 235q1 -85 15 -117.5t47 -32.5t47 29.5
t14 120.5q0 87 -11 118.5t-46 31.5q-36 0 -51 -32.5t-15 -117.5z" />
    <glyph glyph-name="c" unicode="c" horiz-adv-x="506" 
d="M345 170q101 -7 143 -4q-3 -92 -63.5 -137.5t-158.5 -45.5q-247 0 -247 242q0 125 67 193.5t191 68.5q94 0 148 -37.5t54 -104.5q0 -42 -25.5 -66t-70.5 -24q-42 0 -65.5 20.5t-23.5 56.5q0 47 38 68q-16 6 -38 6q-42 0 -62 -36t-20 -122q0 -90 14 -126t50 -36
q35 0 50 20.5t19 63.5z" />
    <glyph glyph-name="d" unicode="d" horiz-adv-x="594" 
d="M197 486q111 0 140 -107v170q0 52 -42 52h-23q2 45 0 89q143 0 253 2q-1 -97 -1 -288.5t1 -266.5q1 -47 42 -47h15v-90q-135 0 -245 -2v102q-31 -117 -141 -117q-86 0 -130 57.5t-44 199.5q0 246 175 246zM337 240q0 86 -13.5 115.5t-47.5 29.5q-36 0 -48.5 -28.5
t-12.5 -116.5t11 -121.5t46 -33.5q33 0 48.5 31.5t16.5 106.5v17z" />
    <glyph glyph-name="e" unicode="e" horiz-adv-x="513" 
d="M348 169q87 -6 141 -4q-3 -85 -58.5 -134t-166.5 -49q-117 0 -181 60t-64 183q0 125 66 193.5t182 68.5q124 0 178.5 -73.5t45.5 -205.5h-284q3 -67 19.5 -95t52.5 -28q34 0 49.5 20t19.5 64zM261 389q-28 0 -40.5 -28.5t-13.5 -108.5h71q17 0 23.5 6.5t6.5 30.5
q0 55 -11.5 77.5t-35.5 22.5z" />
    <glyph glyph-name="f" unicode="f" horiz-adv-x="345" 
d="M15 473l53 -2v2q-4 111 43.5 168t155.5 57q75 0 117.5 -31t42.5 -83q0 -73 -75 -73q-33 0 -51.5 17t-18.5 47q0 32 21 49.5t56 15.5q-18 6 -37 6q-50 0 -69 -37t-4 -120l3 -18l65 2q-1 -14 -1 -45.5t1 -44.5l-63 2q-4 -184 2 -253q3 -42 39 -42h18v-92q-1 0 -27.5 0.5
t-62.5 1t-60 0.5h-36t-40 -0.5t-36 -1t-27.5 -0.5h-11.5q1 14 1 46t-1 46h18q35 0 38 42q3 34 1 253l-54 -2q1 13 1 45t-1 45z" />
    <glyph glyph-name="g" unicode="g" horiz-adv-x="524" 
d="M243 487q41 0 78 -8q10 41 36.5 66.5t68.5 25.5q40 0 62.5 -19t22.5 -54q0 -29 -14.5 -44.5t-40.5 -15.5q-25 0 -39.5 13.5t-14.5 37.5q0 18 9 30q-43 -9 -59 -48q115 -38 115 -163q0 -87 -60 -134.5t-164 -47.5q-47 0 -85 9q-30 -5 -30 -21q0 -14 31 -18t129 -5
q68 0 113.5 -9t69 -27t33 -40t9.5 -55q0 -70 -67.5 -116t-200.5 -46q-128 0 -181.5 26t-53.5 75q0 46 59 67q-44 26 -44 78q0 88 95 104q-98 44 -98 160q0 86 59.5 132.5t161.5 46.5zM243 -64q-81 2 -122 12q-32 -13 -32 -35q0 -48 154 -48q58 0 100 8t60 19.5t18 23.5
q0 14 -25 17t-100 3h-53zM245 407q-27 0 -36.5 -20.5t-9.5 -79.5q0 -58 10.5 -79.5t35.5 -21.5q27 0 36 20.5t9 80.5t-9 80t-36 20z" />
    <glyph glyph-name="h" unicode="h" horiz-adv-x="633" 
d="M568 305q-1 -18 -1 -83.5t1 -77.5q2 -30 11 -42t33 -12h8q-2 -51 0 -92q-1 0 -26.5 0.5t-60.5 1t-58 0.5h-34t-38.5 -0.5t-34.5 -1t-26 -0.5h-11v92h9q21 0 29 12t10 42q2 48 0 159q-2 42 -13.5 62t-42.5 20q-65 0 -65 -106v-138q0 -28 8.5 -39.5t31.5 -11.5h9
q-1 -46 0 -92q-1 0 -27 0.5t-61.5 1t-58.5 0.5h-35.5t-39 -0.5t-35 -1t-27 -0.5h-11.5q2 42 0 92h12q25 0 34 10t11 40q2 26 2 204t-2 204q-2 30 -10.5 41t-34.5 11h-9v90q208 0 247 3q-4 -82 -4 -275v-39q32 108 154 108q77 0 116.5 -47.5t39.5 -134.5z" />
    <glyph glyph-name="i" unicode="i" horiz-adv-x="327" 
d="M258 475q-2 -39 -2 -171.5t1 -162.5q1 -29 11.5 -40t36.5 -11h10q-2 -51 0 -92q-1 0 -27.5 0.5t-63 1t-60.5 0.5h-36t-40.5 -0.5t-36.5 -1t-27.5 -0.5h-11.5q2 42 0 92h10q26 0 35 10.5t11 39.5q2 31 2 99t-1 96q-2 28 -11.5 38t-34.5 10h-11q2 45 0 90q138 0 246 2z
M262 621q0 -48 -27.5 -75.5t-74.5 -27.5t-74 27.5t-27 75.5q0 47 27 74.5t74 27.5t74.5 -27.5t27.5 -74.5z" />
    <glyph glyph-name="j" unicode="j" horiz-adv-x="316" 
d="M63 -87q0 -32 -23.5 -50.5t-58.5 -11.5q18 -13 44 -13q68 0 72 96q2 53 2.5 217.5t-1.5 185.5q-3 46 -43 46h-11v90q207 0 246 3q-3 -50 -3 -172v-285q0 -108 -53.5 -163.5t-155.5 -55.5q-71 0 -112.5 26.5t-41.5 74.5q0 75 74 75q31 0 48 -16.5t17 -46.5zM292 621
q0 -48 -27 -75.5t-75 -27.5q-47 0 -73.5 27.5t-26.5 75.5q0 47 27 74.5t73 27.5q48 0 75 -27.5t27 -74.5z" />
    <glyph glyph-name="k" unicode="k" horiz-adv-x="647" 
d="M258 693q-2 -78 -2 -429l93 66q18 13 23 25t-4 20t-29 8h-14q1 13 1 45.5t-1 46.5q97 -3 151 -3q24 0 60 1t63 1.5t29 0.5q-1 -13 -1 -46t1 -46h-23q-43 0 -71 -9t-67 -34l-20 -13q91 -164 108 -187q36 -51 72 -51h7q-2 -49 0 -91q-1 0 -28.5 0.5t-65.5 1t-63 0.5h-37.5
t-41.5 -0.5t-37.5 -1t-28.5 -0.5h-12q2 42 0 92h9q19 0 22.5 15t-8.5 37q-20 37 -52 87l-34 -22q0 -45 1 -63q1 -29 9.5 -41.5t26.5 -12.5h9q-1 -46 0 -92q-1 0 -26.5 0.5t-60.5 1t-58 0.5h-35t-38.5 -0.5t-35 -1t-26.5 -0.5h-11q2 42 0 92h10q26 0 35.5 11.5t11.5 42.5
q2 32 2 202t-2 200t-10.5 42.5t-33.5 12.5h-10v89q204 0 243 3z" />
    <glyph glyph-name="l" unicode="l" horiz-adv-x="324" 
d="M257 692q-1 -73 -1 -295.5t1 -252.5q2 -30 12 -42t35 -12h10q-2 -51 0 -92q-1 0 -27.5 0.5t-63 1t-60.5 0.5h-36t-40.5 -0.5t-36.5 -1t-27.5 -0.5h-11.5q1 13 1 44.5t-1 47.5h11q25 0 34.5 12t11.5 42q2 29 2 203t-2 200q-2 28 -11 41t-34 13h-9q2 45 0 89q165 0 243 2z
" />
    <glyph glyph-name="m" unicode="m" horiz-adv-x="947" 
d="M878 305v-161q0 -30 10 -42t37 -12h10q-2 -51 0 -92q-1 0 -27 0.5t-61.5 1t-58.5 0.5h-35.5t-39 -0.5t-35 -1t-26.5 -0.5h-11v92h9q20 0 28.5 12.5t10.5 41.5q4 73 0 159q-2 42 -13.5 62t-42.5 20q-65 0 -65 -107v-134q0 -30 8.5 -42t31.5 -12h9q-2 -51 0 -92
q-1 0 -26 0.5t-59.5 1t-57.5 0.5h-34t-38 -0.5t-34 -1t-26 -0.5h-11q2 42 0 92h9q20 0 29 11.5t10 42.5q4 79 0 159q-2 42 -13.5 62t-42.5 20t-48 -24.5t-17 -68.5v-148q0 -31 9 -42.5t30 -11.5h10q-2 -51 0 -92q-1 0 -27 0.5t-61.5 1t-58.5 0.5h-35.5t-39 -0.5t-35 -1
t-27 -0.5h-11.5q2 42 0 92h10q26 0 35.5 11t11.5 43q2 31 2 97t-2 91q-3 28 -11.5 39.5t-34.5 11.5h-8v90q203 0 243 3v-95q33 106 154 106q126 0 150 -119q30 119 160 119q156 0 156 -182z" />
    <glyph glyph-name="n" unicode="n" horiz-adv-x="637" 
d="M568 305q-1 -18 -1 -83.5t1 -77.5q2 -32 11.5 -43t35.5 -11h8q-2 -51 0 -92q-1 0 -27 0.5t-61 1t-58 0.5h-35t-39 -0.5t-35 -1t-26 -0.5h-11v92h9q20 0 29 12.5t10 41.5q4 73 0 159q-2 42 -13.5 62t-42.5 20q-35 0 -50 -28t-15 -87v-126q0 -31 9 -42.5t30 -11.5h10
q-2 -51 0 -92q-1 0 -27 0.5t-61.5 1t-58.5 0.5h-35.5t-39 -0.5t-35 -1t-27 -0.5h-11.5q1 14 1 46t-1 46h10q26 0 35.5 11t11.5 43t2 98t-2 90q-3 28 -11.5 39.5t-34.5 11.5h-8v90q203 0 243 3v-99q33 110 154 110q156 0 156 -182z" />
    <glyph glyph-name="o" unicode="o" horiz-adv-x="548" 
d="M25 231q0 128 65.5 192t183.5 64q249 0 249 -257q0 -248 -249 -248t-249 249zM215 230q0 -91 14 -119.5t45 -28.5t45 29t14 119q0 94 -14 127t-46 33q-31 0 -44.5 -32.5t-13.5 -127.5z" />
    <glyph glyph-name="p" unicode="p" horiz-adv-x="595" 
d="M402 -17q-114 0 -144 100v-113q0 -54 46 -54h12q-1 -13 -1 -45.5t1 -45.5q-1 0 -28 0.5t-63.5 1t-60.5 0.5h-36t-40.5 -0.5t-36.5 -1t-27.5 -0.5h-11.5q1 14 1 45.5t-1 45.5h10q25 0 35 12t12 42q2 29 2 182t-2 180q-2 28 -12 39.5t-34 11.5h-8v90q204 0 243 3v-99
q29 110 142 110q87 0 130 -59.5t43 -197.5q0 -247 -171 -247zM258 235q0 -83 14.5 -116.5t47.5 -33.5t46.5 29.5t13.5 120.5q0 87 -10.5 118.5t-46.5 31.5q-34 0 -49 -29t-16 -104v-17z" />
    <glyph glyph-name="q" unicode="q" horiz-adv-x="593" 
d="M218 487q119 0 162 -82q30 40 39 87q59 -2 117 0q-11 -82 -11 -207v-65.5v-98v-96.5v-53q1 -28 10.5 -42t32.5 -14h16q-2 -50 0 -91q-1 0 -29 0.5t-66 1t-64 0.5h-38t-42 -0.5t-38 -1t-29 -0.5h-12q2 42 0 91h19q51 0 51 56v125q-30 -114 -147 -114q-87 0 -127 57
t-40 193q0 254 196 254zM336 233q0 87 -13 119.5t-49 32.5q-35 0 -47 -30t-12 -122q0 -83 11 -115.5t45 -32.5q35 0 50 32t15 116z" />
    <glyph glyph-name="r" unicode="r" horiz-adv-x="479" 
d="M351 428q-92 0 -92 -131v-161q0 -27 10 -36.5t41 -9.5h16q-2 -45 0 -92q-1 0 -28.5 0.5t-65 1t-62.5 0.5t-63 -0.5t-66 -1.5h-28q2 42 0 92h11q26 0 36 10t10 36q1 29 1 106.5t-1 93.5q-2 26 -11.5 36.5t-33.5 10.5h-9q2 45 0 90q33 -1 106.5 0t102.5 2l-6 -114
q11 59 46 92.5t91 33.5q55 0 84.5 -29.5t29.5 -82.5q0 -46 -22.5 -71t-64.5 -25q-37 0 -58 18t-21 50q0 36 25 55.5t60 17.5q-18 8 -38 8z" />
    <glyph glyph-name="s" unicode="s" horiz-adv-x="501" 
d="M251 408q-76 0 -76 -38q0 -20 23.5 -29.5t99.5 -16.5q185 -16 185 -172q0 -79 -50.5 -124.5t-152.5 -45.5q-79 0 -144 39q-29 14 -39.5 7.5t-14.5 -30.5q-33 4 -63 0q13 87 10 156q31 -4 63 0q24 -44 66.5 -70.5t98.5 -26.5q75 0 75 41q0 18 -20.5 27.5t-83.5 14.5
q-104 8 -152.5 54t-48.5 121q0 76 57.5 124.5t154.5 47.5q61 -1 109 -30q29 -13 36 -8t13 28q29 -2 60 0q-8 -64 -10 -141q-33 2 -65 0q-39 72 -131 72z" />
    <glyph glyph-name="t" unicode="t" horiz-adv-x="364" 
d="M303 193h48q10 -105 -22.5 -157t-127.5 -52q-151 0 -151 157q0 33 2 121t2 123h-43q1 11 1 37t-1 37q71 1 114 51t57 132q11 -1 38 -1t38 1q-7 -55 -9 -171l99 4q-1 -14 -1 -46.5t1 -45.5l-99 1v-203q0 -57 6.5 -76.5t20.5 -19.5q20 -1 26.5 28.5t0.5 79.5z" />
    <glyph glyph-name="u" unicode="u" horiz-adv-x="615" 
d="M560 476q0 -6 -4 -161q0 -150 1 -166q2 -33 10.5 -46t26.5 -13h10q-2 -45 0 -90q-197 0 -236 -2v97q-32 -113 -151 -113q-159 0 -159 183v151q0 35 -8 51t-30 16h-10q1 13 1 46t-1 46q86 -2 118 -2q101 0 122 3q-4 -76 -4 -165q0 -100 1 -126q3 -100 55 -100
q39 0 52.5 40t13.5 134v68q0 31 -12 43.5t-47 12.5h-7q1 13 1 45.5t-1 46.5q97 -2 132 -2q105 0 126 3z" />
    <glyph glyph-name="v" unicode="v" horiz-adv-x="576" 
d="M569 383h-10q-37 0 -54 -14.5t-38 -72.5q-72 -194 -105 -306q-86 2 -171 0q-40 136 -102 308q-10 28 -13 35.5t-10 22t-12.5 17.5t-15 6.5t-22.5 3.5h-9q1 13 1 46t-1 46q93 -2 139 -2l166 2q-1 -14 -1 -46.5t1 -45.5h-13q-41 0 -29 -56q9 -45 53 -199q46 146 60 199
q13 56 -30 56h-14q1 13 1 45.5t-1 46.5q83 -2 118 -2l112 2q-1 -13 -1 -46t1 -46z" />
    <glyph glyph-name="w" unicode="w" horiz-adv-x="871" 
d="M477 -10q-34 141 -70 269q-49 -162 -77 -269q-75 2 -150 0q-2 5 -20 68t-38 132.5t-32 107.5q-16 54 -28.5 69.5t-41.5 15.5h-8v92q98 -3 152 -3l151 3q-1 -14 -1 -46.5t1 -45.5h-7q-40 0 -29 -54q18 -90 50 -201q48 153 55 198q6 30 -1.5 43.5t-32.5 13.5h-8v92
q85 -3 134 -3l136 3q-1 -13 -1 -46t1 -46h-9q-38 0 -28 -52q16 -80 50 -208q40 145 51 203q13 57 -27 57h-11q1 13 1 46t-1 46q72 -3 111 -3l110 3q-2 -46 0 -92h-15q-35 0 -51.5 -16.5t-35.5 -72.5q-62 -185 -99 -304q-90 2 -181 0z" />
    <glyph glyph-name="x" unicode="x" horiz-adv-x="616" 
d="M267 148q-16 26 -33 49l-38 -52q-17 -24 -10.5 -39.5t30.5 -15.5h8q-1 -14 -1 -46.5t1 -45.5q-69 2 -105 2l-107 -2v92h21q41 0 65.5 14.5t57.5 56.5l55 68q-49 70 -73 102q-24 31 -41.5 41.5t-56.5 10.5h-18v92q115 -2 180 -2l184 2q-1 -14 -1 -46.5t1 -45.5h-9
q-21 0 -26 -14.5t11 -43.5q10 -18 36 -53l42 53q17 23 11.5 40.5t-30.5 17.5h-11q1 13 1 45.5t-1 46.5q58 -2 90 -2l95 2q-1 -13 -1 -46t1 -46h-19q-27 0 -42 -11t-53 -57l-61 -74q38 -55 73 -101q37 -50 99 -50h12q-1 -46 0 -92q-114 2 -178 2l-179 -2q1 13 1 45.5t-1 46.5
h11q43 0 9 58z" />
    <glyph glyph-name="y" unicode="y" horiz-adv-x="589" 
d="M395 331q14 52 -29 52h-14q1 13 1 45.5t-1 46.5q69 -3 115 -3l110 3v-26v-39.5v-26.5h-16q-30 0 -46 -13t-26 -40q-45 -111 -103 -295q-42 -131 -95 -178.5t-132 -47.5q-60 0 -92 26.5t-32 73.5q0 40 25 65t67 25q80 0 80 -73q0 -40 -36 -60t-80 -3q23 -17 55 -17
q63 0 93 40.5t61 143.5q-60 2 -124 -1q-15 57 -47.5 159.5t-47.5 141.5q-11 30 -22 41.5t-37 11.5h-13v92q95 -3 158 -3l158 3q-2 -46 0 -92h-12q-44 0 -31 -52q13 -59 54 -188q52 161 59 188z" />
    <glyph glyph-name="z" unicode="z" horiz-adv-x="486" 
d="M289 0h-275q2 43 0 86q109 145 225 321h-34q-59 0 -86.5 -28t-32.5 -103q-10 1 -32.5 1t-31.5 -1q6 107 1 202q37 -3 182 -3h257q-2 -44 0 -87q-115 -156 -228 -323h55q50 0 83 32t37 105q10 -2 32.5 -2t31.5 2q-11 -102 -4 -205q-94 3 -180 3z" />
    <glyph glyph-name="braceleft" unicode="{" horiz-adv-x="314" 
d="M32 284v45h13q31 0 45.5 15.5t11 50.5t-9 57t-19.5 67q-2 7 -3 10q-40 130 16 196t194 68l2 -54q-36 -3 -53 -19t-24 -61t7 -126q9 -66 8.5 -114.5t-28 -78t-87.5 -33.5q59 -6 86.5 -35t28 -73.5t-5.5 -103.5q-16 -112 -3.5 -164.5t71.5 -56.5l-2 -54q-38 1 -68.5 5.5
t-61.5 15t-51 30t-33.5 47.5t-12.5 70t17 96q3 9 8 28q7 22 10 33.5t8 31t5.5 30t1 25t-3.5 22.5t-10 15.5t-17.5 11t-26.5 3.5h-13z" />
    <glyph glyph-name="bar" unicode="|" horiz-adv-x="300" 
d="M140 -119q0 10 10 10t10 -10t-10 -10t-10 10zM134 -43q0 16 16 16t16 -16t-16 -16t-16 16zM129 33q0 8 6.5 14.5t14.5 6.5t14.5 -6.5t6.5 -14.5q0 -9 -6.5 -15t-14.5 -6t-14.5 6t-6.5 15zM124 109q0 10 8 17.5t18 7.5t18 -7.5t8 -17.5q0 -11 -8 -18.5t-18 -7.5t-18 7.5
t-8 18.5zM121 185q0 11 8.5 19.5t20.5 8.5t20.5 -8.5t8.5 -19.5q0 -12 -8.5 -20.5t-20.5 -8.5t-20.5 8.5t-8.5 20.5zM119 261q0 12 9 21t22 9t22 -9t9 -21q0 -13 -9 -22t-22 -9t-22 9t-9 22zM119 337q0 13 9 22t22 9t22 -9t9 -22t-9 -22.5t-22 -9.5t-22 9.5t-9 22.5z
M119 412q0 13 9 22t22 9t22 -9t9 -22q0 -12 -9 -21t-22 -9t-22 9t-9 21zM121 488q0 12 8.5 20.5t20.5 8.5t20.5 -8.5t8.5 -20.5q0 -11 -8.5 -19.5t-20.5 -8.5t-20.5 8.5t-8.5 19.5zM124 564q0 10 8 18t18 8t18 -8t8 -18t-8 -17.5t-18 -7.5t-18 7.5t-8 17.5zM129 640
q0 9 6.5 15t14.5 6t14.5 -6t6.5 -15q0 -8 -6.5 -14.5t-14.5 -6.5t-14.5 6.5t-6.5 14.5zM134 716q0 16 16 16t16 -16t-16 -16t-16 16zM140 792q0 10 10 10t10 -10t-10 -10t-10 10z" />
    <glyph glyph-name="braceright" unicode="}" horiz-adv-x="303" 
d="M274 329v-45h-14q-30 0 -44.5 -13t-13 -41t7 -53t18.5 -67q5 -17 8 -26q16 -54 17.5 -96t-11 -70t-32 -47.5t-50 -30t-60.5 -15t-68 -5.5l-2 54q60 4 72.5 56.5t-4.5 164.5q-5 59 -5 103.5t28 73.5t87 35q-60 4 -88 33.5t-28 78t9 114.5q13 81 6 126t-24 61t-53 19l2 54
q284 -5 204 -264q-33 -106 -32 -142q1 -58 56 -58h14z" />
    <glyph glyph-name="asciitilde" unicode="~" horiz-adv-x="532" 
d="M409 688l35 11q29 -78 -7.5 -124.5t-104.5 -46.5q-77 0 -124 72q-14 22 -24.5 31t-25.5 9q-22 0 -31.5 -19.5t3.5 -68.5l-34 -11q-29 81 8 126.5t104 45.5q73 0 123 -73q25 -40 51 -40q23 0 31.5 20.5t-4.5 67.5z" />
    <glyph glyph-name="exclamdown" unicode="&#xa1;" horiz-adv-x="298" 
d="M53 398q0 43 25 66t71 23q45 0 69.5 -23.5t24.5 -67.5q0 -43 -25 -67t-69 -24q-46 0 -71 24.5t-25 68.5zM135 236q0 26 16 26q17 0 17 -26q0 -54 7 -95t12.5 -58t27.5 -62.5t30 -64.5q36 -79 8.5 -139t-102.5 -60q-73 0 -101.5 60t9.5 139q8 17 26 53.5t23 49t14 41.5
t11 60t2 76z" />
    <glyph glyph-name="cent" unicode="&#xa2;" horiz-adv-x="531" 
d="M278 342q-12 -68 -25 -160q19 -10 48 -10q33 0 64 13q-40 15 -40 63q0 32 22 49.5t59 17.5q38 0 59.5 -21.5t21.5 -61.5q0 -67 -56 -107t-155 -40q-25 0 -36 1l-16 -121l-48 8q12 52 26 119q-86 18 -132.5 78.5t-46.5 162.5q0 123 70 192t197 64l16 120l48 -9
q-12 -51 -26 -115q74 -10 114 -42.5t40 -83.5q0 -36 -22 -56t-61 -20q-35 0 -54.5 18.5t-19.5 49.5q0 33 24 51q-14 4 -38 5q-24 -113 -33 -165zM201 338q0 -94 25 -131q23 112 28 139q7 41 24 158q-39 -8 -58 -46.5t-19 -119.5z" />
    <glyph glyph-name="sterling" unicode="&#xa3;" horiz-adv-x="591" 
d="M77 254q2 32 0 64q22 -3 64 -3q-34 45 -52 84.5t-18 91.5q0 95 70 153t179 58q104 0 157 -44t53 -114q0 -53 -25.5 -80.5t-71.5 -27.5q-34 0 -55 18.5t-21 49.5q0 28 19 46.5t51 18.5q17 0 30 -4q-22 43 -86 43q-50 0 -78.5 -32t-28.5 -94q0 -14 2 -29t4 -26.5t7.5 -29
t8.5 -26.5t10 -29t9 -27l111 3q-2 -32 0 -64l-94 3q10 -40 10 -74q0 -12 -2 -30q53 -16 95 -16q71 0 85 42l60 -9q13 -79 -25 -134t-123 -55q-82 0 -153 45q-50 -42 -127 -42q-59 0 -89 25.5t-30 69.5q0 50 37 79.5t90 29.5q35 0 68 -5q-9 35 -35 75q-37 -1 -106 -4zM132 25
q53 0 76 43q-42 30 -76 30q-54 0 -54 -37q0 -15 14 -25.5t40 -10.5z" />
    <glyph glyph-name="yen" unicode="&#xa5;" horiz-adv-x="612" 
d="M77 410l64 -2q-19 56 -28 80q-21 56 -37.5 74.5t-50.5 18.5h-15v109q106 -2 167 -2l168 2q-2 -55 0 -109h-10q-50 0 -27 -77q20 -68 55 -147q45 97 57 148q9 32 4.5 54t-29.5 22h-11v109q73 -2 112 -2l106 2q-1 -16 -1 -54t1 -55h-11q-28 0 -45 -13t-33 -46
q-18 -40 -49 -114l70 2q-2 -42 0 -84l-103 4l-21 -52l124 4q-2 -43 0 -85l-127 5v-37q0 -29 12 -43t45 -14h24q-3 -56 0 -109q-114 2 -183 2l-185 -2q2 54 0 109h25q33 0 42.5 13.5t9.5 43.5v37l-120 -5v85l105 -4l-16 52l-89 -4v84z" />
    <glyph glyph-name="brokenbar" unicode="&#xa6;" horiz-adv-x="300" 
d="M140 -119q0 10 10 10t10 -10t-10 -10t-10 10zM134 -43q0 16 16 16t16 -16t-16 -16t-16 16zM129 33q0 8 6.5 14.5t14.5 6.5t14.5 -6.5t6.5 -14.5q0 -9 -6.5 -15t-14.5 -6t-14.5 6t-6.5 15zM124 109q0 10 8 17.5t18 7.5t18 -7.5t8 -17.5q0 -11 -8 -18.5t-18 -7.5t-18 7.5
t-8 18.5zM121 185q0 11 8.5 19.5t20.5 8.5t20.5 -8.5t8.5 -19.5q0 -12 -8.5 -20.5t-20.5 -8.5t-20.5 8.5t-8.5 20.5zM119 261q0 12 9 21t22 9t22 -9t9 -21q0 -13 -9 -22t-22 -9t-22 9t-9 22zM119 412q0 13 9 22t22 9t22 -9t9 -22q0 -12 -9 -21t-22 -9t-22 9t-9 21zM121 488
q0 12 8.5 20.5t20.5 8.5t20.5 -8.5t8.5 -20.5q0 -11 -8.5 -19.5t-20.5 -8.5t-20.5 8.5t-8.5 19.5zM124 564q0 10 8 18t18 8t18 -8t8 -18t-8 -17.5t-18 -7.5t-18 7.5t-8 17.5zM129 640q0 9 6.5 15t14.5 6t14.5 -6t6.5 -15q0 -8 -6.5 -14.5t-14.5 -6.5t-14.5 6.5t-6.5 14.5z
M134 716q0 16 16 16t16 -16t-16 -16t-16 16zM140 792q0 10 10 10t10 -10t-10 -10t-10 10z" />
    <glyph glyph-name="section" unicode="&#xa7;" horiz-adv-x="864" 
d="M553 660l4 -12q-40 -38 -63 -79.5t-45.5 -128t-45.5 -240.5q-16 -108 -43 -185.5t-54 -118.5t-63.5 -64t-63 -28.5t-60.5 -5.5q-56 0 -88 33t-26 85q5 37 28 59.5t58 22.5q34 0 51.5 -17t13.5 -50q-3 -28 -27.5 -44.5t-63.5 -8.5q17 -25 57 -25q39 0 61 25.5t43 105.5
t43 244q12 89 36.5 160.5t52 115.5t64 77.5t66.5 50t65 28.5zM312 -152l-3 12q39 38 62 79t46 128t46 241q16 105 41.5 181.5t52 118t61 65.5t61.5 30t60 6q65 0 96 -34t25 -84q-5 -37 -28 -59t-58 -22q-32 0 -50.5 17t-14.5 49q3 28 27 44.5t63 9.5q-17 25 -50 25
q-40 0 -63.5 -24.5t-45.5 -105.5t-44 -245q-12 -89 -36.5 -160.5t-52 -116t-64 -77.5t-66.5 -49.5t-65 -28.5z" />
    <glyph glyph-name="dieresis" unicode="&#xa8;" horiz-adv-x="534" 
d="M242 609q0 -28 -17 -44t-44 -16q-26 0 -43.5 16t-17.5 44t17.5 44.5t43.5 16.5q27 0 44 -16.5t17 -44.5zM415 609q0 -28 -17 -44t-44 -16q-26 0 -43 16t-17 44t17 44.5t43 16.5q27 0 44 -16.5t17 -44.5z" />
    <glyph glyph-name="copyright" unicode="&#xa9;" horiz-adv-x="848" 
d="M424 -16q-177 0 -272 94.5t-95 265.5q0 170 97.5 265.5t269.5 95.5q174 0 270.5 -95.5t96.5 -265.5q0 -171 -95 -265.5t-272 -94.5zM424 40q145 0 221 80.5t76 223.5t-77 224t-220 81t-220 -81t-77 -224q0 -142 77 -223t220 -81zM409 559q61 0 107 -29q30 -20 36 15h56
q-9 -82 -11 -149q-38 3 -76 0q-2 40 -22 62t-52 22q-38 0 -55.5 -28.5t-17.5 -104.5q0 -77 17 -104.5t49 -27.5q72 0 71 88q51 -2 100 0q2 -85 -42.5 -125.5t-142.5 -40.5q-104 0 -153.5 47.5t-49.5 162.5q0 103 49.5 157.5t136.5 54.5z" />
    <glyph glyph-name="ordfeminine" unicode="&#xaa;" horiz-adv-x="500" 
d="M54 193q2 57 0 115q43 -2 186 -2t187 2q-2 -57 0 -115q-44 1 -186.5 1t-186.5 -1zM376 554v-92q0 -28 2.5 -37t10.5 -9q20 0 13 76l29 2q5 -72 -15 -110t-76 -38q-66 0 -84 51q-31 -51 -101 -51q-43 0 -68.5 20.5t-25.5 61.5q0 103 188 111v31q0 46 -20 63t-68 13
q33 -9 33 -43q0 -23 -16 -37t-44 -14q-26 0 -41 14.5t-15 39.5q0 42 43 66.5t105 24.5q83 0 116.5 -34.5t33.5 -108.5zM250 432q-1 10 -1 44v38q-58 -5 -58 -56q0 -42 29 -42q21 0 30 16z" />
    <glyph glyph-name="guillemotleft" unicode="&#xab;" horiz-adv-x="453" 
d="M227 430l13 -10q-7 -36 -31 -85.5t-51 -85.5q25 -33 49 -82t32 -83l-13 -11q-91 76 -181 142v75q25 20 99 76.5t83 63.5zM398 430l13 -10q-7 -36 -31 -85.5t-51 -85.5q25 -33 49 -82t32 -83l-13 -11q-91 76 -181 142v75q25 20 99 76.5t83 63.5z" />
    <glyph glyph-name="registered" unicode="&#xae;" horiz-adv-x="848" 
d="M424 -16q-177 0 -272 94.5t-95 265.5q0 170 97.5 265.5t269.5 95.5q174 0 270.5 -95.5t96.5 -265.5q0 -171 -95 -265.5t-272 -94.5zM424 40q145 0 221 80.5t76 223.5t-77 224t-220 81t-220 -81t-77 -224q0 -142 77 -223t220 -81zM603 257q8 -45 24 -45q9 2 9 19.5
t-7 37.5q2 0 18 1l16 1q14 -54 -6.5 -91.5t-81.5 -37.5q-62 0 -86 25.5t-26 76.5q-3 46 -19.5 63.5t-50.5 17.5q0 -39 2 -67q1 -34 30 -34h14v-69q-72 1 -113 1l-113 -1v69h15q29 0 32 34q2 18 2 94t-2 94q-2 17 -8.5 24.5t-21.5 7.5h-17v69q25 -1 126 -1h106
q93 0 135.5 -26t42.5 -82q0 -76 -85 -99q53 -14 65 -82zM395 457q-2 -32 -2 -96h28q32 0 44.5 16t12.5 48q0 27 -10.5 41t-39.5 14h-11q-20 0 -22 -23z" />
    <glyph glyph-name="macron" unicode="&#xaf;" horiz-adv-x="532" 
d="M115 557q2 45 0 92q46 -1 142 -1t142 1q-2 -46 0 -92q-46 1 -142 1t-142 -1z" />
    <glyph glyph-name="degree" unicode="&#xb0;" horiz-adv-x="348" 
d="M174 413q85 0 85 121q0 65 -21.5 92.5t-63.5 27.5q-86 0 -86 -120q0 -66 21.5 -93.5t64.5 -27.5zM174 375q-69 0 -106.5 40.5t-37.5 118.5t38.5 119t105.5 41q69 0 106.5 -40.5t37.5 -119.5q0 -78 -38 -118.5t-106 -40.5z" />
    <glyph glyph-name="plusminus" unicode="&#xb1;" 
d="M80 0q3 43 0 88q92 -2 173 -2q4 72 11 129q-85 -13 -187 -13v97q91 0 187 -13q-13 85 -13 187h97q0 -91 -13 -187q96 13 188 13v-97q-104 0 -189 13q7 -57 11 -129q83 0 175 2q-3 -44 0 -88q-219 4 -440 0z" />
    <glyph glyph-name="acute" unicode="&#xb4;" horiz-adv-x="532" 
d="M162 538l-8 12q25 37 61 73.5t67 54.5q23 12 42.5 12.5t30.5 -10.5t14 -25t-6.5 -31t-31.5 -30q-71 -42 -169 -56z" />
    <glyph glyph-name="paragraph" unicode="&#xb6;" horiz-adv-x="574" 
d="M202 -160q42 0 61 29.5t19 95.5v229q-117 1 -178 64.5t-61 183.5q0 123 79.5 185t225.5 62h183q-2 -43 0 -89h-18q-50 0 -50 -49v-519q0 -115 -53.5 -173.5t-156.5 -58.5q-76 0 -115 28t-39 75q0 35 19.5 53t53.5 18q31 0 48.5 -16.5t17.5 -45.5q0 -26 -19 -44t-52 -22
q18 -6 35 -6z" />
    <glyph glyph-name="periodcentered" unicode="&#xb7;" horiz-adv-x="307" 
d="M254 245q0 -45 -26.5 -70t-74.5 -25q-46 0 -73 24.5t-27 71.5q0 41 28.5 68t71.5 27q48 0 74.5 -27t26.5 -69z" />
    <glyph glyph-name="cedilla" unicode="&#xb8;" horiz-adv-x="532" 
d="M213 -108l-12 25q65 26 70 90l34 -7q3 -39 -25 -66q50 3 79.5 -19t29.5 -61q0 -43 -32 -68.5t-89 -25.5q-80 0 -117 58l24 22q28 -33 65 -33q53 0 53 49q0 27 -22.5 38t-57.5 -2z" />
    <glyph glyph-name="ordmasculine" unicode="&#xba;" horiz-adv-x="453" 
d="M55 193q2 57 0 115q43 -2 172 -2t173 2q-2 -57 0 -115q-44 1 -173 1t-172 -1zM57 518q0 89 45.5 134t127.5 45q174 0 174 -180q0 -173 -174 -173q-173 0 -173 174zM187 517q0 -65 10 -85.5t33 -20.5t33.5 20.5t10.5 85.5q0 68 -10.5 91.5t-33.5 23.5t-33 -23.5t-10 -91.5
z" />
    <glyph glyph-name="guillemotright" unicode="&#xbb;" horiz-adv-x="453" 
d="M42 420l13 10q104 -77 182 -140v-75q-64 -47 -181 -142l-13 11q8 34 32 83t49 82q-26 35 -50 85t-32 86zM213 420l13 10q104 -77 182 -140v-75q-64 -47 -181 -142l-13 11q8 34 32 83t49 82q-26 35 -50 85t-32 86z" />
    <glyph glyph-name="onequarter" unicode="&#xbc;" horiz-adv-x="378" 
d="M8 344q0 23 24 23q10 0 16.5 -6.5t6.5 -16.5q0 -24 -23 -24q-24 0 -24 24zM74 344q0 20 21 20q20 0 20 -20q0 -21 -20 -21q-21 0 -21 21zM139 344q0 18 19 18q8 0 13 -5t5 -13q0 -19 -18 -19q-19 0 -19 19zM202 344q0 18 19 18q7 0 12.5 -5t5.5 -13q0 -19 -18 -19
q-19 0 -19 19zM263 344q0 20 21 20q20 0 20 -20q0 -21 -20 -21q-21 0 -21 21zM323 344q0 23 24 23q10 0 16.5 -6.5t6.5 -16.5q0 -24 -23 -24q-24 0 -24 24zM103 455q30 0 30 28v113l-55 -1v58h17q83 0 91 57q10 -1 33.5 -1t33.5 1q-6 -76 -6 -134v-93q0 -28 30 -28h30
q-1 -7 -1 -26t1 -27q-76 2 -118 2l-118 -2q1 8 1 27t-1 26h32zM143 24q22 0 22 21v11q-29 0 -73 -0.5t-50 -0.5v24l147 207q51 -2 101 0v-204l43 1v-30l-43 1v-8q0 -22 21 -22h23v-46q-69 2 -108 2l-109 -2q1 6 1 23t-1 23h26zM92 81h73v118z" />
    <glyph glyph-name="onehalf" unicode="&#xbd;" horiz-adv-x="378" 
d="M8 344q0 23 24 23q10 0 16.5 -6.5t6.5 -16.5q0 -24 -23 -24q-24 0 -24 24zM74 344q0 20 21 20q20 0 20 -20q0 -21 -20 -21q-21 0 -21 21zM139 344q0 18 19 18q8 0 13 -5t5 -13q0 -19 -18 -19q-19 0 -19 19zM202 344q0 18 19 18q7 0 12.5 -5t5.5 -13q0 -19 -18 -19
q-19 0 -19 19zM263 344q0 20 21 20q20 0 20 -20q0 -21 -20 -21q-21 0 -21 21zM323 344q0 23 24 23q10 0 16.5 -6.5t6.5 -16.5q0 -24 -23 -24q-24 0 -24 24zM312 90q10 -16 12.5 -36.5t-3.5 -39t-26 -31.5t-51 -13q-42 0 -91 29q-45 25 -71 9q11 1 18 -4.5t7 -13.5
q0 -20 -24 -20q-32 0 -32 40q0 29 16.5 54t33 37t47.5 30q28 16 39.5 30t11.5 35q0 49 -53 49q-38 0 -53 -22q13 5 29 5q41 0 41 -34q0 -17 -13 -27t-37 -10q-52 0 -52 48q0 42 35.5 63.5t90.5 21.5q66 0 97.5 -24t31.5 -63q0 -48 -30.5 -69t-89.5 -34q-84 -21 -105 -52
q35 32 110 15q38 -11 61.5 -6.5t20.5 29.5zM103 455q30 0 30 28v113l-55 -1v58h17q83 0 91 57q10 -1 33.5 -1t33.5 1q-6 -76 -6 -134v-93q0 -28 30 -28h30q-1 -7 -1 -26t1 -27q-76 2 -118 2l-118 -2q1 8 1 27t-1 26h32z" />
    <glyph glyph-name="threequarters" unicode="&#xbe;" horiz-adv-x="378" 
d="M8 344q0 23 24 23q10 0 16.5 -6.5t6.5 -16.5q0 -24 -23 -24q-24 0 -24 24zM74 344q0 20 21 20q20 0 20 -20q0 -21 -20 -21q-21 0 -21 21zM139 344q0 18 19 18q8 0 13 -5t5 -13q0 -19 -18 -19q-19 0 -19 19zM202 344q0 18 19 18q7 0 12.5 -5t5.5 -13q0 -19 -18 -19
q-19 0 -19 19zM263 344q0 20 21 20q20 0 20 -20q0 -21 -20 -21q-21 0 -21 21zM323 344q0 23 24 23q10 0 16.5 -6.5t6.5 -16.5q0 -24 -23 -24q-24 0 -24 24zM316 630q0 -54 -70 -72q82 -13 82 -73q0 -91 -154 -91q-58 0 -91 22.5t-32 58.5q0 22 14.5 34.5t38.5 12.5t37.5 -10
t13.5 -26q0 -20 -17 -30.5t-45 -7.5q20 -15 49 -15q61 0 61 54q0 52 -62 52h-11v31h11q58 2 58 53q0 46 -52 46q-36 0 -51 -21q11 4 26 4q40 0 40 -32q0 -15 -12.5 -25.5t-34.5 -10.5q-24 0 -38.5 13t-14.5 36q0 38 36 59.5t93 21.5q58 0 91.5 -23t33.5 -61zM143 24
q22 0 22 21v11q-29 0 -73 -0.5t-50 -0.5v24l147 207q51 -2 101 0v-204l43 1v-30l-43 1v-8q0 -22 21 -22h23v-46q-69 2 -108 2l-109 -2q1 6 1 23t-1 23h26zM92 81h73v118z" />
    <glyph glyph-name="questiondown" unicode="&#xbf;" horiz-adv-x="535" 
d="M157 190l-14 31q68 44 142 44q44 0 69 -19t25 -52q0 -27 -14.5 -47t-48.5 -43q-81 -54 -81 -136q0 -118 112 -118q66 0 101 44q-18 -6 -42 -6q-40 0 -62.5 22.5t-22.5 60.5q0 36 25.5 59t68.5 23q47 0 72 -27.5t25 -77.5q0 -86 -65.5 -138.5t-176.5 -52.5
q-124 0 -184.5 52.5t-60.5 142.5q0 85 52.5 133t155.5 81q29 9 39.5 17t10.5 18q0 19 -28 19q-47 0 -98 -30zM172 396q0 43 24.5 67t68.5 24t70 -24t26 -67t-26 -67t-70 -24q-43 0 -68 24.5t-25 66.5z" />
    <glyph glyph-name="Agrave" unicode="&#xc0;" horiz-adv-x="885" 
d="M460 109q72 0 35 99q-142 2 -222 1q-17 -52 -8 -76t47 -24h35q-1 -16 -1 -55.5t1 -55.5q-104 2 -163 2l-162 -2q1 16 1 55.5t-1 55.5h21q43 0 66 20t43 70q124 320 188 496q69 -2 107 -2l107 2q29 -83 94.5 -251.5t97.5 -245.5q22 -53 42.5 -71t50.5 -18h24
q-1 -17 -1 -56t1 -55q-141 2 -220 2l-221 -2q1 16 1 55.5t-1 55.5h38zM474 273q-34 100 -90 246q-53 -143 -88 -246q91 -2 178 0zM513 752l-8 -12q-98 13 -172 58q-33 20 -35 50t22.5 40t64.5 -8q67 -38 128 -128z" />
    <glyph glyph-name="Aacute" unicode="&#xc1;" horiz-adv-x="885" 
d="M460 109q72 0 35 99q-142 2 -222 1q-17 -52 -8 -76t47 -24h35q-1 -16 -1 -55.5t1 -55.5q-104 2 -163 2l-162 -2q1 16 1 55.5t-1 55.5h21q43 0 66 20t43 70q124 320 188 496q69 -2 107 -2l107 2q29 -83 94.5 -251.5t97.5 -245.5q22 -53 42.5 -71t50.5 -18h24
q-1 -17 -1 -56t1 -55q-141 2 -220 2l-221 -2q1 16 1 55.5t-1 55.5h38zM474 273q-34 100 -90 246q-53 -143 -88 -246q91 -2 178 0zM399 740l-8 12q25 37 61 73.5t67 54.5q23 12 42.5 12.5t30.5 -10.5t14 -25t-6.5 -31t-31.5 -30q-71 -42 -169 -56z" />
    <glyph glyph-name="Acircumflex" unicode="&#xc2;" horiz-adv-x="885" 
d="M460 109q72 0 35 99q-142 2 -222 1q-17 -52 -8 -76t47 -24h35q-1 -16 -1 -55.5t1 -55.5q-104 2 -163 2l-162 -2q1 16 1 55.5t-1 55.5h21q43 0 66 20t43 70q124 320 188 496q69 -2 107 -2l107 2q29 -83 94.5 -251.5t97.5 -245.5q22 -53 42.5 -71t50.5 -18h24
q-1 -17 -1 -56t1 -55q-141 2 -220 2l-221 -2q1 16 1 55.5t-1 55.5h38zM474 273q-34 100 -90 246q-53 -143 -88 -246q91 -2 178 0zM591 743l-9 -11q-74 17 -142 69q-67 -51 -138 -68l-9 11q29 78 112 148h76q67 -53 110 -149z" />
    <glyph glyph-name="Atilde" unicode="&#xc3;" horiz-adv-x="885" 
d="M460 109q72 0 35 99q-142 2 -222 1q-17 -52 -8 -76t47 -24h35q-1 -16 -1 -55.5t1 -55.5q-104 2 -163 2l-162 -2q1 16 1 55.5t-1 55.5h21q43 0 66 20t43 70q124 320 188 496q69 -2 107 -2l107 2q29 -83 94.5 -251.5t97.5 -245.5q22 -53 42.5 -71t50.5 -18h24
q-1 -17 -1 -56t1 -55q-141 2 -220 2l-221 -2q1 16 1 55.5t-1 55.5h38zM474 273q-34 100 -90 246q-53 -143 -88 -246q91 -2 178 0zM559 870l29 9q25 -66 -6 -105t-88 -39q-66 0 -105 61q-12 19 -20.5 26t-21.5 7q-19 0 -26.5 -16.5t3.5 -57.5l-29 -9q-25 68 6 106.5t88 38.5
q63 0 104 -62q21 -33 43 -33q19 0 26.5 17t-3.5 57z" />
    <glyph glyph-name="Adieresis" unicode="&#xc4;" horiz-adv-x="885" 
d="M460 109q72 0 35 99q-142 2 -222 1q-17 -52 -8 -76t47 -24h35q-1 -16 -1 -55.5t1 -55.5q-104 2 -163 2l-162 -2q1 16 1 55.5t-1 55.5h21q43 0 66 20t43 70q124 320 188 496q69 -2 107 -2l107 2q29 -83 94.5 -251.5t97.5 -245.5q22 -53 42.5 -71t50.5 -18h24
q-1 -17 -1 -56t1 -55q-141 2 -220 2l-221 -2q1 16 1 55.5t-1 55.5h38zM474 273q-34 100 -90 246q-53 -143 -88 -246q91 -2 178 0zM416 811q0 -28 -17 -44t-44 -16q-26 0 -43.5 16t-17.5 44t17.5 44.5t43.5 16.5q27 0 44 -16.5t17 -44.5zM589 811q0 -28 -17 -44t-44 -16
q-26 0 -43 16t-17 44t17 44.5t43 16.5q27 0 44 -16.5t17 -44.5z" />
    <glyph glyph-name="Aring" unicode="&#xc5;" horiz-adv-x="885" 
d="M460 109q72 0 35 99q-142 2 -222 1q-17 -52 -8 -76t47 -24h35q-1 -16 -1 -55.5t1 -55.5q-104 2 -163 2l-162 -2q1 16 1 55.5t-1 55.5h21q43 0 66 20t43 70q124 320 188 496q69 -2 107 -2l107 2q29 -83 94.5 -251.5t97.5 -245.5q22 -53 42.5 -71t50.5 -18h24
q-1 -17 -1 -56t1 -55q-141 2 -220 2l-221 -2q1 16 1 55.5t-1 55.5h38zM474 273q-34 100 -90 246q-53 -143 -88 -246q91 -2 178 0zM489 837q0 47 -46 47t-46 -47q0 -50 46 -50t46 50zM535 837q0 -44 -24.5 -68.5t-67.5 -24.5t-68 25t-25 68t24 67t67 24q44 0 69 -24t25 -67z
" />
    <glyph glyph-name="AE" unicode="&#xc6;" horiz-adv-x="1098" 
d="M685 380h24q46 0 62.5 19.5t16.5 67.5v31h85q-7 -101 -7 -152q0 -82 7 -153q-43 1 -83 0v28q-1 51 -18 71.5t-64 20.5h-23q0 -105 3 -141q1 -35 16.5 -49t46.5 -14h84q68 0 95 33.5t27 124.5v9q59 -2 119 0q-10 -106 -10 -281q-59 5 -214 5h-279q-166 0 -190 -2v111h29
q33 0 46 15.5t16 50.5q1 10 1 48h-53.5h-64h-52.5l-10 -21q-44 -93 26 -93h27v-32v-48v-31q-105 2 -164 2l-162 -2q1 16 1 55.5t-1 55.5h22q42 0 69 20.5t59 69.5q131 204 197 320q16 25 7.5 44.5t-42.5 19.5h-16v111q66 -6 270 -6q21 0 92.5 0.5t151.5 0.5q193 0 240 6
q-8 -117 -6 -263q-56 2 -112 0v8q0 85 -29.5 112.5t-90.5 27.5h-84q-31 0 -46 -14.5t-16 -45.5q-3 -44 -3 -140zM471 517q-66 -106 -134 -233q96 0 139 1q2 130 -5 232z" />
    <glyph glyph-name="Ccedilla" unicode="&#xc7;" horiz-adv-x="727" 
d="M307 -108l-12 25q54 22 66 66q-162 5 -245 89t-83 274q0 180 90.5 272t244.5 92q108 0 183 -46q29 -18 40.5 -12.5t15.5 41.5q14 -1 47.5 -1t46.5 1q-5 -35 -11.5 -123.5t-7.5 -139.5q-73 4 -149 0q-5 79 -32.5 119t-91.5 40q-71 0 -102.5 -52t-31.5 -191
q0 -75 9.5 -125.5t29 -75.5t41 -34.5t51.5 -9.5q62 0 97 43t34 125q26 -1 81.5 -1t81.5 1q-1 -151 -69 -216.5t-232 -69.5q-3 -27 -25 -49q50 3 79.5 -19t29.5 -61q0 -43 -32 -68.5t-89 -25.5q-80 0 -117 58l24 22q28 -33 65 -33q53 0 53 49q0 27 -22.5 38t-57.5 -2z" />
    <glyph glyph-name="Egrave" unicode="&#xc8;" horiz-adv-x="733" 
d="M423 467v31h85q-7 -102 -7 -152q0 -82 7 -153q-43 1 -83 0v28q-1 51 -18 71.5t-64 20.5h-22q0 -117 2 -141q3 -36 17.5 -49.5t45.5 -13.5h84q69 0 96 35t27 132q59 -2 118 0q-10 -106 -10 -281q-76 5 -229 5h-250q-30 0 -77.5 -0.5t-83.5 -1t-39 -0.5q1 16 1 55.5
t-1 55.5h25q33 0 46.5 15.5t15.5 50.5q2 38 2.5 166t-1.5 172q-2 37 -16.5 52.5t-43.5 15.5h-28q1 17 1 55t-1 54q3 0 84.5 -1t116.5 -1h245q184 0 239 7q-8 -118 -6 -265q-57 2 -111 0q0 91 -29 120.5t-91 29.5h-85q-59 0 -62 -60q-2 -58 -2 -140h23q46 0 62.5 19.5
t16.5 67.5zM463 752l-8 -12q-98 13 -172 58q-33 20 -35 50t22.5 40t64.5 -8q67 -38 128 -128z" />
    <glyph glyph-name="Eacute" unicode="&#xc9;" horiz-adv-x="733" 
d="M329 740l-8 12q25 37 61 73.5t67 54.5q23 12 42.5 12.5t30.5 -10.5t14 -25t-6.5 -31t-31.5 -30q-71 -42 -169 -56zM423 467v31h85q-7 -102 -7 -152q0 -82 7 -153q-43 1 -83 0v28q-1 51 -18 71.5t-64 20.5h-22q0 -117 2 -141q3 -36 17.5 -49.5t45.5 -13.5h84q69 0 96 35
t27 132q59 -2 118 0q-10 -106 -10 -281q-76 5 -229 5h-250q-30 0 -77.5 -0.5t-83.5 -1t-39 -0.5q1 16 1 55.5t-1 55.5h25q33 0 46.5 15.5t15.5 50.5q2 38 2.5 166t-1.5 172q-2 37 -16.5 52.5t-43.5 15.5h-28q1 17 1 55t-1 54q3 0 84.5 -1t116.5 -1h245q184 0 239 7
q-8 -118 -6 -265q-57 2 -111 0q0 91 -29 120.5t-91 29.5h-85q-59 0 -62 -60q-2 -58 -2 -140h23q46 0 62.5 19.5t16.5 67.5z" />
    <glyph glyph-name="Ecircumflex" unicode="&#xca;" horiz-adv-x="733" 
d="M532 743l-9 -11q-74 17 -142 69q-67 -51 -138 -68l-9 11q29 78 112 148h76q67 -53 110 -149zM423 467v31h85q-7 -102 -7 -152q0 -82 7 -153q-43 1 -83 0v28q-1 51 -18 71.5t-64 20.5h-22q0 -117 2 -141q3 -36 17.5 -49.5t45.5 -13.5h84q69 0 96 35t27 132q59 -2 118 0
q-10 -106 -10 -281q-76 5 -229 5h-250q-30 0 -77.5 -0.5t-83.5 -1t-39 -0.5q1 16 1 55.5t-1 55.5h25q33 0 46.5 15.5t15.5 50.5q2 38 2.5 166t-1.5 172q-2 37 -16.5 52.5t-43.5 15.5h-28q1 17 1 55t-1 54q3 0 84.5 -1t116.5 -1h245q184 0 239 7q-8 -118 -6 -265
q-57 2 -111 0q0 91 -29 120.5t-91 29.5h-85q-59 0 -62 -60q-2 -58 -2 -140h23q46 0 62.5 19.5t16.5 67.5z" />
    <glyph glyph-name="Edieresis" unicode="&#xcb;" horiz-adv-x="733" 
d="M358 811q0 -28 -17 -44t-44 -16q-26 0 -43.5 16t-17.5 44t17.5 44.5t43.5 16.5q27 0 44 -16.5t17 -44.5zM531 811q0 -28 -17 -44t-44 -16q-26 0 -43 16t-17 44t17 44.5t43 16.5q27 0 44 -16.5t17 -44.5zM423 467v31h85q-7 -102 -7 -152q0 -82 7 -153q-43 1 -83 0v28
q-1 51 -18 71.5t-64 20.5h-22q0 -117 2 -141q3 -36 17.5 -49.5t45.5 -13.5h84q69 0 96 35t27 132q59 -2 118 0q-10 -106 -10 -281q-76 5 -229 5h-250q-30 0 -77.5 -0.5t-83.5 -1t-39 -0.5q1 16 1 55.5t-1 55.5h25q33 0 46.5 15.5t15.5 50.5q2 38 2.5 166t-1.5 172
q-2 37 -16.5 52.5t-43.5 15.5h-28q1 17 1 55t-1 54q3 0 84.5 -1t116.5 -1h245q184 0 239 7q-8 -118 -6 -265q-57 2 -111 0q0 91 -29 120.5t-91 29.5h-85q-59 0 -62 -60q-2 -58 -2 -140h23q46 0 62.5 19.5t16.5 67.5z" />
    <glyph glyph-name="Igrave" unicode="&#xcc;" horiz-adv-x="428" 
d="M24 -3q1 16 1 56t-1 56h32q29 0 39 12.5t13 40.5q2 35 2 182t-2 181q-2 30 -14 43t-38 13h-32q1 17 1 55t-1 54q123 -2 191 -2q30 0 76 0.5t80 1.5h34q-1 -16 -1 -54.5t1 -54.5h-32q-26 0 -38 -13t-14 -43q-3 -36 -2.5 -180.5t2.5 -182.5q2 -27 13 -40t39 -13h31
q-1 -16 -1 -55.5t1 -56.5q-121 3 -190 3zM285 752l-8 -12q-98 13 -172 58q-33 20 -35 50t22.5 40t64.5 -8q67 -38 128 -128z" />
    <glyph glyph-name="Iacute" unicode="&#xcd;" horiz-adv-x="428" 
d="M24 -3q1 16 1 56t-1 56h32q29 0 39 12.5t13 40.5q2 35 2 182t-2 181q-2 30 -14 43t-38 13h-32q1 17 1 55t-1 54q123 -2 191 -2q30 0 76 0.5t80 1.5h34q-1 -16 -1 -54.5t1 -54.5h-32q-26 0 -38 -13t-14 -43q-3 -36 -2.5 -180.5t2.5 -182.5q2 -27 13 -40t39 -13h31
q-1 -16 -1 -55.5t1 -56.5q-121 3 -190 3zM171 740l-8 12q25 37 61 73.5t67 54.5q23 12 42.5 12.5t30.5 -10.5t14 -25t-6.5 -31t-31.5 -30q-71 -42 -169 -56z" />
    <glyph glyph-name="Icircumflex" unicode="&#xce;" horiz-adv-x="428" 
d="M24 -3q1 16 1 56t-1 56h32q29 0 39 12.5t13 40.5q2 35 2 182t-2 181q-2 30 -14 43t-38 13h-32q1 17 1 55t-1 54q123 -2 191 -2q30 0 76 0.5t80 1.5h34q-1 -16 -1 -54.5t1 -54.5h-32q-26 0 -38 -13t-14 -43q-3 -36 -2.5 -180.5t2.5 -182.5q2 -27 13 -40t39 -13h31
q-1 -16 -1 -55.5t1 -56.5q-121 3 -190 3zM363 743l-9 -11q-74 17 -142 69q-67 -51 -138 -68l-9 11q29 78 112 148h76q67 -53 110 -149z" />
    <glyph glyph-name="Idieresis" unicode="&#xcf;" horiz-adv-x="428" 
d="M24 -3q1 16 1 56t-1 56h32q29 0 39 12.5t13 40.5q2 35 2 182t-2 181q-2 30 -14 43t-38 13h-32q1 17 1 55t-1 54q123 -2 191 -2q30 0 76 0.5t80 1.5h34q-1 -16 -1 -54.5t1 -54.5h-32q-26 0 -38 -13t-14 -43q-3 -36 -2.5 -180.5t2.5 -182.5q2 -27 13 -40t39 -13h31
q-1 -16 -1 -55.5t1 -56.5q-121 3 -190 3zM188 811q0 -28 -17 -44t-44 -16q-26 0 -43.5 16t-17.5 44t17.5 44.5t43.5 16.5q27 0 44 -16.5t17 -44.5zM361 811q0 -28 -17 -44t-44 -16q-26 0 -43 16t-17 44t17 44.5t43 16.5q27 0 44 -16.5t17 -44.5z" />
    <glyph glyph-name="Eth" unicode="&#xd0;" horiz-adv-x="797" 
d="M425 688q178 0 257.5 -80.5t81.5 -257.5q4 -351 -333 -351q-135 1 -206 1l-203 -2q1 16 1 55.5t-1 55.5h24q34 0 47 12.5t15 47.5q2 44 2 131q-14 0 -34.5 -0.5t-24.5 -0.5q1 10 1.5 49.5t-0.5 49.5q12 -1 58 -1q0 21 -0.5 50.5t-1 47.5t-0.5 26q-4 60 -56 60h-30
q1 17 1 55t-1 54q1 0 81 -1t122 -1h200zM321 153q2 -40 41 -40h24q56 0 89 18.5t51.5 71.5t18.5 148q0 131 -37 179.5t-121 48.5h-25q-39 0 -41 -36q-3 -42 -3 -147q59 0 97 2q-1 -13 -1 -49.5t1 -49.5q-7 0 -40 0.5t-57 0.5z" />
    <glyph glyph-name="Ntilde" unicode="&#xd1;" horiz-adv-x="829" 
d="M336 690q108 -175 262 -399q2 141 -1 221q-4 69 -62 69h-46v109q1 0 29 -1t66.5 -1.5t63.5 -0.5l159 3q-1 -16 -1 -54t1 -55h-33q-58 0 -62 -69q-2 -43 -2 -221.5t2 -291.5q-92 4 -185 0q-117 188 -293 452q-2 -212 1 -276q3 -66 65 -66h46q-1 -16 -1 -55.5t1 -55.5
q-103 2 -162 2l-162 -2q1 16 1 55.5t-1 55.5h32q61 0 66 66q2 40 2 174.5t-2 168.5q-5 63 -64 63h-33q1 17 1 55t-1 54q157 -4 313 0zM524 870l29 9q25 -66 -6 -105t-88 -39q-66 0 -105 61q-12 19 -20.5 26t-21.5 7q-19 0 -26.5 -16.5t3.5 -57.5l-29 -9q-25 68 6 106.5
t88 38.5q63 0 104 -62q21 -33 43 -33q19 0 26.5 17t-3.5 57z" />
    <glyph glyph-name="Ograve" unicode="&#xd2;" horiz-adv-x="789" 
d="M395 95q69 0 95 55.5t26 194.5q0 142 -25.5 196t-95.5 54q-68 0 -95 -56.5t-27 -194.5q0 -142 25 -195.5t97 -53.5zM395 -17q-181 0 -271.5 86t-90.5 275q0 182 96 272.5t266 90.5q183 0 272 -87t89 -275q0 -185 -98.5 -273.5t-262.5 -88.5zM465 752l-8 -12
q-98 13 -172 58q-33 20 -35 50t22.5 40t64.5 -8q67 -38 128 -128z" />
    <glyph glyph-name="Oacute" unicode="&#xd3;" horiz-adv-x="789" 
d="M351 740l-8 12q25 37 61 73.5t67 54.5q23 12 42.5 12.5t30.5 -10.5t14 -25t-6.5 -31t-31.5 -30q-71 -42 -169 -56zM395 95q69 0 95 55.5t26 194.5q0 142 -25.5 196t-95.5 54q-68 0 -95 -56.5t-27 -194.5q0 -142 25 -195.5t97 -53.5zM395 -17q-181 0 -271.5 86t-90.5 275
q0 182 96 272.5t266 90.5q183 0 272 -87t89 -275q0 -185 -98.5 -273.5t-262.5 -88.5z" />
    <glyph glyph-name="Ocircumflex" unicode="&#xd4;" horiz-adv-x="789" 
d="M543 743l-9 -11q-74 17 -142 69q-67 -51 -138 -68l-9 11q29 78 112 148h76q67 -53 110 -149zM395 95q69 0 95 55.5t26 194.5q0 142 -25.5 196t-95.5 54q-68 0 -95 -56.5t-27 -194.5q0 -142 25 -195.5t97 -53.5zM395 -17q-181 0 -271.5 86t-90.5 275q0 182 96 272.5
t266 90.5q183 0 272 -87t89 -275q0 -185 -98.5 -273.5t-262.5 -88.5z" />
    <glyph glyph-name="Otilde" unicode="&#xd5;" horiz-adv-x="789" 
d="M395 95q69 0 95 55.5t26 194.5q0 142 -25.5 196t-95.5 54q-68 0 -95 -56.5t-27 -194.5q0 -142 25 -195.5t97 -53.5zM395 -17q-181 0 -271.5 86t-90.5 275q0 182 96 272.5t266 90.5q183 0 272 -87t89 -275q0 -185 -98.5 -273.5t-262.5 -88.5zM511 870l29 9q25 -66 -6 -105
t-88 -39q-66 0 -105 61q-12 19 -20.5 26t-21.5 7q-19 0 -26.5 -16.5t3.5 -57.5l-29 -9q-25 68 6 106.5t88 38.5q63 0 104 -62q21 -33 43 -33q19 0 26.5 17t-3.5 57z" />
    <glyph glyph-name="Odieresis" unicode="&#xd6;" horiz-adv-x="789" 
d="M371 811q0 -28 -17 -44t-44 -16q-26 0 -43.5 16t-17.5 44t17.5 44.5t43.5 16.5q27 0 44 -16.5t17 -44.5zM544 811q0 -28 -17 -44t-44 -16q-26 0 -43 16t-17 44t17 44.5t43 16.5q27 0 44 -16.5t17 -44.5zM395 95q69 0 95 55.5t26 194.5q0 142 -25.5 196t-95.5 54
q-68 0 -95 -56.5t-27 -194.5q0 -142 25 -195.5t97 -53.5zM395 -17q-181 0 -271.5 86t-90.5 275q0 182 96 272.5t266 90.5q183 0 272 -87t89 -275q0 -185 -98.5 -273.5t-262.5 -88.5z" />
    <glyph glyph-name="multiply" unicode="&#xd7;" 
d="M492 125l-68 -68q-81 86 -125 143q-49 -65 -123 -142l-69 69q79 76 142 122q-72 54 -142 124l69 68q78 -81 123 -141q56 77 124 142l68 -68q-60 -62 -142 -125q61 -47 143 -124z" />
    <glyph glyph-name="Oslash" unicode="&#xd8;" horiz-adv-x="789" 
d="M395 -17q-140 0 -225 50l-75 -74l-24 19l58 86q-96 88 -96 280q0 182 96 272.5t266 90.5q139 0 223 -50l81 80l22 -17l-62 -93q97 -89 97 -282q0 -185 -98.5 -273.5t-262.5 -88.5zM395 95q69 0 95 55.5t26 194.5q0 67 -5 110l-100 -114l-125 -160q12 -46 37.5 -66
t71.5 -20zM277 235l110 126l115 148q-12 46 -37.5 66t-69.5 20q-68 0 -95 -56.5t-27 -194.5q0 -65 4 -109z" />
    <glyph glyph-name="Ugrave" unicode="&#xd9;" horiz-adv-x="815" 
d="M99 260q0 16 1 72.5t1 94.5t-1 90q-1 34 -14.5 49t-41.5 15h-22q1 17 1 55t-1 54q126 -2 196 -2q42 0 121 1t80 1v-109h-34q-60 0 -61 -64q-4 -143 0 -249q2 -88 31.5 -125t93.5 -37t94 37t32 125q4 149 0 249q-3 64 -58 64h-33q1 16 1 54.5t-1 54.5q95 -2 152 -2
q34 0 94 1t63 1v-109h-23q-53 0 -56 -64q-1 -40 -1 -83t0.5 -93.5t0.5 -76.5q0 -150 -76 -219t-221 -69q-166 0 -242 68t-76 216zM485 752l-8 -12q-98 13 -172 58q-33 20 -35 50t22.5 40t64.5 -8q67 -38 128 -128z" />
    <glyph glyph-name="Uacute" unicode="&#xda;" horiz-adv-x="815" 
d="M414 740l-8 12q25 37 61 73.5t67 54.5q23 12 42.5 12.5t30.5 -10.5t14 -25t-6.5 -31t-31.5 -30q-71 -42 -169 -56zM99 260q0 16 1 72.5t1 94.5t-1 90q-1 34 -14.5 49t-41.5 15h-22q1 17 1 55t-1 54q126 -2 196 -2q42 0 121 1t80 1v-109h-34q-60 0 -61 -64q-4 -143 0 -249
q2 -88 31.5 -125t93.5 -37t94 37t32 125q4 149 0 249q-3 64 -58 64h-33q1 16 1 54.5t-1 54.5q95 -2 152 -2q34 0 94 1t63 1v-109h-23q-53 0 -56 -64q-1 -40 -1 -83t0.5 -93.5t0.5 -76.5q0 -150 -76 -219t-221 -69q-166 0 -242 68t-76 216z" />
    <glyph glyph-name="Ucircumflex" unicode="&#xdb;" horiz-adv-x="815" 
d="M600 743l-9 -11q-74 17 -142 69q-67 -51 -138 -68l-9 11q29 78 112 148h76q67 -53 110 -149zM99 260q0 16 1 72.5t1 94.5t-1 90q-1 34 -14.5 49t-41.5 15h-22q1 17 1 55t-1 54q126 -2 196 -2q42 0 121 1t80 1v-109h-34q-60 0 -61 -64q-4 -143 0 -249q2 -88 31.5 -125
t93.5 -37t94 37t32 125q4 149 0 249q-3 64 -58 64h-33q1 16 1 54.5t-1 54.5q95 -2 152 -2q34 0 94 1t63 1v-109h-23q-53 0 -56 -64q-1 -40 -1 -83t0.5 -93.5t0.5 -76.5q0 -150 -76 -219t-221 -69q-166 0 -242 68t-76 216z" />
    <glyph glyph-name="Udieresis" unicode="&#xdc;" horiz-adv-x="815" 
d="M422 811q0 -28 -17 -44t-44 -16q-26 0 -43.5 16t-17.5 44t17.5 44.5t43.5 16.5q27 0 44 -16.5t17 -44.5zM595 811q0 -28 -17 -44t-44 -16q-26 0 -43 16t-17 44t17 44.5t43 16.5q27 0 44 -16.5t17 -44.5zM99 260q0 16 1 72.5t1 94.5t-1 90q-1 34 -14.5 49t-41.5 15h-22
q1 17 1 55t-1 54q126 -2 196 -2q42 0 121 1t80 1v-109h-34q-60 0 -61 -64q-4 -143 0 -249q2 -88 31.5 -125t93.5 -37t94 37t32 125q4 149 0 249q-3 64 -58 64h-33q1 16 1 54.5t-1 54.5q95 -2 152 -2q34 0 94 1t63 1v-109h-23q-53 0 -56 -64q-1 -40 -1 -83t0.5 -93.5
t0.5 -76.5q0 -150 -76 -219t-221 -69q-166 0 -242 68t-76 216z" />
    <glyph glyph-name="Yacute" unicode="&#xdd;" horiz-adv-x="856" 
d="M678 505q-67 -120 -137 -269v-71q0 -29 12.5 -43t46.5 -14h40q-2 -56 0 -110q-141 2 -220 2l-222 -2q1 16 1 55t-1 55h42q34 0 43.5 13.5t9.5 43.5v72q-97 200 -144 282q-35 62 -116 62h-16v109q147 -2 230 -2l229 2q-1 -55 0 -109h-25q-68 0 -29 -93q25 -59 75 -147
q37 68 71 147q40 93 -25 93h-21v109q102 -2 159 -2l159 2q-2 -59 0 -109h-18q-64 0 -92 -17.5t-52 -58.5zM471 740l-8 12q25 37 61 73.5t67 54.5q23 12 42.5 12.5t30.5 -10.5t14 -25t-6.5 -31t-31.5 -30q-71 -42 -169 -56z" />
    <glyph glyph-name="Thorn" unicode="&#xde;" horiz-adv-x="699" 
d="M20 -3q1 16 1 56t-1 56h32q29 0 39 12.5t13 40.5q2 35 2 182t-2 181q-2 30 -14 43t-38 13h-32q1 17 1 55t-1 54q123 -2 191 -2q30 0 76 0.5t80 1.5h34q-1 -16 -1 -54.5t1 -54.5h-32q-44 0 -51 -44q43 5 88 5q141 0 204.5 -50.5t63.5 -147.5q0 -95 -71.5 -143t-236.5 -48
q-19 0 -49 2q5 -46 52 -46h31q-1 -16 -1 -55.5t1 -56.5q-121 3 -190 3zM325 447h-11q0 -142 1 -203h13q58 0 82.5 22t24.5 78q0 54 -24 78.5t-86 24.5z" />
    <glyph glyph-name="germandbls" unicode="&#xdf;" horiz-adv-x="666" 
d="M22 473l46 -2q2 114 68 170t183 56q113 0 173.5 -50.5t60.5 -139.5q0 -123 -102 -157q169 -15 169 -181q0 -185 -189 -185q-86 0 -120.5 44t-6.5 147l43 -4q-12 -61 -3 -87t34 -26q26 0 35 26.5t9 96.5q0 76 -26.5 106t-86.5 26q4 20 0 60q35 0 52.5 30.5t17.5 103.5
q0 66 -16 91t-47 25q-63 0 -63 -125v-353q0 -107 -6 -145q-72 3 -105 3h-32t-33.5 -0.5t-30.5 -1t-22.5 -1t-10.5 -0.5q1 14 1 45t-1 45h19q22 0 28.5 14t7.5 41q5 73 1 240l-47 -2v90z" />
    <glyph glyph-name="agrave" unicode="&#xe0;" horiz-adv-x="565" 
d="M471 281v-127q0 -41 3 -54t15 -13q28 0 18 110l40 1q10 -102 -19 -158t-111 -56q-97 0 -123 71q-46 -71 -145 -71q-60 0 -96.5 29.5t-36.5 86.5q0 151 267 160v45q0 63 -24 86t-86 22q36 -19 36 -62q0 -35 -23 -54.5t-64 -19.5q-38 0 -60 20t-22 58q0 61 62 96.5
t152 35.5q120 0 168.5 -50t48.5 -156zM284 104q-1 8 -1 36v83q-39 -3 -58 -20.5t-19 -55.5q0 -34 10.5 -46.5t30.5 -12.5q25 0 37 16zM349 536l-8 -12q-98 13 -172 58q-33 20 -35 50t22.5 40t64.5 -8q67 -38 128 -128z" />
    <glyph glyph-name="aacute" unicode="&#xe1;" horiz-adv-x="565" 
d="M471 281v-127q0 -41 3 -54t15 -13q28 0 18 110l40 1q10 -102 -19 -158t-111 -56q-97 0 -123 71q-46 -71 -145 -71q-60 0 -96.5 29.5t-36.5 86.5q0 151 267 160v45q0 63 -24 86t-86 22q36 -19 36 -62q0 -35 -23 -54.5t-64 -19.5q-38 0 -60 20t-22 58q0 61 62 96.5
t152 35.5q120 0 168.5 -50t48.5 -156zM284 104q-1 8 -1 36v83q-39 -3 -58 -20.5t-19 -55.5q0 -34 10.5 -46.5t30.5 -12.5q25 0 37 16zM238 524l-8 12q25 37 61 73.5t67 54.5q23 12 42.5 12.5t30.5 -10.5t14 -25t-6.5 -31t-31.5 -30q-71 -42 -169 -56z" />
    <glyph glyph-name="acircumflex" unicode="&#xe2;" horiz-adv-x="565" 
d="M471 281v-127q0 -41 3 -54t15 -13q28 0 18 110l40 1q10 -102 -19 -158t-111 -56q-97 0 -123 71q-46 -71 -145 -71q-60 0 -96.5 29.5t-36.5 86.5q0 151 267 160v45q0 63 -24 86t-86 22q36 -19 36 -62q0 -35 -23 -54.5t-64 -19.5q-38 0 -60 20t-22 58q0 61 62 96.5
t152 35.5q120 0 168.5 -50t48.5 -156zM284 104q-1 8 -1 36v83q-39 -3 -58 -20.5t-19 -55.5q0 -34 10.5 -46.5t30.5 -12.5q25 0 37 16zM423 530l-9 -11q-74 17 -142 69q-67 -51 -138 -68l-9 11q29 78 112 148h76q67 -53 110 -149z" />
    <glyph glyph-name="atilde" unicode="&#xe3;" horiz-adv-x="565" 
d="M471 281v-127q0 -41 3 -54t15 -13q28 0 18 110l40 1q10 -102 -19 -158t-111 -56q-97 0 -123 71q-46 -71 -145 -71q-60 0 -96.5 29.5t-36.5 86.5q0 151 267 160v45q0 63 -24 86t-86 22q36 -19 36 -62q0 -35 -23 -54.5t-64 -19.5q-38 0 -60 20t-22 58q0 61 62 96.5
t152 35.5q120 0 168.5 -50t48.5 -156zM284 104q-1 8 -1 36v83q-39 -3 -58 -20.5t-19 -55.5q0 -34 10.5 -46.5t30.5 -12.5q25 0 37 16zM377 654l29 9q25 -66 -6 -105t-88 -39q-66 0 -105 61q-12 19 -20.5 26t-21.5 7q-19 0 -26.5 -16.5t3.5 -57.5l-29 -9q-25 68 6 106.5
t88 38.5q63 0 104 -62q21 -33 43 -33q19 0 26.5 17t-3.5 57z" />
    <glyph glyph-name="adieresis" unicode="&#xe4;" horiz-adv-x="565" 
d="M471 281v-127q0 -41 3 -54t15 -13q28 0 18 110l40 1q10 -102 -19 -158t-111 -56q-97 0 -123 71q-46 -71 -145 -71q-60 0 -96.5 29.5t-36.5 86.5q0 151 267 160v45q0 63 -24 86t-86 22q36 -19 36 -62q0 -35 -23 -54.5t-64 -19.5q-38 0 -60 20t-22 58q0 61 62 96.5
t152 35.5q120 0 168.5 -50t48.5 -156zM284 104q-1 8 -1 36v83q-39 -3 -58 -20.5t-19 -55.5q0 -34 10.5 -46.5t30.5 -12.5q25 0 37 16zM249 595q0 -28 -17 -44t-44 -16q-26 0 -43.5 16t-17.5 44t17.5 44.5t43.5 16.5q27 0 44 -16.5t17 -44.5zM422 595q0 -28 -17 -44t-44 -16
q-26 0 -43 16t-17 44t17 44.5t43 16.5q27 0 44 -16.5t17 -44.5z" />
    <glyph glyph-name="aring" unicode="&#xe5;" horiz-adv-x="565" 
d="M471 281v-127q0 -41 3 -54t15 -13q28 0 18 110l40 1q10 -102 -19 -158t-111 -56q-97 0 -123 71q-46 -71 -145 -71q-60 0 -96.5 29.5t-36.5 86.5q0 151 267 160v45q0 63 -24 86t-86 22q36 -19 36 -62q0 -35 -23 -54.5t-64 -19.5q-38 0 -60 20t-22 58q0 61 62 96.5
t152 35.5q120 0 168.5 -50t48.5 -156zM284 104q-1 8 -1 36v83q-39 -3 -58 -20.5t-19 -55.5q0 -34 10.5 -46.5t30.5 -12.5q25 0 37 16zM312 623q0 47 -46 47t-46 -47q0 -50 46 -50t46 50zM358 623q0 -44 -24.5 -68.5t-67.5 -24.5q-44 0 -68.5 25t-24.5 68t24 67t67 24
q44 0 69 -24t25 -67z" />
    <glyph glyph-name="ae" unicode="&#xe6;" horiz-adv-x="781" 
d="M757 166q-3 -85 -58.5 -134t-166.5 -49q-153 0 -213 90q-42 -89 -155 -89q-148 0 -148 125q0 72 72.5 109.5t194.5 41.5v54q0 98 -78 98q-15 0 -33 -2q36 -15 36 -59q0 -36 -22.5 -55t-63.5 -19q-38 0 -59.5 20.5t-21.5 57.5q0 62 61.5 97t151.5 35q93 0 146 -34
q56 34 135 34q123 0 177.5 -76t46.5 -203h-281q2 -67 17.5 -94.5t51.5 -27.5q33 0 49 20t20 64q100 -7 141 -4zM529 389q-26 0 -38 -28t-13 -109h74q14 0 18.5 6t4.5 23q0 59 -11.5 83.5t-34.5 24.5zM293 129q-10 34 -10 83v11q-39 -3 -58 -20t-19 -56q0 -34 10 -46t30 -12
q38 0 47 40z" />
    <glyph glyph-name="ccedilla" unicode="&#xe7;" horiz-adv-x="506" 
d="M196 -108l-12 25q54 22 66 66q-231 8 -231 242q0 125 67 193.5t191 68.5q94 0 148 -37.5t54 -104.5q0 -42 -25.5 -66t-70.5 -24q-42 0 -65.5 20.5t-23.5 56.5q0 47 38 68q-16 6 -38 6q-42 0 -62 -36t-20 -122q0 -90 14 -126t50 -36q35 0 50 20.5t19 63.5q101 -7 143 -4
q-3 -87 -57 -132t-143 -50q-3 -28 -25 -50q50 3 79.5 -19t29.5 -61q0 -43 -32 -68.5t-89 -25.5q-80 0 -117 58l24 22q28 -33 65 -33q53 0 53 49q0 27 -23 38t-57 -2z" />
    <glyph glyph-name="egrave" unicode="&#xe8;" horiz-adv-x="513" 
d="M348 169q87 -6 141 -4q-3 -85 -58.5 -134t-166.5 -49q-117 0 -181 60t-64 183q0 125 66 193.5t182 68.5q124 0 178.5 -73.5t45.5 -205.5h-284q3 -67 19.5 -95t52.5 -28q34 0 49.5 20t19.5 64zM261 389q-28 0 -40.5 -28.5t-13.5 -108.5h71q17 0 23.5 6.5t6.5 30.5
q0 55 -11.5 77.5t-35.5 22.5zM334 536l-8 -12q-98 13 -172 58q-33 20 -35 50t22.5 40t64.5 -8q67 -38 128 -128z" />
    <glyph glyph-name="eacute" unicode="&#xe9;" horiz-adv-x="513" 
d="M233 524l-8 12q25 37 61 73.5t67 54.5q23 12 42.5 12.5t30.5 -10.5t14 -25t-6.5 -31t-31.5 -30q-71 -42 -169 -56zM348 169q87 -6 141 -4q-3 -85 -58.5 -134t-166.5 -49q-117 0 -181 60t-64 183q0 125 66 193.5t182 68.5q124 0 178.5 -73.5t45.5 -205.5h-284
q3 -67 19.5 -95t52.5 -28q34 0 49.5 20t19.5 64zM261 389q-28 0 -40.5 -28.5t-13.5 -108.5h71q17 0 23.5 6.5t6.5 30.5q0 55 -11.5 77.5t-35.5 22.5z" />
    <glyph glyph-name="ecircumflex" unicode="&#xea;" horiz-adv-x="513" 
d="M422 530l-9 -11q-74 17 -142 69q-67 -51 -138 -68l-9 11q29 78 112 148h76q67 -53 110 -149zM348 169q87 -6 141 -4q-3 -85 -58.5 -134t-166.5 -49q-117 0 -181 60t-64 183q0 125 66 193.5t182 68.5q124 0 178.5 -73.5t45.5 -205.5h-284q3 -67 19.5 -95t52.5 -28
q34 0 49.5 20t19.5 64zM261 389q-28 0 -40.5 -28.5t-13.5 -108.5h71q17 0 23.5 6.5t6.5 30.5q0 55 -11.5 77.5t-35.5 22.5z" />
    <glyph glyph-name="edieresis" unicode="&#xeb;" horiz-adv-x="513" 
d="M242 595q0 -28 -17 -44t-44 -16q-26 0 -43.5 16t-17.5 44t17.5 44.5t43.5 16.5q27 0 44 -16.5t17 -44.5zM415 595q0 -28 -17 -44t-44 -16q-26 0 -43 16t-17 44t17 44.5t43 16.5q27 0 44 -16.5t17 -44.5zM348 169q87 -6 141 -4q-3 -85 -58.5 -134t-166.5 -49
q-117 0 -181 60t-64 183q0 125 66 193.5t182 68.5q124 0 178.5 -73.5t45.5 -205.5h-284q3 -67 19.5 -95t52.5 -28q34 0 49.5 20t19.5 64zM261 389q-28 0 -40.5 -28.5t-13.5 -108.5h71q17 0 23.5 6.5t6.5 30.5q0 55 -11.5 77.5t-35.5 22.5z" />
    <glyph glyph-name="igrave" unicode="&#xec;" horiz-adv-x="327" 
d="M258 475q-2 -39 -2 -171.5t1 -162.5q1 -29 11.5 -40t36.5 -11h10q-2 -50 0 -91q-7 0 -70.5 1t-78.5 1q-16 0 -83.5 -1t-70.5 -1q2 42 0 91h10q26 0 35 10.5t11 39.5q2 31 2 99t-1 96q-2 28 -11.5 38t-34.5 10h-11q2 45 0 90q138 0 246 2zM217 536l-8 -12q-98 13 -172 58
q-33 20 -35 50t22.5 40t64.5 -8q67 -38 128 -128z" />
    <glyph glyph-name="iacute" unicode="&#xed;" horiz-adv-x="327" 
d="M117 524l-8 12q25 37 61 73.5t67 54.5q23 12 42.5 12.5t30.5 -10.5t14 -25t-6.5 -31t-31.5 -30q-71 -42 -169 -56zM258 475q-2 -39 -2 -171.5t1 -162.5q1 -29 11.5 -40t36.5 -11h10q-2 -50 0 -91q-7 0 -70.5 1t-78.5 1q-16 0 -83.5 -1t-70.5 -1q2 42 0 91h10
q26 0 35 10.5t11 39.5q2 31 2 99t-1 96q-2 28 -11.5 38t-34.5 10h-11q2 45 0 90q138 0 246 2z" />
    <glyph glyph-name="icircumflex" unicode="&#xee;" horiz-adv-x="327" 
d="M299 530l-9 -11q-74 17 -142 69q-67 -51 -138 -68l-9 11q29 78 112 148h76q67 -53 110 -149zM258 475q-2 -39 -2 -171.5t1 -162.5q1 -29 11.5 -40t36.5 -11h10q-2 -50 0 -91q-7 0 -70.5 1t-78.5 1q-16 0 -83.5 -1t-70.5 -1q2 42 0 91h10q26 0 35 10.5t11 39.5q2 31 2 99
t-1 96q-2 28 -11.5 38t-34.5 10h-11q2 45 0 90q138 0 246 2z" />
    <glyph glyph-name="idieresis" unicode="&#xef;" horiz-adv-x="327" 
d="M124 595q0 -28 -17 -44t-44 -16q-26 0 -43.5 16t-17.5 44t17.5 44.5t43.5 16.5q27 0 44 -16.5t17 -44.5zM297 595q0 -28 -17 -44t-44 -16q-26 0 -43 16t-17 44t17 44.5t43 16.5q27 0 44 -16.5t17 -44.5zM258 475q-2 -39 -2 -171.5t1 -162.5q1 -29 11.5 -40t36.5 -11h10
q-2 -50 0 -91q-7 0 -70.5 1t-78.5 1q-16 0 -83.5 -1t-70.5 -1q2 42 0 91h10q26 0 35 10.5t11 39.5q2 31 2 99t-1 96q-2 28 -11.5 38t-34.5 10h-11q2 45 0 90q138 0 246 2z" />
    <glyph glyph-name="eth" unicode="&#xf0;" horiz-adv-x="536" 
d="M198 524l-22 30l57 42q-38 27 -104 36l19 57q88 -3 158 -34l58 53l22 -30q-30 -23 -52 -38q91 -53 136.5 -152.5t45.5 -220.5q0 -285 -253 -285q-120 0 -182 60t-62 189q0 131 68 193.5t182 62.5q20 0 39 -4q-16 59 -52 94zM208 230q0 -90 14.5 -119t46.5 -29
q31 0 45 29.5t14 118.5q0 95 -14 127.5t-46 32.5q-31 0 -45.5 -33t-14.5 -127z" />
    <glyph glyph-name="ntilde" unicode="&#xf1;" horiz-adv-x="637" 
d="M568 305q-1 -18 -1 -83.5t1 -77.5q2 -32 11.5 -43t35.5 -11h8q-2 -51 0 -92q-1 0 -27 0.5t-61 1t-58 0.5h-35t-39 -0.5t-35 -1t-26 -0.5h-11v92h9q20 0 29 12.5t10 41.5q4 73 0 159q-2 42 -13.5 62t-42.5 20q-35 0 -50 -28t-15 -87v-126q0 -31 9 -42.5t30 -11.5h10
q-2 -51 0 -92q-1 0 -27 0.5t-61.5 1t-58.5 0.5h-35.5t-39 -0.5t-35 -1t-27 -0.5h-11.5q1 14 1 46t-1 46h10q26 0 35.5 11t11.5 43t2 98t-2 90q-3 28 -11.5 39.5t-34.5 11.5h-8v90q203 0 243 3v-99q33 110 154 110q156 0 156 -182zM431 654l29 9q25 -66 -6 -105t-88 -39
q-66 0 -105 61q-12 19 -20.5 26t-21.5 7q-19 0 -26.5 -16.5t3.5 -57.5l-29 -9q-25 68 6 106.5t88 38.5q63 0 104 -62q21 -33 43 -33q19 0 26.5 17t-3.5 57z" />
    <glyph glyph-name="ograve" unicode="&#xf2;" horiz-adv-x="548" 
d="M25 231q0 128 65.5 192t183.5 64q249 0 249 -257q0 -248 -249 -248t-249 249zM215 230q0 -91 14 -119.5t45 -28.5t45 29t14 119q0 94 -14 127t-46 33q-31 0 -44.5 -32.5t-13.5 -127.5zM341 536l-8 -12q-98 13 -172 58q-33 20 -35 50t22.5 40t64.5 -8q67 -38 128 -128z
" />
    <glyph glyph-name="oacute" unicode="&#xf3;" horiz-adv-x="548" 
d="M230 524l-8 12q25 37 61 73.5t67 54.5q23 12 42.5 12.5t30.5 -10.5t14 -25t-6.5 -31t-31.5 -30q-71 -42 -169 -56zM25 231q0 128 65.5 192t183.5 64q249 0 249 -257q0 -248 -249 -248t-249 249zM215 230q0 -91 14 -119.5t45 -28.5t45 29t14 119q0 94 -14 127t-46 33
q-31 0 -44.5 -32.5t-13.5 -127.5z" />
    <glyph glyph-name="ocircumflex" unicode="&#xf4;" horiz-adv-x="548" 
d="M430 530l-9 -11q-74 17 -142 69q-67 -51 -138 -68l-9 11q29 78 112 148h76q67 -53 110 -149zM25 231q0 128 65.5 192t183.5 64q249 0 249 -257q0 -248 -249 -248t-249 249zM215 230q0 -91 14 -119.5t45 -28.5t45 29t14 119q0 94 -14 127t-46 33q-31 0 -44.5 -32.5
t-13.5 -127.5z" />
    <glyph glyph-name="otilde" unicode="&#xf5;" horiz-adv-x="548" 
d="M25 231q0 128 65.5 192t183.5 64q249 0 249 -257q0 -248 -249 -248t-249 249zM215 230q0 -91 14 -119.5t45 -28.5t45 29t14 119q0 94 -14 127t-46 33q-31 0 -44.5 -32.5t-13.5 -127.5zM384 654l29 9q25 -66 -6 -105t-88 -39q-66 0 -105 61q-12 19 -20.5 26t-21.5 7
q-19 0 -26.5 -16.5t3.5 -57.5l-29 -9q-25 68 6 106.5t88 38.5q63 0 104 -62q21 -33 43 -33q19 0 26.5 17t-3.5 57z" />
    <glyph glyph-name="odieresis" unicode="&#xf6;" horiz-adv-x="548" 
d="M255 595q0 -28 -17 -44t-44 -16q-26 0 -43.5 16t-17.5 44t17.5 44.5t43.5 16.5q27 0 44 -16.5t17 -44.5zM428 595q0 -28 -17 -44t-44 -16q-26 0 -43 16t-17 44t17 44.5t43 16.5q27 0 44 -16.5t17 -44.5zM25 231q0 128 65.5 192t183.5 64q249 0 249 -257q0 -248 -249 -248
t-249 249zM215 230q0 -91 14 -119.5t45 -28.5t45 29t14 119q0 94 -14 127t-46 33q-31 0 -44.5 -32.5t-13.5 -127.5z" />
    <glyph glyph-name="divide" unicode="&#xf7;" 
d="M369 106q0 -29 -18 -46t-51 -17q-69 0 -69 64q0 28 19.5 47t49.5 19q33 0 51 -19t18 -48zM83 202v97q45 0 114 -5.5t103 -14.5q35 9 104 14.5t113 5.5v-97q-45 0 -114 5.5t-103 14.5q-35 -9 -104 -14.5t-113 -5.5zM369 392q0 -29 -18 -46t-51 -17q-69 0 -69 64
q0 28 19.5 47t49.5 19q32 0 50.5 -19.5t18.5 -47.5z" />
    <glyph glyph-name="oslash" unicode="&#xf8;" horiz-adv-x="548" 
d="M25 231q0 128 65.5 192t183.5 64q93 0 152 -37l56 61l16 -13l-43 -71q68 -65 68 -197q0 -248 -249 -248q-89 0 -148 32l-56 -57l-17 14l42 66q-70 61 -70 194zM215 230q0 -37 1 -51l54 62l58 78q-6 41 -19.5 56t-35.5 15q-31 0 -44.5 -32.5t-13.5 -127.5zM333 230
q0 19 -2 49l-46 -54l-64 -86q6 -34 18.5 -45.5t34.5 -11.5q31 0 45 29t14 119z" />
    <glyph glyph-name="ugrave" unicode="&#xf9;" horiz-adv-x="615" 
d="M560 476q0 -6 -4 -161q0 -150 1 -166q2 -33 10.5 -46t26.5 -13h10q-2 -45 0 -90q-197 0 -236 -2v97q-32 -113 -151 -113q-159 0 -159 183v151q0 35 -8 51t-30 16h-10q1 13 1 46t-1 46q86 -2 118 -2q101 0 122 3q-4 -76 -4 -165q0 -100 1 -126q3 -100 55 -100
q39 0 52.5 40t13.5 134v68q0 31 -12 43.5t-47 12.5h-7q1 13 1 45.5t-1 46.5q97 -2 132 -2q105 0 126 3zM329 536l-8 -12q-98 13 -172 58q-33 20 -35 50t22.5 40t64.5 -8q67 -38 128 -128z" />
    <glyph glyph-name="uacute" unicode="&#xfa;" horiz-adv-x="615" 
d="M277 524l-8 12q25 37 61 73.5t67 54.5q23 12 42.5 12.5t30.5 -10.5t14 -25t-6.5 -31t-31.5 -30q-71 -42 -169 -56zM560 476q0 -6 -4 -161q0 -150 1 -166q2 -33 10.5 -46t26.5 -13h10q-2 -45 0 -90q-197 0 -236 -2v97q-32 -113 -151 -113q-159 0 -159 183v151q0 35 -8 51
t-30 16h-10q1 13 1 46t-1 46q86 -2 118 -2q101 0 122 3q-4 -76 -4 -165q0 -100 1 -126q3 -100 55 -100q39 0 52.5 40t13.5 134v68q0 31 -12 43.5t-47 12.5h-7q1 13 1 45.5t-1 46.5q97 -2 132 -2q105 0 126 3z" />
    <glyph glyph-name="ucircumflex" unicode="&#xfb;" horiz-adv-x="615" 
d="M436 530l-9 -11q-74 17 -142 69q-67 -51 -138 -68l-9 11q29 78 112 148h76q67 -53 110 -149zM560 476q0 -6 -4 -161q0 -150 1 -166q2 -33 10.5 -46t26.5 -13h10q-2 -45 0 -90q-197 0 -236 -2v97q-32 -113 -151 -113q-159 0 -159 183v151q0 35 -8 51t-30 16h-10q1 13 1 46
t-1 46q86 -2 118 -2q101 0 122 3q-4 -76 -4 -165q0 -100 1 -126q3 -100 55 -100q39 0 52.5 40t13.5 134v68q0 31 -12 43.5t-47 12.5h-7q1 13 1 45.5t-1 46.5q97 -2 132 -2q105 0 126 3z" />
    <glyph glyph-name="udieresis" unicode="&#xfc;" horiz-adv-x="615" 
d="M261 595q0 -28 -17 -44t-44 -16q-26 0 -43.5 16t-17.5 44t17.5 44.5t43.5 16.5q27 0 44 -16.5t17 -44.5zM434 595q0 -28 -17 -44t-44 -16q-26 0 -43 16t-17 44t17 44.5t43 16.5q27 0 44 -16.5t17 -44.5zM560 476q0 -6 -4 -161q0 -150 1 -166q2 -33 10.5 -46t26.5 -13h10
q-2 -45 0 -90q-197 0 -236 -2v97q-32 -113 -151 -113q-159 0 -159 183v151q0 35 -8 51t-30 16h-10q1 13 1 46t-1 46q86 -2 118 -2q101 0 122 3q-4 -76 -4 -165q0 -100 1 -126q3 -100 55 -100q39 0 52.5 40t13.5 134v68q0 31 -12 43.5t-47 12.5h-7q1 13 1 45.5t-1 46.5
q97 -2 132 -2q105 0 126 3z" />
    <glyph glyph-name="yacute" unicode="&#xfd;" horiz-adv-x="589" 
d="M395 331q14 52 -29 52h-14q1 13 1 45.5t-1 46.5q69 -3 115 -3l110 3v-26v-39.5v-26.5h-16q-30 0 -46 -13t-26 -40q-45 -111 -103 -295q-42 -131 -95 -178.5t-132 -47.5q-60 0 -92 26.5t-32 73.5q0 40 25 65t67 25q80 0 80 -73q0 -40 -36 -60t-80 -3q23 -17 55 -17
q63 0 93 40.5t61 143.5q-60 2 -124 -1q-15 57 -47.5 159.5t-47.5 141.5q-11 30 -22 41.5t-37 11.5h-13v92q95 -3 158 -3l158 3q-2 -46 0 -92h-12q-44 0 -31 -52q13 -59 54 -188q52 161 59 188zM328 524l-8 12q25 37 61 73.5t67 54.5q23 12 42.5 12.5t30.5 -10.5t14 -25
t-6.5 -31t-31.5 -30q-71 -42 -169 -56z" />
    <glyph glyph-name="thorn" unicode="&#xfe;" horiz-adv-x="595" 
d="M402 -17q-115 0 -144 103v-116q0 -54 46 -54h12q-2 -45 0 -90q-4 0 -62 1.5t-90 1.5q-24 0 -59.5 -0.5t-62.5 -1.5t-30 -1q2 45 0 90h10q25 0 35 12t12 42q4 47 4 291.5t-4 287.5q-2 28 -12.5 40t-33.5 12h-8v89q204 0 243 3v-326q31 120 147 120q86 0 127 -57.5
t41 -199.5q0 -127 -42.5 -187t-128.5 -60zM258 235q0 -79 13.5 -114t48.5 -35q36 0 48.5 30.5t12.5 118.5q0 87 -10 118.5t-48 31.5q-35 0 -49.5 -29.5t-15.5 -104.5v-16z" />
    <glyph glyph-name="ydieresis" unicode="&#xff;" horiz-adv-x="589" 
d="M395 331q14 52 -29 52h-14q1 13 1 45.5t-1 46.5q69 -3 115 -3l110 3v-26v-39.5v-26.5h-16q-30 0 -46 -13t-26 -40q-45 -111 -103 -295q-42 -131 -95 -178.5t-132 -47.5q-60 0 -92 26.5t-32 73.5q0 40 25 65t67 25q80 0 80 -73q0 -40 -36 -60t-80 -3q23 -17 55 -17
q63 0 93 40.5t61 143.5q-60 2 -124 -1q-15 57 -47.5 159.5t-47.5 141.5q-11 30 -22 41.5t-37 11.5h-13v92q95 -3 158 -3l158 3q-2 -46 0 -92h-12q-44 0 -31 -52q13 -59 54 -188q52 161 59 188zM317 595q0 -28 -17 -44t-44 -16q-26 0 -43.5 16t-17.5 44t17.5 44.5t43.5 16.5
q27 0 44 -16.5t17 -44.5zM490 595q0 -28 -17 -44t-44 -16q-26 0 -43 16t-17 44t17 44.5t43 16.5q27 0 44 -16.5t17 -44.5z" />
    <glyph glyph-name="Amacron" unicode="&#x100;" horiz-adv-x="885" 
d="M460 109q72 0 35 99q-142 2 -222 1q-17 -52 -8 -76t47 -24h35q-1 -16 -1 -55.5t1 -55.5q-104 2 -163 2l-162 -2q1 16 1 55.5t-1 55.5h21q43 0 66 20t43 70q124 320 188 496q69 -2 107 -2l107 2q29 -83 94.5 -251.5t97.5 -245.5q22 -53 42.5 -71t50.5 -18h24
q-1 -17 -1 -56t1 -55q-141 2 -220 2l-221 -2q1 16 1 55.5t-1 55.5h38zM474 273q-34 100 -90 246q-53 -143 -88 -246q91 -2 178 0zM306 756q2 45 0 92q46 -2 142 -2t142 2q-2 -46 0 -92q-46 2 -142 2t-142 -2z" />
    <glyph glyph-name="amacron" unicode="&#x101;" horiz-adv-x="565" 
d="M471 281v-127q0 -41 3 -54t15 -13q28 0 18 110l40 1q10 -102 -19 -158t-111 -56q-97 0 -123 71q-46 -71 -145 -71q-60 0 -96.5 29.5t-36.5 86.5q0 151 267 160v45q0 63 -24 86t-86 22q36 -19 36 -62q0 -35 -23 -54.5t-64 -19.5q-38 0 -60 20t-22 58q0 61 62 96.5
t152 35.5q120 0 168.5 -50t48.5 -156zM284 104q-1 8 -1 36v83q-39 -3 -58 -20.5t-19 -55.5q0 -34 10.5 -46.5t30.5 -12.5q25 0 37 16zM116 541q2 45 0 92q46 -1 142 -1t142 1q-2 -46 0 -92q-46 1 -142 1t-142 -1z" />
    <glyph glyph-name="Abreve" unicode="&#x102;" horiz-adv-x="885" 
d="M460 109q72 0 35 99q-142 2 -222 1q-17 -52 -8 -76t47 -24h35q-1 -16 -1 -55.5t1 -55.5q-104 2 -163 2l-162 -2q1 16 1 55.5t-1 55.5h21q43 0 66 20t43 70q124 320 188 496q69 -2 107 -2l107 2q29 -83 94.5 -251.5t97.5 -245.5q22 -53 42.5 -71t50.5 -18h24
q-1 -17 -1 -56t1 -55q-141 2 -220 2l-221 -2q1 16 1 55.5t-1 55.5h38zM474 273q-34 100 -90 246q-53 -143 -88 -246q91 -2 178 0zM442 742q-75 0 -110.5 41t-26.5 104l28 2q5 -55 109 -55t109 55l28 -2q9 -63 -26.5 -104t-110.5 -41z" />
    <glyph glyph-name="abreve" unicode="&#x103;" horiz-adv-x="565" 
d="M471 281v-127q0 -41 3 -54t15 -13q28 0 18 110l40 1q10 -102 -19 -158t-111 -56q-97 0 -123 71q-46 -71 -145 -71q-60 0 -96.5 29.5t-36.5 86.5q0 151 267 160v45q0 63 -24 86t-86 22q36 -19 36 -62q0 -35 -23 -54.5t-64 -19.5q-38 0 -60 20t-22 58q0 61 62 96.5
t152 35.5q120 0 168.5 -50t48.5 -156zM284 104q-1 8 -1 36v83q-39 -3 -58 -20.5t-19 -55.5q0 -34 10.5 -46.5t30.5 -12.5q25 0 37 16zM260 531q-75 0 -110.5 41t-26.5 104l28 2q5 -55 109 -55t109 55l28 -2q9 -63 -26.5 -104t-110.5 -41z" />
    <glyph glyph-name="Aogonek" unicode="&#x104;" horiz-adv-x="885" 
d="M781 -63q6 -143 -122 -143q-54 0 -84.5 24.5t-30.5 67.5q0 39 22.5 69t61.5 45l-206 -2q1 16 1 55.5t-1 55.5h38q72 0 35 99q-142 2 -222 1q-17 -52 -8 -76t47 -24h35q-1 -16 -1 -55.5t1 -55.5q-104 2 -163 2l-162 -2q1 16 1 55.5t-1 55.5h21q43 0 66 20t43 70
q124 320 188 496q69 -2 107 -2l107 2q29 -83 94.5 -251.5t97.5 -245.5q22 -53 42.5 -71t50.5 -18h24q-1 -17 -1 -56t1 -55q-100 2 -178 2q-54 -20 -54 -69q0 -48 52 -48q54 0 62 59zM474 273q-34 100 -90 246q-53 -143 -88 -246q91 -2 178 0z" />
    <glyph glyph-name="aogonek" unicode="&#x105;" horiz-adv-x="565" 
d="M507 197l40 1q12 -129 -39 -184q-45 -49 -46 -86q0 -21 13.5 -33t35.5 -12q52 0 65 59l35 -5q1 -67 -25.5 -105t-101.5 -38q-48 0 -79 25t-30 70q3 62 64 96q-12 -1 -22 -1q-97 0 -123 71q-46 -71 -145 -71q-60 0 -96.5 29.5t-36.5 86.5q0 151 267 160v45q0 63 -24 86
t-86 22q36 -19 36 -62q0 -35 -23 -54.5t-64 -19.5q-38 0 -60 20t-22 58q0 61 62 96.5t152 35.5q120 0 168.5 -50t48.5 -156v-127q0 -41 3 -54t15 -13q28 0 18 110zM284 104q-1 8 -1 36v83q-39 -3 -58 -20.5t-19 -55.5q0 -34 10.5 -46.5t30.5 -12.5q25 0 37 16z" />
    <glyph glyph-name="Cacute" unicode="&#x106;" horiz-adv-x="727" 
d="M356 740l-8 12q25 37 61 73.5t67 54.5q23 12 42.5 12.5t30.5 -10.5t14 -25t-6.5 -31t-31.5 -30q-71 -42 -169 -56zM551 664q29 -18 40.5 -12.5t15.5 41.5q14 -1 47.5 -1t46.5 1q-5 -35 -11.5 -123.5t-7.5 -139.5q-73 4 -149 0q-5 79 -32.5 119t-91.5 40q-71 0 -102.5 -52
t-31.5 -191q0 -75 9.5 -125.5t29 -75.5t41 -34.5t51.5 -9.5q62 0 97 43t34 125q26 -1 81.5 -1t81.5 1q-1 -155 -73 -220.5t-247 -65.5q-171 0 -259 84t-88 279q0 180 90.5 272t244.5 92q108 0 183 -46z" />
    <glyph glyph-name="cacute" unicode="&#x107;" horiz-adv-x="506" 
d="M250 524l-8 12q25 37 61 73.5t67 54.5q23 12 42.5 12.5t30.5 -10.5t14 -25t-6.5 -31t-31.5 -30q-71 -42 -169 -56zM345 170q101 -7 143 -4q-3 -92 -63.5 -137.5t-158.5 -45.5q-247 0 -247 242q0 125 67 193.5t191 68.5q94 0 148 -37.5t54 -104.5q0 -42 -25.5 -66
t-70.5 -24q-42 0 -65.5 20.5t-23.5 56.5q0 47 38 68q-16 6 -38 6q-42 0 -62 -36t-20 -122q0 -90 14 -126t50 -36q35 0 50 20.5t19 63.5z" />
    <glyph glyph-name="Ccircumflex" unicode="&#x108;" horiz-adv-x="727" 
d="M522 743l-9 -11q-74 17 -142 69q-67 -51 -138 -68l-9 11q29 78 112 148h76q67 -53 110 -149zM551 664q29 -18 40.5 -12.5t15.5 41.5q14 -1 47.5 -1t46.5 1q-5 -35 -11.5 -123.5t-7.5 -139.5q-73 4 -149 0q-5 79 -32.5 119t-91.5 40q-71 0 -102.5 -52t-31.5 -191
q0 -75 9.5 -125.5t29 -75.5t41 -34.5t51.5 -9.5q62 0 97 43t34 125q26 -1 81.5 -1t81.5 1q-1 -155 -73 -220.5t-247 -65.5q-171 0 -259 84t-88 279q0 180 90.5 272t244.5 92q108 0 183 -46z" />
    <glyph glyph-name="ccircumflex" unicode="&#x109;" horiz-adv-x="506" 
d="M418 530l-9 -11q-74 17 -142 69q-67 -51 -138 -68l-9 11q29 78 112 148h76q67 -53 110 -149zM345 170q101 -7 143 -4q-3 -92 -63.5 -137.5t-158.5 -45.5q-247 0 -247 242q0 125 67 193.5t191 68.5q94 0 148 -37.5t54 -104.5q0 -42 -25.5 -66t-70.5 -24q-42 0 -65.5 20.5
t-23.5 56.5q0 47 38 68q-16 6 -38 6q-42 0 -62 -36t-20 -122q0 -90 14 -126t50 -36q35 0 50 20.5t19 63.5z" />
    <glyph glyph-name="Cdotaccent" unicode="&#x10a;" horiz-adv-x="727" 
d="M551 664q29 -18 40.5 -12.5t15.5 41.5q14 -1 47.5 -1t46.5 1q-5 -35 -11.5 -123.5t-7.5 -139.5q-73 4 -149 0q-5 79 -32.5 119t-91.5 40q-71 0 -102.5 -52t-31.5 -191q0 -75 9.5 -125.5t29 -75.5t41 -34.5t51.5 -9.5q62 0 97 43t34 125q26 -1 81.5 -1t81.5 1
q-1 -155 -73 -220.5t-247 -65.5q-171 0 -259 84t-88 279q0 180 90.5 272t244.5 92q108 0 183 -46zM442 824q0 -32 -18.5 -51t-50.5 -19q-31 0 -49.5 19t-18.5 51t18.5 50t49.5 18q32 0 50.5 -18.5t18.5 -49.5z" />
    <glyph glyph-name="cdotaccent" unicode="&#x10b;" horiz-adv-x="506" 
d="M345 170q101 -7 143 -4q-3 -92 -63.5 -137.5t-158.5 -45.5q-247 0 -247 242q0 125 67 193.5t191 68.5q94 0 148 -37.5t54 -104.5q0 -42 -25.5 -66t-70.5 -24q-42 0 -65.5 20.5t-23.5 56.5q0 47 38 68q-16 6 -38 6q-42 0 -62 -36t-20 -122q0 -90 14 -126t50 -36
q35 0 50 20.5t19 63.5zM336 608q0 -32 -18.5 -51t-50.5 -19q-31 0 -49.5 19t-18.5 51t18.5 50t49.5 18q32 0 50.5 -18.5t18.5 -49.5z" />
    <glyph glyph-name="Ccaron" unicode="&#x10c;" horiz-adv-x="727" 
d="M224 897l9 10q31 -7 72 -26.5t70 -41.5q67 49 138 68l9 -11q-29 -79 -112 -149h-76q-69 56 -110 150zM551 664q29 -18 40.5 -12.5t15.5 41.5q14 -1 47.5 -1t46.5 1q-5 -35 -11.5 -123.5t-7.5 -139.5q-73 4 -149 0q-5 79 -32.5 119t-91.5 40q-71 0 -102.5 -52t-31.5 -191
q0 -75 9.5 -125.5t29 -75.5t41 -34.5t51.5 -9.5q62 0 97 43t34 125q26 -1 81.5 -1t81.5 1q-1 -155 -73 -220.5t-247 -65.5q-171 0 -259 84t-88 279q0 180 90.5 272t244.5 92q108 0 183 -46z" />
    <glyph glyph-name="ccaron" unicode="&#x10d;" horiz-adv-x="506" 
d="M127 681l9 10q31 -7 72 -26.5t70 -41.5q67 49 138 68l9 -11q-29 -79 -112 -149h-76q-69 56 -110 150zM345 170q101 -7 143 -4q-3 -92 -63.5 -137.5t-158.5 -45.5q-247 0 -247 242q0 125 67 193.5t191 68.5q94 0 148 -37.5t54 -104.5q0 -42 -25.5 -66t-70.5 -24
q-42 0 -65.5 20.5t-23.5 56.5q0 47 38 68q-16 6 -38 6q-42 0 -62 -36t-20 -122q0 -90 14 -126t50 -36q35 0 50 20.5t19 63.5z" />
    <glyph glyph-name="Dcaron" unicode="&#x10e;" horiz-adv-x="797" 
d="M230 897l9 10q31 -7 72 -26.5t70 -41.5q67 49 138 68l9 -11q-29 -79 -112 -149h-76q-69 56 -110 150zM425 688q178 0 257.5 -80.5t81.5 -257.5q4 -351 -333 -351q-135 1 -206 1l-203 -2q1 16 1 55.5t-1 55.5h24q34 0 47 12.5t15 47.5q2 43 2 179t-2 173q-4 60 -56 60h-30
q1 17 1 55t-1 54q1 0 81 -1t122 -1h200zM321 153q2 -40 41 -40h24q56 0 89 18.5t51.5 71.5t18.5 148q0 131 -37 179.5t-121 48.5h-25q-39 0 -41 -36q-3 -57 -2.5 -194t2.5 -196z" />
    <glyph glyph-name="dcaron" unicode="&#x10f;" horiz-adv-x="744" 
d="M564 496q107 20 117 104q-14 -23 -48 -23q-23 0 -36.5 15.5t-13.5 43.5q0 29 18 46.5t49 17.5q32 0 49 -21.5t17 -58.5q0 -58 -40.5 -95.5t-105.5 -48.5zM197 486q111 0 140 -107v170q0 52 -42 52h-23q2 45 0 89q143 0 253 2q-1 -97 -1 -288.5t1 -266.5q1 -47 42 -47h15
v-90q-135 0 -245 -2v102q-31 -117 -141 -117q-86 0 -130 57.5t-44 199.5q0 246 175 246zM337 240q0 86 -13.5 115.5t-47.5 29.5q-36 0 -48.5 -28.5t-12.5 -116.5t11 -121.5t46 -33.5q33 0 48.5 31.5t16.5 106.5v17z" />
    <glyph glyph-name="Dcroat" unicode="&#x110;" horiz-adv-x="797" 
d="M425 688q178 0 257.5 -80.5t81.5 -257.5q4 -351 -333 -351q-135 1 -206 1l-203 -2q1 16 1 55.5t-1 55.5h24q34 0 47 12.5t15 47.5q2 44 2 131q-14 0 -34.5 -0.5t-24.5 -0.5q1 10 1.5 49.5t-0.5 49.5q12 -1 58 -1q0 21 -0.5 50.5t-1 47.5t-0.5 26q-4 60 -56 60h-30
q1 17 1 55t-1 54q1 0 81 -1t122 -1h200zM321 153q2 -40 41 -40h24q56 0 89 18.5t51.5 71.5t18.5 148q0 131 -37 179.5t-121 48.5h-25q-39 0 -41 -36q-3 -42 -3 -147q59 0 97 2q-1 -13 -1 -49.5t1 -49.5q-7 0 -40 0.5t-57 0.5z" />
    <glyph glyph-name="dcroat" unicode="&#x111;" horiz-adv-x="594" 
d="M282 504v50q13 -1 55 -1q-1 48 -42 48h-23q2 45 0 89q143 0 253 2q-2 -70 -2 -139q39 0 52 1v-50q-5 0 -23 0.5t-29 0.5q0 -303 2 -368q1 -47 42 -47h15v-90q-135 0 -245 -2v102q-31 -117 -141 -117q-86 0 -130 57.5t-44 199.5q0 246 175 246q111 0 140 -107v126
q-12 0 -31 -0.5t-24 -0.5zM337 240q0 86 -13.5 115.5t-47.5 29.5q-36 0 -48.5 -28.5t-12.5 -116.5t11 -121.5t46 -33.5q33 0 48.5 31.5t16.5 106.5v17z" />
    <glyph glyph-name="Emacron" unicode="&#x112;" horiz-adv-x="733" 
d="M423 467v31h85q-7 -102 -7 -152q0 -82 7 -153q-43 1 -83 0v28q-1 51 -18 71.5t-64 20.5h-22q0 -117 2 -141q3 -36 17.5 -49.5t45.5 -13.5h84q69 0 96 35t27 132q59 -2 118 0q-10 -106 -10 -281q-76 5 -229 5h-250q-30 0 -77.5 -0.5t-83.5 -1t-39 -0.5q1 16 1 55.5
t-1 55.5h25q33 0 46.5 15.5t15.5 50.5q2 38 2.5 166t-1.5 172q-2 37 -16.5 52.5t-43.5 15.5h-28q1 17 1 55t-1 54q3 0 84.5 -1t116.5 -1h245q184 0 239 7q-8 -118 -6 -265q-57 2 -111 0q0 91 -29 120.5t-91 29.5h-85q-59 0 -62 -60q-2 -58 -2 -140h23q46 0 62.5 19.5
t16.5 67.5zM249 756q2 45 0 92q46 -2 142 -2t142 2q-2 -46 0 -92q-46 2 -142 2t-142 -2z" />
    <glyph glyph-name="emacron" unicode="&#x113;" horiz-adv-x="513" 
d="M348 169q87 -6 141 -4q-3 -85 -58.5 -134t-166.5 -49q-117 0 -181 60t-64 183q0 125 66 193.5t182 68.5q124 0 178.5 -73.5t45.5 -205.5h-284q3 -67 19.5 -95t52.5 -28q34 0 49.5 20t19.5 64zM261 389q-28 0 -40.5 -28.5t-13.5 -108.5h71q17 0 23.5 6.5t6.5 30.5
q0 55 -11.5 77.5t-35.5 22.5zM125 541q2 45 0 92q46 -1 142 -1t142 1q-2 -46 0 -92q-46 1 -142 1t-142 -1z" />
    <glyph glyph-name="Ebreve" unicode="&#x114;" horiz-adv-x="733" 
d="M423 467v31h85q-7 -102 -7 -152q0 -82 7 -153q-43 1 -83 0v28q-1 51 -18 71.5t-64 20.5h-22q0 -117 2 -141q3 -36 17.5 -49.5t45.5 -13.5h84q69 0 96 35t27 132q59 -2 118 0q-10 -106 -10 -281q-76 5 -229 5h-250q-30 0 -77.5 -0.5t-83.5 -1t-39 -0.5q1 16 1 55.5
t-1 55.5h25q33 0 46.5 15.5t15.5 50.5q2 38 2.5 166t-1.5 172q-2 37 -16.5 52.5t-43.5 15.5h-28q1 17 1 55t-1 54q3 0 84.5 -1t116.5 -1h245q184 0 239 7q-8 -118 -6 -265q-57 2 -111 0q0 91 -29 120.5t-91 29.5h-85q-59 0 -62 -60q-2 -58 -2 -140h23q46 0 62.5 19.5
t16.5 67.5zM386 742q-75 0 -110.5 41t-26.5 104l28 2q5 -55 109 -55t109 55l28 -2q9 -63 -26.5 -104t-110.5 -41z" />
    <glyph glyph-name="ebreve" unicode="&#x115;" horiz-adv-x="513" 
d="M348 169q87 -6 141 -4q-3 -85 -58.5 -134t-166.5 -49q-117 0 -181 60t-64 183q0 125 66 193.5t182 68.5q124 0 178.5 -73.5t45.5 -205.5h-284q3 -67 19.5 -95t52.5 -28q34 0 49.5 20t19.5 64zM261 389q-28 0 -40.5 -28.5t-13.5 -108.5h71q17 0 23.5 6.5t6.5 30.5
q0 55 -11.5 77.5t-35.5 22.5zM266 531q-75 0 -110.5 41t-26.5 104l28 2q5 -55 109 -55t109 55l28 -2q9 -63 -26.5 -104t-110.5 -41z" />
    <glyph glyph-name="Edotaccent" unicode="&#x116;" horiz-adv-x="733" 
d="M423 467v31h85q-7 -102 -7 -152q0 -82 7 -153q-43 1 -83 0v28q-1 51 -18 71.5t-64 20.5h-22q0 -117 2 -141q3 -36 17.5 -49.5t45.5 -13.5h84q69 0 96 35t27 132q59 -2 118 0q-10 -106 -10 -281q-76 5 -229 5h-250q-30 0 -77.5 -0.5t-83.5 -1t-39 -0.5q1 16 1 55.5
t-1 55.5h25q33 0 46.5 15.5t15.5 50.5q2 38 2.5 166t-1.5 172q-2 37 -16.5 52.5t-43.5 15.5h-28q1 17 1 55t-1 54q3 0 84.5 -1t116.5 -1h245q184 0 239 7q-8 -118 -6 -265q-57 2 -111 0q0 91 -29 120.5t-91 29.5h-85q-59 0 -62 -60q-2 -58 -2 -140h23q46 0 62.5 19.5
t16.5 67.5zM445 824q0 -32 -18.5 -51t-50.5 -19q-31 0 -49.5 19t-18.5 51t18 50t50 18t50.5 -18.5t18.5 -49.5z" />
    <glyph glyph-name="edotaccent" unicode="&#x117;" horiz-adv-x="513" 
d="M348 169q87 -6 141 -4q-3 -85 -58.5 -134t-166.5 -49q-117 0 -181 60t-64 183q0 125 66 193.5t182 68.5q124 0 178.5 -73.5t45.5 -205.5h-284q3 -67 19.5 -95t52.5 -28q34 0 49.5 20t19.5 64zM261 389q-28 0 -40.5 -28.5t-13.5 -108.5h71q17 0 23.5 6.5t6.5 30.5
q0 55 -11.5 77.5t-35.5 22.5zM336 608q0 -32 -18.5 -51t-50.5 -19q-31 0 -49.5 19t-18.5 51t18.5 50t49.5 18q32 0 50.5 -18.5t18.5 -49.5z" />
    <glyph glyph-name="Eogonek" unicode="&#x118;" horiz-adv-x="733" 
d="M423 467v31h85q-7 -102 -7 -152q0 -82 7 -153q-43 1 -83 0v28q-1 51 -18 71.5t-64 20.5h-22q0 -117 2 -141q3 -36 17.5 -49.5t45.5 -13.5h84q69 0 96 35t27 132q59 -2 118 0q-10 -106 -10 -281q-24 2 -84 4q-50 -21 -50 -68q0 -48 52 -48q54 0 62 59l36 -5
q6 -143 -122 -143q-54 0 -84.5 24.5t-30.5 67.5q0 78 82 114h-340q-30 0 -77.5 -0.5t-83.5 -1t-39 -0.5q1 16 1 55.5t-1 55.5h25q33 0 46.5 15.5t15.5 50.5q2 38 2.5 166t-1.5 172q-2 37 -16.5 52.5t-43.5 15.5h-28q1 17 1 55t-1 54q3 0 84.5 -1t116.5 -1h245q184 0 239 7
q-8 -118 -6 -265q-57 2 -111 0q0 91 -29 120.5t-91 29.5h-85q-59 0 -62 -60q-2 -58 -2 -140h23q46 0 62.5 19.5t16.5 67.5z" />
    <glyph glyph-name="eogonek" unicode="&#x119;" horiz-adv-x="513" 
d="M505 -63q1 -66 -26 -104.5t-102 -38.5q-47 0 -78.5 25t-30.5 70q2 62 71 100q-28 -7 -75 -7q-117 0 -181 60t-64 183q0 125 66 193.5t182 68.5q124 0 178.5 -73.5t45.5 -205.5h-284q3 -67 19.5 -95t52.5 -28q34 0 49.5 20t19.5 64q87 -6 141 -4q-3 -91 -76 -149
q-32 -25 -44.5 -44.5t-13.5 -43.5q0 -21 13.5 -33t35.5 -12q27 0 42.5 13.5t22.5 45.5zM261 389q-28 0 -40.5 -28.5t-13.5 -108.5h71q17 0 23.5 6.5t6.5 30.5q0 55 -11.5 77.5t-35.5 22.5z" />
    <glyph glyph-name="Ecaron" unicode="&#x11a;" horiz-adv-x="733" 
d="M224 897l9 10q31 -7 72 -26.5t70 -41.5q67 49 138 68l9 -11q-29 -79 -112 -149h-76q-69 56 -110 150zM423 467v31h85q-7 -102 -7 -152q0 -82 7 -153q-43 1 -83 0v28q-1 51 -18 71.5t-64 20.5h-22q0 -117 2 -141q3 -36 17.5 -49.5t45.5 -13.5h84q69 0 96 35t27 132
q59 -2 118 0q-10 -106 -10 -281q-76 5 -229 5h-250q-30 0 -77.5 -0.5t-83.5 -1t-39 -0.5q1 16 1 55.5t-1 55.5h25q33 0 46.5 15.5t15.5 50.5q2 38 2.5 166t-1.5 172q-2 37 -16.5 52.5t-43.5 15.5h-28q1 17 1 55t-1 54q3 0 84.5 -1t116.5 -1h245q184 0 239 7q-8 -118 -6 -265
q-57 2 -111 0q0 91 -29 120.5t-91 29.5h-85q-59 0 -62 -60q-2 -58 -2 -140h23q46 0 62.5 19.5t16.5 67.5z" />
    <glyph glyph-name="ecaron" unicode="&#x11b;" horiz-adv-x="513" 
d="M117 681l9 10q31 -7 72 -26.5t70 -41.5q67 49 138 68l9 -11q-29 -79 -112 -149h-76q-69 56 -110 150zM348 169q87 -6 141 -4q-3 -85 -58.5 -134t-166.5 -49q-117 0 -181 60t-64 183q0 125 66 193.5t182 68.5q124 0 178.5 -73.5t45.5 -205.5h-284q3 -67 19.5 -95t52.5 -28
q34 0 49.5 20t19.5 64zM261 389q-28 0 -40.5 -28.5t-13.5 -108.5h71q17 0 23.5 6.5t6.5 30.5q0 55 -11.5 77.5t-35.5 22.5z" />
    <glyph glyph-name="Gcircumflex" unicode="&#x11c;" horiz-adv-x="781" 
d="M527 743l-9 -11q-74 17 -142 69q-67 -51 -138 -68l-9 11q29 78 112 148h76q67 -53 110 -149zM367 710q109 0 184 -47q28 -19 40 -13t16 43q14 -1 47.5 -1t46.5 1q-5 -35 -11.5 -123.5t-7.5 -139.5q-73 4 -149 0q-5 79 -32.5 119t-91.5 40q-71 0 -102.5 -52t-31.5 -191
q0 -75 10.5 -125.5t29.5 -75.5t40.5 -34.5t49.5 -9.5q114 0 114 120q0 37 -10 52.5t-39 15.5h-33v82q111 -3 169 -3l163 3q-1 -45 0 -82h-23q-21 0 -28.5 -12t-7.5 -41q0 -147 14 -238q-60 4 -119 0q-8 32 -26 80q-27 -45 -84 -71.5t-129 -26.5q-158 0 -245.5 84.5
t-87.5 281.5q0 180 90 272t244 92z" />
    <glyph glyph-name="gcircumflex" unicode="&#x11d;" horiz-adv-x="524" 
d="M243 487q41 0 78 -8q7 33 27 57q-49 19 -92 52q-67 -51 -138 -68l-9 11q29 78 112 148h76q51 -41 92 -114q16 6 37 6q40 0 62.5 -19t22.5 -54q0 -29 -14.5 -44.5t-40.5 -15.5q-25 0 -39.5 13.5t-14.5 37.5q0 18 9 30q-43 -9 -59 -48q115 -38 115 -163q0 -87 -60 -134.5
t-164 -47.5q-47 0 -85 9q-30 -5 -30 -21q0 -14 31 -18t129 -5q68 0 113.5 -9t69 -27t33 -40t9.5 -55q0 -70 -67.5 -116t-200.5 -46q-128 0 -181.5 26t-53.5 75q0 46 59 67q-44 26 -44 78q0 88 95 104q-98 44 -98 160q0 86 59.5 132.5t161.5 46.5zM243 -64q-81 2 -122 12
q-32 -13 -32 -35q0 -48 154 -48q58 0 100 8t60 19.5t18 23.5q0 14 -25 17t-100 3h-53zM245 407q-27 0 -36.5 -20.5t-9.5 -79.5q0 -58 10.5 -79.5t35.5 -21.5q27 0 36 20.5t9 80.5t-9 80t-36 20z" />
    <glyph glyph-name="Gbreve" unicode="&#x11e;" horiz-adv-x="781" 
d="M367 710q109 0 184 -47q28 -19 40 -13t16 43q14 -1 47.5 -1t46.5 1q-5 -35 -11.5 -123.5t-7.5 -139.5q-73 4 -149 0q-5 79 -32.5 119t-91.5 40q-71 0 -102.5 -52t-31.5 -191q0 -75 10.5 -125.5t29.5 -75.5t40.5 -34.5t49.5 -9.5q114 0 114 120q0 37 -10 52.5t-39 15.5
h-33v82q111 -3 169 -3l163 3q-1 -45 0 -82h-23q-21 0 -28.5 -12t-7.5 -41q0 -147 14 -238q-60 4 -119 0q-8 32 -26 80q-27 -45 -84 -71.5t-129 -26.5q-158 0 -245.5 84.5t-87.5 281.5q0 180 90 272t244 92zM371 742q-75 0 -110.5 41t-26.5 104l28 2q6 -55 109 -55t109 55
l28 -2q9 -63 -26.5 -104t-110.5 -41z" />
    <glyph glyph-name="gbreve" unicode="&#x11f;" horiz-adv-x="524" 
d="M243 487q41 0 78 -8q10 41 36.5 66.5t68.5 25.5q40 0 62.5 -19t22.5 -54q0 -29 -14.5 -44.5t-40.5 -15.5q-25 0 -39.5 13.5t-14.5 37.5q0 18 9 30q-43 -9 -59 -48q115 -38 115 -163q0 -87 -60 -134.5t-164 -47.5q-47 0 -85 9q-30 -5 -30 -21q0 -14 31 -18t129 -5
q68 0 113.5 -9t69 -27t33 -40t9.5 -55q0 -70 -67.5 -116t-200.5 -46q-128 0 -181.5 26t-53.5 75q0 46 59 67q-44 26 -44 78q0 88 95 104q-98 44 -98 160q0 86 59.5 132.5t161.5 46.5zM243 -64q-81 2 -122 12q-32 -13 -32 -35q0 -48 154 -48q58 0 100 8t60 19.5t18 23.5
q0 14 -25 17t-100 3h-53zM245 407q-27 0 -36.5 -20.5t-9.5 -79.5q0 -58 10.5 -79.5t35.5 -21.5q27 0 36 20.5t9 80.5t-9 80t-36 20zM230 531q-75 0 -110.5 41t-26.5 104l28 2q5 -55 109 -55t109 55l28 -2q9 -63 -26.5 -104t-110.5 -41z" />
    <glyph glyph-name="Gdotaccent" unicode="&#x120;" horiz-adv-x="781" 
d="M367 710q109 0 184 -47q28 -19 40 -13t16 43q14 -1 47.5 -1t46.5 1q-5 -35 -11.5 -123.5t-7.5 -139.5q-73 4 -149 0q-5 79 -32.5 119t-91.5 40q-71 0 -102.5 -52t-31.5 -191q0 -75 10.5 -125.5t29.5 -75.5t40.5 -34.5t49.5 -9.5q114 0 114 120q0 37 -10 52.5t-39 15.5
h-33v82q111 -3 169 -3l163 3q-1 -45 0 -82h-23q-21 0 -28.5 -12t-7.5 -41q0 -147 14 -238q-60 4 -119 0q-8 32 -26 80q-27 -45 -84 -71.5t-129 -26.5q-158 0 -245.5 84.5t-87.5 281.5q0 180 90 272t244 92zM433 824q0 -32 -18.5 -51t-50.5 -19q-31 0 -49.5 19t-18.5 51
t18 50t50 18t50.5 -18.5t18.5 -49.5z" />
    <glyph glyph-name="gdotaccent" unicode="&#x121;" horiz-adv-x="524" 
d="M243 487q41 0 78 -8q10 41 36.5 66.5t68.5 25.5q40 0 62.5 -19t22.5 -54q0 -29 -14.5 -44.5t-40.5 -15.5q-25 0 -39.5 13.5t-14.5 37.5q0 18 9 30q-43 -9 -59 -48q115 -38 115 -163q0 -87 -60 -134.5t-164 -47.5q-47 0 -85 9q-30 -5 -30 -21q0 -14 31 -18t129 -5
q68 0 113.5 -9t69 -27t33 -40t9.5 -55q0 -70 -67.5 -116t-200.5 -46q-128 0 -181.5 26t-53.5 75q0 46 59 67q-44 26 -44 78q0 88 95 104q-98 44 -98 160q0 86 59.5 132.5t161.5 46.5zM243 -64q-81 2 -122 12q-32 -13 -32 -35q0 -48 154 -48q58 0 100 8t60 19.5t18 23.5
q0 14 -25 17t-100 3h-53zM245 407q-27 0 -36.5 -20.5t-9.5 -79.5q0 -58 10.5 -79.5t35.5 -21.5q27 0 36 20.5t9 80.5t-9 80t-36 20zM314 608q0 -32 -18.5 -51t-50.5 -19q-31 0 -49.5 19t-18.5 51t18.5 50t49.5 18q32 0 50.5 -18.5t18.5 -49.5z" />
    <glyph glyph-name="Gcommaaccent" unicode="&#x122;" horiz-adv-x="781" 
d="M283 -263q107 20 117 104q-14 -23 -48 -23q-23 0 -36.5 15.5t-13.5 43.5q0 29 18 46.5t49 17.5q32 0 49 -21.5t17 -58.5q0 -58 -40.5 -95.5t-105.5 -48.5zM367 710q109 0 184 -47q28 -19 40 -13t16 43q14 -1 47.5 -1t46.5 1q-5 -35 -11.5 -123.5t-7.5 -139.5
q-73 4 -149 0q-5 79 -32.5 119t-91.5 40q-71 0 -102.5 -52t-31.5 -191q0 -75 10.5 -125.5t29.5 -75.5t40.5 -34.5t49.5 -9.5q114 0 114 120q0 37 -10 52.5t-39 15.5h-33v82q111 -3 169 -3l163 3q-1 -45 0 -82h-23q-21 0 -28.5 -12t-7.5 -41q0 -147 14 -238q-60 4 -119 0
q-8 32 -26 80q-27 -45 -84 -71.5t-129 -26.5q-158 0 -245.5 84.5t-87.5 281.5q0 180 90 272t244 92z" />
    <glyph glyph-name="gcommaaccent" unicode="&#x123;" horiz-adv-x="524" 
d="M334 758q-107 -20 -117 -104q14 23 48 23q23 0 36.5 -15.5t13.5 -43.5q0 -29 -18 -46.5t-49 -17.5q-32 0 -49 21.5t-17 58.5q0 58 40.5 95.5t105.5 48.5zM243 487q41 0 78 -8q10 41 36.5 66.5t68.5 25.5q40 0 62.5 -19t22.5 -54q0 -29 -14.5 -44.5t-40.5 -15.5
q-25 0 -39.5 13.5t-14.5 37.5q0 18 9 30q-43 -9 -59 -48q115 -38 115 -163q0 -87 -60 -134.5t-164 -47.5q-47 0 -85 9q-30 -5 -30 -21q0 -14 31 -18t129 -5q68 0 113.5 -9t69 -27t33 -40t9.5 -55q0 -70 -67.5 -116t-200.5 -46q-128 0 -181.5 26t-53.5 75q0 46 59 67
q-44 26 -44 78q0 88 95 104q-98 44 -98 160q0 86 59.5 132.5t161.5 46.5zM243 -64q-81 2 -122 12q-32 -13 -32 -35q0 -48 154 -48q58 0 100 8t60 19.5t18 23.5q0 14 -25 17t-100 3h-53zM245 407q-27 0 -36.5 -20.5t-9.5 -79.5q0 -58 10.5 -79.5t35.5 -21.5q27 0 36 20.5
t9 80.5t-9 80t-36 20z" />
    <glyph glyph-name="Hcircumflex" unicode="&#x124;" horiz-adv-x="847" 
d="M572 743l-9 -11q-74 17 -142 69q-67 -51 -138 -68l-9 11q29 78 112 148h76q67 -53 110 -149zM22 -3q1 16 1 56t-1 56h30q32 0 43 10t13 42q2 40 2 185t-2 179q-2 30 -14 43t-38 13h-34q1 17 1 55t-1 54q122 -2 190 -2q30 0 76 0.5t80 1.5h33q-1 -16 -1 -54.5t1 -54.5h-26
q-53 0 -57 -56q-2 -20 -2 -149q102 -2 214 0q0 130 -1 149q-4 56 -58 56h-26q1 16 1 54.5t-1 54.5q121 -2 189 -2q31 0 76.5 0.5t79.5 1.5h33q-2 -55 0 -109h-32q-26 0 -38 -13t-14 -43q-2 -33 -2 -178.5t2 -184.5q2 -30 13 -41.5t42 -11.5h29q-2 -56 0 -112q-120 3 -189 3
l-189 -3q1 17 1 56.5t-1 55.5h28q32 0 44 13t12 40q0 6 0.5 57t0.5 89q-112 2 -214 0q0 -102 2 -146q2 -28 12.5 -40.5t42.5 -12.5h28q-1 -16 -1 -55.5t1 -56.5q-121 3 -189 3z" />
    <glyph glyph-name="hcircumflex" unicode="&#x125;" horiz-adv-x="633" 
d="M292 734l-9 -11q-74 17 -142 69q-67 -51 -138 -68l-9 11q29 78 112 148h76q67 -53 110 -149zM568 305q-1 -18 -1 -83.5t1 -77.5q2 -30 11 -42t33 -12h8q-2 -51 0 -92q-1 0 -26.5 0.5t-60.5 1t-58 0.5h-34t-38.5 -0.5t-34.5 -1t-26 -0.5h-11v92h9q21 0 29 12t10 42
q2 48 0 159q-2 42 -13.5 62t-42.5 20q-65 0 -65 -106v-138q0 -28 8.5 -39.5t31.5 -11.5h9q-1 -46 0 -92q-1 0 -27 0.5t-61.5 1t-58.5 0.5h-35.5t-39 -0.5t-35 -1t-27 -0.5h-11.5q2 42 0 92h12q25 0 34 10t11 40q2 26 2 204t-2 204q-2 30 -10.5 41t-34.5 11h-9v90
q208 0 247 3q-4 -82 -4 -275v-39q32 108 154 108q77 0 116.5 -47.5t39.5 -134.5z" />
    <glyph glyph-name="Hbar" unicode="&#x126;" horiz-adv-x="847" 
d="M22 -3q1 16 1 56t-1 56h30q32 0 43 10t13 42q4 77 2 276l-52 -1v62l51 -1q0 47 -11 65.5t-42 18.5h-34q1 17 1 55t-1 54q122 -2 190 -2q30 0 76 0.5t80 1.5h33q-1 -16 -1 -54.5t1 -54.5h-26q-36 0 -47 -20.5t-12 -64.5h214q1 46 -12.5 65.5t-46.5 19.5h-26q1 16 1 54.5
t-1 54.5q121 -2 189 -2q31 0 76.5 0.5t79.5 1.5h33q-2 -55 0 -109h-32q-30 0 -41.5 -18t-11.5 -66l53 1v-62l-54 1q-2 -202 2 -275q2 -30 13 -41.5t42 -11.5h29q-2 -56 0 -112q-120 3 -189 3l-189 -3q1 17 1 56.5t-1 55.5h28q32 0 44 13t12 40q0 6 0.5 57t0.5 89
q-112 2 -214 0q0 -102 2 -146q2 -28 12.5 -40.5t42.5 -12.5h28q-1 -16 -1 -55.5t1 -56.5q-121 3 -189 3zM530 437h-214v-61q102 -2 214 0v61z" />
    <glyph glyph-name="hbar" unicode="&#x127;" horiz-adv-x="633" 
d="M20 503v51q12 -1 49 -1q-2 26 -11.5 36.5t-33.5 10.5h-9v90q208 0 247 3q-4 -90 -4 -140q41 0 55 1v-50q-14 1 -55 1v-126q32 108 154 108q77 0 116.5 -47.5t39.5 -134.5v-161q2 -30 11 -42t33 -12h8q-2 -51 0 -92q-1 0 -26.5 0.5t-60.5 1t-58 0.5h-34t-38.5 -0.5
t-34.5 -1t-26 -0.5h-11v92h9q21 0 29 12t10 42q2 48 0 159q-2 42 -13.5 62t-42.5 20q-65 0 -65 -106v-138q0 -28 8.5 -39.5t31.5 -11.5h9q-1 -46 0 -92q-1 0 -27 0.5t-61.5 1t-58.5 0.5h-35.5t-39 -0.5t-35 -1t-27 -0.5h-11.5q2 42 0 92h12q25 0 34 10t11 40q2 22 2 155
t-1 210q-26 0 -50 -2z" />
    <glyph glyph-name="Itilde" unicode="&#x128;" horiz-adv-x="428" 
d="M24 -3q1 16 1 56t-1 56h32q29 0 39 12.5t13 40.5q2 35 2 182t-2 181q-2 30 -14 43t-38 13h-32q1 17 1 55t-1 54q123 -2 191 -2q30 0 76 0.5t80 1.5h34q-1 -16 -1 -54.5t1 -54.5h-32q-26 0 -38 -13t-14 -43q-3 -36 -2.5 -180.5t2.5 -182.5q2 -27 13 -40t39 -13h31
q-1 -16 -1 -55.5t1 -56.5q-121 3 -190 3zM332 870l29 9q25 -66 -6 -105t-88 -39q-66 0 -105 61q-12 19 -20.5 26t-21.5 7q-19 0 -26.5 -16.5t3.5 -57.5l-29 -9q-25 68 6 106.5t88 38.5q63 0 104 -62q21 -33 43 -33q19 0 26.5 17t-3.5 57z" />
    <glyph glyph-name="itilde" unicode="&#x129;" horiz-adv-x="327" 
d="M258 475q-2 -39 -2 -171.5t1 -162.5q1 -29 11.5 -40t36.5 -11h10q-2 -50 0 -91q-7 0 -70.5 1t-78.5 1q-16 0 -83.5 -1t-70.5 -1q2 42 0 91h10q26 0 35 10.5t11 39.5q2 31 2 99t-1 96q-2 28 -11.5 38t-34.5 10h-11q2 45 0 90q138 0 246 2zM272 654l29 9q25 -66 -6 -105
t-88 -39q-66 0 -105 61q-12 19 -20.5 26t-21.5 7q-19 0 -26.5 -16.5t3.5 -57.5l-29 -9q-25 68 6 106.5t88 38.5q63 0 104 -62q21 -33 43 -33q19 0 26.5 17t-3.5 57z" />
    <glyph glyph-name="Imacron" unicode="&#x12a;" horiz-adv-x="428" 
d="M24 -3q1 16 1 56t-1 56h32q29 0 39 12.5t13 40.5q2 35 2 182t-2 181q-2 30 -14 43t-38 13h-32q1 17 1 55t-1 54q123 -2 191 -2q30 0 76 0.5t80 1.5h34q-1 -16 -1 -54.5t1 -54.5h-32q-26 0 -38 -13t-14 -43q-3 -36 -2.5 -180.5t2.5 -182.5q2 -27 13 -40t39 -13h31
q-1 -16 -1 -55.5t1 -56.5q-121 3 -190 3zM73 756q2 45 0 92q46 -2 142 -2t142 2q-2 -46 0 -92q-46 2 -142 2t-142 -2z" />
    <glyph glyph-name="imacron" unicode="&#x12b;" horiz-adv-x="327" 
d="M258 475q-2 -39 -2 -171.5t1 -162.5q1 -29 11.5 -40t36.5 -11h10q-2 -50 0 -91q-7 0 -70.5 1t-78.5 1q-16 0 -83.5 -1t-70.5 -1q2 42 0 91h10q26 0 35 10.5t11 39.5q2 31 2 99t-1 96q-2 28 -11.5 38t-34.5 10h-11q2 45 0 90q138 0 246 2zM10 541q2 45 0 92q46 -1 142 -1
t142 1q-2 -46 0 -92q-46 1 -142 1t-142 -1z" />
    <glyph glyph-name="Ibreve" unicode="&#x12c;" horiz-adv-x="428" 
d="M24 -3q1 16 1 56t-1 56h32q29 0 39 12.5t13 40.5q2 35 2 182t-2 181q-2 30 -14 43t-38 13h-32q1 17 1 55t-1 54q123 -2 191 -2q30 0 76 0.5t80 1.5h34q-1 -16 -1 -54.5t1 -54.5h-32q-26 0 -38 -13t-14 -43q-3 -36 -2.5 -180.5t2.5 -182.5q2 -27 13 -40t39 -13h31
q-1 -16 -1 -55.5t1 -56.5q-121 3 -190 3zM214 742q-75 0 -110.5 41t-26.5 104l28 2q5 -55 109 -55t109 55l28 -2q9 -63 -26.5 -104t-110.5 -41z" />
    <glyph glyph-name="ibreve" unicode="&#x12d;" horiz-adv-x="327" 
d="M258 475q-2 -39 -2 -171.5t1 -162.5q1 -29 11.5 -40t36.5 -11h10q-2 -50 0 -91q-7 0 -70.5 1t-78.5 1q-16 0 -83.5 -1t-70.5 -1q2 42 0 91h10q26 0 35 10.5t11 39.5q2 31 2 99t-1 96q-2 28 -11.5 38t-34.5 10h-11q2 45 0 90q138 0 246 2zM148 531q-75 0 -110.5 41
t-26.5 104l28 2q5 -55 109 -55t109 55l28 -2q9 -63 -26.5 -104t-110.5 -41z" />
    <glyph glyph-name="Iogonek" unicode="&#x12e;" horiz-adv-x="428" 
d="M355 -63q6 -143 -122 -143q-54 0 -84.5 24.5t-30.5 67.5q0 39 22.5 69t61.5 45l-178 -3q1 16 1 56t-1 56h32q29 0 39 12.5t13 40.5q2 35 2 182t-2 181q-2 30 -14 43t-38 13h-32q1 17 1 55t-1 54q123 -2 191 -2q30 0 76 0.5t80 1.5h34q-1 -16 -1 -54.5t1 -54.5h-32
q-26 0 -38 -13t-14 -43q-3 -36 -2.5 -180.5t2.5 -182.5q2 -27 13 -40t39 -13h31q-1 -16 -1 -55.5t1 -56.5q-79 2 -146 3q-53 -19 -53 -69q0 -48 52 -48q54 0 62 59z" />
    <glyph glyph-name="iogonek" unicode="&#x12f;" horiz-adv-x="327" 
d="M297 -63q6 -143 -122 -143q-54 0 -84.5 24.5t-30.5 67.5q0 39 22.5 69t61.5 45h-34t-35.5 -0.5t-30.5 -1t-23 -0.5h-9q2 42 0 92h10q26 0 35 10.5t11 39.5q2 31 2 99t-1 96q-2 28 -11.5 38t-34.5 10h-11q2 45 0 90q138 0 246 2q-2 -39 -2 -171.5t1 -162.5q1 -29 11.5 -40
t36.5 -11h10q-2 -51 0 -92h-19q-18 1 -45 1.5t-50 0.5q-54 -20 -54 -69q0 -48 52 -48q54 0 62 59zM262 621q0 -48 -27.5 -75.5t-74.5 -27.5t-74 27.5t-27 75.5q0 47 27 74.5t74 27.5t74.5 -27.5t27.5 -74.5z" />
    <glyph glyph-name="Idotaccent" unicode="&#x130;" horiz-adv-x="428" 
d="M24 -3q1 16 1 56t-1 56h32q29 0 39 12.5t13 40.5q2 35 2 182t-2 181q-2 30 -14 43t-38 13h-32q1 17 1 55t-1 54q123 -2 191 -2q30 0 76 0.5t80 1.5h34q-1 -16 -1 -54.5t1 -54.5h-32q-26 0 -38 -13t-14 -43q-3 -36 -2.5 -180.5t2.5 -182.5q2 -27 13 -40t39 -13h31
q-1 -16 -1 -55.5t1 -56.5q-121 3 -190 3zM283 824q0 -32 -18.5 -51t-50.5 -19q-31 0 -49.5 19t-18.5 51t18 50t50 18t50.5 -18.5t18.5 -49.5z" />
    <glyph glyph-name="dotlessi" unicode="&#x131;" horiz-adv-x="327" 
d="M258 475q-2 -39 -2 -171.5t1 -162.5q1 -29 11.5 -40t36.5 -11h10q-2 -50 0 -91q-7 0 -70.5 1t-78.5 1q-16 0 -83.5 -1t-70.5 -1q2 42 0 91h10q26 0 35 10.5t11 39.5q2 31 2 99t-1 96q-2 28 -11.5 38t-34.5 10h-11q2 45 0 90q138 0 246 2z" />
    <glyph glyph-name="IJ" unicode="&#x132;" horiz-adv-x="1003" 
d="M24 -3q1 16 1 56t-1 56h32q29 0 39 12.5t13 40.5q2 35 2 182t-2 181q-2 30 -14 43t-38 13h-32q1 17 1 55t-1 54q123 -2 191 -2q30 0 76 0.5t80 1.5h34q-1 -16 -1 -54.5t1 -54.5h-32q-26 0 -38 -13t-14 -43q-3 -36 -2.5 -180.5t2.5 -182.5q2 -27 13 -40t39 -13h31
q-1 -16 -1 -55.5t1 -56.5q-121 3 -190 3zM623 155q0 -43 -29 -66.5t-77 -22.5q29 -18 71 -18q51 0 77 31.5t30 114.5q2 59 2 178.5t-2 152.5q-2 30 -13.5 43t-38.5 13h-35q1 17 1 55t-1 54q120 -2 187 -2q30 0 75 0.5t78 1.5h34q-1 -16 -1 -54t1 -55h-22q-27 0 -39 -11.5
t-13 -44.5v-55v-103v-107.5v-58.5q1 -105 -70 -161.5t-199 -56.5q-102 0 -157.5 42.5t-55.5 114.5q0 47 28 76t77 29q42 0 67 -24t25 -66z" />
    <glyph glyph-name="ij" unicode="&#x133;" horiz-adv-x="583" 
d="M258 475q-2 -39 -2 -171.5t1 -162.5q1 -29 11.5 -40t36.5 -11h10q-2 -51 0 -92q-1 0 -27.5 0.5t-63 1t-60.5 0.5h-36t-40.5 -0.5t-36.5 -1t-27.5 -0.5h-11.5q2 42 0 92h10q26 0 35 10.5t11 39.5q2 31 2 99t-1 96q-2 28 -11.5 38t-34.5 10h-11q2 45 0 90q138 0 246 2z
M262 621q0 -48 -27.5 -75.5t-74.5 -27.5t-74 27.5t-27 75.5q0 47 27 74.5t74 27.5t74.5 -27.5t27.5 -74.5zM330 -87q0 -32 -23.5 -50.5t-58.5 -11.5q18 -13 44 -13q68 0 72 96q2 53 2.5 217.5t-1.5 185.5q-3 46 -43 46h-11v90q207 0 246 3q-3 -50 -3 -172v-285
q0 -108 -53.5 -163.5t-155.5 -55.5q-71 0 -112.5 26.5t-41.5 74.5q0 75 74 75q31 0 48 -16.5t17 -46.5zM559 621q0 -48 -27 -75.5t-75 -27.5q-47 0 -73.5 27.5t-26.5 75.5q0 47 27 74.5t73 27.5q48 0 75 -27.5t27 -74.5z" />
    <glyph glyph-name="Jcircumflex" unicode="&#x134;" horiz-adv-x="591" 
d="M528 743l-9 -11q-74 17 -142 69q-67 -51 -138 -68l-9 11q29 78 112 148h76q67 -53 110 -149zM210 155q0 -43 -29 -66.5t-77 -22.5q28 -18 71 -18q51 0 77 31.5t30 114.5q2 59 2 178.5t-2 152.5q-2 30 -13.5 43t-38.5 13h-35q1 16 1 54.5t-1 54.5q120 -2 187 -2
q30 0 75 0.5t79 1.5h33q-1 -16 -1 -54t1 -55h-22q-27 0 -39 -11.5t-13 -44.5v-324q1 -105 -70 -161.5t-199 -56.5q-102 0 -157.5 42.5t-55.5 114.5q0 47 28 76t77 29q42 0 67 -24t25 -66z" />
    <glyph glyph-name="jcircumflex" unicode="&#x135;" horiz-adv-x="316" 
d="M62 -88q0 -29 -21 -48t-62 -12q19 -14 46 -14q68 0 72 96q2 53 2.5 217.5t-1.5 185.5q-3 46 -43 46h-11v90q204 0 243 3v-111v-221.5v-124.5q0 -108 -53.5 -163.5t-155.5 -55.5q-71 0 -112 27t-41 74q0 35 19.5 54.5t53.5 19.5q30 0 47 -17t17 -46zM321 530l-9 -11
q-74 17 -142 69q-67 -51 -138 -68l-9 11q29 78 112 148h76q67 -53 110 -149z" />
    <glyph glyph-name="Kcommaaccent" unicode="&#x136;" horiz-adv-x="837" 
d="M334 -260q107 20 117 104q-14 -23 -48 -23q-23 0 -36.5 15.5t-13.5 43.5q0 29 18 46.5t49 17.5q32 0 49 -21.5t17 -58.5q0 -58 -40.5 -95.5t-105.5 -48.5zM22 -2q1 16 1 55.5t-1 55.5h26q33 0 45 13t14 44q2 32 2 178.5t-2 179.5q-2 31 -15 44t-45 13h-25q1 17 1 55
t-1 54q121 -2 189 -2q31 0 76.5 0.5t78.5 1.5h34q-1 -16 -1 -54.5t1 -54.5h-30q-26 0 -38 -13.5t-14 -43.5q-2 -21 -2 -165l178 148q25 20 16.5 47t-41.5 27h-31q1 16 1 54.5t-1 54.5q121 -2 188 -2q30 0 75 0.5t77 1.5h33q-1 -16 -1 -54t1 -55h-36q-51 0 -88.5 -16.5
t-84.5 -54.5l-65 -53q152 -253 179 -290q26 -35 40.5 -46.5t39.5 -11.5h19q-1 -17 -1 -55.5t1 -54.5q-123 2 -192 2l-192 -2q1 16 1 55t-1 55h19q59 0 12 85q-22 39 -85 134l-61 -50q0 -82 2 -112q2 -29 12.5 -43t34.5 -14h29q-1 -16 -1 -55.5t1 -55.5q-119 2 -185 2z" />
    <glyph glyph-name="kcommaaccent" unicode="&#x137;" horiz-adv-x="647" 
d="M227 -260q107 20 117 104q-14 -23 -48 -23q-23 0 -36.5 15.5t-13.5 43.5q0 29 18 46.5t49 17.5q32 0 49 -21.5t17 -58.5q0 -58 -40.5 -95.5t-105.5 -48.5zM258 693q-2 -78 -2 -429l93 66q18 13 23 25t-4 20t-29 8h-14q1 13 1 45.5t-1 46.5q97 -3 151 -3q24 0 60 1t63 1.5
t29 0.5q-1 -13 -1 -46t1 -46h-23q-43 0 -71 -9t-67 -34l-20 -13q91 -164 108 -187q36 -51 72 -51h7q-2 -49 0 -91q-1 0 -28.5 0.5t-65.5 1t-63 0.5h-37.5t-41.5 -0.5t-37.5 -1t-28.5 -0.5h-12q2 42 0 92h9q19 0 22.5 15t-8.5 37q-20 37 -52 87l-34 -22q0 -45 1 -63
q1 -29 9.5 -41.5t26.5 -12.5h9q-1 -46 0 -92q-1 0 -26.5 0.5t-60.5 1t-58 0.5h-35t-38.5 -0.5t-35 -1t-26.5 -0.5h-11q2 42 0 92h10q26 0 35.5 11.5t11.5 42.5q2 32 2 202t-2 200t-10.5 42.5t-33.5 12.5h-10v89q204 0 243 3z" />
    <glyph glyph-name="kgreenlandic" unicode="&#x138;" horiz-adv-x="647" 
d="M258 475q-2 -124 -2 -211l93 66q18 13 23 25t-4 20t-29 8h-14q1 13 1 45.5t-1 46.5q97 -3 151 -3q24 0 60 1t63 1.5t29 0.5q-1 -13 -1 -46t1 -46h-23q-43 0 -71 -9t-67 -34l-20 -13q94 -169 108 -187q37 -51 72 -51h7q-2 -49 0 -91q-1 0 -28.5 0.5t-65.5 1t-63 0.5h-37.5
t-41.5 -0.5t-37.5 -1t-28.5 -0.5h-12q2 42 0 92h9q19 0 22.5 15t-8.5 37q-20 37 -52 87l-35 -22q0 -46 1 -63q3 -54 37 -54h9q-2 -47 0 -92q-1 0 -26.5 0.5t-60.5 1t-58 0.5h-35t-38.5 -0.5t-35 -1t-26.5 -0.5h-11q2 42 0 92h10q26 0 35.5 11.5t11.5 42.5q6 113 0 185
q-2 30 -10.5 42t-33.5 12h-10v90q204 0 243 2z" />
    <glyph glyph-name="Lacute" unicode="&#x139;" horiz-adv-x="664" 
d="M203 740l-8 12q25 37 61 73.5t67 54.5q23 12 42.5 12.5t30.5 -10.5t14 -25t-6.5 -31t-31.5 -30q-71 -42 -169 -56zM415 690q-1 -15 -1.5 -54.5t0.5 -54.5h-30q-31 0 -46.5 -14.5t-17.5 -48.5q-2 -39 -2 -172.5t2 -179.5q2 -34 17 -45.5t45 -11.5h38q43 0 66 12.5t38 55.5
t17 126q15 -1 51.5 -1t52.5 1q-5 -132 -3 -307q-69 4 -214 4h-230q-124 0 -176 -1q1 16 1 55t-1 55h33q32 0 42 14.5t12 51.5q2 43 2 176t-2 167q-5 63 -52 63h-32q1 17 1 55t-1 54q125 -2 196 -2q31 0 77.5 0.5t81 1t35.5 0.5z" />
    <glyph glyph-name="lacute" unicode="&#x13a;" horiz-adv-x="324" 
d="M122 720l-8 12q25 37 61 73.5t67 54.5q23 12 42.5 12.5t30.5 -10.5t14 -25t-6.5 -31t-31.5 -30q-71 -42 -169 -56zM257 692q-1 -73 -1 -295.5t1 -252.5q2 -30 12 -42t35 -12h10q-2 -51 0 -92q-1 0 -27.5 0.5t-63 1t-60.5 0.5h-36t-40.5 -0.5t-36.5 -1t-27.5 -0.5h-11.5
q1 13 1 44.5t-1 47.5h11q25 0 34.5 12t11.5 42q2 29 2 203t-2 200q-2 28 -11 41t-34 13h-9q2 45 0 89q165 0 243 2z" />
    <glyph glyph-name="Lcommaaccent" unicode="&#x13b;" horiz-adv-x="664" 
d="M239 -260q107 20 117 104q-14 -23 -48 -23q-23 0 -36.5 15.5t-13.5 43.5q0 29 18 46.5t49 17.5q32 0 49 -21.5t17 -58.5q0 -58 -40.5 -95.5t-105.5 -48.5zM415 690q-1 -15 -1.5 -54.5t0.5 -54.5h-30q-31 0 -46.5 -14.5t-17.5 -48.5q-2 -39 -2 -172.5t2 -179.5
q2 -34 17 -45.5t45 -11.5h38q43 0 66 12.5t38 55.5t17 126q15 -1 51.5 -1t52.5 1q-5 -132 -3 -307q-69 4 -214 4h-230q-124 0 -176 -1q1 16 1 55t-1 55h33q32 0 42 14.5t12 51.5q2 43 2 176t-2 167q-5 63 -52 63h-32q1 17 1 55t-1 54q125 -2 196 -2q31 0 77.5 0.5t81 1
t35.5 0.5z" />
    <glyph glyph-name="lcommaaccent" unicode="&#x13c;" horiz-adv-x="324" 
d="M79 -260q107 20 117 104q-14 -23 -48 -23q-23 0 -36.5 15.5t-13.5 43.5q0 29 18 46.5t49 17.5q32 0 49 -21.5t17 -58.5q0 -58 -40.5 -95.5t-105.5 -48.5zM257 692q-1 -73 -1 -295.5t1 -252.5q2 -30 12 -42t35 -12h10q-2 -51 0 -92q-1 0 -27.5 0.5t-63 1t-60.5 0.5h-36
t-40.5 -0.5t-36.5 -1t-27.5 -0.5h-11.5q1 13 1 44.5t-1 47.5h11q25 0 34.5 12t11.5 42q2 29 2 203t-2 200q-2 28 -11 41t-34 13h-9q2 45 0 89q165 0 243 2z" />
    <glyph glyph-name="Lcaron" unicode="&#x13d;" horiz-adv-x="664" 
d="M481 495q107 20 117 104q-14 -23 -48 -23q-23 0 -36.5 15.5t-13.5 43.5q0 29 18 46.5t49 17.5q32 0 49 -21.5t17 -58.5q0 -58 -40.5 -95.5t-105.5 -48.5zM415 690q-1 -15 -1.5 -54.5t0.5 -54.5h-30q-31 0 -46.5 -14.5t-17.5 -48.5q-2 -39 -2 -172.5t2 -179.5
q2 -34 17 -45.5t45 -11.5h38q43 0 66 12.5t38 55.5t17 126q15 -1 51.5 -1t52.5 1q-5 -132 -3 -307q-69 4 -214 4h-230q-124 0 -176 -1q1 16 1 55t-1 55h33q32 0 42 14.5t12 51.5q2 43 2 176t-2 167q-5 63 -52 63h-32q1 17 1 55t-1 54q125 -2 196 -2q31 0 77.5 0.5t81 1
t35.5 0.5z" />
    <glyph glyph-name="lcaron" unicode="&#x13e;" horiz-adv-x="457" 
d="M286 487q107 20 117 104q-14 -23 -48 -23q-23 0 -36.5 15.5t-13.5 43.5q0 29 18 46.5t49 17.5q32 0 49 -21.5t17 -58.5q0 -58 -40.5 -95.5t-105.5 -48.5zM257 692q-1 -73 -1 -295.5t1 -252.5q2 -30 12 -42t35 -12h10q-2 -51 0 -92q-1 0 -27.5 0.5t-63 1t-60.5 0.5h-36
t-40.5 -0.5t-36.5 -1t-27.5 -0.5h-11.5q1 13 1 44.5t-1 47.5h11q25 0 34.5 12t11.5 42q2 29 2 203t-2 200q-2 28 -11 41t-34 13h-9q2 45 0 89q165 0 243 2z" />
    <glyph glyph-name="Ldot" unicode="&#x13f;" horiz-adv-x="664" 
d="M415 690q-1 -15 -1.5 -54.5t0.5 -54.5h-30q-31 0 -46.5 -14.5t-17.5 -48.5q-2 -39 -2 -172.5t2 -179.5q2 -34 17 -45.5t45 -11.5h38q43 0 66 12.5t38 55.5t17 126q15 -1 51.5 -1t52.5 1q-5 -132 -3 -307q-69 4 -214 4h-230q-124 0 -176 -1q1 16 1 55t-1 55h33
q32 0 42 14.5t12 51.5q2 43 2 176t-2 167q-5 63 -52 63h-32q1 17 1 55t-1 54q125 -2 196 -2q31 0 77.5 0.5t81 1t35.5 0.5zM546 409q0 -32 -18.5 -51t-50.5 -19q-31 0 -49.5 19t-18.5 51q0 31 18.5 49.5t49.5 18.5q32 0 50.5 -18.5t18.5 -49.5z" />
    <glyph glyph-name="ldot" unicode="&#x140;" horiz-adv-x="447" 
d="M257 692q-1 -73 -1 -295.5t1 -252.5q2 -30 12 -42t35 -12h10q-2 -51 0 -92q-1 0 -27.5 0.5t-63 1t-60.5 0.5h-36t-40.5 -0.5t-36.5 -1t-27.5 -0.5h-11.5q1 13 1 44.5t-1 47.5h11q25 0 34.5 12t11.5 42q2 29 2 203t-2 200q-2 28 -11 41t-34 13h-9q2 45 0 89q165 0 243 2z
M452 333q0 -32 -18.5 -51t-50.5 -19q-31 0 -49.5 19t-18.5 51q0 31 18.5 49.5t49.5 18.5q32 0 50.5 -18.5t18.5 -49.5z" />
    <glyph glyph-name="Lslash" unicode="&#x141;" horiz-adv-x="664" 
d="M415 690q-1 -15 -1.5 -54.5t0.5 -54.5h-30q-31 0 -46.5 -14.5t-17.5 -48.5t-2 -98q24 9 94 37l18 -58q-54 -19 -112 -41q0 -160 2 -192q2 -34 17 -45.5t45 -11.5h38q43 0 66 12.5t38 55.5t17 126q15 -1 51.5 -1t52.5 1q-5 -132 -3 -307q-69 4 -214 4h-230q-124 0 -176 -1
q1 16 1 55t-1 55h33q32 0 42 14.5t12 51.5q2 38 2 105l-25 -10l-20 -8l-18 58l63 23q0 127 -2 175q-5 63 -52 63h-32q1 17 1 55t-1 54q125 -2 196 -2q31 0 77.5 0.5t81 1t35.5 0.5z" />
    <glyph glyph-name="lslash" unicode="&#x142;" horiz-adv-x="324" 
d="M257 692q-2 -92 -2 -271l37 16l19 -57l-56 -21q0 -181 2 -215q2 -30 12 -42t35 -12h10q-2 -51 0 -92q-1 0 -27.5 0.5t-63 1t-60.5 0.5h-36t-40.5 -0.5t-36.5 -1t-27.5 -0.5h-11.5q1 13 1 44.5t-1 47.5h11q25 0 34.5 12t11.5 42q1 15 1 140q-16 -6 -22 -9l-19 57l41 15
q0 183 -1 200q-2 28 -11 41t-34 13h-9q2 45 0 89q165 0 243 2z" />
    <glyph glyph-name="Nacute" unicode="&#x143;" horiz-adv-x="829" 
d="M432 740l-8 12q25 37 61 73.5t67 54.5q23 12 42.5 12.5t30.5 -10.5t14 -25t-6.5 -31t-31.5 -30q-71 -42 -169 -56zM336 690q108 -175 262 -399q2 141 -1 221q-4 69 -62 69h-46v109q1 0 29 -1t66.5 -1.5t63.5 -0.5l159 3q-1 -16 -1 -54t1 -55h-33q-58 0 -62 -69
q-2 -43 -2 -221.5t2 -291.5q-92 4 -185 0q-117 188 -293 452q-2 -212 1 -276q3 -66 65 -66h46q-1 -16 -1 -55.5t1 -55.5q-103 2 -162 2l-162 -2q1 16 1 55.5t-1 55.5h32q61 0 66 66q2 40 2 174.5t-2 168.5q-5 63 -64 63h-33q1 17 1 55t-1 54q157 -4 313 0z" />
    <glyph glyph-name="nacute" unicode="&#x144;" horiz-adv-x="637" 
d="M315 524l-8 12q25 37 61 73.5t67 54.5q23 12 42.5 12.5t30.5 -10.5t14 -25t-6.5 -31t-31.5 -30q-71 -42 -169 -56zM568 305q-1 -18 -1 -83.5t1 -77.5q2 -32 11.5 -43t35.5 -11h8q-2 -51 0 -92q-1 0 -27 0.5t-61 1t-58 0.5h-35t-39 -0.5t-35 -1t-26 -0.5h-11v92h9
q20 0 29 12.5t10 41.5q4 73 0 159q-2 42 -13.5 62t-42.5 20q-35 0 -50 -28t-15 -87v-126q0 -31 9 -42.5t30 -11.5h10q-2 -51 0 -92q-1 0 -27 0.5t-61.5 1t-58.5 0.5h-35.5t-39 -0.5t-35 -1t-27 -0.5h-11.5q1 14 1 46t-1 46h10q26 0 35.5 11t11.5 43t2 98t-2 90
q-3 28 -11.5 39.5t-34.5 11.5h-8v90q203 0 243 3v-99q33 110 154 110q156 0 156 -182z" />
    <glyph glyph-name="Ncommaaccent" unicode="&#x145;" horiz-adv-x="829" 
d="M333 -260q107 20 117 104q-14 -23 -48 -23q-23 0 -36.5 15.5t-13.5 43.5q0 29 18 46.5t49 17.5q32 0 49 -21.5t17 -58.5q0 -58 -40.5 -95.5t-105.5 -48.5zM336 690q108 -175 262 -399q2 141 -1 221q-4 69 -62 69h-46v109q1 0 29 -1t66.5 -1.5t63.5 -0.5l159 3
q-1 -16 -1 -54t1 -55h-33q-58 0 -62 -69q-2 -43 -2 -221.5t2 -291.5q-92 4 -185 0q-117 188 -293 452q-2 -212 1 -276q3 -66 65 -66h46q-1 -16 -1 -55.5t1 -55.5q-103 2 -162 2l-162 -2q1 16 1 55.5t-1 55.5h32q61 0 66 66q2 40 2 174.5t-2 168.5q-5 63 -64 63h-33
q1 17 1 55t-1 54q157 -4 313 0z" />
    <glyph glyph-name="ncommaaccent" unicode="&#x146;" horiz-adv-x="637" 
d="M233 -260q107 20 117 104q-14 -23 -48 -23q-23 0 -36.5 15.5t-13.5 43.5q0 29 18 46.5t49 17.5q32 0 49 -21.5t17 -58.5q0 -58 -40.5 -95.5t-105.5 -48.5zM568 305q-1 -18 -1 -83.5t1 -77.5q2 -32 11.5 -43t35.5 -11h8q-2 -51 0 -92q-1 0 -27 0.5t-61 1t-58 0.5h-35
t-39 -0.5t-35 -1t-26 -0.5h-11v92h9q20 0 29 12.5t10 41.5q4 73 0 159q-2 42 -13.5 62t-42.5 20q-35 0 -50 -28t-15 -87v-126q0 -31 9 -42.5t30 -11.5h10q-2 -51 0 -92q-1 0 -27 0.5t-61.5 1t-58.5 0.5h-35.5t-39 -0.5t-35 -1t-27 -0.5h-11.5q1 14 1 46t-1 46h10
q26 0 35.5 11t11.5 43t2 98t-2 90q-3 28 -11.5 39.5t-34.5 11.5h-8v90q203 0 243 3v-99q33 110 154 110q156 0 156 -182z" />
    <glyph glyph-name="Ncaron" unicode="&#x147;" horiz-adv-x="829" 
d="M285 897l9 10q31 -7 72 -26.5t70 -41.5q67 49 138 68l9 -11q-29 -79 -112 -149h-76q-69 56 -110 150zM336 690q108 -175 262 -399q2 141 -1 221q-4 69 -62 69h-46v109q1 0 29 -1t66.5 -1.5t63.5 -0.5l159 3q-1 -16 -1 -54t1 -55h-33q-58 0 -62 -69q-2 -43 -2 -221.5
t2 -291.5q-92 4 -185 0q-117 188 -293 452q-2 -212 1 -276q3 -66 65 -66h46q-1 -16 -1 -55.5t1 -55.5q-103 2 -162 2l-162 -2q1 16 1 55.5t-1 55.5h32q61 0 66 66q2 40 2 174.5t-2 168.5q-5 63 -64 63h-33q1 17 1 55t-1 54q157 -4 313 0z" />
    <glyph glyph-name="ncaron" unicode="&#x148;" horiz-adv-x="637" 
d="M172 681l9 10q31 -7 72 -26.5t70 -41.5q67 49 138 68l9 -11q-29 -79 -112 -149h-76q-69 56 -110 150zM568 305q-1 -18 -1 -83.5t1 -77.5q2 -32 11.5 -43t35.5 -11h8q-2 -51 0 -92q-1 0 -27 0.5t-61 1t-58 0.5h-35t-39 -0.5t-35 -1t-26 -0.5h-11v92h9q20 0 29 12.5
t10 41.5q4 73 0 159q-2 42 -13.5 62t-42.5 20q-35 0 -50 -28t-15 -87v-126q0 -31 9 -42.5t30 -11.5h10q-2 -51 0 -92q-1 0 -27 0.5t-61.5 1t-58.5 0.5h-35.5t-39 -0.5t-35 -1t-27 -0.5h-11.5q1 14 1 46t-1 46h10q26 0 35.5 11t11.5 43t2 98t-2 90q-3 28 -11.5 39.5
t-34.5 11.5h-8v90q203 0 243 3v-99q33 110 154 110q156 0 156 -182z" />
    <glyph glyph-name="napostrophe" unicode="&#x149;" horiz-adv-x="637" 
d="M23 525q107 20 117 104q-14 -23 -48 -23q-23 0 -36.5 15.5t-13.5 43.5q0 29 18 46.5t49 17.5q32 0 49 -21.5t17 -58.5q0 -58 -40.5 -95.5t-105.5 -48.5zM568 305q-1 -18 -1 -83.5t1 -77.5q2 -32 11.5 -43t35.5 -11h8q-2 -51 0 -92q-1 0 -27 0.5t-61 1t-58 0.5h-35
t-39 -0.5t-35 -1t-26 -0.5h-11v92h9q20 0 29 12.5t10 41.5q4 73 0 159q-2 42 -13.5 62t-42.5 20q-35 0 -50 -28t-15 -87v-126q0 -31 9 -42.5t30 -11.5h10q-2 -51 0 -92q-1 0 -27 0.5t-61.5 1t-58.5 0.5h-35.5t-39 -0.5t-35 -1t-27 -0.5h-11.5q1 14 1 46t-1 46h10
q26 0 35.5 11t11.5 43t2 98t-2 90q-3 28 -11.5 39.5t-34.5 11.5h-8v90q203 0 243 3v-99q33 110 154 110q156 0 156 -182z" />
    <glyph glyph-name="Eng" unicode="&#x14a;" horiz-adv-x="829" 
d="M336 690q108 -175 262 -399q2 141 -1 221q-4 69 -62 69h-46v109q1 0 29 -1t66.5 -1.5t63.5 -0.5l159 3q-1 -16 -1 -54t1 -55h-33q-58 0 -62 -69q-3 -57 0 -513q1 -100 -55 -149.5t-161 -49.5q-71 0 -112 27.5t-41 75.5q0 35 20 55.5t55 20.5q31 0 49 -17.5t18 -47.5
q0 -28 -21 -48t-62 -14q22 -14 57 -14q116 0 117 125v37q-36 0 -49 -1q-117 188 -293 452q-2 -212 1 -276q3 -66 65 -66h46q-1 -16 -1 -55.5t1 -55.5q-103 2 -162 2l-162 -2q1 16 1 55.5t-1 55.5h32q61 0 66 66q2 40 2 174.5t-2 168.5q-5 63 -64 63h-33q1 17 1 55t-1 54
q157 -4 313 0z" />
    <glyph glyph-name="eng" unicode="&#x14b;" horiz-adv-x="592" 
d="M568 305v-286q0 -108 -53.5 -163.5t-155.5 -55.5q-71 0 -112.5 26.5t-41.5 71.5q0 34 18.5 53.5t52.5 19.5q29 0 46 -16.5t17 -44.5t-19.5 -46.5t-58.5 -12.5q18 -13 45 -13q72 0 73 96q1 34 1 187t-1 182q-1 42 -13 62t-43 20q-65 0 -65 -104v-137q0 -31 9 -42.5
t30 -11.5h10q-2 -51 0 -92q-1 0 -27 0.5t-61.5 1t-58.5 0.5h-35.5t-39 -0.5t-35 -1t-27 -0.5h-11.5q1 14 1 46t-1 46h10q26 0 35.5 11t11.5 43t2 98t-2 90q-3 28 -11.5 39.5t-34.5 11.5h-8v90q203 0 243 3v-99q33 110 154 110q156 0 156 -182z" />
    <glyph glyph-name="Omacron" unicode="&#x14c;" horiz-adv-x="789" 
d="M261 756q2 45 0 92q46 -2 142 -2t142 2q-2 -46 0 -92q-46 2 -142 2t-142 -2zM395 95q69 0 95 55.5t26 194.5q0 142 -25.5 196t-95.5 54q-68 0 -95 -56.5t-27 -194.5q0 -142 25 -195.5t97 -53.5zM395 -17q-181 0 -271.5 86t-90.5 275q0 182 96 272.5t266 90.5
q183 0 272 -87t89 -275q0 -185 -98.5 -273.5t-262.5 -88.5z" />
    <glyph glyph-name="omacron" unicode="&#x14d;" horiz-adv-x="548" 
d="M136 541q2 45 0 92q46 -1 142 -1t142 1q-2 -46 0 -92q-46 1 -142 1t-142 -1zM25 231q0 128 65.5 192t183.5 64q249 0 249 -257q0 -248 -249 -248t-249 249zM215 230q0 -91 14 -119.5t45 -28.5t45 29t14 119q0 94 -14 127t-46 33q-31 0 -44.5 -32.5t-13.5 -127.5z" />
    <glyph glyph-name="Obreve" unicode="&#x14e;" horiz-adv-x="789" 
d="M395 95q69 0 95 55.5t26 194.5q0 142 -25.5 196t-95.5 54q-68 0 -95 -56.5t-27 -194.5q0 -142 25 -195.5t97 -53.5zM395 -17q-181 0 -271.5 86t-90.5 275q0 182 96 272.5t266 90.5q183 0 272 -87t89 -275q0 -185 -98.5 -273.5t-262.5 -88.5zM411 742q-75 0 -110.5 41
t-26.5 104l28 2q6 -55 109 -55t109 55l28 -2q9 -63 -26.5 -104t-110.5 -41z" />
    <glyph glyph-name="obreve" unicode="&#x14f;" horiz-adv-x="548" 
d="M25 231q0 128 65.5 192t183.5 64q249 0 249 -257q0 -248 -249 -248t-249 249zM215 230q0 -91 14 -119.5t45 -28.5t45 29t14 119q0 94 -14 127t-46 33q-31 0 -44.5 -32.5t-13.5 -127.5zM274 531q-75 0 -110.5 41t-26.5 104l28 2q5 -55 109 -55t109 55l28 -2
q9 -63 -26.5 -104t-110.5 -41z" />
    <glyph glyph-name="Ohungarumlaut" unicode="&#x150;" horiz-adv-x="789" 
d="M315 743l-10 9q34 98 86 147q17 16 35 21t30.5 -1t19.5 -17.5t2.5 -29t-20.5 -34.5q-55 -58 -143 -95zM479 743l-10 9q34 98 86 147q17 16 35 21t30.5 -1t19.5 -17.5t2.5 -29t-20.5 -34.5q-55 -58 -143 -95zM395 95q69 0 95 55.5t26 194.5q0 142 -25.5 196t-95.5 54
q-68 0 -95 -56.5t-27 -194.5q0 -142 25 -195.5t97 -53.5zM395 -17q-181 0 -271.5 86t-90.5 275q0 182 96 272.5t266 90.5q183 0 272 -87t89 -275q0 -185 -98.5 -273.5t-262.5 -88.5z" />
    <glyph glyph-name="ohungarumlaut" unicode="&#x151;" horiz-adv-x="548" 
d="M178 527l-10 9q34 98 86 147q17 16 35 21t30.5 -1t19.5 -17.5t2.5 -29t-20.5 -34.5q-55 -58 -143 -95zM342 527l-10 9q34 98 86 147q17 16 35 21t30.5 -1t19.5 -17.5t2.5 -29t-20.5 -34.5q-55 -58 -143 -95zM25 231q0 128 65.5 192t183.5 64q249 0 249 -257
q0 -248 -249 -248t-249 249zM215 230q0 -91 14 -119.5t45 -28.5t45 29t14 119q0 94 -14 127t-46 33q-31 0 -44.5 -32.5t-13.5 -127.5z" />
    <glyph glyph-name="OE" unicode="&#x152;" horiz-adv-x="1122" 
d="M710 380h23q46 0 62.5 19.5t16.5 67.5v31h85q-7 -101 -7 -152q0 -82 7 -153q-43 1 -83 0v28q-1 51 -18 71.5t-64 20.5h-22q0 -117 2 -141q2 -36 17 -49.5t46 -13.5h84q68 0 95.5 33.5t27.5 124.5v9q59 -2 118 0q-10 -106 -10 -280q-47 4 -214 4q-229 1 -339 1
q-64 -21 -152 -21q-179 0 -265.5 86t-86.5 278q0 184 96 275t266 91q90 0 156 -21h81h110h114q193 0 240 6q-8 -117 -6 -263q-57 2 -111 0v8q0 85 -29.5 112.5t-90.5 27.5h-85q-31 0 -46 -14.5t-16 -45.5q-2 -58 -2 -140zM395 95q79 0 97 52q9 27 8.5 197.5t-8.5 199.5
q-14 50 -97 50q-68 0 -95 -55t-27 -195q0 -144 25 -196.5t97 -52.5z" />
    <glyph glyph-name="oe" unicode="&#x153;" horiz-adv-x="825" 
d="M801 166q-3 -86 -58.5 -135t-165.5 -49q-91 0 -150 35q-62 -35 -153 -35q-249 0 -249 250q0 127 65 191t184 64q95 0 157 -42q61 42 149 42q123 0 177.5 -76t46.5 -203h-282q2 -67 17.5 -94.5t51.5 -27.5q34 0 49.5 20t19.5 64q100 -7 141 -4zM215 231q0 -91 14 -120
t45 -29t45 29.5t14 119.5q0 94 -14 126.5t-46 32.5q-31 0 -44.5 -32.5t-13.5 -126.5zM573 389q-26 0 -38 -28t-13 -109h74q14 0 18.5 6t4.5 23q0 59 -11.5 83.5t-34.5 24.5z" />
    <glyph glyph-name="Racute" unicode="&#x154;" horiz-adv-x="808" 
d="M353 740l-8 12q25 37 61 73.5t67 54.5q23 12 42.5 12.5t30.5 -10.5t14 -25t-6.5 -31t-31.5 -30q-71 -42 -169 -56zM670 181q9 -56 18.5 -75t28.5 -19q20 0 25 29.5t-7 83.5q16 -1 51 3q24 -98 -13 -162.5t-147 -64.5q-99 0 -136.5 44t-43.5 140q-5 81 -31.5 108.5
t-84.5 27.5h-12q0 -101 3 -128q4 -60 57 -60h28v-110q-141 2 -191 2l-193 -2q1 16 1 55.5t-1 55.5h31q27 0 40 13.5t15 45.5q2 34 2 178.5t-2 178.5q-2 30 -13 43t-38 13h-35q2 56 0 109q4 0 91.5 -1t116.5 -1q18 0 97.5 0.5t126.5 0.5q122 0 187.5 -48t65.5 -139
q0 -72 -46.5 -118.5t-130.5 -54.5q66 -10 98 -47.5t42 -100.5zM321 544q-1 -12 -3 -170h46q60 0 84 24t24 82q0 54 -19.5 79t-68.5 25h-24q-37 0 -39 -40z" />
    <glyph glyph-name="racute" unicode="&#x155;" horiz-adv-x="479" 
d="M205 524l-8 12q25 37 61 73.5t67 54.5q23 12 42.5 12.5t30.5 -10.5t14 -25t-6.5 -31t-31.5 -30q-71 -42 -169 -56zM351 428q-92 0 -92 -131v-161q0 -27 10 -36.5t41 -9.5h16q-2 -45 0 -92q-1 0 -28.5 0.5t-65 1t-62.5 0.5t-63 -0.5t-66 -1.5h-28q2 42 0 92h11q26 0 36 10
t10 36q1 29 1 106.5t-1 93.5q-2 26 -11.5 36.5t-33.5 10.5h-9q2 45 0 90q33 -1 106.5 0t102.5 2l-6 -114q11 59 46 92.5t91 33.5q55 0 84.5 -29.5t29.5 -82.5q0 -46 -22.5 -71t-64.5 -25q-37 0 -58 18t-21 50q0 36 25 55.5t60 17.5q-18 8 -38 8z" />
    <glyph glyph-name="Rcommaaccent" unicode="&#x156;" horiz-adv-x="808" 
d="M325 -260q107 20 117 104q-14 -23 -48 -23q-23 0 -36.5 15.5t-13.5 43.5q0 29 18 46.5t49 17.5q32 0 49 -21.5t17 -58.5q0 -58 -40.5 -95.5t-105.5 -48.5zM670 181q9 -56 18.5 -75t28.5 -19q20 0 25 29.5t-7 83.5q16 -1 51 3q24 -98 -13 -162.5t-147 -64.5
q-99 0 -136.5 44t-43.5 140q-5 81 -31.5 108.5t-84.5 27.5h-12q0 -101 3 -128q4 -60 57 -60h28v-110q-141 2 -191 2l-193 -2q1 16 1 55.5t-1 55.5h31q27 0 40 13.5t15 45.5q2 34 2 178.5t-2 178.5q-2 30 -13 43t-38 13h-35q2 56 0 109q4 0 91.5 -1t116.5 -1q18 0 97.5 0.5
t126.5 0.5q122 0 187.5 -48t65.5 -139q0 -72 -46.5 -118.5t-130.5 -54.5q66 -10 98 -47.5t42 -100.5zM321 544q-1 -12 -3 -170h46q60 0 84 24t24 82q0 54 -19.5 79t-68.5 25h-24q-37 0 -39 -40z" />
    <glyph glyph-name="rcommaaccent" unicode="&#x157;" horiz-adv-x="479" 
d="M78 -260q107 20 117 104q-14 -23 -48 -23q-23 0 -36.5 15.5t-13.5 43.5q0 29 18 46.5t49 17.5q32 0 49 -21.5t17 -58.5q0 -58 -40.5 -95.5t-105.5 -48.5zM351 428q-92 0 -92 -131v-161q0 -27 10 -36.5t41 -9.5h16q-2 -45 0 -92q-1 0 -28.5 0.5t-65 1t-62.5 0.5t-63 -0.5
t-66 -1.5h-28q2 42 0 92h11q26 0 36 10t10 36q1 29 1 106.5t-1 93.5q-2 26 -11.5 36.5t-33.5 10.5h-9q2 45 0 90q33 -1 106.5 0t102.5 2l-6 -114q11 59 46 92.5t91 33.5q55 0 84.5 -29.5t29.5 -82.5q0 -46 -22.5 -71t-64.5 -25q-37 0 -58 18t-21 50q0 36 25 55.5t60 17.5
q-18 8 -38 8z" />
    <glyph glyph-name="Rcaron" unicode="&#x158;" horiz-adv-x="808" 
d="M223 897l9 10q31 -7 72 -26.5t70 -41.5q67 49 138 68l9 -11q-29 -79 -112 -149h-76q-69 56 -110 150zM670 181q9 -56 18.5 -75t28.5 -19q20 0 25 29.5t-7 83.5q16 -1 51 3q24 -98 -13 -162.5t-147 -64.5q-99 0 -136.5 44t-43.5 140q-5 81 -31.5 108.5t-84.5 27.5h-12
q0 -101 3 -128q4 -60 57 -60h28v-110q-141 2 -191 2l-193 -2q1 16 1 55.5t-1 55.5h31q27 0 40 13.5t15 45.5q2 34 2 178.5t-2 178.5q-2 30 -13 43t-38 13h-35q2 56 0 109q4 0 91.5 -1t116.5 -1q18 0 97.5 0.5t126.5 0.5q122 0 187.5 -48t65.5 -139q0 -72 -46.5 -118.5
t-130.5 -54.5q66 -10 98 -47.5t42 -100.5zM321 544q-1 -12 -3 -170h46q60 0 84 24t24 82q0 54 -19.5 79t-68.5 25h-24q-37 0 -39 -40z" />
    <glyph glyph-name="rcaron" unicode="&#x159;" horiz-adv-x="479" 
d="M90 681l9 10q31 -7 72 -26.5t70 -41.5q67 49 138 68l9 -11q-29 -79 -112 -149h-76q-69 56 -110 150zM351 428q-92 0 -92 -131v-161q0 -27 10 -36.5t41 -9.5h16q-2 -45 0 -92q-1 0 -28.5 0.5t-65 1t-62.5 0.5t-63 -0.5t-66 -1.5h-28q2 42 0 92h11q26 0 36 10t10 36
q1 29 1 106.5t-1 93.5q-2 26 -11.5 36.5t-33.5 10.5h-9q2 45 0 90q33 -1 106.5 0t102.5 2l-6 -114q11 59 46 92.5t91 33.5q55 0 84.5 -29.5t29.5 -82.5q0 -46 -22.5 -71t-64.5 -25q-37 0 -58 18t-21 50q0 36 25 55.5t60 17.5q-18 8 -38 8z" />
    <glyph glyph-name="Sacute" unicode="&#x15a;" horiz-adv-x="694" 
d="M335 740l-8 12q25 37 61 73.5t67 54.5q23 12 42.5 12.5t30.5 -10.5t14 -25t-6.5 -31t-31.5 -30q-71 -42 -169 -56zM352 601q-69 0 -100.5 -18.5t-31.5 -47.5q0 -33 32 -46t124 -20q68 -5 120 -19t93.5 -40.5t63.5 -71.5t22 -107q0 -121 -75.5 -184.5t-219.5 -63.5
q-107 0 -199 47q-49 27 -59 -36q-10 2 -44 2t-44 -2q14 138 8 233q11 -1 42 -1t42 1q50 -140 251 -140q134 0 134 71q0 34 -39 49.5t-139 23.5q-282 19 -282 230q0 109 71 177.5t203 68.5q100 0 178 -40q21 -14 33 -10.5t15.5 10t7.5 26.5q10 -1 41 -1t41 1q-13 -89 -7 -209
q-50 3 -84 1q-43 116 -198 116z" />
    <glyph glyph-name="sacute" unicode="&#x15b;" horiz-adv-x="501" 
d="M211 524l-8 12q25 37 61 73.5t67 54.5q23 12 42.5 12.5t30.5 -10.5t14 -25t-6.5 -31t-31.5 -30q-71 -42 -169 -56zM251 408q-76 0 -76 -38q0 -20 23.5 -29.5t99.5 -16.5q185 -16 185 -172q0 -79 -50.5 -124.5t-152.5 -45.5q-79 0 -144 39q-29 14 -39.5 7.5t-14.5 -30.5
q-33 4 -63 0q13 87 10 156q31 -4 63 0q24 -44 66.5 -70.5t98.5 -26.5q75 0 75 41q0 18 -20.5 27.5t-83.5 14.5q-104 8 -152.5 54t-48.5 121q0 76 57.5 124.5t154.5 47.5q61 -1 109 -30q29 -13 36 -8t13 28q29 -2 60 0q-8 -64 -10 -141q-33 2 -65 0q-39 72 -131 72z" />
    <glyph glyph-name="Scircumflex" unicode="&#x15c;" horiz-adv-x="694" 
d="M484 743l-9 -11q-74 17 -142 69q-67 -51 -138 -68l-9 11q29 78 112 148h76q67 -53 110 -149zM352 601q-69 0 -100.5 -18.5t-31.5 -47.5q0 -33 32 -46t124 -20q68 -5 120 -19t93.5 -40.5t63.5 -71.5t22 -107q0 -121 -75.5 -184.5t-219.5 -63.5q-107 0 -199 47
q-49 27 -59 -36q-10 2 -44 2t-44 -2q14 138 8 233q11 -1 42 -1t42 1q50 -140 251 -140q134 0 134 71q0 34 -39 49.5t-139 23.5q-282 19 -282 230q0 109 71 177.5t203 68.5q100 0 178 -40q21 -14 33 -10.5t15.5 10t7.5 26.5q10 -1 41 -1t41 1q-13 -89 -7 -209q-50 3 -84 1
q-43 116 -198 116z" />
    <glyph glyph-name="scircumflex" unicode="&#x15d;" horiz-adv-x="501" 
d="M401 530l-9 -11q-74 17 -142 69q-67 -51 -138 -68l-9 11q29 78 112 148h76q67 -53 110 -149zM251 408q-76 0 -76 -38q0 -20 23.5 -29.5t99.5 -16.5q185 -16 185 -172q0 -79 -50.5 -124.5t-152.5 -45.5q-79 0 -144 39q-29 14 -39.5 7.5t-14.5 -30.5q-33 4 -63 0
q13 87 10 156q31 -4 63 0q24 -44 66.5 -70.5t98.5 -26.5q75 0 75 41q0 18 -20.5 27.5t-83.5 14.5q-104 8 -152.5 54t-48.5 121q0 76 57.5 124.5t154.5 47.5q61 -1 109 -30q29 -13 36 -8t13 28q29 -2 60 0q-8 -64 -10 -141q-33 2 -65 0q-39 72 -131 72z" />
    <glyph glyph-name="Scedilla" unicode="&#x15e;" horiz-adv-x="694" 
d="M301 -108l-12 25q54 22 66 67q-93 4 -174 46q-49 27 -59 -36q-10 2 -44 2t-44 -2q14 138 8 233q11 -1 42 -1t42 1q50 -140 251 -140q134 0 134 71q0 34 -39 49.5t-139 23.5q-282 19 -282 230q0 109 71 177.5t203 68.5q100 0 178 -40q21 -14 33 -10.5t15.5 10t7.5 26.5
q10 -1 41 -1t41 1q-13 -89 -7 -209q-50 3 -84 1q-43 116 -198 116q-69 0 -100.5 -18.5t-31.5 -47.5q0 -33 32 -46t124 -20q68 -5 120 -19t93.5 -40.5t63.5 -71.5t22 -107q0 -118 -72.5 -181.5t-209.5 -66.5q-3 -27 -25 -49q50 3 79.5 -19t29.5 -61q0 -43 -32 -68.5
t-89 -25.5q-80 0 -117 58l24 22q28 -33 65 -33q53 0 53 49q0 27 -22.5 38t-57.5 -2z" />
    <glyph glyph-name="scedilla" unicode="&#x15f;" horiz-adv-x="501" 
d="M189 -108l-12 25q53 22 66 68q-59 6 -107 36q-29 14 -39.5 7.5t-14.5 -30.5q-33 4 -63 0q13 87 10 156q31 -4 63 0q24 -44 66.5 -70.5t98.5 -26.5q75 0 75 41q0 18 -20.5 27.5t-83.5 14.5q-104 8 -152.5 54t-48.5 121q0 76 57.5 124.5t154.5 47.5q61 -1 109 -30
q29 -13 36 -8t13 28q29 -2 60 0q-8 -64 -10 -141q-33 2 -65 0q-39 72 -131 72q-76 0 -76 -38q0 -20 23.5 -29.5t99.5 -16.5q185 -16 185 -172q0 -79 -50.5 -124.5t-152.5 -45.5q-3 -27 -24 -48q50 3 79.5 -19t29.5 -61q0 -43 -32 -68.5t-89 -25.5q-80 0 -117 58l24 22
q28 -33 65 -33q53 0 53 49q0 27 -22.5 38t-57.5 -2z" />
    <glyph glyph-name="Scaron" unicode="&#x160;" horiz-adv-x="694" 
d="M196 897l9 10q31 -7 72 -26.5t70 -41.5q67 49 138 68l9 -11q-29 -79 -112 -149h-76q-69 56 -110 150zM352 601q-69 0 -100.5 -18.5t-31.5 -47.5q0 -33 32 -46t124 -20q68 -5 120 -19t93.5 -40.5t63.5 -71.5t22 -107q0 -121 -75.5 -184.5t-219.5 -63.5q-107 0 -199 47
q-49 27 -59 -36q-10 2 -44 2t-44 -2q14 138 8 233q11 -1 42 -1t42 1q50 -140 251 -140q134 0 134 71q0 34 -39 49.5t-139 23.5q-282 19 -282 230q0 109 71 177.5t203 68.5q100 0 178 -40q21 -14 33 -10.5t15.5 10t7.5 26.5q10 -1 41 -1t41 1q-13 -89 -7 -209q-50 3 -84 1
q-43 116 -198 116z" />
    <glyph glyph-name="scaron" unicode="&#x161;" horiz-adv-x="501" 
d="M106 681l9 10q31 -7 72 -26.5t70 -41.5q67 49 138 68l9 -11q-29 -79 -112 -149h-76q-69 56 -110 150zM251 408q-76 0 -76 -38q0 -20 23.5 -29.5t99.5 -16.5q185 -16 185 -172q0 -79 -50.5 -124.5t-152.5 -45.5q-79 0 -144 39q-29 14 -39.5 7.5t-14.5 -30.5q-33 4 -63 0
q13 87 10 156q31 -4 63 0q24 -44 66.5 -70.5t98.5 -26.5q75 0 75 41q0 18 -20.5 27.5t-83.5 14.5q-104 8 -152.5 54t-48.5 121q0 76 57.5 124.5t154.5 47.5q61 -1 109 -30q29 -13 36 -8t13 28q29 -2 60 0q-8 -64 -10 -141q-33 2 -65 0q-39 72 -131 72z" />
    <glyph glyph-name="Tcommaaccent" unicode="&#x162;" horiz-adv-x="741" 
d="M305 -107l-12 25q61 25 69 82l-195 -2q1 16 1 55t-1 56h32q62 0 67 66q2 32 2 173.5t-1 226.5h-41q-41 0 -59.5 -23.5t-20.5 -69.5l-4 -83q-17 1 -57.5 1t-57.5 -1q6 139 -5 294q59 -4 196 -4h305q148 0 195 4q-11 -155 -5 -294q-17 1 -57 1t-57 -1l-4 83
q-2 46 -20.5 69.5t-59.5 23.5h-40q-2 -83 -1.5 -227t2.5 -173q3 -66 64 -66h33v-111q-102 2 -176 2q2 -38 -25 -65q50 3 79.5 -19t29.5 -61q0 -43 -32 -68.5t-89 -25.5q-80 0 -117 58l24 22q28 -33 65 -33q53 0 53 49q0 27 -22.5 38t-57.5 -2z" />
    <glyph glyph-name="tcommaaccent" unicode="&#x163;" horiz-adv-x="364" 
d="M129 -108l-12 25q54 21 66 68q-133 9 -133 156q0 33 2 121t2 123h-43q1 11 1 37t-1 37q71 1 114 51t57 132q11 -1 38 -1t38 1q-7 -55 -9 -171l99 4q-1 -14 -1 -46.5t1 -45.5l-99 1v-203q0 -57 6.5 -76.5t20.5 -19.5q20 -1 26.5 28.5t0.5 79.5h48q10 -100 -19 -151.5
t-111 -56.5q-3 -31 -25 -51q50 3 79.5 -19t29.5 -61q0 -43 -32 -68.5t-89 -25.5q-80 0 -117 58l24 22q28 -33 65 -33q53 0 53 49q0 27 -22.5 38t-57.5 -2z" />
    <glyph glyph-name="Tcaron" unicode="&#x164;" horiz-adv-x="741" 
d="M221 897l9 10q31 -7 72 -26.5t70 -41.5q67 49 138 68l9 -11q-29 -79 -112 -149h-76q-69 56 -110 150zM515 575h-40q-2 -83 -1.5 -227t2.5 -173q3 -66 64 -66h33v-111q-129 2 -203 2l-203 -2q1 16 1 55t-1 56h32q62 0 67 66q2 32 2 173.5t-1 226.5h-41q-41 0 -59.5 -23.5
t-20.5 -69.5l-4 -83q-17 1 -57.5 1t-57.5 -1q6 139 -5 294q59 -4 196 -4h305q148 0 195 4q-11 -155 -5 -294q-17 1 -57 1t-57 -1l-4 83q-2 46 -20.5 69.5t-59.5 23.5z" />
    <glyph glyph-name="tcaron" unicode="&#x165;" horiz-adv-x="488" 
d="M308 520q107 20 117 104q-14 -23 -48 -23q-23 0 -36.5 15.5t-13.5 43.5q0 29 18 46.5t49 17.5q32 0 49 -21.5t17 -58.5q0 -58 -40.5 -95.5t-105.5 -48.5zM303 193h48q10 -105 -22.5 -157t-127.5 -52q-151 0 -151 157q0 33 2 121t2 123h-43q1 11 1 37t-1 37q71 1 114 51
t57 132q11 -1 38 -1t38 1q-7 -55 -9 -171l99 4q-1 -14 -1 -46.5t1 -45.5l-99 1v-203q0 -57 6.5 -76.5t20.5 -19.5q20 -1 26.5 28.5t0.5 79.5z" />
    <glyph glyph-name="Tbar" unicode="&#x166;" horiz-adv-x="741" 
d="M515 575h-40q-2 -126 -2 -256q21 1 106 5v-62q-11 0 -105 4q0 -67 2 -91q3 -66 64 -66h33v-111q-129 2 -203 2l-203 -2q1 16 1 55t-1 56h32q62 0 67 66q0 3 0.5 34.5t0.5 56.5q-96 -4 -106 -4v62q9 0 107 -4q0 192 -1 255h-41q-41 0 -59.5 -23.5t-20.5 -69.5l-4 -83
q-17 1 -57.5 1t-57.5 -1q6 139 -5 294q59 -4 196 -4h305q148 0 195 4q-11 -155 -5 -294q-17 1 -57 1t-57 -1l-4 83q-2 46 -20.5 69.5t-59.5 23.5z" />
    <glyph glyph-name="tbar" unicode="&#x167;" horiz-adv-x="364" 
d="M303 193h48q10 -105 -22.5 -157t-127.5 -52q-151 0 -151 157q0 37 2 131q-26 -2 -40 -2v62q7 0 41 -2q1 19 1 55h-43q1 11 1 37t-1 37q71 1 114 51t57 132q11 -1 38 -1t38 1q-7 -55 -9 -171l99 4q-1 -14 -1 -46.5t1 -45.5l-99 1v-57l92 5v-62l-92 6v-95q0 -57 6.5 -76.5
t20.5 -19.5q20 -1 26.5 28.5t0.5 79.5z" />
    <glyph glyph-name="Utilde" unicode="&#x168;" horiz-adv-x="815" 
d="M99 260q0 16 1 72.5t1 94.5t-1 90q-1 34 -14.5 49t-41.5 15h-22q1 17 1 55t-1 54q126 -2 196 -2q42 0 121 1t80 1v-109h-34q-60 0 -61 -64q-4 -143 0 -249q2 -88 31.5 -125t93.5 -37t94 37t32 125q4 149 0 249q-3 64 -58 64h-33q1 16 1 54.5t-1 54.5q95 -2 152 -2
q34 0 94 1t63 1v-109h-23q-53 0 -56 -64q-1 -40 -1 -83t0.5 -93.5t0.5 -76.5q0 -150 -76 -219t-221 -69q-166 0 -242 68t-76 216zM546 870l29 9q25 -66 -6 -105t-88 -39q-66 0 -105 61q-12 19 -20.5 26t-21.5 7q-19 0 -26.5 -16.5t3.5 -57.5l-29 -9q-25 68 6 106.5t88 38.5
q63 0 104 -62q21 -33 43 -33q19 0 26.5 17t-3.5 57z" />
    <glyph glyph-name="utilde" unicode="&#x169;" horiz-adv-x="615" 
d="M560 476q0 -6 -4 -161q0 -150 1 -166q2 -33 10.5 -46t26.5 -13h10q-2 -45 0 -90q-197 0 -236 -2v97q-32 -113 -151 -113q-159 0 -159 183v151q0 35 -8 51t-30 16h-10q1 13 1 46t-1 46q86 -2 118 -2q101 0 122 3q-4 -76 -4 -165q0 -100 1 -126q3 -100 55 -100
q39 0 52.5 40t13.5 134v68q0 31 -12 43.5t-47 12.5h-7q1 13 1 45.5t-1 46.5q97 -2 132 -2q105 0 126 3zM422 654l29 9q25 -66 -6 -105t-88 -39q-66 0 -105 61q-12 19 -20.5 26t-21.5 7q-19 0 -26.5 -16.5t3.5 -57.5l-29 -9q-25 68 6 106.5t88 38.5q63 0 104 -62
q21 -33 43 -33q19 0 26.5 17t-3.5 57z" />
    <glyph glyph-name="Umacron" unicode="&#x16a;" horiz-adv-x="815" 
d="M99 260q0 16 1 72.5t1 94.5t-1 90q-1 34 -14.5 49t-41.5 15h-22q1 17 1 55t-1 54q126 -2 196 -2q42 0 121 1t80 1v-109h-34q-60 0 -61 -64q-4 -143 0 -249q2 -88 31.5 -125t93.5 -37t94 37t32 125q4 149 0 249q-3 64 -58 64h-33q1 16 1 54.5t-1 54.5q95 -2 152 -2
q34 0 94 1t63 1v-109h-23q-53 0 -56 -64q-1 -40 -1 -83t0.5 -93.5t0.5 -76.5q0 -150 -76 -219t-221 -69q-166 0 -242 68t-76 216zM315 756q2 45 0 92q46 -2 142 -2t142 2q-2 -46 0 -92q-46 2 -142 2t-142 -2z" />
    <glyph glyph-name="umacron" unicode="&#x16b;" horiz-adv-x="615" 
d="M560 476q0 -6 -4 -161q0 -150 1 -166q2 -33 10.5 -46t26.5 -13h10q-2 -45 0 -90q-197 0 -236 -2v97q-32 -113 -151 -113q-159 0 -159 183v151q0 35 -8 51t-30 16h-10q1 13 1 46t-1 46q86 -2 118 -2q101 0 122 3q-4 -76 -4 -165q0 -100 1 -126q3 -100 55 -100
q39 0 52.5 40t13.5 134v68q0 31 -12 43.5t-47 12.5h-7q1 13 1 45.5t-1 46.5q97 -2 132 -2q105 0 126 3zM160 541q2 45 0 92q46 -1 142 -1t142 1q-2 -46 0 -92q-46 1 -142 1t-142 -1z" />
    <glyph glyph-name="Ubreve" unicode="&#x16c;" horiz-adv-x="815" 
d="M99 260q0 16 1 72.5t1 94.5t-1 90q-1 34 -14.5 49t-41.5 15h-22q1 17 1 55t-1 54q126 -2 196 -2q42 0 121 1t80 1v-109h-34q-60 0 -61 -64q-4 -143 0 -249q2 -88 31.5 -125t93.5 -37t94 37t32 125q4 149 0 249q-3 64 -58 64h-33q1 16 1 54.5t-1 54.5q95 -2 152 -2
q34 0 94 1t63 1v-109h-23q-53 0 -56 -64q-1 -40 -1 -83t0.5 -93.5t0.5 -76.5q0 -150 -76 -219t-221 -69q-166 0 -242 68t-76 216zM453 742q-75 0 -110.5 41t-26.5 104l28 2q6 -55 109 -55t109 55l28 -2q9 -63 -26.5 -104t-110.5 -41z" />
    <glyph glyph-name="ubreve" unicode="&#x16d;" horiz-adv-x="615" 
d="M560 476q0 -6 -4 -161q0 -150 1 -166q2 -33 10.5 -46t26.5 -13h10q-2 -45 0 -90q-197 0 -236 -2v97q-32 -113 -151 -113q-159 0 -159 183v151q0 35 -8 51t-30 16h-10q1 13 1 46t-1 46q86 -2 118 -2q101 0 122 3q-4 -76 -4 -165q0 -100 1 -126q3 -100 55 -100
q39 0 52.5 40t13.5 134v68q0 31 -12 43.5t-47 12.5h-7q1 13 1 45.5t-1 46.5q97 -2 132 -2q105 0 126 3zM297 531q-75 0 -110.5 41t-26.5 104l28 2q6 -55 109 -55t109 55l28 -2q9 -63 -26.5 -104t-110.5 -41z" />
    <glyph glyph-name="Uring" unicode="&#x16e;" horiz-adv-x="815" 
d="M498 837q0 47 -46 47t-46 -47q0 -50 46 -50t46 50zM544 837q0 -44 -24.5 -68.5t-67.5 -24.5q-44 0 -68.5 25t-24.5 68t24 67t67 24q44 0 69 -24t25 -67zM99 260q0 16 1 72.5t1 94.5t-1 90q-1 34 -14.5 49t-41.5 15h-22q1 17 1 55t-1 54q126 -2 196 -2q42 0 121 1t80 1
v-109h-34q-60 0 -61 -64q-4 -143 0 -249q2 -88 31.5 -125t93.5 -37t94 37t32 125q4 149 0 249q-3 64 -58 64h-33q1 16 1 54.5t-1 54.5q95 -2 152 -2q34 0 94 1t63 1v-109h-23q-53 0 -56 -64q-1 -40 -1 -83t0.5 -93.5t0.5 -76.5q0 -150 -76 -219t-221 -69q-166 0 -242 68
t-76 216z" />
    <glyph glyph-name="uring" unicode="&#x16f;" horiz-adv-x="615" 
d="M320 623q0 47 -46 47t-46 -47q0 -50 46 -50t46 50zM366 623q0 -44 -24.5 -68.5t-67.5 -24.5q-44 0 -68.5 25t-24.5 68t24 67t67 24q44 0 69 -24t25 -67zM560 476q0 -6 -4 -161q0 -150 1 -166q2 -33 10.5 -46t26.5 -13h10q-2 -45 0 -90q-197 0 -236 -2v97
q-32 -113 -151 -113q-159 0 -159 183v151q0 35 -8 51t-30 16h-10q1 13 1 46t-1 46q86 -2 118 -2q101 0 122 3q-4 -76 -4 -165q0 -100 1 -126q3 -100 55 -100q39 0 52.5 40t13.5 134v68q0 31 -12 43.5t-47 12.5h-7q1 13 1 45.5t-1 46.5q97 -2 132 -2q105 0 126 3z" />
    <glyph glyph-name="Uhungarumlaut" unicode="&#x170;" horiz-adv-x="815" 
d="M99 260q0 16 1 72.5t1 94.5t-1 90q-1 34 -14.5 49t-41.5 15h-22q1 17 1 55t-1 54q126 -2 196 -2q42 0 121 1t80 1v-109h-34q-60 0 -61 -64q-4 -143 0 -249q2 -88 31.5 -125t93.5 -37t94 37t32 125q4 149 0 249q-3 64 -58 64h-33q1 16 1 54.5t-1 54.5q95 -2 152 -2
q34 0 94 1t63 1v-109h-23q-53 0 -56 -64q-1 -40 -1 -83t0.5 -93.5t0.5 -76.5q0 -150 -76 -219t-221 -69q-166 0 -242 68t-76 216zM362 743l-10 9q34 98 86 147q17 16 35 21t30.5 -1t19.5 -17.5t2.5 -29t-20.5 -34.5q-55 -58 -143 -95zM526 743l-10 9q34 98 86 147
q17 16 35 21t30.5 -1t19.5 -17.5t2.5 -29t-20.5 -34.5q-55 -58 -143 -95z" />
    <glyph glyph-name="uhungarumlaut" unicode="&#x171;" horiz-adv-x="615" 
d="M560 476q0 -6 -4 -161q0 -150 1 -166q2 -33 10.5 -46t26.5 -13h10q-2 -45 0 -90q-197 0 -236 -2v97q-32 -113 -151 -113q-159 0 -159 183v151q0 35 -8 51t-30 16h-10q1 13 1 46t-1 46q86 -2 118 -2q101 0 122 3q-4 -76 -4 -165q0 -100 1 -126q3 -100 55 -100
q39 0 52.5 40t13.5 134v68q0 31 -12 43.5t-47 12.5h-7q1 13 1 45.5t-1 46.5q97 -2 132 -2q105 0 126 3zM194 527l-10 9q34 98 86 147q17 16 35 21t30.5 -1t19.5 -17.5t2.5 -29t-20.5 -34.5q-55 -58 -143 -95zM358 527l-10 9q34 98 86 147q17 16 35 21t30.5 -1t19.5 -17.5
t2.5 -29t-20.5 -34.5q-55 -58 -143 -95z" />
    <glyph glyph-name="Uogonek" unicode="&#x172;" horiz-adv-x="815" 
d="M99 260q0 16 1 72.5t1 94.5t-1 90q-1 34 -14.5 49t-41.5 15h-22q1 17 1 55t-1 54q126 -2 196 -2q42 0 121 1t80 1v-109h-34q-60 0 -61 -64q-4 -143 0 -249q2 -88 31.5 -125t93.5 -37t94 37t32 125q4 149 0 249q-3 64 -58 64h-33q1 16 1 54.5t-1 54.5q95 -2 152 -2
q34 0 94 1t63 1v-109h-23q-53 0 -56 -64q-1 -40 -1 -83t0.5 -93.5t0.5 -76.5q0 -147 -72 -215.5t-210 -72.5q-16 -17 -16 -45q0 -48 52 -48q54 0 62 59l36 -5q6 -143 -122 -143q-54 0 -84.5 24.5t-30.5 67.5q0 54 45 91q-143 8 -209 76.5t-66 206.5z" />
    <glyph glyph-name="uogonek" unicode="&#x173;" horiz-adv-x="615" 
d="M560 476q0 -6 -4 -161q0 -150 1 -166q2 -33 10.5 -46t26.5 -13h10q-2 -45 0 -90h-75q-54 -20 -54 -69q0 -48 52 -48q54 0 62 59l36 -5q6 -143 -122 -143q-54 0 -84.5 24.5t-30.5 67.5q0 39 22.5 69t60.5 45q-67 0 -103 -2v97q-32 -113 -151 -113q-159 0 -159 183v151
q0 35 -8 51t-30 16h-10q1 13 1 46t-1 46q86 -2 118 -2q101 0 122 3q-4 -76 -4 -165q0 -100 1 -126q3 -100 55 -100q39 0 52.5 40t13.5 134v68q0 31 -12 43.5t-47 12.5h-7q1 13 1 45.5t-1 46.5q97 -2 132 -2q105 0 126 3z" />
    <glyph glyph-name="Wcircumflex" unicode="&#x174;" horiz-adv-x="1157" 
d="M791 746l-9 -11q-74 17 -142 69q-67 -51 -138 -68l-9 11q29 78 112 148h76q67 -53 110 -149zM878 -6q-112 2 -224 0q-21 89 -91 343q-73 -255 -94 -343q-103 2 -203 0q-25 107 -73 286t-66 235q-11 35 -29 50.5t-54 15.5h-27v109q131 -2 206 -2q33 0 80.5 0.5t84 1
t40.5 0.5v-109h-24q-29 0 -37.5 -15.5t-0.5 -50.5q22 -104 84 -317q66 222 84 317q6 37 -2 51.5t-39 14.5h-16q1 16 1 54.5t-1 54.5q107 -2 168 -2q36 0 101 1t67 1q-1 -16 -1 -54t1 -55h-23q-27 0 -35 -14.5t-1 -49.5q23 -110 85 -321q61 216 79 316q8 33 0.5 51t-40.5 18
h-19q1 17 1 55t-1 54q91 -2 142 -2q29 0 82.5 1t56.5 1q-1 -16 -1 -54.5t1 -54.5h-29q-38 0 -58 -14.5t-33 -55.5q-9 -27 -69.5 -249t-72.5 -268z" />
    <glyph glyph-name="wcircumflex" unicode="&#x175;" horiz-adv-x="871" 
d="M626 530l-9 -11q-74 17 -142 69q-67 -51 -138 -68l-9 11q29 78 112 148h76q67 -53 110 -149zM477 -10q-34 141 -70 269q-49 -162 -77 -269q-75 2 -150 0q-2 5 -20 68t-38 132.5t-32 107.5q-16 54 -28.5 69.5t-41.5 15.5h-8v92q98 -3 152 -3l151 3q-1 -14 -1 -46.5
t1 -45.5h-7q-40 0 -29 -54q18 -90 50 -201q48 153 55 198q6 30 -1.5 43.5t-32.5 13.5h-8v92q85 -3 134 -3l136 3q-1 -13 -1 -46t1 -46h-9q-38 0 -28 -52q16 -80 50 -208q40 145 51 203q13 57 -27 57h-11q1 13 1 46t-1 46q72 -3 111 -3l110 3q-2 -46 0 -92h-15
q-35 0 -51.5 -16.5t-35.5 -72.5q-62 -185 -99 -304q-90 2 -181 0z" />
    <glyph glyph-name="Ycircumflex" unicode="&#x176;" horiz-adv-x="856" 
d="M678 505q-67 -120 -137 -269v-71q0 -29 12.5 -43t46.5 -14h40q-2 -56 0 -110q-141 2 -220 2l-222 -2q1 16 1 55t-1 55h42q34 0 43.5 13.5t9.5 43.5v72q-97 200 -144 282q-35 62 -116 62h-16v109q147 -2 230 -2l229 2q-1 -55 0 -109h-25q-68 0 -29 -93q25 -59 75 -147
q37 68 71 147q40 93 -25 93h-21v109q102 -2 159 -2l159 2q-2 -59 0 -109h-18q-64 0 -92 -17.5t-52 -58.5zM628 746l-9 -11q-74 17 -142 69q-67 -51 -138 -68l-9 11q29 78 112 148h76q67 -53 110 -149z" />
    <glyph glyph-name="ycircumflex" unicode="&#x177;" horiz-adv-x="589" 
d="M395 331q14 52 -29 52h-14q1 13 1 45.5t-1 46.5q69 -3 115 -3l110 3v-26v-39.5v-26.5h-16q-30 0 -46 -13t-26 -40q-45 -111 -103 -295q-42 -131 -95 -178.5t-132 -47.5q-60 0 -92 26.5t-32 73.5q0 40 25 65t67 25q80 0 80 -73q0 -40 -36 -60t-80 -3q23 -17 55 -17
q63 0 93 40.5t61 143.5q-60 2 -124 -1q-15 57 -47.5 159.5t-47.5 141.5q-11 30 -22 41.5t-37 11.5h-13v92q95 -3 158 -3l158 3q-2 -46 0 -92h-12q-44 0 -31 -52q13 -59 54 -188q52 161 59 188zM470 530l-9 -11q-74 17 -142 69q-67 -51 -138 -68l-9 11q29 78 112 148h76
q67 -53 110 -149z" />
    <glyph glyph-name="Ydieresis" unicode="&#x178;" horiz-adv-x="856" 
d="M678 505q-67 -120 -137 -269v-71q0 -29 12.5 -43t46.5 -14h40q-2 -56 0 -110q-141 2 -220 2l-222 -2q1 16 1 55t-1 55h42q34 0 43.5 13.5t9.5 43.5v72q-97 200 -144 282q-35 62 -116 62h-16v109q147 -2 230 -2l229 2q-1 -55 0 -109h-25q-68 0 -29 -93q25 -59 75 -147
q37 68 71 147q40 93 -25 93h-21v109q102 -2 159 -2l159 2q-2 -59 0 -109h-18q-64 0 -92 -17.5t-52 -58.5zM473 811q0 -28 -17 -44t-44 -16q-26 0 -43.5 16t-17.5 44t17.5 44.5t43.5 16.5q27 0 44 -16.5t17 -44.5zM646 811q0 -28 -17 -44t-44 -16q-26 0 -43 16t-17 44
t17 44.5t43 16.5q27 0 44 -16.5t17 -44.5z" />
    <glyph glyph-name="Zacute" unicode="&#x179;" horiz-adv-x="680" 
d="M344 740l-8 12q25 37 61 73.5t67 54.5q23 12 42.5 12.5t30.5 -10.5t14 -25t-6.5 -31t-31.5 -30q-71 -42 -169 -56zM22 0q1 15 1 50.5t-1 50.5q132 169 361 480h-80q-100 0 -133 -35t-33 -146q-14 1 -49.5 1t-49.5 -1q2 49 2.5 146.5t-1.5 145.5q174 -3 216 -3h394
q-1 -15 -1 -50.5t1 -50.5q-132 -171 -357 -479h100q86 0 126 42t40 153q15 -1 50 -1t49 1q-5 -184 0 -307q-156 3 -200 3h-435z" />
    <glyph glyph-name="zacute" unicode="&#x17a;" horiz-adv-x="486" 
d="M209 524l-8 12q25 37 61 73.5t67 54.5q23 12 42.5 12.5t30.5 -10.5t14 -25t-6.5 -31t-31.5 -30q-71 -42 -169 -56zM289 0h-275q2 43 0 86q109 145 225 321h-34q-59 0 -86.5 -28t-32.5 -103q-10 1 -32.5 1t-31.5 -1q6 107 1 202q37 -3 182 -3h257q-2 -44 0 -87
q-115 -156 -228 -323h55q50 0 83 32t37 105q10 -2 32.5 -2t31.5 2q-11 -102 -4 -205q-94 3 -180 3z" />
    <glyph glyph-name="Zdotaccent" unicode="&#x17b;" horiz-adv-x="680" 
d="M22 0q1 15 1 50.5t-1 50.5q132 169 361 480h-80q-100 0 -133 -35t-33 -146q-14 1 -49.5 1t-49.5 -1q2 49 2.5 146.5t-1.5 145.5q174 -3 216 -3h394q-1 -15 -1 -50.5t1 -50.5q-132 -171 -357 -479h100q86 0 126 42t40 153q15 -1 50 -1t49 1q-5 -184 0 -307q-156 3 -200 3
h-435zM429 824q0 -32 -18.5 -51t-50.5 -19q-31 0 -49.5 19t-18.5 51t18 50t50 18t50.5 -18.5t18.5 -49.5z" />
    <glyph glyph-name="zdotaccent" unicode="&#x17c;" horiz-adv-x="486" 
d="M289 0h-275q2 43 0 86q109 145 225 321h-34q-59 0 -86.5 -28t-32.5 -103q-10 1 -32.5 1t-31.5 -1q6 107 1 202q37 -3 182 -3h257q-2 -44 0 -87q-115 -156 -228 -323h55q50 0 83 32t37 105q10 -2 32.5 -2t31.5 2q-11 -102 -4 -205q-94 3 -180 3zM316 608q0 -32 -18.5 -51
t-50.5 -19q-31 0 -49.5 19t-18.5 51t18.5 50t49.5 18q32 0 50.5 -18.5t18.5 -49.5z" />
    <glyph glyph-name="Zcaron" unicode="&#x17d;" horiz-adv-x="680" 
d="M210 897l9 10q31 -7 72 -26.5t70 -41.5q67 49 138 68l9 -11q-29 -79 -112 -149h-76q-69 56 -110 150zM22 0q1 15 1 50.5t-1 50.5q132 169 361 480h-80q-100 0 -133 -35t-33 -146q-14 1 -49.5 1t-49.5 -1q2 49 2.5 146.5t-1.5 145.5q174 -3 216 -3h394q-1 -15 -1 -50.5
t1 -50.5q-132 -171 -357 -479h100q86 0 126 42t40 153q15 -1 50 -1t49 1q-5 -184 0 -307q-156 3 -200 3h-435z" />
    <glyph glyph-name="zcaron" unicode="&#x17e;" horiz-adv-x="486" 
d="M108 681l9 10q31 -7 72 -26.5t70 -41.5q67 49 138 68l9 -11q-29 -79 -112 -149h-76q-69 56 -110 150zM289 0h-275q2 43 0 86q109 145 225 321h-34q-59 0 -86.5 -28t-32.5 -103q-10 1 -32.5 1t-31.5 -1q6 107 1 202q37 -3 182 -3h257q-2 -44 0 -87q-115 -156 -228 -323h55
q50 0 83 32t37 105q10 -2 32.5 -2t31.5 2q-11 -102 -4 -205q-94 3 -180 3z" />
    <glyph glyph-name="longs" unicode="&#x17f;" horiz-adv-x="345" 
d="M313 90v-92q-1 0 -27.5 0.5t-62.5 1t-60 0.5h-36t-40 -0.5t-36 -1t-27.5 -0.5h-11.5q1 14 1 46t-1 46h18q35 0 38 42q7 74 0 341q-4 111 43.5 168t155.5 57q75 0 117.5 -31t42.5 -83q0 -73 -75 -73q-33 0 -51.5 17t-18.5 47q0 33 23.5 50.5t62.5 13.5q-14 7 -40 7
q-54 0 -74 -36t-5 -121l7 -44q-3 -50 -2.5 -164.5t2.5 -148.5q3 -42 39 -42h18z" />
    <glyph glyph-name="florin" unicode="&#x192;" horiz-adv-x="569" 
d="M110 336v69l76 -3q-6 83 10 145t49 96t72.5 50t85.5 16q77 0 118.5 -32t41.5 -88q0 -39 -20 -60t-58 -21q-32 0 -50.5 15t-18.5 43q0 32 21.5 47.5t60.5 11.5q-19 19 -51 19q-22 0 -36.5 -4t-29.5 -18t-20 -40.5t-7.5 -70.5t8.5 -109l98 3v-69l-90 2q11 -102 -2.5 -175.5
t-46.5 -112.5t-74.5 -56t-93.5 -17q-70 0 -107.5 29t-37.5 79q0 36 20.5 56.5t57.5 20.5q66 0 66 -55q0 -27 -17 -41.5t-47 -14.5l-17 1q19 -19 55 -19q39 0 58.5 24t24 91.5t-15.5 189.5z" />
    <glyph glyph-name="uni01B5" unicode="&#x1b5;" horiz-adv-x="680" 
d="M22 0q1 15 1 50.5t-1 50.5q31 39 133 175q-51 -3 -75 -3v56q27 0 112 -5l191 257h-80q-100 0 -133 -35t-33 -146q-14 1 -49.5 1t-49.5 -1q2 49 2.5 146.5t-1.5 145.5q174 -3 216 -3h394q-1 -15 -1 -50.5t1 -50.5q-78 -100 -198 -262l70 3v-56q-17 0 -105 6l-124 -170h100
q86 0 126 42t40 153q15 -1 50 -1t49 1q-5 -184 0 -307q-156 3 -200 3h-435z" />
    <glyph glyph-name="uni01B6" unicode="&#x1b6;" horiz-adv-x="486" 
d="M289 0h-275q2 43 0 86l77 106q-32 -7 -58 -10l-5 40q86 10 91 10q55 77 120 175h-34q-59 0 -86.5 -28t-32.5 -103q-10 1 -32.5 1t-31.5 -1q6 107 1 202q37 -3 182 -3h257q-2 -44 0 -87q-33 -44 -82 -113q6 1 59 11l5 -40q-72 -9 -92 -11q-33 -46 -118 -170h55q50 0 83 32
t37 105q10 -2 32.5 -2t31.5 2q-11 -102 -4 -205q-94 3 -180 3z" />
    <glyph glyph-name="uni01FA" unicode="&#x1fa;" horiz-adv-x="885" 
d="M460 109q72 0 35 99q-142 2 -222 1q-17 -52 -8 -76t47 -24h35q-1 -16 -1 -55.5t1 -55.5q-104 2 -163 2l-162 -2q1 16 1 55.5t-1 55.5h21q43 0 66 20t43 70q124 320 188 496q69 -2 107 -2l107 2q29 -83 94.5 -251.5t97.5 -245.5q22 -53 42.5 -71t50.5 -18h24
q-1 -17 -1 -56t1 -55q-141 2 -220 2l-221 -2q1 16 1 55.5t-1 55.5h38zM474 273q-34 100 -90 246q-53 -143 -88 -246q91 -2 178 0zM381 954l-8 12q25 37 61 73.5t67 54.5q23 12 42.5 12.5t30.5 -10.5t14 -25t-6.5 -31t-31.5 -30q-71 -42 -169 -56zM488 837q0 47 -46 47
t-46 -47q0 -50 46 -50t46 50zM534 837q0 -44 -24.5 -68.5t-67.5 -24.5q-44 0 -68.5 25t-24.5 68t24 67t67 24q44 0 69 -24t25 -67z" />
    <glyph glyph-name="aringacute" unicode="&#x1fb;" horiz-adv-x="565" 
d="M471 281v-127q0 -41 3 -54t15 -13q28 0 18 110l40 1q10 -102 -19 -158t-111 -56q-97 0 -123 71q-46 -71 -145 -71q-60 0 -96.5 29.5t-36.5 86.5q0 151 267 160v45q0 63 -24 86t-86 22q36 -19 36 -62q0 -35 -23 -54.5t-64 -19.5q-38 0 -60 20t-22 58q0 61 62 96.5
t152 35.5q120 0 168.5 -50t48.5 -156zM284 104q-1 8 -1 36v83q-39 -3 -58 -20.5t-19 -55.5q0 -34 10.5 -46.5t30.5 -12.5q25 0 37 16zM219 739l-8 12q25 37 61 73.5t67 54.5q23 12 42.5 12.5t30.5 -10.5t14 -25t-6.5 -31t-31.5 -30q-71 -42 -169 -56zM319 623q0 47 -46 47
t-46 -47q0 -50 46 -50t46 50zM365 623q0 -44 -24.5 -68.5t-67.5 -24.5t-68 25t-25 68t24 67t67 24q44 0 69 -24t25 -67z" />
    <glyph glyph-name="AEacute" unicode="&#x1fc;" horiz-adv-x="1098" 
d="M685 380h24q46 0 62.5 19.5t16.5 67.5v31h85q-7 -101 -7 -152q0 -82 7 -153q-43 1 -83 0v28q-1 51 -18 71.5t-64 20.5h-23q0 -105 3 -141q1 -35 16.5 -49t46.5 -14h84q68 0 95 33.5t27 124.5v9q59 -2 119 0q-10 -106 -10 -281q-59 5 -214 5h-279q-166 0 -190 -2v111h29
q33 0 46 15.5t16 50.5q1 10 1 48h-53.5h-64h-52.5l-10 -21q-44 -93 26 -93h27v-32v-48v-31q-105 2 -164 2l-162 -2q1 16 1 55.5t-1 55.5h22q42 0 69 20.5t59 69.5q131 204 197 320q16 25 7.5 44.5t-42.5 19.5h-16v111q66 -6 270 -6q21 0 92.5 0.5t151.5 0.5q193 0 240 6
q-8 -117 -6 -263q-56 2 -112 0v8q0 85 -29.5 112.5t-90.5 27.5h-84q-31 0 -46 -14.5t-16 -45.5q-3 -44 -3 -140zM623 740l-8 12q25 37 61 73.5t67 54.5q23 12 42.5 12.5t30.5 -10.5t14 -25t-6.5 -31t-31.5 -30q-71 -42 -169 -56zM471 517q-66 -106 -134 -233q96 0 139 1
q2 130 -5 232z" />
    <glyph glyph-name="aeacute" unicode="&#x1fd;" horiz-adv-x="781" 
d="M347 524l-8 12q25 37 61 73.5t67 54.5q23 12 42.5 12.5t30.5 -10.5t14 -25t-6.5 -31t-31.5 -30q-71 -42 -169 -56zM757 166q-3 -85 -58.5 -134t-166.5 -49q-153 0 -213 90q-42 -89 -155 -89q-148 0 -148 125q0 72 72.5 109.5t194.5 41.5v54q0 98 -78 98q-15 0 -33 -2
q36 -15 36 -59q0 -36 -22.5 -55t-63.5 -19q-38 0 -59.5 20.5t-21.5 57.5q0 62 61.5 97t151.5 35q93 0 146 -34q56 34 135 34q123 0 177.5 -76t46.5 -203h-281q2 -67 17.5 -94.5t51.5 -27.5q33 0 49 20t20 64q100 -7 141 -4zM529 389q-26 0 -38 -28t-13 -109h74q14 0 18.5 6
t4.5 23q0 59 -11.5 83.5t-34.5 24.5zM293 129q-10 34 -10 83v11q-39 -3 -58 -20t-19 -56q0 -34 10 -46t30 -12q38 0 47 40z" />
    <glyph glyph-name="Oslashacute" unicode="&#x1fe;" horiz-adv-x="789" 
d="M351 740l-8 12q25 37 61 73.5t67 54.5q23 12 42.5 12.5t30.5 -10.5t14 -25t-6.5 -31t-31.5 -30q-71 -42 -169 -56zM395 -17q-140 0 -225 50l-75 -74l-24 19l58 86q-96 88 -96 280q0 182 96 272.5t266 90.5q139 0 223 -50l81 80l22 -17l-62 -93q97 -89 97 -282
q0 -185 -98.5 -273.5t-262.5 -88.5zM395 95q69 0 95 55.5t26 194.5q0 67 -5 110l-100 -114l-125 -160q12 -46 37.5 -66t71.5 -20zM277 235l110 126l115 148q-12 46 -37.5 66t-69.5 20q-68 0 -95 -56.5t-27 -194.5q0 -65 4 -109z" />
    <glyph glyph-name="oslashacute" unicode="&#x1ff;" horiz-adv-x="548" 
d="M231 524l-8 12q25 37 61 73.5t67 54.5q23 12 42.5 12.5t30.5 -10.5t14 -25t-6.5 -31t-31.5 -30q-71 -42 -169 -56zM25 231q0 128 65.5 192t183.5 64q93 0 152 -37l56 61l16 -13l-43 -71q68 -65 68 -197q0 -248 -249 -248q-89 0 -148 32l-56 -57l-17 14l42 66
q-70 61 -70 194zM215 230q0 -37 1 -51l54 62l58 78q-6 41 -19.5 56t-35.5 15q-31 0 -44.5 -32.5t-13.5 -127.5zM333 230q0 19 -2 49l-46 -54l-64 -86q6 -34 18.5 -45.5t34.5 -11.5q31 0 45 29t14 119z" />
    <glyph glyph-name="Scommaaccent" unicode="&#x218;" horiz-adv-x="694" 
d="M278 -260q107 20 117 104q-14 -23 -48 -23q-23 0 -36.5 15.5t-13.5 43.5q0 29 18 46.5t49 17.5q32 0 49 -21.5t17 -58.5q0 -58 -40.5 -95.5t-105.5 -48.5zM352 601q-69 0 -100.5 -18.5t-31.5 -47.5q0 -33 32 -46t124 -20q68 -5 120 -19t93.5 -40.5t63.5 -71.5t22 -107
q0 -121 -75.5 -184.5t-219.5 -63.5q-107 0 -199 47q-49 27 -59 -36q-10 2 -44 2t-44 -2q14 138 8 233q11 -1 42 -1t42 1q50 -140 251 -140q134 0 134 71q0 34 -39 49.5t-139 23.5q-282 19 -282 230q0 109 71 177.5t203 68.5q100 0 178 -40q21 -14 33 -10.5t15.5 10t7.5 26.5
q10 -1 41 -1t41 1q-13 -89 -7 -209q-50 3 -84 1q-43 116 -198 116z" />
    <glyph glyph-name="scommaaccent" unicode="&#x219;" horiz-adv-x="501" 
d="M174 -260q107 20 117 104q-14 -23 -48 -23q-23 0 -36.5 15.5t-13.5 43.5q0 29 18 46.5t49 17.5q32 0 49 -21.5t17 -58.5q0 -58 -40.5 -95.5t-105.5 -48.5zM251 408q-76 0 -76 -38q0 -20 23.5 -29.5t99.5 -16.5q185 -16 185 -172q0 -79 -50.5 -124.5t-152.5 -45.5
q-79 0 -144 39q-29 14 -39.5 7.5t-14.5 -30.5q-33 4 -63 0q13 87 10 156q31 -4 63 0q24 -44 66.5 -70.5t98.5 -26.5q75 0 75 41q0 18 -20.5 27.5t-83.5 14.5q-104 8 -152.5 54t-48.5 121q0 76 57.5 124.5t154.5 47.5q61 -1 109 -30q29 -13 36 -8t13 28q29 -2 60 0
q-8 -64 -10 -141q-33 2 -65 0q-39 72 -131 72z" />
    <glyph glyph-name="uni021A" unicode="&#x21a;" horiz-adv-x="741" 
d="M284 -264q107 20 117 104q-14 -23 -48 -23q-23 0 -36.5 15.5t-13.5 43.5q0 29 18 46.5t49 17.5q32 0 49 -21.5t17 -58.5q0 -58 -40.5 -95.5t-105.5 -48.5zM515 575h-40q-2 -83 -1.5 -227t2.5 -173q3 -66 64 -66h33v-111q-129 2 -203 2l-203 -2q1 16 1 55t-1 56h32
q62 0 67 66q2 32 2 173.5t-1 226.5h-41q-41 0 -59.5 -23.5t-20.5 -69.5l-4 -83q-17 1 -57.5 1t-57.5 -1q6 139 -5 294q59 -4 196 -4h305q148 0 195 4q-11 -155 -5 -294q-17 1 -57 1t-57 -1l-4 83q-2 46 -20.5 69.5t-59.5 23.5z" />
    <glyph glyph-name="uni021B" unicode="&#x21b;" horiz-adv-x="364" 
d="M108 -260q107 20 117 104q-14 -23 -48 -23q-23 0 -36.5 15.5t-13.5 43.5q0 29 18 46.5t49 17.5q32 0 49 -21.5t17 -58.5q0 -58 -40.5 -95.5t-105.5 -48.5zM303 193h48q10 -105 -22.5 -157t-127.5 -52q-151 0 -151 157q0 33 2 121t2 123h-43q1 11 1 37t-1 37q71 1 114 51
t57 132q11 -1 38 -1t38 1q-7 -55 -9 -171l99 4q-1 -14 -1 -46.5t1 -45.5l-99 1v-203q0 -57 6.5 -76.5t20.5 -19.5q20 -1 26.5 28.5t0.5 79.5z" />
    <glyph glyph-name="uni0237" unicode="&#x237;" horiz-adv-x="319" 
d="M62 -88q0 -29 -21 -48t-62 -12q19 -14 46 -14q68 0 72 96q2 53 2.5 217.5t-1.5 185.5q-3 46 -43 46h-11v90q204 0 243 3v-111v-221.5v-124.5q0 -108 -53.5 -163.5t-155.5 -55.5q-71 0 -112 27t-41 74q0 35 19.5 54.5t53.5 19.5q30 0 47 -17t17 -46z" />
    <glyph glyph-name="circumflex" unicode="&#x2c6;" horiz-adv-x="532" 
d="M403 544l-9 -11q-74 17 -142 69q-67 -51 -138 -68l-9 11q29 78 112 148h76q67 -53 110 -149z" />
    <glyph glyph-name="caron" unicode="&#x2c7;" horiz-adv-x="532" 
d="M105 695l9 10q31 -7 72 -26.5t70 -41.5q67 49 138 68l9 -11q-29 -79 -112 -149h-76q-69 56 -110 150z" />
    <glyph glyph-name="breve" unicode="&#x2d8;" horiz-adv-x="532" 
d="M257 545q-75 0 -110.5 41t-26.5 104l28 2q6 -55 109 -55t109 55l28 -2q9 -63 -26.5 -104t-110.5 -41z" />
    <glyph glyph-name="dotaccent" unicode="&#x2d9;" horiz-adv-x="532" 
d="M346 622q0 -32 -18.5 -51t-50.5 -19q-31 0 -49.5 19t-18.5 51t18.5 50t49.5 18q32 0 50.5 -18.5t18.5 -49.5z" />
    <glyph glyph-name="ring" unicode="&#x2da;" horiz-adv-x="532" 
d="M318 635q0 47 -46 47t-46 -47q0 -50 46 -50t46 50zM364 635q0 -44 -24.5 -68.5t-67.5 -24.5q-44 0 -68.5 25t-24.5 68t24 67t67 24q44 0 69 -24t25 -67z" />
    <glyph glyph-name="ogonek" unicode="&#x2db;" horiz-adv-x="532" 
d="M397 -63q6 -143 -122 -143q-54 0 -84.5 24.5t-30.5 67.5q1 59 51 95t121 34l6 -6q-91 -13 -91 -78q0 -48 52 -48q54 0 62 59z" />
    <glyph glyph-name="tilde" unicode="&#x2dc;" horiz-adv-x="532" 
d="M377 668l29 9q25 -66 -6 -105t-88 -39q-66 0 -105 61q-12 19 -20.5 26t-21.5 7q-19 0 -26.5 -16.5t3.5 -57.5l-29 -9q-25 68 6 106.5t88 38.5q63 0 104 -62q21 -33 43 -33q19 0 26.5 17t-3.5 57z" />
    <glyph glyph-name="hungarumlaut" unicode="&#x2dd;" horiz-adv-x="532" 
d="M113 541l-10 9q34 98 86 147q17 16 35 21t30.5 -1t19.5 -17.5t2.5 -29t-20.5 -34.5q-55 -58 -143 -95zM277 541l-10 9q34 98 86 147q17 16 35 21t30.5 -1t19.5 -17.5t2.5 -29t-20.5 -34.5q-55 -58 -143 -95z" />
    <glyph glyph-name="Wgrave" unicode="&#x1e80;" horiz-adv-x="1157" 
d="M878 -6q-112 2 -224 0q-21 89 -91 343q-73 -255 -94 -343q-103 2 -203 0q-25 107 -73 286t-66 235q-11 35 -29 50.5t-54 15.5h-27v109q131 -2 206 -2q33 0 80.5 0.5t84 1t40.5 0.5v-109h-24q-29 0 -37.5 -15.5t-0.5 -50.5q22 -104 84 -317q66 222 84 317q6 37 -2 51.5
t-39 14.5h-16q1 16 1 54.5t-1 54.5q107 -2 168 -2q36 0 101 1t67 1q-1 -16 -1 -54t1 -55h-23q-27 0 -35 -14.5t-1 -49.5q23 -110 85 -321q61 216 79 316q8 33 0.5 51t-40.5 18h-19q1 17 1 55t-1 54q91 -2 142 -2q29 0 82.5 1t56.5 1q-1 -16 -1 -54.5t1 -54.5h-29
q-38 0 -58 -14.5t-33 -55.5q-9 -27 -69.5 -249t-72.5 -268zM684 754l-8 -12q-98 13 -172 58q-33 20 -35 50t22.5 40t64.5 -8q67 -38 128 -128z" />
    <glyph glyph-name="wgrave" unicode="&#x1e81;" horiz-adv-x="871" 
d="M477 -10q-34 141 -70 269q-49 -162 -77 -269q-75 2 -150 0q-2 5 -20 68t-38 132.5t-32 107.5q-16 54 -28.5 69.5t-41.5 15.5h-8v92q98 -3 152 -3l151 3q-1 -14 -1 -46.5t1 -45.5h-7q-40 0 -29 -54q18 -90 50 -201q48 153 55 198q6 30 -1.5 43.5t-32.5 13.5h-8v92
q85 -3 134 -3l136 3q-1 -13 -1 -46t1 -46h-9q-38 0 -28 -52q16 -80 50 -208q40 145 51 203q13 57 -27 57h-11q1 13 1 46t-1 46q72 -3 111 -3l110 3q-2 -46 0 -92h-15q-35 0 -51.5 -16.5t-35.5 -72.5q-62 -185 -99 -304q-90 2 -181 0zM534 536l-8 -12q-98 13 -172 58
q-33 20 -35 50t22.5 40t64.5 -8q67 -38 128 -128z" />
    <glyph glyph-name="Wacute" unicode="&#x1e82;" horiz-adv-x="1157" 
d="M552 742l-8 12q25 37 61 73.5t67 54.5q23 12 42.5 12.5t30.5 -10.5t14 -25t-6.5 -31t-31.5 -30q-71 -42 -169 -56zM878 -6q-112 2 -224 0q-21 89 -91 343q-73 -255 -94 -343q-103 2 -203 0q-25 107 -73 286t-66 235q-11 35 -29 50.5t-54 15.5h-27v109q131 -2 206 -2
q33 0 80.5 0.5t84 1t40.5 0.5v-109h-24q-29 0 -37.5 -15.5t-0.5 -50.5q22 -104 84 -317q66 222 84 317q6 37 -2 51.5t-39 14.5h-16q1 16 1 54.5t-1 54.5q107 -2 168 -2q36 0 101 1t67 1q-1 -16 -1 -54t1 -55h-23q-27 0 -35 -14.5t-1 -49.5q23 -110 85 -321q61 216 79 316
q8 33 0.5 51t-40.5 18h-19q1 17 1 55t-1 54q91 -2 142 -2q29 0 82.5 1t56.5 1q-1 -16 -1 -54.5t1 -54.5h-29q-38 0 -58 -14.5t-33 -55.5q-9 -27 -69.5 -249t-72.5 -268z" />
    <glyph glyph-name="wacute" unicode="&#x1e83;" horiz-adv-x="871" 
d="M406 524l-8 12q25 37 61 73.5t67 54.5q23 12 42.5 12.5t30.5 -10.5t14 -25t-6.5 -31t-31.5 -30q-71 -42 -169 -56zM477 -10q-34 141 -70 269q-49 -162 -77 -269q-75 2 -150 0q-2 5 -20 68t-38 132.5t-32 107.5q-16 54 -28.5 69.5t-41.5 15.5h-8v92q98 -3 152 -3l151 3
q-1 -14 -1 -46.5t1 -45.5h-7q-40 0 -29 -54q18 -90 50 -201q48 153 55 198q6 30 -1.5 43.5t-32.5 13.5h-8v92q85 -3 134 -3l136 3q-1 -13 -1 -46t1 -46h-9q-38 0 -28 -52q16 -80 50 -208q40 145 51 203q13 57 -27 57h-11q1 13 1 46t-1 46q72 -3 111 -3l110 3q-2 -46 0 -92
h-15q-35 0 -51.5 -16.5t-35.5 -72.5q-62 -185 -99 -304q-90 2 -181 0z" />
    <glyph glyph-name="Wdieresis" unicode="&#x1e84;" horiz-adv-x="1157" 
d="M617 811q0 -28 -17 -44t-44 -16q-26 0 -43.5 16t-17.5 44t17.5 44.5t43.5 16.5q27 0 44 -16.5t17 -44.5zM790 811q0 -28 -17 -44t-44 -16q-26 0 -43 16t-17 44t17 44.5t43 16.5q27 0 44 -16.5t17 -44.5zM878 -6q-112 2 -224 0q-21 89 -91 343q-73 -255 -94 -343
q-103 2 -203 0q-25 107 -73 286t-66 235q-11 35 -29 50.5t-54 15.5h-27v109q131 -2 206 -2q33 0 80.5 0.5t84 1t40.5 0.5v-109h-24q-29 0 -37.5 -15.5t-0.5 -50.5q22 -104 84 -317q66 222 84 317q6 37 -2 51.5t-39 14.5h-16q1 16 1 54.5t-1 54.5q107 -2 168 -2q36 0 101 1
t67 1q-1 -16 -1 -54t1 -55h-23q-27 0 -35 -14.5t-1 -49.5q23 -110 85 -321q61 216 79 316q8 33 0.5 51t-40.5 18h-19q1 17 1 55t-1 54q91 -2 142 -2q29 0 82.5 1t56.5 1q-1 -16 -1 -54.5t1 -54.5h-29q-38 0 -58 -14.5t-33 -55.5q-9 -27 -69.5 -249t-72.5 -268z" />
    <glyph glyph-name="wdieresis" unicode="&#x1e85;" horiz-adv-x="871" 
d="M448 595q0 -28 -17 -44t-44 -16q-26 0 -43.5 16t-17.5 44t17.5 44.5t43.5 16.5q27 0 44 -16.5t17 -44.5zM621 595q0 -28 -17 -44t-44 -16q-26 0 -43 16t-17 44t17 44.5t43 16.5q27 0 44 -16.5t17 -44.5zM477 -10q-34 141 -70 269q-49 -162 -77 -269q-75 2 -150 0
q-2 5 -20 68t-38 132.5t-32 107.5q-16 54 -28.5 69.5t-41.5 15.5h-8v92q98 -3 152 -3l151 3q-1 -14 -1 -46.5t1 -45.5h-7q-40 0 -29 -54q18 -90 50 -201q48 153 55 198q6 30 -1.5 43.5t-32.5 13.5h-8v92q85 -3 134 -3l136 3q-1 -13 -1 -46t1 -46h-9q-38 0 -28 -52
q16 -80 50 -208q40 145 51 203q13 57 -27 57h-11q1 13 1 46t-1 46q72 -3 111 -3l110 3q-2 -46 0 -92h-15q-35 0 -51.5 -16.5t-35.5 -72.5q-62 -185 -99 -304q-90 2 -181 0z" />
    <glyph glyph-name="uni1E8A" unicode="&#x1e8a;" horiz-adv-x="826" 
d="M371 205q-14 26 -43 73l-46 -71q-21 -32 -24.5 -55.5t5.5 -33t25 -9.5h19v-111q-92 2 -143 2l-142 -2q1 16 1 55.5t-1 55.5h20q69 0 108.5 29.5t86.5 101.5l59 91q-55 90 -108 171q-29 45 -59.5 62t-76.5 17h-22q1 17 1 55t-1 54q3 0 95 -1t141 -1l228 2v-109h-12
q-29 0 -34 -24t16 -65q9 -18 52 -91l48 89q22 45 16 68t-30 23h-15q1 16 1 54.5t-1 54.5q84 -2 130 -2l129 2q-1 -16 -1 -54t1 -55h-17q-46 0 -75.5 -13t-44 -31t-34.5 -54l-74 -136q50 -81 107 -168q26 -38 52 -54t67 -16h29q-1 -17 -1 -56t1 -55q-147 2 -230 2l-228 -2
q1 16 1 55.5t-1 55.5h20q15 0 22.5 9t4 31.5t-21.5 55.5zM505 818q0 -32 -18.5 -51t-50.5 -19q-31 0 -49.5 19t-18.5 51t18 50t50 18t50.5 -18.5t18.5 -49.5z" />
    <glyph glyph-name="uni1E8B" unicode="&#x1e8b;" horiz-adv-x="616" 
d="M267 148q-16 26 -33 49l-38 -52q-17 -24 -10.5 -39.5t30.5 -15.5h8q-1 -14 -1 -46.5t1 -45.5q-69 2 -105 2l-107 -2v92h21q41 0 65.5 14.5t57.5 56.5l55 68q-49 70 -73 102q-24 31 -41.5 41.5t-56.5 10.5h-18v92q115 -2 180 -2l184 2q-1 -14 -1 -46.5t1 -45.5h-9
q-21 0 -26 -14.5t11 -43.5q10 -18 36 -53l42 53q17 23 11.5 40.5t-30.5 17.5h-11q1 13 1 45.5t-1 46.5q58 -2 90 -2l95 2q-1 -13 -1 -46t1 -46h-19q-27 0 -42 -11t-53 -57l-61 -74q38 -55 73 -101q37 -50 99 -50h12q-1 -46 0 -92q-114 2 -178 2l-179 -2q1 13 1 45.5t-1 46.5
h11q43 0 9 58zM405 601q0 -32 -18.5 -51t-50.5 -19q-31 0 -49.5 19t-18.5 51q0 31 18 49.5t50 18.5t50.5 -18.5t18.5 -49.5z" />
    <glyph glyph-name="Ygrave" unicode="&#x1ef2;" horiz-adv-x="856" 
d="M678 505q-67 -120 -137 -269v-71q0 -29 12.5 -43t46.5 -14h40q-2 -56 0 -110q-141 2 -220 2l-222 -2q1 16 1 55t-1 55h42q34 0 43.5 13.5t9.5 43.5v72q-97 200 -144 282q-35 62 -116 62h-16v109q147 -2 230 -2l229 2q-1 -55 0 -109h-25q-68 0 -29 -93q25 -59 75 -147
q37 68 71 147q40 93 -25 93h-21v109q102 -2 159 -2l159 2q-2 -59 0 -109h-18q-64 0 -92 -17.5t-52 -58.5zM526 752l-8 -12q-98 13 -172 58q-33 20 -35 50t22.5 40t64.5 -8q67 -38 128 -128z" />
    <glyph glyph-name="ygrave" unicode="&#x1ef3;" horiz-adv-x="589" 
d="M395 331q14 52 -29 52h-14q1 13 1 45.5t-1 46.5q69 -3 115 -3l110 3v-26v-39.5v-26.5h-16q-30 0 -46 -13t-26 -40q-45 -111 -103 -295q-42 -131 -95 -178.5t-132 -47.5q-60 0 -92 26.5t-32 73.5q0 40 25 65t67 25q80 0 80 -73q0 -40 -36 -60t-80 -3q23 -17 55 -17
q63 0 93 40.5t61 143.5q-60 2 -124 -1q-15 57 -47.5 159.5t-47.5 141.5q-11 30 -22 41.5t-37 11.5h-13v92q95 -3 158 -3l158 3q-2 -46 0 -92h-12q-44 0 -31 -52q13 -59 54 -188q52 161 59 188zM403 536l-8 -12q-98 13 -172 58q-33 20 -35 50t22.5 40t64.5 -8
q67 -38 128 -128z" />
    <glyph glyph-name="uni2009" unicode="&#x2009;" horiz-adv-x="109" 
 />
    <glyph glyph-name="endash" unicode="&#x2013;" horiz-adv-x="500" 
d="M16 189q4 59 0 120q234 -4 468 0q-4 -60 0 -120q-234 4 -468 0z" />
    <glyph glyph-name="emdash" unicode="&#x2014;" horiz-adv-x="1000" 
d="M16 189q4 59 0 120q484 -4 968 0q-4 -60 0 -120q-484 4 -968 0z" />
    <glyph glyph-name="quoteleft" unicode="&#x2018;" horiz-adv-x="255" 
d="M215 677q-124 -24 -129 -138q15 31 58 31q30 0 48.5 -18.5t18.5 -51.5t-21.5 -55t-60.5 -22q-38 0 -61 26.5t-23 75.5q0 64 41 114.5t122 61.5z" />
    <glyph glyph-name="quoteright" unicode="&#x2019;" horiz-adv-x="255" 
d="M40 446q62 11 94.5 46t32.5 89q-15 -29 -55 -29q-30 0 -49 18.5t-19 52.5q0 33 21.5 55t60.5 22t61.5 -26.5t22.5 -75.5q0 -65 -40 -114.5t-123 -62.5z" />
    <glyph glyph-name="quotesinglbase" unicode="&#x201a;" horiz-adv-x="255" 
d="M40 -77q62 11 94.5 46t32.5 89q-15 -29 -55 -29q-30 0 -49 18.5t-19 52.5q0 33 21.5 55t60.5 22t61.5 -26.5t22.5 -75.5q0 -65 -40 -114.5t-123 -62.5z" />
    <glyph glyph-name="quotedblleft" unicode="&#x201c;" horiz-adv-x="448" 
d="M215 677q-124 -24 -129 -138q15 31 58 31q30 0 48.5 -18.5t18.5 -51.5t-21.5 -55t-60.5 -22q-38 0 -61 26.5t-23 75.5q0 64 41 114.5t122 61.5zM408 677q-124 -24 -129 -138q15 31 58 31q30 0 48.5 -18.5t18.5 -51.5t-21.5 -55t-60.5 -22q-38 0 -61 26.5t-23 75.5
q0 64 41 114.5t122 61.5z" />
    <glyph glyph-name="quotedblright" unicode="&#x201d;" horiz-adv-x="449" 
d="M40 449q62 11 94.5 46t32.5 89q-15 -29 -55 -29q-30 0 -49 18.5t-19 52.5q0 33 21.5 55t60.5 22t61.5 -26.5t22.5 -75.5q0 -65 -40 -114.5t-123 -62.5zM234 449q62 11 94.5 46t32.5 89q-15 -29 -55 -29q-30 0 -49 18.5t-19 52.5q0 33 21.5 55t60.5 22t61.5 -26.5
t22.5 -75.5q0 -65 -40 -114.5t-123 -62.5z" />
    <glyph glyph-name="quotedblbase" unicode="&#x201e;" horiz-adv-x="448" 
d="M40 -77q62 11 94.5 46t32.5 89q-15 -29 -55 -29q-30 0 -49 18.5t-19 52.5q0 33 21.5 55t60.5 22t61.5 -26.5t22.5 -75.5q0 -65 -40 -114.5t-123 -62.5zM233 -77q62 11 94.5 46t32.5 89q-14 -29 -55 -29q-30 0 -49 18.5t-19 52.5q0 33 21.5 55t60.5 22t61.5 -26.5
t22.5 -75.5q0 -65 -40 -114.5t-123 -62.5z" />
    <glyph glyph-name="dagger" unicode="&#x2020;" 
d="M234 351q48 20 54 124q-17 5 -22 21q-25 -5 -61 -29q-36 -28 -73.5 -14.5t-37.5 55.5t37.5 55.5t73.5 -14.5q33 -24 61 -29q5 16 22 21q-4 49 -28 89q-18 25 -22.5 54.5t11 51.5t49.5 22t49.5 -22t10.5 -51.5t-23 -54.5q-23 -34 -27 -89q15 -5 22 -21q26 5 59 29
q36 28 73.5 14.5t37.5 -55.5t-37.5 -55.5t-73.5 14.5q-36 24 -59 29q-7 -16 -22 -21q6 -104 54 -124v-37q-28 -13 -40.5 -50.5t-12.5 -109.5q0 -76 27 -119q18 -25 22.5 -54.5t-11 -51.5t-49.5 -22t-49.5 22t-10.5 51.5t23 54.5q26 39 26 119q0 72 -12.5 109.5t-40.5 50.5
v37z" />
    <glyph glyph-name="daggerdbl" unicode="&#x2021;" 
d="M205 117q-36 -28 -73 -14.5t-37 55.5t37 55t73 -14q36 -25 61 -29q5 16 22 21q-6 101 -54 123v37q48 20 54 124q-17 5 -22 21q-25 -5 -61 -29q-36 -28 -73.5 -14.5t-37.5 55.5t37.5 55.5t73.5 -14.5q33 -24 61 -29q5 16 22 21q-5 57 -28 89q-32 42 -21.5 85t59.5 43
q34 0 49.5 -22t10.5 -51.5t-23 -54.5q-23 -34 -27 -89q15 -5 22 -21q26 5 59 29q36 28 73.5 14.5t37.5 -55.5t-37.5 -55.5t-73.5 14.5q-36 24 -59 29q-7 -16 -22 -21q6 -104 54 -124v-37q-48 -22 -54 -123q15 -5 22 -21q24 4 60 29q36 28 73.5 14.5t37.5 -55.5t-37.5 -55.5
t-73.5 14.5q-39 25 -60 29q-7 -16 -22 -21q4 -57 28 -90q31 -40 21.5 -84t-59.5 -44q-34 0 -49.5 21t-11 50.5t23.5 56.5q23 32 27 90q-17 5 -22 21q-22 -5 -61 -29z" />
    <glyph glyph-name="bullet" unicode="&#x2022;" horiz-adv-x="456" 
d="M413 240q0 -85 -49 -131.5t-137 -46.5q-86 0 -135 47.5t-49 134.5q0 86 49 133.5t135 47.5q88 0 137 -49t49 -136z" />
    <glyph glyph-name="ellipsis" unicode="&#x2026;" horiz-adv-x="903" 
d="M251 81q0 -45 -26.5 -70t-74.5 -25q-46 0 -73 24.5t-27 71.5q0 41 28.5 68t71.5 27q48 0 74.5 -27t26.5 -69zM552 81q0 -45 -26.5 -70t-74.5 -25q-46 0 -73 24.5t-27 71.5q0 41 28.5 68t71.5 27q48 0 74.5 -27t26.5 -69zM853 81q0 -45 -26.5 -70t-74.5 -25
q-46 0 -73 24.5t-27 71.5q0 41 28.5 68t71.5 27q48 0 74.5 -27t26.5 -69z" />
    <glyph glyph-name="perthousand" unicode="&#x2030;" horiz-adv-x="919" 
d="M91 85q0 9 9 9t9 -9t-9 -9t-9 9zM127 139q0 6 4.5 10.5t10.5 4.5t10.5 -4.5t4.5 -10.5q0 -7 -4.5 -11.5t-10.5 -4.5t-10.5 4.5t-4.5 11.5zM163 192q0 8 6.5 14.5t14.5 6.5t14.5 -6.5t6.5 -14.5t-6.5 -14.5t-14.5 -6.5t-14.5 6.5t-6.5 14.5zM201 246q0 10 7.5 17t17.5 7
t17.5 -7t7.5 -17t-7.5 -17.5t-17.5 -7.5t-17.5 7.5t-7.5 17.5zM241 299q0 11 8 19t19 8t19 -8t8 -19t-8 -19t-19 -8t-19 8t-8 19zM282 353q0 11 8.5 19t19.5 8t19.5 -8t8.5 -19q0 -12 -8.5 -20t-19.5 -8t-19.5 8t-8.5 20zM325 406q0 11 8 19t19 8t19 -8t8 -19t-8 -19t-19 -8
t-19 8t-8 19zM369 460q0 10 7.5 17t17.5 7t17.5 -7t7.5 -17t-7.5 -17.5t-17.5 -7.5t-17.5 7.5t-7.5 17.5zM415 513q0 8 6.5 14.5t14.5 6.5t14.5 -6.5t6.5 -14.5t-6.5 -14.5t-14.5 -6.5t-14.5 6.5t-6.5 14.5zM463 567q0 6 4.5 10.5t10.5 4.5t10.5 -4.5t4.5 -10.5
q0 -7 -4.5 -11.5t-10.5 -4.5t-10.5 4.5t-4.5 11.5zM511 620q0 9 9 9t9 -9t-9 -9t-9 9zM417 21q18 0 26 21.5t8 87.5t-8 87.5t-26 21.5t-26.5 -22t-8.5 -87q0 -67 8 -88t27 -21zM417 -29q-143 0 -143 159q0 85 41 122.5t102 37.5q143 0 143 -160q0 -84 -41 -121.5t-102 -37.5
zM736 21q18 0 26 21.5t8 87.5t-8 87.5t-26 21.5t-26.5 -22t-8.5 -87q0 -67 8 -88t27 -21zM736 -29q-143 0 -143 159q0 85 41 122.5t102 37.5q143 0 143 -160q0 -84 -41 -121.5t-102 -37.5zM187 445q19 0 27 21.5t8 87.5t-8.5 87.5t-26.5 21.5t-26.5 -22t-8.5 -87
q0 -67 8 -88t27 -21zM187 395q-143 0 -143 159q0 84 41 122t102 38q143 0 143 -160q0 -85 -40.5 -122t-102.5 -37z" />
    <glyph glyph-name="guilsinglleft" unicode="&#x2039;" horiz-adv-x="288" 
d="M227 430l13 -10q-7 -36 -31 -85.5t-51 -85.5q25 -33 49 -82t32 -83l-13 -11q-91 76 -181 142v75q25 20 99 76.5t83 63.5z" />
    <glyph glyph-name="guilsinglright" unicode="&#x203a;" horiz-adv-x="288" 
d="M48 420l13 10q104 -77 182 -140v-75q-64 -47 -181 -142l-13 11q8 34 32 83t49 82q-26 35 -50 85t-32 86z" />
    <glyph glyph-name="fraction" unicode="&#x2044;" horiz-adv-x="150" 
d="M-221 -32q0 10 10 10t10 -10t-10 -10t-10 10zM-182 24q0 6 4.5 10.5t10.5 4.5t10.5 -4.5t4.5 -10.5t-4.5 -10.5t-10.5 -4.5t-10.5 4.5t-4.5 10.5zM-142 80q0 8 5.5 13.5t13.5 5.5t13.5 -5.5t5.5 -13.5t-6 -13.5t-13 -5.5t-13 5.5t-6 13.5zM-102 136q0 10 6.5 16.5
t16.5 6.5t16.5 -6.5t6.5 -16.5t-6.5 -16.5t-16.5 -6.5t-16.5 6.5t-6.5 16.5zM-61 192q0 11 7.5 19t18.5 8t18.5 -8t7.5 -19t-7.5 -18.5t-18.5 -7.5t-18.5 7.5t-7.5 18.5zM-20 248q0 12 8.5 20.5t20.5 8.5t20.5 -8.5t8.5 -20.5t-8.5 -20t-20.5 -8t-20.5 8t-8.5 20zM23 304
q0 13 8.5 21.5t21.5 8.5t21.5 -8.5t8.5 -21.5q0 -12 -8.5 -21t-21.5 -9t-21.5 9t-8.5 21zM67 361q0 12 8.5 21t21.5 9t21.5 -9t8.5 -21q0 -13 -8.5 -21.5t-21.5 -8.5t-21.5 8.5t-8.5 21.5zM112 417q0 12 8.5 20t20.5 8t20.5 -8t8.5 -20t-8.5 -20.5t-20.5 -8.5t-20.5 8.5
t-8.5 20.5zM159 473q0 11 7.5 18.5t18.5 7.5t18.5 -7.5t7.5 -18.5t-7.5 -19t-18.5 -8t-18.5 8t-7.5 19zM206 529q0 10 6.5 16.5t16.5 6.5t16.5 -6.5t6.5 -16.5t-6.5 -16.5t-16.5 -6.5t-16.5 6.5t-6.5 16.5zM254 585q0 7 6 13t13 6t13 -6t6 -13q0 -8 -5.5 -13.5t-13.5 -5.5
t-13.5 5.5t-5.5 13.5zM302 641q0 6 4.5 10.5t10.5 4.5t10.5 -4.5t4.5 -10.5t-4.5 -10.5t-10.5 -4.5t-10.5 4.5t-4.5 10.5zM351 697q0 10 10 10t10 -10t-10 -10t-10 10z" />
    <glyph glyph-name="Euro" unicode="&#x20ac;" horiz-adv-x="618" 
d="M23 449l37 -1q46 237 292 237q114 0 177 -44.5t63 -117.5q0 -43 -24 -66.5t-66 -23.5q-40 0 -62 19.5t-22 53.5t23.5 53.5t63.5 19.5q11 0 16 -1q-38 24 -94 24q-61 0 -96.5 -36t-47.5 -120l102 3q-1 -14 -1 -42.5t1 -41.5l-108 3v-54l107 3q-2 -13 -2 -42t2 -42l-102 3
q11 -90 46 -128t99 -38q65 0 96 24q-6 -1 -18 -1q-41 0 -64.5 21t-23.5 56q0 37 23 58.5t65 21.5q43 0 67 -26.5t24 -76.5q0 -75 -62 -121t-182 -46q-255 0 -294 254l-35 -1q2 41 0 84l28 -1v50l-28 -1q2 42 0 84z" />
    <glyph glyph-name="uni2116" unicode="&#x2116;" horiz-adv-x="1132" 
d="M1045 81q0 -45 -26.5 -70t-74.5 -25q-46 0 -73 24.5t-27 71.5q0 41 28.5 68t71.5 27q48 0 74.5 -27t26.5 -69zM945 280q85 0 85 121q0 65 -21.5 92.5t-63.5 27.5q-86 0 -86 -120q0 -66 21.5 -93.5t64.5 -27.5zM945 242q-69 0 -106.5 40.5t-37.5 118.5t38.5 119t105.5 41
q69 0 106.5 -40.5t37.5 -119.5q0 -78 -38 -118.5t-106 -40.5zM336 690q108 -175 262 -399q2 141 -1 221q-4 69 -62 69h-46v109q1 0 29 -1t66.5 -1.5t63.5 -0.5l159 3q-1 -16 -1 -54t1 -55h-33q-58 0 -62 -69q-2 -43 -2 -221.5t2 -291.5q-92 4 -185 0q-117 188 -293 452
q-2 -212 1 -276q3 -66 65 -66h46q-1 -16 -1 -55.5t1 -55.5q-103 2 -162 2l-162 -2q1 16 1 55.5t-1 55.5h32q61 0 66 66q2 40 2 174.5t-2 168.5q-5 63 -64 63h-33q1 17 1 55t-1 54q157 -4 313 0z" />
    <glyph glyph-name="trademark" unicode="&#x2122;" horiz-adv-x="718" 
d="M699 634h-13q-21 0 -23 -25q-1 -12 -1 -48t1 -52t5.5 -22.5t17.5 -6.5h13q-1 -8 -1 -28t1 -28q-56 1 -86 1l-83 -1v56h11q22 0 24 29v73q-10 -19 -35 -61.5t-33 -58.5h-21q-40 69 -71 118v-22v-28.5v-20.5q2 -29 26 -29h14q-1 -8 -1 -28t1 -28q-39 1 -61 1l-65 -1
q1 8 1 28t-1 28h15q22 0 24 29q1 13 1 49.5t-1 49.5q-2 26 -24 26h-15q1 7 1 26.5t-1 27.5q73 -2 143 0q20 -40 58 -98q23 38 53 98q61 -2 126 0q-1 -8 -1 -27t1 -27zM101 687h121q53 0 81 2q-5 -70 -1 -126q-8 1 -27.5 1t-26.5 -1l-1 28q-2 18 -7 25.5t-18 7.5h-14
q-2 -95 1 -118q2 -26 26 -26h12v-56q-55 1 -85 1l-85 -1v56h12q24 0 26 26q3 46 0 118h-14q-14 0 -19 -7.5t-6 -25.5l-1 -28q-7 1 -26 1t-27 -1q2 65 -2 126q19 -2 81 -2z" />
    <glyph glyph-name="onethird" unicode="&#x2153;" horiz-adv-x="378" 
d="M8 344q0 23 24 23q10 0 16.5 -6.5t6.5 -16.5q0 -24 -23 -24q-24 0 -24 24zM74 344q0 20 21 20q20 0 20 -20q0 -21 -20 -21q-21 0 -21 21zM139 344q0 18 19 18q8 0 13 -5t5 -13q0 -19 -18 -19q-19 0 -19 19zM202 344q0 18 19 18q7 0 12.5 -5t5.5 -13q0 -19 -18 -19
q-19 0 -19 19zM263 344q0 20 21 20q20 0 20 -20q0 -21 -20 -21q-21 0 -21 21zM323 344q0 23 24 23q10 0 16.5 -6.5t6.5 -16.5q0 -24 -23 -24q-24 0 -24 24zM103 455q30 0 30 28v113l-55 -1v58h17q83 0 91 57q10 -1 33.5 -1t33.5 1q-6 -76 -6 -134v-93q0 -28 30 -28h30
q-1 -7 -1 -26t1 -27q-76 2 -118 2l-118 -2q1 8 1 27t-1 26h32zM316 206q0 -54 -70 -72q82 -13 82 -73q0 -91 -154 -91q-58 0 -91 22.5t-32 58.5q0 22 14.5 35t38.5 13q23 0 37 -10.5t14 -26.5q0 -20 -17 -30.5t-45 -7.5q20 -15 49 -15q61 0 61 54q0 52 -62 52h-10v32h10
q58 2 58 52q0 46 -52 46q-36 0 -51 -21q11 4 26 4q40 0 40 -32q0 -15 -12.5 -25.5t-34.5 -10.5q-24 0 -38.5 13t-14.5 36q0 38 36 59.5t93 21.5q58 0 91.5 -23t33.5 -61z" />
    <glyph glyph-name="twothirds" unicode="&#x2154;" horiz-adv-x="378" 
d="M8 344q0 23 24 23q10 0 16.5 -6.5t6.5 -16.5q0 -24 -23 -24q-24 0 -24 24zM74 344q0 20 21 20q20 0 20 -20q0 -21 -20 -21q-21 0 -21 21zM139 344q0 18 19 18q8 0 13 -5t5 -13q0 -19 -18 -19q-19 0 -19 19zM202 344q0 18 19 18q7 0 12.5 -5t5.5 -13q0 -19 -18 -19
q-19 0 -19 19zM263 344q0 20 21 20q20 0 20 -20q0 -21 -20 -21q-21 0 -21 21zM323 344q0 23 24 23q10 0 16.5 -6.5t6.5 -16.5q0 -24 -23 -24q-24 0 -24 24zM312 514q10 -16 12.5 -36.5t-3.5 -39t-26 -31.5t-51 -13q-42 0 -91 29q-45 25 -71 9q11 1 18 -4.5t7 -13.5
q0 -20 -24 -20q-32 0 -32 40q0 29 16.5 54t33 37t47.5 30q28 16 39.5 30t11.5 35q0 49 -53 49q-38 0 -53 -22q13 5 29 5q41 0 41 -34q0 -17 -13 -27t-37 -10q-52 0 -52 48q0 42 35.5 63.5t90.5 21.5q66 0 97.5 -24t31.5 -63q0 -48 -30.5 -69t-89.5 -34q-84 -21 -105 -52
q35 32 110 15q38 -11 61.5 -6.5t20.5 29.5zM316 206q0 -54 -70 -72q82 -13 82 -73q0 -91 -154 -91q-58 0 -91 22.5t-32 58.5q0 22 14.5 35t38.5 13q23 0 37 -10.5t14 -26.5q0 -20 -17 -30.5t-45 -7.5q20 -15 49 -15q61 0 61 54q0 52 -62 52h-10v32h10q58 2 58 52
q0 46 -52 46q-36 0 -51 -21q11 4 26 4q40 0 40 -32q0 -15 -12.5 -25.5t-34.5 -10.5q-24 0 -38.5 13t-14.5 36q0 38 36 59.5t93 21.5q58 0 91.5 -23t33.5 -61z" />
    <glyph glyph-name="oneeighth" unicode="&#x215b;" horiz-adv-x="378" 
d="M8 344q0 23 24 23q10 0 16.5 -6.5t6.5 -16.5q0 -24 -23 -24q-24 0 -24 24zM74 344q0 20 21 20q20 0 20 -20q0 -21 -20 -21q-21 0 -21 21zM139 344q0 18 19 18q8 0 13 -5t5 -13q0 -19 -18 -19q-19 0 -19 19zM202 344q0 18 19 18q7 0 12.5 -5t5.5 -13q0 -19 -18 -19
q-19 0 -19 19zM263 344q0 20 21 20q20 0 20 -20q0 -21 -20 -21q-21 0 -21 21zM323 344q0 23 24 23q10 0 16.5 -6.5t6.5 -16.5q0 -24 -23 -24q-24 0 -24 24zM103 455q30 0 30 28v113l-55 -1v58h17q83 0 91 57q10 -1 33.5 -1t33.5 1q-6 -76 -6 -134v-93q0 -28 30 -28h30
q-1 -7 -1 -26t1 -27q-76 2 -118 2l-118 -2q1 8 1 27t-1 26h32zM313 221q0 -35 -35 -52q57 -26 57 -85q0 -54 -40 -83.5t-110 -29.5q-141 0 -141 71q0 41 56 56q-48 27 -48 84q0 49 36 78.5t104 29.5q58 0 89.5 -18.5t31.5 -50.5zM161 79q-20 3 -32 7q-17 -14 -17 -37
q0 -37 71 -37q75 0 75 30q0 15 -17 21t-80 16zM191 252q-25 0 -41.5 -8.5t-16.5 -22.5t15.5 -21t68.5 -15l22 -4q12 14 12 34q0 16 -15 26.5t-45 10.5z" />
    <glyph glyph-name="threeeighths" unicode="&#x215c;" horiz-adv-x="378" 
d="M8 344q0 23 24 23q10 0 16.5 -6.5t6.5 -16.5q0 -24 -23 -24q-24 0 -24 24zM74 344q0 20 21 20q20 0 20 -20q0 -21 -20 -21q-21 0 -21 21zM139 344q0 18 19 18q8 0 13 -5t5 -13q0 -19 -18 -19q-19 0 -19 19zM202 344q0 18 19 18q7 0 12.5 -5t5.5 -13q0 -19 -18 -19
q-19 0 -19 19zM263 344q0 20 21 20q20 0 20 -20q0 -21 -20 -21q-21 0 -21 21zM323 344q0 23 24 23q10 0 16.5 -6.5t6.5 -16.5q0 -24 -23 -24q-24 0 -24 24zM316 630q0 -54 -70 -72q82 -13 82 -73q0 -91 -154 -91q-58 0 -91 22.5t-32 58.5q0 22 14.5 34.5t38.5 12.5t37.5 -10
t13.5 -26q0 -20 -17 -30.5t-45 -7.5q20 -15 49 -15q61 0 61 54q0 52 -62 52h-11v31h11q58 2 58 53q0 46 -52 46q-36 0 -51 -21q11 4 26 4q40 0 40 -32q0 -15 -12.5 -25.5t-34.5 -10.5q-24 0 -38.5 13t-14.5 36q0 38 36 59.5t93 21.5q58 0 91.5 -23t33.5 -61zM313 221
q0 -35 -35 -52q57 -26 57 -85q0 -54 -40 -83.5t-110 -29.5q-141 0 -141 71q0 41 56 56q-48 27 -48 84q0 49 36 78.5t104 29.5q58 0 89.5 -18.5t31.5 -50.5zM161 79q-20 3 -32 7q-17 -14 -17 -37q0 -37 71 -37q75 0 75 30q0 15 -17 21t-80 16zM191 252q-25 0 -41.5 -8.5
t-16.5 -22.5t15.5 -21t68.5 -15l22 -4q12 14 12 34q0 16 -15 26.5t-45 10.5z" />
    <glyph glyph-name="fiveeighths" unicode="&#x215d;" horiz-adv-x="378" 
d="M8 344q0 23 24 23q10 0 16.5 -6.5t6.5 -16.5q0 -24 -23 -24q-24 0 -24 24zM74 344q0 20 21 20q20 0 20 -20q0 -21 -20 -21q-21 0 -21 21zM139 344q0 18 19 18q8 0 13 -5t5 -13q0 -19 -18 -19q-19 0 -19 19zM202 344q0 18 19 18q7 0 12.5 -5t5.5 -13q0 -19 -18 -19
q-19 0 -19 19zM263 344q0 20 21 20q20 0 20 -20q0 -21 -20 -21q-21 0 -21 21zM323 344q0 23 24 23q10 0 16.5 -6.5t6.5 -16.5q0 -24 -23 -24q-24 0 -24 24zM132 549q-26 0 -50 -12l-14 13q33 54 29 159q24 -8 100 -8q85 0 117 13l6 -40q-28 -57 -116 -57q-53 0 -86 19
q-3 -32 -16 -61q40 19 101 19q125 0 125 -95q0 -50 -39.5 -77t-112.5 -27q-60 0 -93 20t-33 55q0 24 14 37.5t39 13.5q48 0 48 -37q0 -41 -54 -38q15 -12 42 -12q59 0 59 58q0 57 -66 57zM313 221q0 -35 -35 -52q57 -26 57 -85q0 -54 -40 -83.5t-110 -29.5q-141 0 -141 71
q0 41 56 56q-48 27 -48 84q0 49 36 78.5t104 29.5q58 0 89.5 -18.5t31.5 -50.5zM161 79q-20 3 -32 7q-17 -14 -17 -37q0 -37 71 -37q75 0 75 30q0 15 -17 21t-80 16zM191 252q-25 0 -41.5 -8.5t-16.5 -22.5t15.5 -21t68.5 -15l22 -4q12 14 12 34q0 16 -15 26.5t-45 10.5z
" />
    <glyph glyph-name="seveneighths" unicode="&#x215e;" horiz-adv-x="378" 
d="M8 344q0 23 24 23q10 0 16.5 -6.5t6.5 -16.5q0 -24 -23 -24q-24 0 -24 24zM74 344q0 20 21 20q20 0 20 -20q0 -21 -20 -21q-21 0 -21 21zM139 344q0 18 19 18q8 0 13 -5t5 -13q0 -19 -18 -19q-19 0 -19 19zM202 344q0 18 19 18q7 0 12.5 -5t5.5 -13q0 -19 -18 -19
q-19 0 -19 19zM263 344q0 20 21 20q20 0 20 -20q0 -21 -20 -21q-21 0 -21 21zM323 344q0 23 24 23q10 0 16.5 -6.5t6.5 -16.5q0 -24 -23 -24q-24 0 -24 24zM90 716l8 -27q13 26 51 26q29 0 75 -35q43 -32 79 -13q-15 -3 -26 3.5t-11 19.5q0 27 29 27q35 0 35 -43
q0 -44 -40 -77q-33 -28 -42.5 -57.5t-5.5 -84.5q2 -32 -19.5 -46.5t-53.5 -14.5q-66 0 -67 54q-1 51 34 83t106 62q26 12 37 21q-56 -29 -117 -12q-65 17 -63 -23q-5 1 -21.5 1t-21.5 -1q6 40 -1 137q5 -1 17.5 -1t17.5 1zM313 221q0 -35 -35 -52q57 -26 57 -85
q0 -54 -40 -83.5t-110 -29.5q-141 0 -141 71q0 41 56 56q-48 27 -48 84q0 49 36 78.5t104 29.5q58 0 89.5 -18.5t31.5 -50.5zM161 79q-20 3 -32 7q-17 -14 -17 -37q0 -37 71 -37q75 0 75 30q0 15 -17 21t-80 16zM191 252q-25 0 -41.5 -8.5t-16.5 -22.5t15.5 -21t68.5 -15
l22 -4q12 14 12 34q0 16 -15 26.5t-45 10.5z" />
    <glyph glyph-name="minus" unicode="&#x2212;" 
d="M80 201q4 49 0 100q221 -4 440 0q-4 -50 0 -100q-219 4 -440 0z" />
    <glyph glyph-name="notequal" unicode="&#x2260;" 
d="M80 289q3 43 0 88q124 -2 244 -2q5 15 16.5 53.5t19.5 61.5q15 -4 29 0q-24 -70 -38 -115q79 0 169 2q-3 -44 0 -88q-51 1 -196 1q-11 -32 -25 -79q107 0 221 2q-3 -44 0 -88q-63 1 -248 1q-7 -21 -20 -64.5t-19 -61.5q-15 4 -29 0l41 126q-121 0 -165 -1q3 43 0 88
q100 -2 193 -2q11 36 25 79q-162 0 -218 -1z" />
    <glyph glyph-name="lessequal" unicode="&#x2264;" 
d="M139 222v54q210 130 279 180l40 -77q-69 -32 -243 -130q185 -104 243 -130l-17 -32q56 0 79 1q-3 -44 0 -88q-219 4 -440 0q3 43 0 88q138 -2 273 -2q-88 58 -214 136z" />
    <glyph glyph-name="greaterequal" unicode="&#x2265;" 
d="M457 276v-54q-126 -78 -214 -136q137 0 277 2q-3 -44 0 -88q-219 4 -440 0q3 43 0 88q21 -1 75 -1l-16 32q62 28 243 130q-168 94 -243 130l39 77q77 -55 279 -180z" />
    <glyph glyph-name="space_uni0326" horiz-adv-x="218" 
d="M35 176q107 20 117 104q-14 -23 -48 -23q-23 0 -36.5 15.5t-13.5 43.5q0 29 18 46.5t49 17.5q32 0 49 -21.5t17 -58.5q0 -58 -40.5 -95.5t-105.5 -48.5z" />
    <glyph glyph-name="dotlessI" horiz-adv-x="427" 
d="M23 -3q1 16 1 56t-1 56h32q29 0 39 12.5t13 40.5q2 35 2 182t-2 181q-2 30 -14 43t-38 13h-32q1 17 1 55t-1 54q123 -2 191 -2q30 0 76 0.5t80 1.5h34q-1 -16 -1 -54.5t1 -54.5h-32q-26 0 -38 -13t-14 -43q-3 -36 -2.5 -180.5t2.5 -182.5q2 -27 13 -40t39 -13h31
q-1 -16 -1 -55.5t1 -56.5q-121 3 -190 3z" />
    <glyph glyph-name="Jacute" horiz-adv-x="591" 
d="M333 740l-8 12q25 37 61 73.5t67 54.5q23 12 42.5 12.5t30.5 -10.5t14 -25t-6.5 -31t-31.5 -30q-71 -42 -169 -56zM210 155q0 -43 -29 -66.5t-77 -22.5q28 -18 71 -18q51 0 77 31.5t30 114.5q2 59 2 178.5t-2 152.5q-2 30 -13.5 43t-38.5 13h-35q1 16 1 54.5t-1 54.5
q120 -2 187 -2q30 0 75 0.5t79 1.5h33q-1 -16 -1 -54t1 -55h-22q-27 0 -39 -11.5t-13 -44.5v-324q1 -105 -70 -161.5t-199 -56.5q-102 0 -157.5 42.5t-55.5 114.5q0 47 28 76t77 29q42 0 67 -24t25 -66z" />
    <glyph glyph-name="idotaccent" horiz-adv-x="327" 
d="M258 475q-2 -39 -2 -171.5t1 -162.5q1 -29 11.5 -40t36.5 -11h10q-2 -51 0 -92q-1 0 -27.5 0.5t-63 1t-60.5 0.5h-36t-40.5 -0.5t-36.5 -1t-27.5 -0.5h-11.5q2 42 0 92h10q26 0 35 10.5t11 39.5q2 31 2 99t-1 96q-2 28 -11.5 38t-34.5 10h-11q2 45 0 90q138 0 246 2z
M262 621q0 -48 -27.5 -75.5t-74.5 -27.5t-74 27.5t-27 75.5q0 47 27 74.5t74 27.5t74.5 -27.5t27.5 -74.5z" />
    <glyph glyph-name="jacute" horiz-adv-x="316" 
d="M62 -88q0 -29 -21 -48t-62 -12q19 -14 46 -14q68 0 72 96q2 53 2.5 217.5t-1.5 185.5q-3 46 -43 46h-11v90q204 0 243 3v-111v-221.5v-124.5q0 -108 -53.5 -163.5t-155.5 -55.5q-71 0 -112 27t-41 74q0 35 19.5 54.5t53.5 19.5q30 0 47 -17t17 -46zM145 524l-8 12
q25 37 61 73.5t67 54.5q23 12 42.5 12.5t30.5 -10.5t14 -25t-6.5 -31t-31.5 -30q-71 -42 -169 -56z" />
    <glyph glyph-name="C.round" horiz-adv-x="727" 
d="M364 710q170 0 222 -92q14 34 21 75q14 -1 47.5 -1t46.5 1q-5 -35 -11.5 -123.5t-7.5 -139.5q-73 4 -149 0q-5 79 -32.5 119t-91.5 40q-71 0 -102.5 -52t-31.5 -191q0 -75 9.5 -125.5t28.5 -75.5t40.5 -34.5t51.5 -9.5q63 0 97.5 42.5t34.5 125.5q26 -1 81.5 -1t81.5 1
q-1 -155 -75.5 -220.5t-260.5 -65.5q-159 0 -245 84.5t-86 278.5q0 179 90.5 271.5t240.5 92.5z" />
    <glyph glyph-name="G.round" horiz-adv-x="781" 
d="M404 101q54 -1 84.5 29.5t30.5 90.5q0 37 -10 52.5t-39 15.5h-33v82q111 -3 169 -3l163 3v-82h-23q-21 0 -28.5 -12t-7.5 -41q0 -147 14 -238q-60 4 -119 0q-8 33 -28 84q-26 -46 -81.5 -72.5t-129.5 -26.5q-77 0 -135 18t-104 58.5t-70 112.5t-24 174q0 180 89.5 272
t241.5 92q167 0 220 -97q11 26 23 80q54 -2 94 0q-5 -35 -11.5 -123.5t-7.5 -139.5q-87 5 -149 0q-5 79 -32 119t-93 40q-71 0 -102 -52.5t-31 -193.5q0 -73 10 -122t28.5 -74.5t40 -35.5t50.5 -10z" />
    <glyph glyph-name="S.round" horiz-adv-x="694" 
d="M345 601q-125 0 -125 -66q0 -33 32 -46t124 -20q67 -5 118.5 -19t93.5 -40.5t64.5 -71.5t22.5 -107q0 -121 -75.5 -184.5t-219.5 -63.5q-156 0 -232 84q-17 -32 -26 -73q-10 2 -44 2t-44 -2q14 138 8 233q11 -1 42 -1t42 1q50 -140 251 -140q134 0 134 71q0 34 -39 49.5
t-139 23.5q-147 10 -214.5 68.5t-67.5 167.5q0 112 75 176t199 64q141 0 207 -71q17 32 26 57q9 -1 41 -1t42 1q-13 -89 -7 -209q-11 1 -41.5 1t-41.5 -1q-46 117 -206 117z" />
    <glyph glyph-name="s.round" horiz-adv-x="501" 
d="M382 336q-34 71 -131 71q-76 0 -76 -37q0 -20 23.5 -29.5t99.5 -16.5q185 -16 185 -172q0 -79 -50.5 -124.5t-152.5 -45.5q-116 0 -170 65q-17 -19 -29 -49q-31 4 -62 0q13 87 10 156q31 -4 63 0q24 -44 66.5 -70.5t98.5 -26.5q75 0 75 41q0 18 -20.5 27.5t-83.5 14.5
q-104 8 -152.5 54t-48.5 121q0 77 56 124.5t153 47.5q94 0 136 -54q20 26 25 44q29 -2 60 0q-8 -64 -10 -141q-33 2 -65 0z" />
    <glyph glyph-name="Cacute.round" horiz-adv-x="727" 
d="M335 740l-8 12q25 37 61 73.5t67 54.5q23 12 42.5 12.5t30.5 -10.5t14 -25t-6.5 -31t-31.5 -30q-71 -42 -169 -56zM364 710q170 0 222 -92q14 34 21 75q14 -1 47.5 -1t46.5 1q-5 -35 -11.5 -123.5t-7.5 -139.5q-73 4 -149 0q-5 79 -32.5 119t-91.5 40q-71 0 -102.5 -52
t-31.5 -191q0 -75 9.5 -125.5t28.5 -75.5t40.5 -34.5t51.5 -9.5q63 0 97.5 42.5t34.5 125.5q26 -1 81.5 -1t81.5 1q-1 -155 -75.5 -220.5t-260.5 -65.5q-159 0 -245 84.5t-86 278.5q0 179 90.5 271.5t240.5 92.5z" />
    <glyph glyph-name="Ccaron.round" horiz-adv-x="727" 
d="M230 897l9 10q31 -7 72 -26.5t70 -41.5q67 49 138 68l9 -11q-29 -79 -112 -149h-76q-69 56 -110 150zM364 710q170 0 222 -92q14 34 21 75q14 -1 47.5 -1t46.5 1q-5 -35 -11.5 -123.5t-7.5 -139.5q-73 4 -149 0q-5 79 -32.5 119t-91.5 40q-71 0 -102.5 -52t-31.5 -191
q0 -75 9.5 -125.5t28.5 -75.5t40.5 -34.5t51.5 -9.5q63 0 97.5 42.5t34.5 125.5q26 -1 81.5 -1t81.5 1q-1 -155 -75.5 -220.5t-260.5 -65.5q-159 0 -245 84.5t-86 278.5q0 179 90.5 271.5t240.5 92.5z" />
    <glyph glyph-name="Ccedilla.round" horiz-adv-x="727" 
d="M364 710q170 0 222 -92q14 34 21 75q14 -1 47.5 -1t46.5 1q-5 -35 -11.5 -123.5t-7.5 -139.5q-73 4 -149 0q-5 79 -32.5 119t-91.5 40q-71 0 -102.5 -52t-31.5 -191q0 -75 9.5 -125.5t28.5 -75.5t40.5 -34.5t51.5 -9.5q63 0 97.5 42.5t34.5 125.5q26 -1 81.5 -1t81.5 1
q-1 -148 -68.5 -214t-232.5 -71q-3 -28 -25 -50q50 3 79.5 -19t29.5 -61q0 -43 -32 -68.5t-89 -25.5q-80 0 -117 58l24 22q28 -33 65 -33q53 0 53 49q0 27 -22.5 38t-57.5 -2l-12 25q54 22 66 66q-77 0 -135.5 19.5t-102.5 61t-67 112.5t-23 170q0 179 90.5 271.5
t240.5 92.5z" />
    <glyph glyph-name="Ccircumflex.round" horiz-adv-x="727" 
d="M521 743l-9 -11q-74 17 -142 69q-67 -51 -138 -68l-9 11q29 78 112 148h76q67 -53 110 -149zM364 710q170 0 222 -92q14 34 21 75q14 -1 47.5 -1t46.5 1q-5 -35 -11.5 -123.5t-7.5 -139.5q-73 4 -149 0q-5 79 -32.5 119t-91.5 40q-71 0 -102.5 -52t-31.5 -191
q0 -75 9.5 -125.5t28.5 -75.5t40.5 -34.5t51.5 -9.5q63 0 97.5 42.5t34.5 125.5q26 -1 81.5 -1t81.5 1q-1 -155 -75.5 -220.5t-260.5 -65.5q-159 0 -245 84.5t-86 278.5q0 179 90.5 271.5t240.5 92.5z" />
    <glyph glyph-name="Cdotaccent.round" horiz-adv-x="727" 
d="M364 710q170 0 222 -92q14 34 21 75q14 -1 47.5 -1t46.5 1q-5 -35 -11.5 -123.5t-7.5 -139.5q-73 4 -149 0q-5 79 -32.5 119t-91.5 40q-71 0 -102.5 -52t-31.5 -191q0 -75 9.5 -125.5t28.5 -75.5t40.5 -34.5t51.5 -9.5q63 0 97.5 42.5t34.5 125.5q26 -1 81.5 -1t81.5 1
q-1 -155 -75.5 -220.5t-260.5 -65.5q-159 0 -245 84.5t-86 278.5q0 179 90.5 271.5t240.5 92.5zM448 824q0 -32 -18.5 -51t-50.5 -19q-31 0 -49.5 19t-18.5 51t18.5 50t49.5 18q32 0 50.5 -18.5t18.5 -49.5z" />
    <glyph glyph-name="Gbreve.round" horiz-adv-x="781" 
d="M404 101q54 -1 84.5 29.5t30.5 90.5q0 37 -10 52.5t-39 15.5h-33v82q111 -3 169 -3l163 3v-82h-23q-21 0 -28.5 -12t-7.5 -41q0 -147 14 -238q-60 4 -119 0q-8 33 -28 84q-26 -46 -81.5 -72.5t-129.5 -26.5q-77 0 -135 18t-104 58.5t-70 112.5t-24 174q0 180 89.5 272
t241.5 92q167 0 220 -97q11 26 23 80q54 -2 94 0q-5 -35 -11.5 -123.5t-7.5 -139.5q-87 5 -149 0q-5 79 -32 119t-93 40q-71 0 -102 -52.5t-31 -193.5q0 -73 10 -122t28.5 -74.5t40 -35.5t50.5 -10zM374 742q-75 0 -110.5 41t-26.5 104l28 2q5 -55 109 -55t109 55l28 -2
q9 -63 -26.5 -104t-110.5 -41z" />
    <glyph glyph-name="Gcircumflex.round" horiz-adv-x="781" 
d="M527 743l-9 -11q-74 17 -142 69q-67 -51 -138 -68l-9 11q29 78 112 148h76q67 -53 110 -149zM404 101q54 -1 84.5 29.5t30.5 90.5q0 37 -10 52.5t-39 15.5h-33v82q111 -3 169 -3l163 3v-82h-23q-21 0 -28.5 -12t-7.5 -41q0 -147 14 -238q-60 4 -119 0q-8 33 -28 84
q-26 -46 -81.5 -72.5t-129.5 -26.5q-77 0 -135 18t-104 58.5t-70 112.5t-24 174q0 180 89.5 272t241.5 92q167 0 220 -97q11 26 23 80q54 -2 94 0q-5 -35 -11.5 -123.5t-7.5 -139.5q-87 5 -149 0q-5 79 -32 119t-93 40q-71 0 -102 -52.5t-31 -193.5q0 -73 10 -122
t28.5 -74.5t40 -35.5t50.5 -10z" />
    </font>
</defs>
</svg>
