<?xml version="1.0" standalone="no"?>
<!DOCTYPE svg PUBLIC "-//W3C//DTD SVG 1.1//EN" "http://www.w3.org/Graphics/SVG/1.1/DTD/svg11.dtd" >
<svg>
<metadata>
Created by FontForge 20110222 at Mon Apr 21 12:31:27 2014
 By Orthosie Webhosting
(C)2010 House Industries/Brand Design Co., Inc. All Rights Reserved.
</metadata>
<defs>
<font id="EamesCenturyModernExtraBoldItalic" horiz-adv-x="600" >
  <font-face 
    font-family="EamesCenturyModernExtraBoldItalic"
    font-weight="800"
    font-style="italic"
    font-stretch="normal"
    units-per-em="1000"
    panose-1="2 0 9 3 7 7 5 2 2 3"
    ascent="820"
    descent="-180"
    x-height="487"
    cap-height="689"
    bbox="-221 -277 1203 1102.85"
    underline-thickness="50"
    underline-position="-50"
    slope="-8.28"
    unicode-range="U+0020-FB04"
  />
<missing-glyph horiz-adv-x="500" 
 />
    <glyph glyph-name="f_f" unicode="ff" horiz-adv-x="683" 
d="M696 654q-42 0 -69 -42.5t-46 -146.5l106 2l-11 -53l-104 2l-6 -45q-41 -302 -120.5 -437.5t-205.5 -135.5q-58 0 -87.5 26.5t-20.5 66.5q5 25 23 39t44 14q28 0 42.5 -17.5t7.5 -42.5q-6 -21 -26 -31t-42 -8q12 -7 27 -7q64 0 89.5 77.5t58.5 301.5q15 109 45 201h-124
l-6 -47q-41 -300 -123.5 -436.5t-208.5 -136.5q-58 0 -87.5 26.5t-20.5 66.5q5 25 23 39t44 14q28 0 42.5 -17.5t7.5 -42.5q-6 -21 -26 -31t-42 -8q12 -7 27 -7q23 0 40.5 9t32 32t24.5 49.5t20.5 75t18 94t18.5 119.5q16 110 44 198l-62 -2l8 54l71 -2q27 70 62.5 120.5
t72 76t68.5 36.5t64 11q55 0 86.5 -22.5t37.5 -59.5q77 82 171 82q67 0 99 -32.5t26 -82.5q-12 -85 -87 -85q-34 0 -52.5 19t-13.5 49q5 27 29 43.5t61 9.5q-18 24 -50 24zM401 654q-43 0 -69.5 -43t-46.5 -148h131q1 2 8.5 20t11.5 26h-9q-34 0 -52.5 19t-13.5 49
q5 27 29 43.5t61 9.5q-18 24 -50 24z" />
    <glyph glyph-name="f_i" unicode="fi" horiz-adv-x="612" 
d="M411 654q-48 0 -76 -40t-49 -151q172 0 288 5q-42 -188 -66 -318q-5 -26 -7 -38.5t-3 -26t2 -19t10 -5.5q32 0 51 135l40 -1q-9 -92 -51.5 -155t-114.5 -63q-76 0 -97.5 47.5t2.5 171.5l45 218l-107 2q-3 -15 -7 -45q-41 -300 -123.5 -436.5t-208.5 -136.5
q-58 0 -87.5 26.5t-20.5 66.5q5 25 23 39t44 14q28 0 42.5 -17.5t7.5 -42.5q-6 -21 -25.5 -31t-41.5 -8q10 -7 26 -7q23 0 40.5 9t32 32t24.5 49.5t20.5 75t18 94t18.5 119.5q16 110 44 198l-62 -2l8 54l71 -2q27 70 62.5 120.5t72.5 76t69.5 36.5t65.5 11q80 0 114 -32
t28 -83q-6 -42 -29.5 -63.5t-57.5 -21.5t-52.5 19t-13.5 49q5 27 28.5 43t60.5 10q-20 24 -59 24z" />
    <glyph glyph-name="f_l" unicode="fl" horiz-adv-x="644" 
d="M411 654q-47 0 -75.5 -40t-49.5 -149l86 2l-10 -54l-84 2l-7 -44q-41 -300 -123.5 -436.5t-208.5 -136.5q-58 0 -87.5 26.5t-20.5 66.5q5 25 23 39t44 14q28 0 42.5 -17.5t7.5 -42.5q-6 -21 -25.5 -31t-41.5 -8q10 -7 26 -7q23 0 40.5 9t32 32t24.5 49.5t20.5 75t18 94
t18.5 119.5q16 110 44 198l-62 -2l8 54l71 -2q27 70 62.5 120.5t72.5 76t69.5 36.5t65.5 11q59 0 94 -19h151q0 -68 -16 -139q-42 -182 -84 -409q-6 -36 -7 -53.5t2.5 -22t11.5 -4.5q30 0 47 134l40 -1q-9 -95 -52 -156t-125 -61q-75 0 -98.5 45t1.5 156q26 115 72 332
q-26 5 -39 22.5t-9 43.5q5 27 28.5 43t60.5 10q-20 24 -59 24z" />
    <glyph glyph-name="f_f_i" unicode="ffi" horiz-adv-x="911" 
d="M706 654q-48 0 -76 -40t-49 -151q176 0 291 5q-28 -123 -66 -318q-13 -74 -7 -84q3 -5 9 -5q32 0 51 135l40 -1q-9 -92 -51.5 -155t-114.5 -63q-76 0 -97.5 47.5t2.5 171.5l45 218l-110 2q-3 -15 -7 -45q-41 -302 -120.5 -437.5t-205.5 -135.5q-58 0 -87.5 26.5
t-20.5 66.5q5 25 23 39t44 14q28 0 42.5 -17.5t7.5 -42.5q-6 -21 -25.5 -31t-41.5 -8q11 -7 26 -7q64 0 89.5 77.5t58.5 301.5q15 109 45 201l-124 -1l-6 -46q-41 -300 -123.5 -436.5t-208.5 -136.5q-58 0 -87.5 26.5t-20.5 66.5q5 25 23 39t44 14q28 0 42.5 -17.5
t7.5 -42.5q-6 -21 -26 -31t-42 -8q12 -7 27 -7q23 0 40.5 9t32 32t24.5 49.5t20.5 75t18 94t18.5 119.5q16 110 44 198l-62 -2l8 54l71 -3q36 93 86.5 150.5t93.5 76t87 18.5q55 0 87 -22.5t38 -59.5q77 82 173 82q80 0 114 -32t28 -83q-6 -42 -29.5 -63.5t-57.5 -21.5
t-52.5 19t-13.5 49q5 27 28.5 43t60.5 10q-19 24 -59 24zM401 654q-43 0 -69.5 -43t-46.5 -149l132 1q12 32 19 46h-9q-34 0 -52.5 19t-13.5 49q5 27 29 43.5t61 9.5q-18 24 -50 24z" />
    <glyph glyph-name="f_f_l" unicode="ffl" horiz-adv-x="925" 
d="M43 413l8 54l71 -2q27 70 62.5 120.5t72 76t68.5 36.5t64 11q55 0 87 -22.5t38 -59.5q77 82 173 82q59 0 94 -19h137q0 -68 -16 -139q-42 -182 -84 -409q-5 -27 -7 -43t-0.5 -24.5t4.5 -10.5t9 -2q30 0 47 134l40 -1q-9 -95 -52 -156t-125 -61q-75 0 -98 45t2 156
q22 98 72 335q-42 17 -34 63q5 27 28.5 43t60.5 10q-19 24 -59 24q-47 0 -75.5 -40t-49.5 -149l76 2l-10 -53l-74 2q-3 -15 -7 -45q-41 -302 -120.5 -437.5t-205.5 -135.5q-58 0 -87.5 26.5t-20.5 66.5q5 25 23 39t44 14q28 0 42.5 -17.5t7.5 -42.5q-6 -21 -25.5 -31
t-41.5 -8q11 -7 26 -7q64 0 89.5 77.5t58.5 301.5q15 109 45 201h-124l-6 -47q-41 -300 -123.5 -436.5t-208.5 -136.5q-58 0 -87.5 26.5t-20.5 66.5q5 25 23 39t44 14q28 0 42.5 -17.5t7.5 -42.5q-6 -21 -26 -31t-42 -8q12 -7 27 -7q23 0 40.5 9t32 32t24.5 49.5t20.5 75
t18 94t18.5 119.5q16 110 44 198zM401 654q-43 0 -69.5 -43t-46.5 -148h132q12 32 19 46h-9q-34 0 -52.5 19t-13.5 49q5 27 29 43.5t61 9.5q-18 24 -50 24z" />
    <glyph glyph-name="f_j" unicode="fj" horiz-adv-x="583" 
d="M411 654q-48 0 -76 -40t-49 -151q174 0 292 5q-2 -8 -13 -67.5t-29.5 -156t-37.5 -185.5q-27 -132 -86 -183.5t-166 -51.5q-53 0 -86 23t-32 57q-77 -106 -189 -106q-58 0 -87.5 26.5t-20.5 66.5q5 25 23 39t44 14q28 0 42.5 -17.5t7.5 -42.5q-6 -21 -25.5 -31t-41.5 -8
q10 -7 26 -7q23 0 40.5 9t32 32t24.5 49.5t20.5 75t18 94t18.5 119.5q16 110 44 198l-62 -2l8 54l71 -2q27 70 62.5 120.5t72.5 76t69.5 36.5t65.5 11q80 0 114 -32t28 -83q-6 -42 -29.5 -63.5t-57.5 -21.5t-52.5 19t-13.5 49q5 27 28.5 43t60.5 10q-20 24 -59 24zM204 -137
q38 0 61.5 28.5t32.5 60.5t24 109q5 23 7 35l60 318l-111 2q-3 -15 -7 -45q-37 -270 -108 -407q14 7 35 7q28 0 42.5 -17.5t6.5 -43.5q-6 -21 -27 -30.5t-44 -7.5q11 -9 28 -9z" />
    <glyph glyph-name="f_t" unicode="ft" horiz-adv-x="671" 
d="M43 413l8 54l71 -2q27 70 62.5 120.5t72 76t68.5 36.5t64 11q67 0 99 -32.5t26 -82.5q-12 -85 -87 -85q-34 0 -52.5 19t-13.5 49q5 27 29 43.5t61 9.5q-18 24 -50 24q-43 0 -69.5 -43t-46.5 -148h77q101 2 142.5 31.5t60.5 101.5h56q-4 -16 -29 -131l85 2l-9 -53l-85 1
l-14 -77t-17.5 -97.5t-9.5 -56.5q-12 -72 -10.5 -97.5t19.5 -25.5q14 0 27.5 37.5t19.5 97.5l41 -1q-8 -100 -51.5 -159t-126.5 -59q-147 0 -121 166q5 30 25 131t27 140h-115l-6 -43q-41 -300 -123.5 -436.5t-208.5 -136.5q-58 0 -87.5 26.5t-20.5 66.5q5 25 23 39t44 14
q28 0 42.5 -17.5t7.5 -42.5q-6 -21 -26 -31t-42 -8q12 -7 27 -7q23 0 40.5 9t32 32t24.5 49.5t20.5 75t18 94t18.5 119.5q16 109 44 197z" />
    <glyph glyph-name="t_t" unicode="tt" horiz-adv-x="713" 
d="M641 196l40 -1q-8 -100 -51 -159t-126 -59q-149 0 -121 166q5 30 25 131.5t27 140.5h-147q-35 -185 -41 -231q-11 -73 -10 -98t18 -25q37 0 41 121l40 -1q-8 -100 -44.5 -152t-126.5 -52q-147 0 -121 166q5 31 25 132.5t27 138.5h-34l6 53q49 0 82.5 10t55 32.5t34 47
t25.5 65.5h62q-2 -9 -30 -156h106q51 1 85.5 11t56 33t33 46.5t25.5 65.5h62q-2 -7 -30 -157l84 2l-8 -53h-85q-36 -187 -41 -230q-10 -72 -9 -97.5t18 -25.5q14 0 27 37.5t20 97.5z" />
    <glyph glyph-name=".notdef" horiz-adv-x="500" 
 />
    <glyph glyph-name=".null" horiz-adv-x="0" 
 />
    <glyph glyph-name="nonmarkingreturn" horiz-adv-x="333" 
 />
    <glyph glyph-name="space" unicode=" " horiz-adv-x="200" 
 />
    <glyph glyph-name="exclam" unicode="!" horiz-adv-x="396" 
d="M250 69q-2 -42 -28 -65.5t-74 -23.5q-44 0 -67.5 23.5t-21.5 68.5q2 41 29.5 66.5t70.5 25.5q47 0 70 -26t21 -69zM198 233q-3 -14 -7.5 -19.5t-14.5 -4.5q-16 4 -12 30q8 46 11.5 78t0 61t-6.5 44.5t-14 50.5t-16 56q-22 79 8.5 130t106.5 51q56 0 85.5 -34t25 -84.5
t-40.5 -96.5q-11 -14 -31 -38.5t-27 -34.5t-20.5 -31.5t-19.5 -40t-14 -48.5t-14 -69z" />
    <glyph glyph-name="quotedbl" unicode="&#x22;" horiz-adv-x="362" 
d="M116 414q-5 -16 -17 -16q-17 0 -10 17q38 117 33 178q-7 52 11 81.5t51 29.5q24 0 33 -19.5t0 -50t-33 -59.5q-36 -46 -68 -161zM266 414q-5 -16 -17 -16q-17 0 -10 17q38 117 33 178q-7 52 11 81.5t51 29.5q24 0 33 -19.5t0 -50t-33 -59.5q-36 -46 -68 -161z" />
    <glyph glyph-name="numbersign" unicode="#" horiz-adv-x="590" 
d="M127 0h-37q34 110 64 215q-25 0 -66 -0.5t-55 -0.5q2 4 7 22.5t6 22.5q62 -2 120 -2l47 165q-29 0 -75.5 -0.5t-61.5 -0.5q4 10 13 45q70 -2 135 -2q42 159 58 224h39q-21 -59 -70 -224h156q28 106 57 224h39q-40 -128 -68 -224q54 0 116 2q0 -1 -5.5 -21t-6.5 -24
q-14 0 -53 0.5t-63 0.5q-13 -42 -46 -165q57 0 121 2q-9 -24 -12 -45q-14 0 -55 0.5t-66 0.5q-34 -130 -53 -215h-37q36 117 63 215h-157q-40 -151 -54 -215zM239 422q-25 -85 -47 -165h158l46 165h-157z" />
    <glyph glyph-name="dollar" unicode="$" 
d="M222 -99h-48l22 115q-95 12 -142.5 54t-35.5 97q12 56 75 56q32 0 48.5 -18t11.5 -46q-6 -28 -30 -43q35 -19 88 -25l29 151q-88 19 -131.5 82t-25.5 153q16 81 75 134t145 67l14 109h49l-20 -105q3 0 8.5 0.5t8.5 0.5q5 0 15 -0.5t14 -0.5l14 105h49l-21 -110
q73 -11 110 -45.5t30 -83.5q-9 -66 -76 -66q-33 0 -49.5 17t-11.5 47q6 30 31 44q-30 10 -47 13l-27 -144q102 -16 142.5 -73.5t26.5 -157.5q-13 -89 -74 -143t-161 -68l-16 -116h-50l22 112h-47zM262 88q25 0 37 1l28 144q-41 2 -59 4l-20 -149h14zM425 163q4 28 -11.5 43
t-56.5 22l-19 -134q78 16 87 69zM306 467l58 -5l19 146q-6 1 -19 1q-12 0 -32 -2zM217 543q-14 -53 60 -71l16 129q-65 -15 -76 -58z" />
    <glyph glyph-name="percent" unicode="%" 
d="M108 117q0 10 9 10t9 -10q0 -9 -9 -9t-9 9zM144 168q0 6 4.5 10.5t10.5 4.5t10.5 -4.5t4.5 -10.5q0 -7 -4.5 -11.5t-10.5 -4.5t-10.5 4.5t-4.5 11.5zM180 218q0 8 6.5 14.5t14.5 6.5t14.5 -6.5t6.5 -14.5q0 -9 -6.5 -15t-14.5 -6t-14.5 6t-6.5 15zM218 268q0 10 7.5 17.5
t17.5 7.5t17.5 -7.5t7.5 -17.5t-7.5 -17.5t-17.5 -7.5t-17.5 7.5t-7.5 17.5zM257 318q0 12 8.5 20t19.5 8t19.5 -8t8.5 -20q0 -11 -8.5 -19t-19.5 -8t-19.5 8t-8.5 19zM298 369q0 11 9 19.5t20 8.5t20 -8.5t9 -19.5q0 -12 -9 -20.5t-20 -8.5t-20 8.5t-9 20.5zM341 419
q0 11 8.5 19.5t19.5 8.5t19.5 -8.5t8.5 -19.5t-8.5 -19.5t-19.5 -8.5t-19.5 8.5t-8.5 19.5zM386 469q0 10 7.5 17.5t17.5 7.5t17.5 -7.5t7.5 -17.5t-7.5 -17.5t-17.5 -7.5t-17.5 7.5t-7.5 17.5zM432 519q0 9 6.5 15t14.5 6t14.5 -6t6.5 -15q0 -8 -6.5 -14t-14.5 -6t-14.5 6
t-6.5 14zM480 570q0 6 4.5 10.5t10.5 4.5t10.5 -4.5t4.5 -10.5q0 -7 -4.5 -11.5t-10.5 -4.5t-10.5 4.5t-4.5 11.5zM528 620q0 9 9 9t9 -9t-9 -9t-9 9zM373 24q32 0 51 106q19 110 -10 110q-32 0 -52 -110q-20 -106 11 -106zM366 -29q-59 0 -95 36.5t-22 122.5
q30 160 172 160q143 0 115 -160q-27 -159 -170 -159zM189 452q33 0 51 106q21 110 -9 110q-33 0 -53 -110q-20 -106 11 -106zM182 399q-27 0 -49 7.5t-41 24.5t-26.5 49.5t-0.5 77.5q30 160 173 160q141 0 115 -160q-28 -159 -171 -159z" />
    <glyph glyph-name="ampersand" unicode="&#x26;" horiz-adv-x="815" 
d="M755 148q-20 -91 -69.5 -127.5t-143.5 -36.5q-55 0 -93.5 14.5t-73.5 49.5q-68 -66 -191 -66q-96 0 -141 53.5t-35 130.5q10 78 66 129.5t133 69.5q-21 81 -12 152q12 91 71 137t156 46q91 0 135.5 -45t34.5 -116q-9 -67 -52 -119.5t-104 -81.5q17 -32 23 -41
q46 -80 67 -111q35 38 41 73q7 43 -27 43h-21q7 31 10 68q77 -2 121 -2l121 2q-6 -21 -10 -68h-35q-21 0 -34 -10t-28 -37q-39 -78 -97 -118q26 -23 60 -23q43 0 64 43zM322 93q10 0 16 1q-29 43 -62 107q-28 56 -40 84q-26 -21 -32 -59q-8 -56 26.5 -96.5t91.5 -36.5z
M394 535q-9 -67 16 -137q52 45 64 138q5 31 -3.5 49t-27.5 18q-42 0 -49 -68z" />
    <glyph glyph-name="quotesingle" unicode="'" horiz-adv-x="212" 
d="M116 414q-5 -16 -17 -16q-17 0 -10 17q38 117 33 178q-7 52 11 81.5t51 29.5q24 0 33 -19.5t0 -50t-33 -59.5q-36 -46 -68 -161z" />
    <glyph glyph-name="parenleft" unicode="(" horiz-adv-x="342" 
d="M222 331q-29 -212 -24.5 -305.5t47.5 -163.5l-50 -37q-95 55 -131.5 174.5t-6.5 331.5q21 149 63 253t94 160t126 93l41 -38q-63 -69 -97.5 -170.5t-61.5 -297.5z" />
    <glyph glyph-name="parenright" unicode=")" horiz-adv-x="342" 
d="M121 331q28 190 22.5 294.5t-47.5 173.5l51 38q94 -55 131 -175t8 -331q-16 -113 -43 -199t-64.5 -144.5t-79.5 -97t-97 -65.5l-40 37q68 77 98.5 167.5t60.5 301.5z" />
    <glyph glyph-name="asterisk" unicode="*" horiz-adv-x="500" 
d="M333 585q-16 -17 -21 -47l12 -10q31 14 41 32q2 3 8 14.5t10 17t13 13t20 11.5q26 10 49 1t32 -33q10 -25 -1.5 -47.5t-36.5 -31.5q-20 -4 -29.5 -3.5t-26.5 6t-21 6.5q-22 5 -52 -5l-2 -14q27 -21 49 -21q2 0 16 0.5t20 0t17.5 -4.5t20.5 -11q22 -17 25.5 -42t-12.5 -45
q-17 -21 -43 -22t-45 16q-11 9 -17 22t-9.5 29t-4.5 19q-6 20 -30 43l-14 -7q-4 -31 8 -51q1 -3 10.5 -17.5t12.5 -27t1 -27.5q-4 -28 -24 -43t-46 -11q-27 4 -40.5 25t-8.5 48q2 14 10 25.5t21.5 23t14.5 12.5q16 17 22 46l-12 10q-29 -11 -42 -31q-2 -3 -6 -11.5t-7 -13.5
t-8.5 -11.5t-12.5 -11.5t-16 -8q-26 -10 -49 -1t-33 34q-9 25 2.5 47t36.5 31q20 4 29.5 3.5t26.5 -6t20 -6.5q22 -5 52 5l2 14q-27 20 -49 21q-2 0 -16 -0.5t-20 0t-17.5 4.5t-20.5 11q-22 17 -25.5 42t13.5 45q17 21 43 22t45 -16q11 -9 17 -22t9 -28.5t5 -19.5
q5 -23 30 -44l13 6q4 33 -7 53q-2 4 -9 14.5t-9 16t-6 18.5t0 23q4 27 23.5 42.5t45.5 11.5q27 -4 40.5 -25t8.5 -48q-2 -11 -8 -21.5t-12 -16t-15 -13.5t-11 -10z" />
    <glyph glyph-name="plus" unicode="+" 
d="M293 26h-99q18 93 48 188q-88 -13 -189 -13l17 99q95 0 184 -14q3 99 21 187h98q-17 -97 -46 -187q93 14 189 14l-17 -99q-106 0 -186 14q-2 -74 -20 -189z" />
    <glyph glyph-name="comma" unicode="," horiz-adv-x="270" 
d="M82 30q-30 0 -46.5 18t-14.5 48q4 39 28.5 61t62.5 22q40 0 60 -26t15 -70q-9 -74 -59 -120t-126 -57l-5 25q123 25 144 128q-19 -29 -59 -29z" />
    <glyph glyph-name="hyphen" unicode="-" horiz-adv-x="273" 
d="M9 186l16 117q120 -4 241 0q-7 -39 -15 -117q-121 4 -242 0z" />
    <glyph glyph-name="period" unicode="." horiz-adv-x="304" 
d="M227 82q-3 -45 -32 -70.5t-78 -25.5q-47 0 -71.5 24.5t-20.5 72.5q4 42 34.5 69t75.5 27q48 0 72.5 -27t19.5 -70z" />
    <glyph glyph-name="slash" unicode="/" horiz-adv-x="378" 
d="M383 690q-59 -154 -145.5 -430.5t-125.5 -434.5q-14 1 -64 1t-64 -1q58 157 144 433.5t125 431.5q53 -5 130 0z" />
    <glyph glyph-name="zero" unicode="0" horiz-adv-x="596" 
d="M261 82q36 0 62.5 55t46.5 178q13 103 6.5 138.5t-37.5 35.5q-37 0 -63 -52t-46 -175q-15 -106 -8 -143t39 -37zM255 -17q-266 0 -234 290q17 154 105.5 235t220.5 81q258 0 231 -289q-15 -152 -101.5 -234.5t-221.5 -82.5z" />
    <glyph glyph-name="one" unicode="1" horiz-adv-x="477" 
d="M133 157q11 58 36 225l-109 -3q13 59 16 97h54q72 0 110 25.5t58 90.5q59 -4 120 0q-27 -99 -41 -189l-38 -246q-10 -63 49 -63h42q-11 -44 -16 -96q-133 2 -208 2l-207 -2q12 45 17 96h48q32 0 47 15.5t22 47.5z" />
    <glyph glyph-name="two" unicode="2" horiz-adv-x="552" 
d="M510 241q10 -30 12 -64t-6.5 -69t-27.5 -63t-55.5 -45.5t-85.5 -17.5q-35 0 -66.5 11.5t-49.5 23.5t-52 39q-37 30 -73 30q-31 0 -49 -18q10 2 15 2q26 0 37 -13.5t8 -33.5q-6 -40 -51 -40q-31 0 -45 25.5t-9 64.5q14 127 173 190q74 29 106.5 59.5t39.5 77.5
q6 44 -14.5 71t-66.5 27q-64 0 -106 -42q14 2 22 2q41 0 62.5 -23t15.5 -58q-6 -34 -30.5 -52.5t-62.5 -18.5q-44 0 -66 33t-8 91q16 70 89.5 115.5t164.5 45.5q112 0 163 -47.5t40 -123.5q-11 -80 -83 -131t-190 -66q-96 -12 -146 -50q33 17 81 17q39 0 93 -13
q48 -12 86 -12q40 0 58.5 14.5t20.5 52.5z" />
    <glyph glyph-name="three" unicode="3" horiz-adv-x="593" 
d="M561 404q-9 -63 -50.5 -105t-112.5 -58q76 -14 111 -61t27 -110q-14 -107 -101.5 -157.5t-229.5 -48.5q-112 1 -166.5 49t-40.5 130q8 49 39 77.5t76 28.5q42 0 63 -24t16 -60q-4 -39 -30.5 -60t-66.5 -21q-11 0 -25 4q25 -43 99 -43q122 0 139 131q8 61 -19 92.5
t-84 31.5h-25l11 68h22q53 0 89 28t45 87q8 51 -14.5 82.5t-72.5 31.5q-71 0 -110 -42q20 4 30 4q41 -1 61 -22t16 -55q-3 -33 -28.5 -54.5t-67.5 -21.5q-44 0 -66.5 28t-15.5 77q11 78 87.5 129t186.5 51q112 0 166.5 -49.5t41.5 -137.5z" />
    <glyph glyph-name="four" unicode="4" horiz-adv-x="575" 
d="M190 27l15 58q-160 0 -212 -1l9 55l342 454q91 -2 179 0q-45 -209 -84 -449l95 3q-10 -40 -12 -67l-93 2l-8 -54q-3 -24 4 -35.5t31 -11.5h43q-6 -19 -17 -94q-135 2 -209 2l-207 -2q6 19 17 94h51q25 0 37 10t19 36zM275 409q-27 -41 -89.5 -139t-82.5 -129h115
q39 162 57 268z" />
    <glyph glyph-name="five" unicode="5" horiz-adv-x="584" 
d="M189 224q-60 0 -114 -31l-22 28q106 157 113 374q55 -20 192 -20q59 0 121.5 9t95.5 22q-1 -2 0 -42t1 -41q-68 -131 -237 -131q-91 0 -151 34q-21 -84 -55 -147q87 41 192 41q115 0 169 -61.5t39 -159.5q-17 -110 -100.5 -172.5t-227.5 -62.5q-118 0 -171 49.5
t-40 131.5q8 48 38.5 76t76.5 28q41 0 63 -23t17 -61q-4 -39 -29.5 -60.5t-64.5 -21.5q-18 0 -30 4q23 -42 89 -42q118 0 140 141q21 138 -105 138z" />
    <glyph glyph-name="six" unicode="6" horiz-adv-x="608" 
d="M444 645q-71 0 -110.5 -61t-64.5 -213q52 67 152 67q92 0 133.5 -56t25.5 -162q-17 -112 -99.5 -174t-199.5 -62q-148 0 -201.5 81t-26.5 256q30 192 126 290t231 99q99 1 146 -38.5t41 -101.5q-3 -49 -32 -75t-79 -26q-43 0 -65 22t-18 56q4 38 32 58.5t71 20.5
q6 0 10 -1q-26 20 -72 20zM247 213q-13 -71 -3.5 -107.5t49.5 -36.5q35 0 54 35t31 109q21 138 -42 138q-37 0 -58 -31.5t-31 -106.5z" />
    <glyph glyph-name="seven" unicode="7" horiz-adv-x="555" 
d="M151 584q0 -19 2 -55q32 60 112 60q59 0 117 -54q34 -33 56 -45t44 -12q24 0 37 15h-2q-32 -4 -48.5 11t-16.5 39q0 25 16 41t41 16q35 0 53 -25.5t11 -65.5q-7 -44 -34 -82t-80 -83q-81 -68 -115 -145t-34 -208q0 -68 -34.5 -102.5t-89.5 -34.5q-126 0 -116 140
q8 112 82 193.5t212 145.5q62 28 91 53q-50 -31 -109 -31q-44 0 -97 25q-37 17 -60 17q-46 0 -57 -67q-9 2 -43.5 2t-44.5 -2q12 46 24 124t14 130q9 -2 33.5 -2t35.5 2z" />
    <glyph glyph-name="eight" unicode="8" horiz-adv-x="590" 
d="M255 -14q-135 0 -196.5 44.5t-49.5 125.5q16 100 138 132q-94 65 -69 202q19 105 97 162t201 57q110 0 165 -45t44 -118q-12 -82 -94 -119q112 -65 86 -219q-18 -106 -101.5 -164t-220.5 -58zM250 246q-17 4 -45 14q-55 -34 -63 -95q-6 -42 24.5 -66t99.5 -26
q76 -1 116.5 17t45.5 49q4 23 -8 38.5t-51 31.5t-119 37zM386 467l41 -11q35 34 41 82q6 39 -19 64t-84 26q-54 2 -91 -18.5t-41 -55.5q-4 -32 24 -48t129 -39z" />
    <glyph glyph-name="nine" unicode="9" horiz-adv-x="584" 
d="M161 -76q79 0 119 58t66 220q-48 -71 -141 -71q-94 0 -137 52.5t-29 155.5q15 113 96.5 181.5t203.5 68.5q277 0 224 -351q-55 -374 -371 -374q-100 0 -155 42.5t-39 119.5q8 40 41 64t76 24q49 0 74 -25.5t17 -66.5q-4 -23 -17.5 -39t-32 -23.5t-34.5 -10.5t-32 -3
q-11 0 -17 1q41 -23 88 -23zM371 369q13 81 4.5 117t-44.5 36q-38 0 -56.5 -34.5t-30.5 -118.5q-13 -89 -4 -121t41 -32q36 0 56 32t34 121z" />
    <glyph glyph-name="colon" unicode=":" horiz-adv-x="260" 
d="M238 372q-2 -35 -24.5 -55t-61.5 -20q-37 0 -57 19.5t-16 56.5q3 34 27 55t60 21q39 0 57.5 -21.5t14.5 -55.5zM189 118q-2 -36 -24.5 -56t-61.5 -20q-37 0 -57 19.5t-16 57.5q3 33 27.5 54.5t59.5 21.5q38 0 57 -21.5t15 -55.5z" />
    <glyph glyph-name="semicolon" unicode=";" horiz-adv-x="260" 
d="M83 56q-54 0 -49 64q3 32 24.5 51t57.5 19q38 0 55.5 -26t13.5 -71q-6 -71 -62.5 -119t-138.5 -61l-5 26q156 30 164 154q-15 -37 -60 -37zM235 372q-2 -35 -24.5 -55t-61.5 -20q-37 0 -57 19.5t-16 56.5q3 34 27 55t60 21q39 0 57.5 -21.5t14.5 -55.5z" />
    <glyph glyph-name="less" unicode="&#x3c;" 
d="M113 231l10 46q194 104 317 179l21 -85q-3 -1 -111 -49.5t-158 -71.5q96 -58 221 -127l-47 -81q-40 38 -253 189z" />
    <glyph glyph-name="equal" unicode="=" 
d="M57 125q8 31 16 89q220 -4 440 0q-12 -48 -16 -89q-219 4 -440 0zM86 288q11 45 16 89q220 -4 440 0q-8 -33 -16 -89q-219 4 -440 0z" />
    <glyph glyph-name="greater" unicode="&#x3e;" 
d="M480 267l-7 -46q-204 -110 -320 -179l-20 83q25 12 124 57t144 66q-195 114 -220 129l46 79q19 -18 57 -47.5t63.5 -48t77.5 -55t55 -38.5z" />
    <glyph glyph-name="question" unicode="?" horiz-adv-x="621" 
d="M414 284l9 -31q-75 -41 -152 -41q-40 1 -61 21t-17 50q6 44 81 86q91 49 104 128q9 57 -15 87t-74 32q-67 2 -109 -40q32 6 46 6q38 -2 56.5 -25t11.5 -64q-6 -34 -33.5 -55.5t-72.5 -20.5q-40 1 -63 33t-14 85q12 75 83.5 124.5t181.5 49.5q128 0 181 -54.5t38 -140.5
q-13 -78 -75 -125.5t-167 -79.5q-40 -12 -53 -19.5t-13 -17.5q0 -16 25 -17q44 -3 102 29zM367 69q-2 -42 -28 -65.5t-74 -23.5q-44 0 -67.5 23.5t-20.5 68.5q2 41 29 66.5t70 25.5q47 0 70 -26t21 -69z" />
    <glyph glyph-name="at" unicode="@" horiz-adv-x="814" 
d="M657 435q-35 -134 -52 -252q-16 -87 30 -87q32 0 59 35.5t39 92.5q18 74 9 138t-37.5 111.5t-89 75t-145.5 27.5q-143 0 -239 -83.5t-120 -242.5q-26 -172 43 -261.5t212 -89.5q163 0 260 88l24 -25q-46 -49 -122 -77.5t-161 -29.5q-193 -1 -279.5 109t-58.5 289
q27 170 147.5 267t291.5 97q184 0 269 -109t44 -285q-20 -87 -71.5 -135.5t-131.5 -48.5q-56 0 -90 22t-37 66q-46 -86 -144 -86q-58 0 -88.5 41.5t-19.5 125.5q9 65 30 113.5t50 76t61 40.5t67 13q91 0 103 -71q45 32 54 55q47 -4 93 0zM386 116q47 0 78 164
q19 101 -19 101q-50 0 -82 -169q-17 -96 23 -96z" />
    <glyph glyph-name="A" unicode="A" horiz-adv-x="879" 
d="M479 212q-106 2 -218 0l-3 -8q-23 -50 -17 -71.5t43 -21.5h35q-11 -49 -17 -113q-101 2 -159 2l-161 -2q12 55 17 113h20q42 0 66 19.5t52 70.5q163 299 261 496q70 -2 109 -2l108 2q51 -242 117 -496q14 -52 32 -71t49 -19h24q-12 -55 -17 -113q-143 2 -222 2l-223 -2
q12 55 17 113h38q36 0 47 22.5t3 71.5q-1 2 -1 7zM290 270q91 -2 177 0q-24 117 -52 245q-50 -95 -125 -245z" />
    <glyph glyph-name="B" unicode="B" horiz-adv-x="736" 
d="M696 179q-14 -97 -90.5 -138.5t-234.5 -41.5q-121 1 -192 1l-196 -2q14 91 16 113h28q30 0 39 9.5t17 42.5q10 36 33.5 188t23.5 181q0 25 -9.5 36t-33.5 11h-32q14 58 16 110q1 0 41 -0.5t90.5 -1t74.5 -0.5h180q145 0 202 -51.5t45 -138.5q-15 -111 -143 -148
q67 -18 101 -61t24 -109zM360 312h-40q-20 -136 -20 -156q-2 -48 38 -48h25q50 0 75 23.5t33 80.5q9 55 -19 77.5t-92 22.5zM359 535q-5 -14 -28 -156l38 1q63 0 89.5 20t35.5 83q16 99 -69 99h-17q-33 0 -49 -47z" />
    <glyph glyph-name="C" unicode="C" horiz-adv-x="703" 
d="M403 710q90 0 169 -44q25 -15 44 -7t25 38q14 -1 44 -1t44 1q-19 -40 -33.5 -118.5t-20.5 -149.5q-1 0 -14 0.5t-29 1t-24 0.5t-25.5 -0.5t-32 -1t-15.5 -0.5q26 158 -100 158q-67 0 -104 -51t-57 -190q-9 -77 -9 -124.5t15.5 -74t34.5 -35.5t48 -9q70 0 107 40.5
t50 125.5q4 -2 74 -2q69 0 75 2q-23 -150 -103.5 -222t-232.5 -72q-172 0 -247 89t-47 282q28 182 122.5 273t241.5 91z" />
    <glyph glyph-name="D" unicode="D" horiz-adv-x="806" 
d="M485 688q336 0 289 -347q-48 -342 -386 -342q-135 1 -205 1l-200 -2q11 49 17 113h28q29 0 40 14.5t19 52.5q8 34 30 175.5t23 169.5q2 30 -7.5 43t-35.5 13h-32q10 45 16 111q132 -3 200 -3q47 0 118 0.5t86 0.5zM300 160q-2 -52 43 -52h19q82 0 127.5 51t64.5 184
q21 136 -6 187t-111 51h-24q-42 0 -55 -40q-6 -20 -31 -187t-27 -194z" />
    <glyph glyph-name="E" unicode="E" horiz-adv-x="723" 
d="M445 466l5 32h86q-18 -82 -29 -151q-11 -77 -16 -154h-84l3 29q6 48 -4.5 68t-52.5 22h-34q-18 -131 -19 -143q-2 -35 12 -46.5t45 -11.5h80q70 0 100 31t44 125l1 10q62 -2 121 0q-23 -94 -49 -281q-45 4 -213 4h-249l-209 -2q14 91 17 113h27q29 0 38.5 11t18.5 47
q9 33 31.5 177.5t24.5 174.5q3 58 -43 58h-31q10 44 16 110l39 -1q39 0 89 -0.5t78 -0.5h232q178 0 242 8q-33 -139 -45 -262q-50 2 -114 -1l3 15q13 82 -10.5 106.5t-89.5 24.5h-81q-31 0 -47 -12t-23 -45q-7 -29 -25 -141h25q45 0 64 19.5t26 66.5z" />
    <glyph glyph-name="F" unicode="F" horiz-adv-x="719" 
d="M450 498h86q-17 -77 -28 -152q-12 -78 -18 -153h-84l5 32q7 46 -6 65.5t-54 21.5h-32q-17 -113 -19 -146q-3 -35 10 -45t48 -10h48q-9 -34 -16 -113q-133 2 -206 2l-201 -2q6 26 17 113h29q29 0 38 11.5t18 48.5q8 31 30 174t25 176q4 58 -43 58h-31q12 51 17 111
q114 -3 205 -3h234q177 0 240 8q-37 -165 -50 -295q-18 2 -57 2t-56 -2l8 47q4 26 4.5 45.5t-2 33.5t-10 23.5t-16 15t-22.5 8.5t-27 4t-32 1h-76q-31 0 -47.5 -12t-23.5 -45q-8 -32 -25 -141h23q46 1 66 22t29 78z" />
    <glyph glyph-name="G" unicode="G" horiz-adv-x="791" 
d="M365 103q53 0 86.5 25t43.5 94q9 66 -46 66h-26l12 84q109 -2 170 -2l170 2l-12 -84h-22q-21 0 -30.5 -12t-13.5 -41q-21 -139 -21 -235q-21 2 -67.5 2t-67.5 -2q-7 42 -17 86q-35 -50 -94 -80.5t-135 -30.5q-51 0 -93.5 11.5t-79.5 38t-58 69t-30 105.5t6 147
q29 181 125 272.5t241 91.5q104 0 170 -41q25 -16 44.5 -9t25.5 37q13 -1 43.5 -1t44.5 1q-19 -40 -33.5 -118.5t-20.5 -149.5q-41 2 -66 2l-74 -1q17 78 -10.5 117.5t-91.5 39.5q-69 0 -105.5 -51t-57.5 -190q-9 -77 -8.5 -124.5t16 -74t34.5 -35.5t48 -9z" />
    <glyph glyph-name="H" unicode="H" horiz-adv-x="850" 
d="M-17 -2q10 42 16 113h28q29 0 38 9.5t18 42.5q10 37 34 188.5t24 180.5q0 25 -9.5 36t-33.5 11h-31q9 33 16 110q121 -2 189 -2q40 0 113 1t75 1q-14 -61 -16 -110h-24q-51 0 -65 -56q-9 -31 -28 -156q101 -2 212 0q17 107 22 156q4 56 -50 56h-24q13 48 16 110
q122 -2 190 -2q41 0 115.5 1t75.5 1q-13 -48 -16 -110h-31q-26 0 -39.5 -13t-22.5 -43q-7 -29 -30.5 -180t-25.5 -179q-2 -29 9 -41t43 -12h28q-15 -66 -15 -113q-122 2 -191 2l-191 -2q13 72 15 113h26q30 0 41.5 12t20.5 41q5 17 23 133q-111 2 -212 0q-15 -108 -17 -133
q-2 -28 8 -40.5t41 -12.5h26q-12 -54 -15 -113q-120 2 -188 2z" />
    <glyph glyph-name="I" unicode="I" horiz-adv-x="426" 
d="M-18 -2q10 42 16 113h28q30 0 39 9.5t18 42.5q8 30 31.5 179.5t25.5 180.5q2 30 -7 43t-35 13h-32q10 44 16 110q121 -2 189 -2q41 0 114 1t74 1q-13 -73 -15 -110h-24q-50 0 -66 -56q-8 -28 -31 -179.5t-25 -179.5t7.5 -40.5t41.5 -12.5h27q-13 -58 -15 -113
q-121 2 -189 2z" />
    <glyph glyph-name="J" unicode="J" horiz-adv-x="591" 
d="M190 148q-7 -47 -40 -67.5t-73 -20.5q27 -15 59 -15q51 0 82 32.5t46 112.5q52 286 53 333q2 30 -7 43t-36 13h-35q12 51 17 110q120 -2 188 -2q41 0 113.5 1t73.5 1q-10 -44 -16 -110h-23q-26 0 -40 -12t-20 -44q-15 -81 -53 -327q-35 -221 -297 -221q-103 0 -153 44
t-39 119q7 48 40 76t79 28q42 0 65 -26t16 -68z" />
    <glyph glyph-name="K" unicode="K" horiz-adv-x="827" 
d="M-17 -1q10 43 16 112h27q30 0 39.5 10.5t19.5 46.5q7 29 31 178t25 176q2 31 -8.5 44t-41.5 13h-25q10 38 17 110q121 -2 190 -2q41 0 114 1t75 1q-10 -44 -16 -110h-30q-46 0 -61 -57q-11 -50 -28 -165q42 31 115.5 86.5t81.5 61.5q29 22 22.5 48t-39.5 26h-28
q5 22 17 110q119 -2 185 -2q39 0 111 1t74 1q-12 -51 -17 -110h-31q-51 0 -90.5 -16.5t-94.5 -54.5l-70 -50q52 -123 138 -290q18 -34 31.5 -45.5t38.5 -11.5h19q-11 -41 -17 -113q-123 2 -192 2l-193 -2q11 49 17 113h19q58 0 25 86q-15 38 -65 132l-69 -49
q-14 -96 -14 -112q-2 -57 39 -57h27q-4 -19 -17 -112q-113 1 -182 1z" />
    <glyph glyph-name="L" unicode="L" horiz-adv-x="668" 
d="M474 689l-16 -110h-29q-33 0 -51 -14.5t-25 -48.5q-8 -37 -30 -175t-24 -172q-1 -34 12.5 -46t43.5 -12h37q57 0 90.5 32.5t49.5 119.5l8 42q16 -1 53 -1t54 1q-25 -134 -49 -309q-47 4 -201 4h-282q-86 0 -132 -2q10 42 16 113h30q20 0 31 8.5t15 19.5t11 39
q8 36 30.5 173t23.5 165q2 33 -6 48t-34 15h-33q10 44 16 110q125 -2 196 -2q31 0 78 0.5t81.5 1t35.5 0.5z" />
    <glyph glyph-name="M" unicode="M" horiz-adv-x="988" 
d="M385 56q-37 113 -138 385q-26 -151 -37 -257q-8 -73 56 -73h36q-10 -42 -16 -113q-96 2 -151 2l-155 -2q10 42 16 113h31q58 0 75 73q7 34 27.5 167.5t22.5 164.5q6 63 -52 63h-33q10 44 16 110q168 -4 337 0q68 -192 112 -306q94 148 190 306q152 -6 304 0
q-9 -33 -16 -110h-31q-51 0 -67 -64q-7 -29 -27.5 -162.5t-23.5 -171.5q-2 -40 6.5 -55t41.5 -15h32q-4 -17 -17 -113q-129 2 -202 2l-202 -2q11 49 17 113h32q56 0 70 71q15 69 40 262q-146 -225 -244 -388h-50z" />
    <glyph glyph-name="N" unicode="N" horiz-adv-x="827" 
d="M396 689q48 -110 202 -402q26 150 32 222q5 70 -53 70h-49q10 44 16 110q66 -2 160 -2l159 2q-10 -44 -16 -110h-32q-58 0 -73 -70q-14 -71 -40 -245t-36 -265q-31 1 -96.5 1t-96.5 -1q-27 61 -221 443q-30 -175 -38 -261q-3 -32 12 -51t48 -19h42q-11 -49 -17 -113
q-104 2 -161 2l-161 -2q6 26 17 113h28q64 0 79 70q11 48 30 170.5t21 164.5q2 32 -10 47.5t-47 15.5h-32q11 38 17 110q158 -4 316 0z" />
    <glyph glyph-name="O" unicode="O" horiz-adv-x="799" 
d="M370 98q69 0 104.5 55.5t55.5 193.5q21 141 2.5 190.5t-85.5 49.5t-103 -52.5t-57 -188.5q-20 -140 -1.5 -194t84.5 -54zM354 -25q-166 0 -250.5 95.5t-58.5 275.5q28 184 138 274t282 90q179 0 256.5 -92.5t50.5 -270.5q-28 -188 -141 -280t-277 -92z" />
    <glyph glyph-name="P" unicode="P" horiz-adv-x="715" 
d="M391 221q-42 0 -84 4q-6 -54 -6 -56q-2 -31 9.5 -44.5t41.5 -13.5h49q-10 -42 -16 -113q-129 2 -203 2l-198 -2q12 55 17 113h26q28 0 38.5 11t19.5 45t31.5 183.5t24.5 179.5q1 27 -8.5 38t-33.5 11h-32q10 43 16 111q33 -3 199 -3h177q140 0 205.5 -53.5t51.5 -177.5
q-27 -235 -325 -235zM359 542q-10 -35 -40 -232h40q60 0 91 32.5t42 106.5q11 75 -7.5 102.5t-64.5 27.5h-16q-36 0 -45 -37z" />
    <glyph glyph-name="Q" unicode="Q" horiz-adv-x="799" 
d="M354 -25q-166 0 -250.5 95.5t-58.5 275.5q28 184 138 274t282 90q179 0 256.5 -92.5t50.5 -270.5q-38 -254 -234 -338q1 -63 11 -85t36 -22q51 0 62 93l41 -1q-26 -176 -182 -176q-166 0 -139 157h-13zM396 238q63 0 98 -44q20 52 36 153q21 141 2.5 190.5t-85.5 49.5
t-103 -52.5t-57 -188.5q-19 -130 -4 -185q17 77 113 77zM370 98q18 0 35 3q11 49 0.5 75t-38.5 26q-22 0 -37.5 -13.5t-19.5 -37.5q-5 -39 21 -48q14 -5 39 -5z" />
    <glyph glyph-name="R" unicode="R" horiz-adv-x="811" 
d="M655 180q0 -50 6.5 -70.5t22.5 -20.5q18 0 24.5 35t1.5 76l58 5q5 -62 -9 -111t-57 -83t-112 -34q-106 0 -140 45.5t-26 136.5q7 80 -15 108t-80 28h-14q-16 -108 -16 -129q-1 -29 10.5 -42t38.5 -13h31q-4 -18 -17 -113q-123 2 -192 2l-187 -2q10 47 16 113h26
q29 0 39.5 9.5t19.5 43.5q7 28 31 178.5t26 180.5q2 31 -7 43.5t-36 12.5h-32q11 48 16 110q6 0 98 -1t109 -1q24 0 92.5 0.5t87.5 0.5q150 0 214 -48t55 -140q-7 -72 -56 -116t-122 -60q51 -14 72.5 -50.5t22.5 -93.5zM356 537q-5 -16 -30 -170h56q59 0 88 26t38 84
q14 104 -78 104h-18q-24 0 -36.5 -10.5t-19.5 -33.5z" />
    <glyph glyph-name="S" unicode="S" horiz-adv-x="693" 
d="M384 610q-133 0 -143 -67q-5 -36 25 -52.5t119 -20.5q154 -6 218.5 -81t44.5 -198q-16 -99 -97 -157t-209 -58q-117 0 -204 52q-46 27 -61 -29q-15 1 -47 1t-46 -1q39 85 49 230q14 -1 44 -1t44 1q5 -145 213 -145q137 0 144 70q4 37 -27 54.5t-120 22.5
q-138 5 -207.5 78.5t-49.5 189.5q18 108 99 160.5t203 50.5q91 -1 170 -42q27 -13 42 -7t24 36q14 -1 43 -1t43 1q-37 -79 -45 -213q-41 2 -81 0q-9 55 -59 90.5t-129 35.5z" />
    <glyph glyph-name="T" unicode="T" horiz-adv-x="744" 
d="M564 566h-47q-51 -276 -59 -395q-5 -60 56 -60h32q-10 -42 -16 -113q-131 2 -204 2l-204 -2q10 42 16 113h31q33 0 50.5 14.5t24.5 45.5q28 130 61 395h-45q-37 0 -57.5 -23t-30.5 -70l-16 -73q-56 4 -114 0q25 163 38 292q75 -5 198 -5h304q22 0 197 5
q-34 -170 -49 -292q-57 4 -114 0l8 73q10 93 -60 93z" />
    <glyph glyph-name="U" unicode="U" horiz-adv-x="816" 
d="M97 264q35 218 38 256q2 31 -7.5 45t-36.5 14h-25q10 44 16 110q129 -2 199 -2q42 0 118.5 1t77.5 1q-12 -51 -17 -110h-36q-52 0 -68 -59q-2 -10 -37 -252q-12 -86 12 -122.5t87 -36.5q62 0 97 36t50 123q31 175 37 252q5 59 -49 59h-31q10 44 16 110q102 -2 159 -2
q34 0 95 1t64 1q-5 -22 -17 -110h-25q-49 0 -61 -59q-5 -23 -20.5 -134.5t-17.5 -121.5q-44 -288 -343 -288q-162 0 -231 65.5t-44 222.5z" />
    <glyph glyph-name="V" unicode="V" horiz-adv-x="823" 
d="M406 489q14 -110 49 -294q102 217 132 293q18 44 12.5 67.5t-37.5 23.5h-23q12 51 17 110q100 -2 157 -2q33 0 93 1t63 1q-10 -44 -16 -110h-27q-41 0 -66 -16t-49 -65q-123 -248 -233 -504q-113 4 -228 0q-45 322 -83 508q-9 42 -26.5 59.5t-57.5 17.5h-21q10 44 16 110
q134 -2 210 -2q45 0 126.5 1t82.5 1q-7 -33 -18 -110h-24q-60 0 -49 -90z" />
    <glyph glyph-name="W" unicode="W" horiz-adv-x="1156" 
d="M838 -6q-116 4 -230 0q-10 110 -38 336q-98 -225 -142 -336q-104 4 -208 0q-33 341 -60 519q-5 35 -21 50.5t-55 15.5h-24q12 51 17 110q133 -2 208 -2q33 0 81.5 0.5t85 1t40.5 0.5q-5 -22 -17 -110h-23q-29 0 -39 -15.5t-8 -50.5q2 -45 36 -313q93 210 131 314
q23 65 -32 65h-19q12 44 18 110q108 -2 169 -2q36 0 102 1t67 1q-12 -51 -17 -110h-23q-25 0 -35.5 -14.5t-9.5 -49.5q8 -114 38 -320q92 213 127 315q23 69 -30 69h-22q12 44 18 110q90 -2 140 -2q30 0 83.5 1t56.5 1q-12 -51 -17 -110h-30q-37 0 -59.5 -14t-42.5 -55
q-72 -151 -216 -516z" />
    <glyph glyph-name="X" unicode="X" horiz-adv-x="820" 
d="M354 208l-31 72q-60 -67 -63 -71q-26 -33 -32.5 -56.5t1 -32.5t23.5 -9h18q-11 -49 -17 -113q-89 2 -139 2l-139 -2q11 49 17 113h11q68 0 111.5 28t106.5 100l77 94q-33 72 -80 167q-23 45 -49.5 62t-72.5 17h-34q10 44 16 110q153 -2 239 -2l240 1q-12 -52 -17 -109
h-18q-28 0 -36.5 -24.5t6.5 -65.5q11 -29 36 -85l61 84q22 30 27.5 51.5t-3 30.5t-25.5 9h-12q12 52 17 109q86 -1 133 -1l135 2q-5 -22 -17 -110h-18q-67 0 -105 -23.5t-73 -75.5q-5 -6 -22 -29t-40 -56t-33 -47q51 -111 81 -168q19 -36 46 -52.5t70 -16.5h24
q-4 -17 -17 -113q-147 2 -231 2l-233 -2q4 17 17 113h25q24 0 30.5 21t-11.5 76z" />
    <glyph glyph-name="Y" unicode="Y" horiz-adv-x="852" 
d="M707 503q-80 -110 -175 -263l-10 -70q-4 -31 6.5 -45t44.5 -14h38q-10 -45 -16 -113q-139 2 -218 2l-219 -2q10 44 16 113h34q36 0 50.5 13t18.5 44l10 70q-57 173 -101 279q-14 34 -36.5 48t-69.5 14h-17q13 48 16 110q146 -2 228 -2l228 1q-13 -49 -16 -109h-23
q-65 0 -42 -93q12 -44 50 -140q68 100 88 140q16 30 21.5 49t-1.5 31.5t-30 12.5h-20q13 48 16 110q102 -2 160 -2l158 2q-13 -48 -16 -110h-17q-65 0 -96.5 -18t-59.5 -58z" />
    <glyph glyph-name="Z" unicode="Z" horiz-adv-x="678" 
d="M-16 0q13 71 15 103q132 141 421 475h-82q-87 0 -125.5 -28.5t-51.5 -106.5l-7 -41q-51 4 -99 0q26 134 44 290q128 -5 222 -5h387q-10 -44 -16 -102q-182 -200 -415 -474h94q161 0 184 157l6 36q49 -4 100 0q-22 -113 -48 -308q-71 4 -198 4h-431z" />
    <glyph glyph-name="bracketleft" unicode="[" horiz-adv-x="350" 
d="M26 72l73 480q8 52 15.5 114t10.5 98l3 36q123 -4 248 0q-9 -35 -12 -86h-21q-27 0 -39.5 -10.5t-20.5 -38.5q-8 -29 -59 -359t-52 -357q-2 -29 8 -39t43 -10h14q-10 -37 -15 -87q-121 4 -245 0q29 120 49 259z" />
    <glyph glyph-name="backslash" unicode="\" horiz-adv-x="378" 
d="M245 -175q-25 156 -84.5 431.5t-102.5 433.5q60 -4 122 0q25 -160 84 -435.5t102 -429.5q-12 1 -60 1t-61 -1z" />
    <glyph glyph-name="bracketright" unicode="]" horiz-adv-x="349" 
d="M308 544l-75 -472q-9 -65 -16 -129.5t-9 -96.5l-3 -33q-120 4 -240 0q8 39 14 94h13q32 0 44 10t20 39q8 27 61 354t54 355q2 28 -8 38.5t-37 10.5h-20q10 44 12 86q120 -4 240 0q-33 -140 -50 -256z" />
    <glyph glyph-name="asciicircum" unicode="^" 
d="M349 710h18q23 -28 75 -127.5t76 -151.5l-76 -37q-9 25 -45 128t-47 135q-9 -12 -174 -263l-69 37q35 48 121 147.5t121 131.5z" />
    <glyph glyph-name="underscore" unicode="_" horiz-adv-x="500" 
d="M-8 -183q4 17 16 105q79 -2 249.5 -2t250.5 2q-5 -21 -17 -105q-79 1 -249 1t-250 -1z" />
    <glyph glyph-name="grave" unicode="`" horiz-adv-x="532" 
d="M387 554l-8 -12q-97 10 -173 56q-37 21 -39 50.5t25 39.5t67 -6q32 -18 67.5 -54.5t60.5 -73.5z" />
    <glyph glyph-name="a" unicode="a" horiz-adv-x="595" 
d="M587 195q-9 -99 -53.5 -158.5t-123.5 -59.5q-55 0 -81.5 24.5t-25.5 78.5q-49 -103 -155 -103q-68 0 -100 50.5t-18 157.5q10 79 35 139t58.5 94.5t69.5 51.5t74 17q105 0 121 -89q46 38 62 69q17 -1 53 -1t52 1q-46 -206 -62 -316q-14 -91 5 -91q30 0 49 136zM240 61
q56 0 96 213q14 72 11 101t-28 29q-54 0 -92 -215q-14 -77 -11.5 -102.5t24.5 -25.5z" />
    <glyph glyph-name="b" unicode="b" horiz-adv-x="562" 
d="M83 597h-17l6 92q118 -4 234 0q0 -60 -20 -163l-25 -128q50 89 145 89q67 0 100.5 -55t20.5 -153q-21 -161 -85.5 -231.5t-153.5 -70.5q-126 0 -124 125q-56 -51 -83 -103q-13 1 -38.5 1t-37.5 -1q97 468 109 541q2 16 2 29t-8 20.5t-25 7.5zM315 404q-26 0 -51.5 -53
t-44.5 -161q-14 -71 -11 -100t27 -29q54 0 93 215q14 76 11.5 102t-24.5 26z" />
    <glyph glyph-name="c" unicode="c" horiz-adv-x="489" 
d="M211 -23q-114 0 -157 61t-18 194q24 127 94 191t178 64q88 0 128.5 -34.5t37.5 -93.5q-3 -50 -28 -76.5t-69 -26.5q-35 0 -57 23.5t-12 65.5q12 55 78 53q-12 20 -40 20q-27 0 -45 -11t-37 -52t-36 -119q-19 -92 -10.5 -122t45.5 -30q30 0 48 22t29 72q90 -4 109 -3
q-18 -95 -73.5 -146.5t-164.5 -51.5z" />
    <glyph glyph-name="d" unicode="d" horiz-adv-x="591" 
d="M567 550q-62 -282 -80 -398q-9 -53 -8.5 -72.5t13.5 -19.5q31 0 48 136l41 -1q-10 -97 -53.5 -157.5t-122.5 -60.5q-100 0 -100 104q-51 -104 -154 -104q-69 0 -102 50.5t-19 157.5q20 152 88.5 227t150.5 75t97 -67l24 120q11 57 -31 57h-17q10 45 12 92q115 -4 227 0
q0 -77 -14 -139zM241 61q26 0 51.5 52.5t44.5 160.5q14 72 11.5 101t-27.5 29q-54 0 -92 -215q-14 -77 -11.5 -102.5t23.5 -25.5z" />
    <glyph glyph-name="e" unicode="e" horiz-adv-x="491" 
d="M340 178q90 -4 109 -3q-18 -96 -71.5 -147t-164.5 -51q-116 0 -159 61t-18 194q24 127 94 191t177 64q96 0 137.5 -43.5t28.5 -115.5q-13 -75 -76.5 -100.5t-175.5 -22.5q-12 -69 -3 -95t42 -26q31 0 49.5 21t30.5 73zM304 416q-22 0 -36.5 -31.5t-39.5 -142.5
q39 0 58 15.5t30 63.5q23 95 -12 95z" />
    <glyph glyph-name="f" unicode="f" horiz-adv-x="388" 
d="M401 654q-42 0 -69 -42.5t-46 -146.5l86 2l-10 -54l-85 2l-6 -44q-41 -300 -123.5 -436.5t-208.5 -136.5q-58 0 -87.5 26.5t-20.5 66.5q5 25 23 39t44 14q28 0 42.5 -17.5t7.5 -42.5q-6 -21 -26 -31t-42 -8q12 -7 27 -7q23 0 40.5 9t32 32t24.5 49.5t20.5 75t18 94
t18.5 119.5q16 110 44 198l-62 -2l8 54l71 -2q27 70 62.5 120.5t72 76t68.5 36.5t64 11q67 0 99 -32.5t26 -82.5q-12 -85 -87 -85q-34 0 -52.5 19t-13.5 49q5 27 29 43.5t61 9.5q-18 24 -50 24z" />
    <glyph glyph-name="g" unicode="g" horiz-adv-x="552" 
d="M152 -169q21 0 38 5.5t29 13t21.5 23.5t15.5 28t12 36t9 38.5t8 44.5t8 45q-49 -88 -144 -88q-68 0 -100.5 50.5t-18.5 157.5q10 79 35 139t58.5 94.5t69.5 51.5t74 17q66 0 94 -26t30 -77q51 38 76 91q12 -1 42 -1t43 1q-45 -191 -87 -432q-42 -245 -296 -245
q-90 0 -128.5 33t-26.5 79q14 54 71 54q30 0 46.5 -17t11.5 -43q-4 -23 -23.5 -38t-46.5 -12q30 -23 79 -23zM240 61q56 0 96 213q14 72 11 101t-28 29q-54 0 -92 -215q-14 -77 -11.5 -102.5t24.5 -25.5z" />
    <glyph glyph-name="h" unicode="h" horiz-adv-x="592" 
d="M537 196l41 -1q-12 -96 -55 -157t-125 -61q-156 0 -101 201l30 107q33 119 -2 119q-29 0 -54.5 -53t-57.5 -197l-30 -155q-57 3 -89 3l-89 -3q86 387 110 541q9 57 -31 57h-18q7 44 7 92q117 -4 234 0q0 -61 -20 -164l-25 -125q56 87 155 87q148 0 99 -203l-32 -132
q-6 -24 -9 -38t-4 -28t2.5 -20t12.5 -6q27 0 51 136z" />
    <glyph glyph-name="i" unicode="i" horiz-adv-x="368" 
d="M344 629q-6 -41 -37 -70t-82 -29q-43 0 -67 28t-19 71q4 42 34.5 71.5t81.5 29.5q46 0 70 -29t19 -72zM294 291l-38 -152q-19 -78 7 -78q28 0 47 135l41 -1q-4 -44 -15.5 -81.5t-32 -69t-53 -49.5t-74.5 -18q-159 0 -102 198l43 154q22 75 -1 75q-20 0 -35 -38.5
t-21 -99.5l-40 1q11 95 52.5 157.5t113.5 62.5q77 0 104 -52t4 -144z" />
    <glyph glyph-name="j" unicode="j" horiz-adv-x="318" 
d="M338 629q-6 -41 -37 -70t-82 -29q-49 0 -70 28t-16 71q4 42 34.5 71.5t81.5 29.5q50 0 72 -29.5t17 -71.5zM280 291l-50 -258q-25 -129 -90.5 -182t-182.5 -53q-71 0 -106.5 27.5t-25.5 73.5q6 28 25.5 43.5t48.5 15.5q33 0 47 -19t8 -46q-6 -25 -31 -36t-51 -5
q18 -18 49 -18q62 0 89 52.5t51 184.5l44 236q4 23 6.5 38t3.5 30t-1 22t-8 7q-19 0 -34 -39t-21 -99l-40 1q12 99 54.5 159.5t115.5 60.5q138 0 99 -196z" />
    <glyph glyph-name="k" unicode="k" horiz-adv-x="585" 
d="M525 196l41 -1q-8 -96 -50.5 -157t-124.5 -61q-69 0 -100.5 37.5t-15.5 105.5q13 56 3.5 73t-51.5 18l-43 -214q-56 3 -88 3q-46 0 -91 -3q99 436 111 543q4 28 -1.5 42.5t-29.5 14.5h-17q6 38 6 92q120 -4 242 0q-5 -50 -28 -164l-25 -128q50 90 146 90q74 0 99.5 -38.5
t13.5 -94.5q-11 -45 -49 -74.5t-88 -40.5q86 -15 79 -120q-4 -58 15 -58q32 0 46 135zM324 404q-24 0 -44.5 -35t-43.5 -125q42 4 68.5 32t35.5 68q6 28 1.5 44t-17.5 16z" />
    <glyph glyph-name="l" unicode="l" horiz-adv-x="318" 
d="M292 550q-55 -267 -81 -408q-5 -25 -7 -41t-1 -25t4.5 -12.5t9.5 -3.5q14 0 27 37.5t21 98.5l40 -1q-8 -93 -51.5 -155.5t-119.5 -62.5q-72 0 -93 45.5t2 156.5q49 218 72 361q13 57 -30 57h-17q5 22 12 92q112 -4 227 0q0 -64 -15 -139z" />
    <glyph glyph-name="m" unicode="m" horiz-adv-x="899" 
d="M52 266l-40 1q11 95 52 157.5t114 62.5q104 0 107 -112q57 112 167 112q104 0 110 -101q56 101 163 101q72 0 98 -47.5t0 -155.5l-33 -139q-8 -33 -10 -52t1.5 -26t12.5 -7q31 0 48 136l41 -1q-8 -95 -52 -156.5t-126 -61.5q-155 0 -100 201l30 107q34 119 -2 119
q-26 0 -48.5 -40.5t-48.5 -145.5l-1 -4l-19 -86l-29 -129q-60 3 -95 3l-95 -3q34 122 70 287q14 68 12.5 93t-18.5 25q-62 0 -116 -276v3l-27 -132q-57 3 -89 3l-88 -3q48 219 66 322q14 72 10 79q-3 4 -10 4q-19 0 -33.5 -38.5t-21.5 -99.5z" />
    <glyph glyph-name="n" unicode="n" horiz-adv-x="629" 
d="M51 266l-40 1q11 95 53.5 157.5t117.5 62.5q97 0 102 -111q55 111 168 111q80 0 104.5 -57.5t-2.5 -145.5l-36 -139q-23 -85 5 -85q30 0 47 136l41 -1q-9 -95 -52.5 -156.5t-125.5 -61.5q-54 0 -83 27t-31.5 72t12.5 102l32 107q35 119 -3 119q-31 0 -58 -59t-58 -216
l-26 -130q-57 3 -89 3l-89 -3q40 173 67 322q9 49 9 66t-11 17q-18 0 -32.5 -38.5t-21.5 -99.5z" />
    <glyph glyph-name="o" unicode="o" horiz-adv-x="534" 
d="M231 59q53 0 93 236q10 67 6.5 89t-26.5 22q-56 0 -92 -217q-12 -73 -7.5 -101.5t26.5 -28.5zM226 -23q-107 0 -160 60t-40 174q15 131 92 203.5t191 72.5q106 0 157.5 -55.5t41.5 -167.5q-9 -128 -84 -207.5t-198 -79.5z" />
    <glyph glyph-name="p" unicode="p" horiz-adv-x="599" 
d="M181 487q101 0 103 -117q51 117 163 117q68 0 99.5 -54.5t17.5 -153.5q-42 -302 -238 -302q-73 0 -103 41l-11 -55q-4 -25 3.5 -35t29.5 -10h30q-13 -49 -20 -94q-96 2 -151 2l-150 -2q6 20 18 94h14q39 0 49 45q56 249 73 358q12 71 6 79q-3 4 -9 4q-18 0 -32.5 -39
t-20.5 -99l-41 1q11 93 53 156.5t117 63.5zM354 404q-57 0 -97 -214q-13 -71 -10 -100t27 -29q54 0 93 215q14 76 11.5 102t-24.5 26z" />
    <glyph glyph-name="q" unicode="q" horiz-adv-x="585" 
d="M553 476q-61 -261 -103 -519q-6 -39 27 -39h25q-3 -10 -8 -32.5t-8.5 -41.5t-3.5 -20q-97 2 -152 2l-152 -2q9 26 21 94h28q39 0 49 46l20 103q-50 -90 -145 -90q-69 0 -102 50.5t-19 157.5q20 152 88.5 227t150.5 75q115 0 122 -103q62 44 80 92q11 -1 40.5 -1t41.5 1z
M241 61q26 0 51.5 52.5t44.5 160.5q14 72 11.5 101t-27.5 29q-54 0 -92 -215q-14 -77 -12 -102.5t24 -25.5z" />
    <glyph glyph-name="r" unicode="r" horiz-adv-x="487" 
d="M327 342q8 32 32 45.5t53 10.5q-8 20 -35 20q-72 0 -100 -125q-51 -237 -60 -295q-57 2 -88 2l-89 -2q3 12 64 310q14 78 11 89q-2 7 -9 7q-19 0 -33.5 -38.5t-21.5 -99.5l-40 1q11 95 53.5 157.5t117.5 62.5q90 0 100 -96q21 51 54 73.5t69 22.5q52 0 76.5 -32.5
t15.5 -92.5q-14 -106 -99 -106q-35 0 -57.5 23.5t-13.5 62.5z" />
    <glyph glyph-name="s" unicode="s" horiz-adv-x="453" 
d="M311 443q-81 0 -94 -41q-10 -28 7 -48t73 -39q59 -20 90.5 -54t34 -74t-12.5 -86q-46 -124 -224 -124q-98 0 -147 32.5t-36 85.5q6 24 24.5 38t45.5 14q31 0 46 -19.5t7 -47.5q-11 -38 -56 -40q32 -17 80 -17q88 0 100 50q7 27 -9 48t-69 40q-157 58 -104 202
q19 53 74.5 88.5t139.5 35.5q90 0 135.5 -32t33.5 -83q-11 -45 -66 -45q-31 0 -46.5 18.5t-6.5 45.5q10 33 43 40q-33 12 -63 12z" />
    <glyph glyph-name="t" unicode="t" horiz-adv-x="375" 
d="M303 196l40 -1q-8 -100 -51 -159t-126 -59q-149 0 -121 166q0 3 52 271h-35l6 53q49 0 82.5 10t55 32.5t34 47t25.5 65.5h62q-10 -36 -30 -157l85 2l-9 -53l-85 1q-35 -185 -41 -231q-11 -73 -10 -98t19 -25q14 0 27 37.5t20 97.5z" />
    <glyph glyph-name="u" unicode="u" horiz-adv-x="629" 
d="M576 196l41 -1q-9 -92 -51.5 -155t-114.5 -63q-57 0 -83.5 25.5t-26.5 86.5q-53 -112 -161 -112q-151 0 -103 204l34 133q6 23 9 38.5t4 28t-2 18t-10 5.5q-20 0 -34.5 -38.5t-20.5 -99.5l-40 1q12 96 53.5 158t117.5 62q155 0 104 -200l-27 -107q-15 -62 -14 -90.5
t20 -28.5q55 0 101 218l40 189q57 -1 89 -1l88 1q-36 -163 -65 -318q-5 -25 -7 -38t-3 -27t2 -19.5t10 -5.5q31 0 50 136z" />
    <glyph glyph-name="v" unicode="v" horiz-adv-x="510" 
d="M56 266l-41 1q12 95 54 157.5t118 62.5q83 0 109.5 -56.5t1.5 -147.5l-29 -107q-16 -57 -12.5 -86t32.5 -29q44 0 79 67.5t48 156.5q4 31 4 60h-4q-28 0 -46 20.5t-14 54.5q4 33 24 50.5t47 16.5q83 -2 56 -159q-8 -47 -21 -92t-37 -93.5t-54.5 -84t-76.5 -58.5t-100 -23
q-90 0 -117 55.5t0 147.5l34 134q1 7 4 19q5 19 6.5 28t2.5 21t-2 17t-10 5q-19 0 -34 -38.5t-22 -99.5z" />
    <glyph glyph-name="w" unicode="w" horiz-adv-x="766" 
d="M176 -23q-151 0 -99 204l35 142q24 81 -2 81q-18 0 -33.5 -39.5t-22.5 -98.5l-40 1q11 95 53.5 157.5t117.5 62.5q84 0 112 -56.5t3 -143.5l-30 -107q-34 -119 4 -119q46 0 85 177l50 231q60 -2 93 -2l94 2q-10 -32 -22.5 -81.5t-28 -116t-21.5 -90.5
q-16 -63 -11.5 -91.5t32.5 -28.5q46 0 83 68t49 156q5 34 3 72h-3q-26 0 -42 19t-12 50t22 46.5t42 14.5q77 -2 52 -159q-10 -59 -30 -116.5t-51.5 -112.5t-80.5 -88.5t-107 -33.5q-127 0 -134 112q-57 -112 -160 -112z" />
    <glyph glyph-name="x" unicode="x" horiz-adv-x="606" 
d="M539 196q4 -108 -43 -163.5t-142 -55.5q-135 0 -161 98q-38 -91 -120 -91q-46 0 -67 28.5t-11 79.5q7 39 30 61t54 22t43.5 -18.5t5.5 -48.5q-8 -35 -36 -46.5t-48 0.5q4 -30 37 -30q40 0 65.5 42.5t51.5 144.5q11 43 17 74t7.5 58t-6 40.5t-24.5 13.5q-60 0 -63 -140
l-38 2q-3 103 43.5 161.5t132.5 58.5q110 0 132 -95q42 95 120 95q96 0 85 -112q-10 -98 -83 -98q-31 0 -47 21t-9 58q8 35 33.5 47t49.5 2q-6 29 -39 29q-39 0 -65.5 -41.5t-50.5 -139.5q-28 -119 -21 -161t47 -42q41 0 61.5 38.5t17.5 107.5h41z" />
    <glyph glyph-name="y" unicode="y" horiz-adv-x="590" 
d="M57 266l-40 1q11 95 53 157.5t117 62.5q154 0 104 -200l-26 -107q-15 -51 -13.5 -85t19.5 -34q47 0 96 194l44 214q28 -2 88 -2l86 2q-57 -266 -85 -426q-44 -245 -298 -245q-83 0 -121.5 28.5t-35.5 69.5q3 33 23 50.5t50 17.5q26 0 42.5 -14t15.5 -38q-1 -29 -22 -45
t-49 -13q30 -23 79 -23q18 0 33.5 3.5t27.5 12t21 17t16.5 24.5t12 27.5t10 33t8 35t7 39t7.5 39.5q-54 -85 -147 -85q-155 0 -103 204l33 133q6 25 9 40t4 27t-1.5 17.5t-9.5 5.5q-39 0 -55 -138z" />
    <glyph glyph-name="z" unicode="z" horiz-adv-x="504" 
d="M139 256l-33 2q-26 116 7 177.5t113 61.5q72 0 158 -68q49 -42 89 -35q-40 14 -40 50q0 24 12 38t34 14q24 0 36 -19t9 -48q-5 -40 -44.5 -73.5t-132.5 -89.5q-3 -2 -25.5 -15t-59.5 -35t-64 -38q47 18 96 2q44 -16 69 -16q30 0 52.5 15.5t23.5 45.5l31 -2
q29 -98 -6 -171.5t-126 -74.5q-54 0 -93.5 16t-76.5 54q-47 49 -97 34q35 -10 35 -53q0 -22 -11.5 -36t-34.5 -14q-20 0 -32.5 14.5t-12.5 41.5q0 43 37 79.5t134 94.5q6 4 160 86q-43 -7 -91 17q-32 16 -55 16q-29 0 -44.5 -16t-16.5 -55z" />
    <glyph glyph-name="braceleft" unicode="{" horiz-adv-x="333" 
d="M32 314l6 45h14q58 0 67.5 63.5t-7.5 126.5q-1 7 -1 10q-21 132 47.5 193.5t210.5 63.5l-5 -69q-38 -1 -57.5 -12t-32.5 -51.5t-14 -120.5q0 -109 -30.5 -164.5t-119.5 -61.5q44 -5 69 -21.5t31 -46.5t1.5 -62.5t-17.5 -81.5q-12 -44 -17.5 -67.5t-10.5 -51t-3 -40.5
t8.5 -25.5t20 -17t34.5 -4.5l-11 -69q-38 -1 -69.5 3.5t-61.5 15t-49 30t-28.5 48t-2 71t31.5 96.5q50 106 56 135q15 65 -47 65h-13z" />
    <glyph glyph-name="bar" unicode="|" horiz-adv-x="300" 
d="M69 -96q0 4 3.5 8t8.5 4q4 0 7.5 -4t3.5 -8t-3.5 -7.5t-7.5 -3.5t-8 3.5t-4 7.5zM76 -17q0 7 5 12t12 5q17 0 17 -17q0 -7 -5 -12t-12 -5t-12 5t-5 12zM83 61q0 10 6.5 16.5t16.5 6.5q9 0 15.5 -6.5t6.5 -16.5q0 -9 -6.5 -16t-15.5 -7q-10 0 -16.5 7t-6.5 16zM90 140
q0 11 8.5 19.5t19.5 8.5t19.5 -8.5t8.5 -19.5t-8.5 -19.5t-19.5 -8.5t-19.5 8.5t-8.5 19.5zM100 219q0 13 8.5 22t21.5 9t22.5 -9t9.5 -22t-9.5 -22t-22.5 -9t-21.5 9t-8.5 22zM110 297q0 13 10 23t23 10t23 -10t10 -23t-9.5 -22.5t-23.5 -9.5t-23.5 9.5t-9.5 22.5zM123 376
q0 13 9.5 22.5t23.5 9.5t23.5 -9.5t9.5 -22.5q0 -14 -9.5 -23.5t-23.5 -9.5t-23.5 9.5t-9.5 23.5zM137 454q0 13 9.5 22t22.5 9t21.5 -9t8.5 -22t-8.5 -22t-21.5 -9t-22.5 9t-9.5 22zM153 533q0 11 8.5 19.5t19.5 8.5t19.5 -8.5t8.5 -19.5t-8.5 -19.5t-19.5 -8.5t-19.5 8.5
t-8.5 19.5zM171 612q0 9 6.5 16t15.5 7q10 0 16.5 -7t6.5 -16q0 -10 -6.5 -16.5t-16.5 -6.5q-9 0 -15.5 6.5t-6.5 16.5zM189 690q0 7 5 12t12 5t12 -5t5 -12t-5 -12t-12 -5q-17 0 -17 17zM207 769q0 4 3.5 7.5t7.5 3.5t8 -3.5t4 -7.5q0 -5 -4 -8.5t-8 -3.5t-7.5 4t-3.5 8z
" />
    <glyph glyph-name="braceright" unicode="}" horiz-adv-x="326" 
d="M301 359l-6 -45h-14q-26 0 -42.5 -10.5t-23 -26.5t-7 -43t2.5 -53t9 -62q1 -3 1 -5q10 -47 4.5 -84t-14.5 -64.5t-30 -47.5t-42 -33t-51 -20.5t-57 -10.5t-59 -4l6 69q60 3 79 45t22 161q2 51 8 84t21.5 62t46 45t76.5 21q-37 3 -60 15t-33.5 30.5t-11 47.5t5.5 59.5
t19 73.5q24 81 26 123t-12.5 54.5t-49.5 13.5l9 69q137 2 185 -64.5t-13 -199.5q-14 -27 -22 -44.5t-19 -44.5t-13.5 -43.5t-1.5 -33.5t13.5 -25.5t34.5 -8.5h13z" />
    <glyph glyph-name="asciitilde" unicode="~" horiz-adv-x="532" 
d="M457 675l36 1q10 -81 -27.5 -118t-102.5 -35q-45 1 -71 20t-51 60q-14 25 -24 33t-26 8q-44 0 -36 -89l-36 -1q-10 84 25.5 121t103.5 35q43 -1 69.5 -20t51.5 -60q14 -24 24 -32.5t26 -8.5q46 0 38 86z" />
    <glyph glyph-name="exclamdown" unicode="&#xa1;" horiz-adv-x="396" 
d="M125 398q2 42 28 65.5t74 23.5q44 0 67.5 -23.5t21.5 -68.5q-2 -41 -29.5 -66.5t-70.5 -25.5q-47 0 -70 26t-21 69zM184 234q3 14 7 19t13 5q18 -1 14 -29q-5 -31 -7.5 -55.5t-1.5 -48t1.5 -37t6 -36t8.5 -32t12.5 -38.5t13.5 -43q25 -78 -4 -130t-105 -52
q-84 0 -107.5 72t30.5 143l30 40t27 37t19.5 31.5t18.5 40.5t12 47t12 66z" />
    <glyph glyph-name="cent" unicode="&#xa2;" horiz-adv-x="567" 
d="M326 342l-36 -165q6 -1 19 -1q40 0 75 15q-39 12 -34 59q3 28 23.5 46.5t54.5 18.5q39 0 57 -23t11 -61q-11 -62 -74 -101t-152 -43l-24 -112h-50l32 113q-106 7 -153.5 71t-25.5 177q24 122 103 188.5t201 66.5h1l24 112h49l-32 -115q71 -9 107 -44t30 -81
q-4 -36 -27 -55t-59 -19q-33 0 -48.5 16.5t-10.5 43.5q6 34 37 51q-22 8 -52 8zM234 340q-24 -117 23 -150l44 152l34 161q-73 -19 -101 -163z" />
    <glyph glyph-name="sterling" unicode="&#xa3;" 
d="M122 235l8 66q13 -2 51 -2q-8 32 -12 49.5t-8 46.5t-2.5 54.5t7.5 51.5q20 87 95 143.5t186 56.5q96 0 140.5 -47t30.5 -124q-9 -48 -41.5 -73.5t-77.5 -25.5q-35 0 -54.5 21t-12.5 53q7 31 30 48t58 17q12 0 25 -5q-10 42 -67 42q-53 0 -84 -32.5t-45 -103.5
q-6 -27 -28 -168q80 4 105 7l-7 -65h-108q-14 -62 -18 -76q57 -16 105 -16q76 0 104 37l56 -9q-8 -92 -59 -146t-136 -54q-83 0 -151 45q-48 -42 -120 -42q-58 0 -84 29t-13 81q10 42 52 70t104 28q29 0 51 -3q-2 29 -7 53zM88 26q51 0 78 36q-43 34 -72 34q-46 0 -51 -32
q-3 -17 8.5 -27.5t36.5 -10.5z" />
    <glyph glyph-name="yen" unicode="&#xa5;" 
d="M87 428l61 -2q-7 43 -12 70q-11 48 -26.5 65.5t-38.5 17.5h-15q12 55 15 110q106 -2 166 -2l163 2q-12 -66 -14 -110h-13q-22 0 -34.5 -17t-7.5 -51q13 -86 35 -155q60 98 80 156q23 67 -19 67h-11q12 55 15 110q83 -2 121 -2l103 2q-12 -66 -14 -110h-10q-33 0 -55 -16
t-52 -68q-9 -16 -37 -69l67 2q-10 -45 -12 -82l-93 4q-12 -20 -24 -49l110 3q-9 -39 -11 -82l-134 4l-9 -60q-5 -29 5.5 -42t45.5 -13h22q-10 -48 -16 -112q-103 2 -183 2l-189 -2q10 48 16 112h25q34 0 45.5 12.5t15.5 42.5l7 46l-2 14l-117 -4q9 36 12 82l97 -3l-6 48
l-84 -3q10 45 12 82z" />
    <glyph glyph-name="brokenbar" unicode="&#xa6;" horiz-adv-x="300" 
d="M69 -96q0 4 3.5 8t8.5 4q4 0 7.5 -4t3.5 -8t-3.5 -7.5t-7.5 -3.5t-8 3.5t-4 7.5zM76 -17q0 7 5 12t12 5q17 0 17 -17q0 -7 -5 -12t-12 -5t-12 5t-5 12zM83 61q0 10 6.5 16.5t16.5 6.5q9 0 15.5 -6.5t6.5 -16.5q0 -9 -6.5 -16t-15.5 -7q-10 0 -16.5 7t-6.5 16zM90 140
q0 11 8.5 19.5t19.5 8.5t19.5 -8.5t8.5 -19.5t-8.5 -19.5t-19.5 -8.5t-19.5 8.5t-8.5 19.5zM100 219q0 13 8.5 22t21.5 9t22.5 -9t9.5 -22t-9.5 -22t-22.5 -9t-21.5 9t-8.5 22zM137 454q0 13 9.5 22t22.5 9t21.5 -9t8.5 -22t-8.5 -22t-21.5 -9t-22.5 9t-9.5 22zM153 533
q0 11 8.5 19.5t19.5 8.5t19.5 -8.5t8.5 -19.5t-8.5 -19.5t-19.5 -8.5t-19.5 8.5t-8.5 19.5zM171 612q0 9 6.5 16t15.5 7q10 0 16.5 -7t6.5 -16q0 -10 -6.5 -16.5t-16.5 -6.5q-9 0 -15.5 6.5t-6.5 16.5zM189 690q0 7 5 12t12 5t12 -5t5 -12t-5 -12t-12 -5q-17 0 -17 17z
M207 769q0 4 3.5 7.5t7.5 3.5t8 -3.5t4 -7.5q0 -5 -4 -8.5t-8 -3.5t-7.5 4t-3.5 8z" />
    <glyph glyph-name="section" unicode="&#xa7;" horiz-adv-x="758" 
d="M243 -152l-4 12q40 37 63 79t45.5 129t45.5 241q16 105 42 181.5t52.5 117.5t61.5 65t62 30t60 6q67 0 97.5 -34t24.5 -84q-5 -37 -28 -59.5t-59 -22.5q-34 0 -51.5 17t-13.5 50q3 27 27 44t63 10q-17 24 -52 24q-39 0 -62 -25t-44 -105t-43 -244q-47 -352 -287 -432z
M484 660l4 -12q-58 -55 -89.5 -141t-64.5 -308q-16 -104 -41.5 -180.5t-52 -118t-61.5 -65.5t-61.5 -30.5t-59.5 -6.5q-64 0 -97.5 33.5t-26.5 85.5q6 36 28.5 59t59.5 23q35 0 52 -18.5t12 -49.5q-3 -27 -27 -43.5t-62 -10.5q18 -23 55 -23q39 0 61 25t42 105t43 244
q48 353 286 432z" />
    <glyph glyph-name="dieresis" unicode="&#xa8;" horiz-adv-x="534" 
d="M233 613q-3 -29 -22 -45.5t-46 -16.5q-26 0 -42 16.5t-13 45.5t22 45.5t46 16.5t43 -16.5t12 -45.5zM418 613q-3 -29 -22 -45.5t-46 -16.5t-42.5 16.5t-12.5 45.5t22 45.5t45 16.5q27 0 43 -16.5t13 -45.5z" />
    <glyph glyph-name="copyright" unicode="&#xa9;" horiz-adv-x="842" 
d="M384 41q152 0 234.5 83t99.5 220q17 139 -43.5 221.5t-215.5 82.5q-146 0 -232 -84.5t-103 -219.5q-16 -139 44 -221t216 -82zM377 -16q-177 0 -260 97.5t-63 262.5q20 161 134.5 261t277.5 100q170 0 256.5 -99t65.5 -262q-20 -165 -127 -262.5t-284 -97.5zM440 560
q57 0 100 -29q25 -17 34 17q50 -3 66 0q-26 -67 -38 -152q-25 1 -40 1l-46 -1q13 82 -50 82q-35 0 -56 -26.5t-33 -101.5q-12 -79 -1 -104.5t43 -25.5q36 0 54 20.5t24 65.5h3q4 0 9.5 -0.5t11.5 -1t13 -0.5h12h14t13 0.5t10.5 1t7.5 0.5h3q-12 -86 -57.5 -127t-134.5 -41
q-209 0 -176 212q16 101 72 155.5t142 54.5z" />
    <glyph glyph-name="ordfeminine" unicode="&#xaa;" horiz-adv-x="513" 
d="M42 201q13 48 18 101q192 -3 386 0q-9 -36 -18 -101q-191 3 -386 0zM477 494q-6 -70 -37.5 -113t-86.5 -43q-75 0 -75 70q-36 -70 -109 -70q-47 0 -69.5 36t-12.5 111q14 108 61 160t104 52q74 0 85 -62q35 28 44 47q37 -2 73 0q-29 -128 -43 -221q-10 -62 3 -62
q21 0 35 96zM234 400q39 0 67 147q10 50 7.5 69.5t-19.5 19.5q-38 0 -65 -149q-5 -27 -7 -43t-1 -26t5.5 -14t12.5 -4z" />
    <glyph glyph-name="guillemotleft" unicode="&#xab;" horiz-adv-x="455" 
d="M255 430l11 -10q-13 -38 -44.5 -86.5t-68.5 -81.5q20 -35 35.5 -84t16.5 -84l-14 -11q-74 76 -155 145q10 30 13 75zM430 430l11 -10q-13 -38 -44.5 -86.5t-68.5 -81.5q20 -35 35.5 -84t16.5 -84l-14 -11q-74 76 -155 145q10 30 13 75z" />
    <glyph glyph-name="registered" unicode="&#xae;" horiz-adv-x="842" 
d="M384 41q152 0 234.5 83t99.5 220q17 139 -43.5 221.5t-215.5 82.5q-146 0 -232 -84.5t-103 -219.5q-16 -139 44 -221t216 -82zM377 -16q-177 0 -260 97.5t-63 262.5q20 161 134.5 261t277.5 100q170 0 256.5 -99t65.5 -262q-20 -165 -127 -262.5t-284 -97.5zM590 257
q-2 -45 15 -45q10 0 12.5 20t-1.5 37l35 3q5 -55 -21 -92.5t-87 -37.5q-62 0 -82.5 25.5t-15.5 75.5q4 45 -8.5 63t-45.5 19q-9 -61 -9 -66q-1 -18 5 -26t21 -8h14q-6 -22 -10 -70q-73 1 -114 1l-114 -1l11 70h14q28 0 35 32q4 16 16 92.5t14 94.5q0 18 -4.5 25t-19.5 7h-16
q4 20 10 70q24 -1 118 -1h114q93 0 130 -25t31 -80q-9 -76 -101 -100q52 -14 54 -83zM412 453q-2 -4 -16 -95h25q57 0 67 60q9 60 -38 60h-8q-24 0 -30 -25z" />
    <glyph glyph-name="macron" unicode="&#xaf;" horiz-adv-x="532" 
d="M115 553q15 50 17 93q46 -2 142.5 -2t142.5 2q-9 -33 -18 -93q-46 1 -142 1t-142 -1z" />
    <glyph glyph-name="degree" unicode="&#xb0;" horiz-adv-x="356" 
d="M199 414q42 0 68 28t37 92q11 65 -6 92.5t-59 27.5q-84 0 -106 -120q-11 -65 6 -92.5t60 -27.5zM192 375q-65 0 -97.5 41t-20.5 118q29 160 172 160q65 0 98 -41.5t19 -118.5q-26 -159 -171 -159z" />
    <glyph glyph-name="plusminus" unicode="&#xb1;" 
d="M27 0q11 45 16 89q88 -2 164 -2q21 83 35 127q-88 -13 -189 -13l17 99q95 0 184 -14q3 99 21 187h98q-17 -97 -46 -187q93 14 189 14l-17 -99q-106 0 -186 14q-1 -41 -12 -128q86 0 182 2q-12 -46 -16 -89q-220 4 -440 0z" />
    <glyph glyph-name="acute" unicode="&#xb4;" horiz-adv-x="532" 
d="M161 542l-8 12q64 92 129 128q40 16 67 6t25 -39.5t-39 -50.5q-76 -46 -174 -56z" />
    <glyph glyph-name="paragraph" unicode="&#xb6;" horiz-adv-x="576" 
d="M234 29q8 23 35 163q-115 1 -169.5 65.5t-31.5 183.5q25 131 114.5 189.5t239.5 58.5h184q-12 -52 -17 -90h-18q-48 0 -58 -49l-97 -507q-26 -133 -88.5 -190.5t-190.5 -57.5q-75 0 -110.5 28.5t-30.5 71.5q5 39 27.5 55.5t50.5 16.5q29 0 44.5 -16t14.5 -41
q-1 -34 -28 -48t-61 -4q15 -27 54 -27q51 0 81.5 44t54.5 154z" />
    <glyph glyph-name="periodcentered" unicode="&#xb7;" horiz-adv-x="309" 
d="M255 245q-3 -45 -32 -70.5t-78 -25.5q-47 0 -71.5 24.5t-20.5 72.5q4 42 34.5 69t75.5 27q48 0 72.5 -27t19.5 -70z" />
    <glyph glyph-name="cedilla" unicode="&#xb8;" horiz-adv-x="532" 
d="M213 -108l-11 25q64 25 72 90l32 -7q3 -39 -25 -66q45 2 76.5 -18.5t30.5 -61.5q-1 -43 -35 -68.5t-90 -25.5q-75 0 -113 58l24 23q27 -33 65 -33q51 0 53 46q1 30 -23 40.5t-56 -2.5z" />
    <glyph glyph-name="ordmasculine" unicode="&#xba;" horiz-adv-x="464" 
d="M42 201q13 48 18 101q173 -3 346 0q-9 -36 -18 -101q-171 3 -346 0zM243 399q37 0 66 162q7 45 4.5 60.5t-18.5 15.5q-40 0 -65 -146q-15 -92 13 -92zM239 338q-74 0 -111.5 42.5t-27.5 122.5q10 96 63.5 145t134.5 49q152 0 140 -159q-7 -92 -59.5 -146t-139.5 -54z" />
    <glyph glyph-name="guillemotright" unicode="&#xbb;" horiz-adv-x="455" 
d="M77 420l14 10q92 -83 156 -143q-13 -39 -13 -75q-107 -67 -205 -139l-11 11q14 37 45.5 88t63.5 83q-48 90 -50 165zM252 420l14 10q92 -83 156 -143q-13 -39 -13 -75q-107 -67 -205 -139l-11 11q14 37 45.5 88t63.5 83q-48 90 -50 165z" />
    <glyph glyph-name="onequarter" unicode="&#xbc;" horiz-adv-x="378" 
d="M176 488l18 111l-56 -1q10 40 10 59h19q82 0 100 57q11 -2 35 -2t34 2q-19 -77 -30 -135l-14 -91q-6 -28 26 -28h28q-8 -28 -10 -54q-75 1 -118 1l-119 -1q9 33 9 54h33q31 0 35 28zM117 53l2 12q-22 0 -47.5 -0.5t-42.5 -0.5h-19l4 25l166 197q54 -2 106 0
q-7 -32 -33 -194l44 1l-5 -30h-43l-1 -7q-3 -23 19 -23h21q-10 -33 -10 -55q-74 2 -113 2l-110 -2q9 30 9 55h27q23 0 26 20zM124 91q2 10 5.5 32.5t6.5 41t5 31.5l-79 -105h62zM8 344q0 23 24 23q10 0 16.5 -6.5t6.5 -16.5q0 -24 -23 -24q-24 0 -24 24zM73 344q0 21 22 21
q9 0 15 -6t6 -15q0 -22 -21 -22q-22 0 -22 22zM138 344q0 19 20 19q8 0 13.5 -5.5t5.5 -13.5q0 -20 -19 -20q-20 0 -20 20zM201 344q0 19 20 19q7 0 13 -5.5t6 -13.5q0 -20 -19 -20q-20 0 -20 20zM262 344q0 21 22 21q9 0 15 -6t6 -15q0 -22 -21 -22q-22 0 -22 22zM323 344
q0 23 24 23q10 0 16.5 -6.5t6.5 -16.5q0 -24 -23 -24q-24 0 -24 24z" />
    <glyph glyph-name="onehalf" unicode="&#xbd;" horiz-adv-x="378" 
d="M286 96q18 -37 -3 -81t-85 -44q-38 0 -89 33q-24 15 -40 15q-14 0 -13 -6q0 -2 4 -4q15 -7 13 -22.5t-21 -15.5q-15 0 -23 11t-7 29q3 60 92 100q71 33 80 83q6 51 -45 51q-21 0 -44 -14q3 0 9 0.5t8 0.5q21 -1 29.5 -11t6.5 -24q-7 -35 -54 -35q-23 0 -35.5 12t-8.5 34
q6 36 46.5 59t94.5 23q66 0 91 -25.5t20 -63.5q-14 -89 -175 -113q-42 -7 -61 -29q30 12 90 7q21 -1 32.5 -1.5t27 1.5t22.5 8.5t7 18.5zM176 488l18 111l-56 -1q10 40 10 59h19q82 0 100 57q11 -2 35 -2t34 2q-19 -77 -30 -135l-14 -91q-6 -28 26 -28h28q-8 -28 -10 -54
q-75 1 -118 1l-119 -1q9 33 9 54h33q31 0 35 28zM8 344q0 23 24 23q10 0 16.5 -6.5t6.5 -16.5q0 -24 -23 -24q-24 0 -24 24zM73 344q0 21 22 21q9 0 15 -6t6 -15q0 -22 -21 -22q-22 0 -22 22zM138 344q0 19 20 19q8 0 13.5 -5.5t5.5 -13.5q0 -20 -19 -20q-20 0 -20 20z
M201 344q0 19 20 19q7 0 13 -5.5t6 -13.5q0 -20 -19 -20q-20 0 -20 20zM262 344q0 21 22 21q9 0 15 -6t6 -15q0 -22 -21 -22q-22 0 -22 22zM323 344q0 23 24 23q10 0 16.5 -6.5t6.5 -16.5q0 -24 -23 -24q-24 0 -24 24z" />
    <glyph glyph-name="threequarters" unicode="&#xbe;" horiz-adv-x="378" 
d="M368 643q-3 -58 -69 -79q59 -16 57 -64q-3 -101 -166 -101q-55 0 -86 19t-29 51q1 26 18.5 42.5t44.5 16.5q44 0 44 -35q0 -21 -16 -32t-39 -9h-6q17 -14 42 -14q67 0 70 62q1 22 -12.5 33.5t-38.5 11.5h-15l6 32h10q63 2 66 55q2 41 -45 41q-25 0 -43 -11q2 1 7 1
q21 0 32 -9t11 -23q-2 -39 -51 -39q-22 0 -35 10.5t-12 29.5q1 38 43 62t102 24q56 0 84 -20.5t26 -54.5zM117 53l2 12q-22 0 -47.5 -0.5t-42.5 -0.5h-19l4 25l166 197q54 -2 106 0q-7 -32 -33 -194l44 1l-5 -30h-43l-1 -7q-3 -23 19 -23h21q-10 -33 -10 -55q-74 2 -113 2
l-110 -2q9 30 9 55h27q23 0 26 20zM124 91q2 10 5.5 32.5t6.5 41t5 31.5l-79 -105h62zM8 344q0 23 24 23q10 0 16.5 -6.5t6.5 -16.5q0 -24 -23 -24q-24 0 -24 24zM73 344q0 21 22 21q9 0 15 -6t6 -15q0 -22 -21 -22q-22 0 -22 22zM138 344q0 19 20 19q8 0 13.5 -5.5
t5.5 -13.5q0 -20 -19 -20q-20 0 -20 20zM201 344q0 19 20 19q7 0 13 -5.5t6 -13.5q0 -20 -19 -20q-20 0 -20 20zM262 344q0 21 22 21q9 0 15 -6t6 -15q0 -22 -21 -22q-22 0 -22 22zM323 344q0 23 24 23q10 0 16.5 -6.5t6.5 -16.5q0 -24 -23 -24q-24 0 -24 24z" />
    <glyph glyph-name="questiondown" unicode="&#xbf;" horiz-adv-x="621" 
d="M223 183l-9 31q75 42 152 41q40 -1 61 -20.5t17 -50.5q-6 -45 -81 -86q-92 -50 -104 -127q-10 -58 14.5 -89t74.5 -31q68 0 109 41q-24 -6 -46 -6q-38 2 -56.5 24t-11.5 64q6 34 33.5 55.5t72.5 20.5q41 -1 64.5 -33t12.5 -85q-18 -84 -90.5 -129t-174.5 -45
q-128 0 -181 54.5t-38 140.5q13 79 75 126.5t167 79.5q41 12 53.5 19.5t12.5 16.5q1 7 -5.5 12t-19.5 6q-45 2 -102 -30zM270 398q2 42 28 65.5t74 23.5q44 0 67.5 -23.5t20.5 -68.5q-2 -41 -29 -66.5t-70 -25.5q-47 0 -70 26t-21 69z" />
    <glyph glyph-name="Agrave" unicode="&#xc0;" horiz-adv-x="879" 
d="M479 212q-106 2 -218 0l-3 -8q-23 -50 -17 -71.5t43 -21.5h35q-11 -49 -17 -113q-101 2 -159 2l-161 -2q12 55 17 113h20q42 0 66 19.5t52 70.5q163 299 261 496q70 -2 109 -2l108 2q51 -242 117 -496q14 -52 32 -71t49 -19h24q-12 -55 -17 -113q-143 2 -222 2l-223 -2
q12 55 17 113h38q36 0 47 22.5t3 71.5q-1 2 -1 7zM290 270q91 -2 177 0q-24 117 -52 245q-50 -95 -125 -245zM588 755l-8 -12q-97 10 -173 56q-37 21 -39 50.5t25 39.5t67 -6q32 -18 67.5 -54.5t60.5 -73.5z" />
    <glyph glyph-name="Aacute" unicode="&#xc1;" horiz-adv-x="879" 
d="M479 212q-106 2 -218 0l-3 -8q-23 -50 -17 -71.5t43 -21.5h35q-11 -49 -17 -113q-101 2 -159 2l-161 -2q12 55 17 113h20q42 0 66 19.5t52 70.5q163 299 261 496q70 -2 109 -2l108 2q51 -242 117 -496q14 -52 32 -71t49 -19h24q-12 -55 -17 -113q-143 2 -222 2l-223 -2
q12 55 17 113h38q36 0 47 22.5t3 71.5q-1 2 -1 7zM290 270q91 -2 177 0q-24 117 -52 245q-50 -95 -125 -245zM471 743l-8 12q64 92 129 128q40 16 67 6t25 -39.5t-39 -50.5q-76 -46 -174 -56z" />
    <glyph glyph-name="Acircumflex" unicode="&#xc2;" horiz-adv-x="879" 
d="M479 212q-106 2 -218 0l-3 -8q-23 -50 -17 -71.5t43 -21.5h35q-11 -49 -17 -113q-101 2 -159 2l-161 -2q12 55 17 113h20q42 0 66 19.5t52 70.5q163 299 261 496q70 -2 109 -2l108 2q51 -242 117 -496q14 -52 32 -71t49 -19h24q-12 -55 -17 -113q-143 2 -222 2l-223 -2
q12 55 17 113h38q36 0 47 22.5t3 71.5q-1 2 -1 7zM290 270q91 -2 177 0q-24 117 -52 245q-50 -95 -125 -245zM658 753l-13 -11q-70 26 -123 78q-27 -23 -72 -46.5t-75 -30.5l-9 11q19 42 56.5 82t76.5 66h77q24 -24 47 -65.5t35 -83.5z" />
    <glyph glyph-name="Atilde" unicode="&#xc3;" horiz-adv-x="879" 
d="M479 212q-106 2 -218 0l-3 -8q-23 -50 -17 -71.5t43 -21.5h35q-11 -49 -17 -113q-101 2 -159 2l-161 -2q12 55 17 113h20q42 0 66 19.5t52 70.5q163 299 261 496q70 -2 109 -2l108 2q51 -242 117 -496q14 -52 32 -71t49 -19h24q-12 -55 -17 -113q-143 2 -222 2l-223 -2
q12 55 17 113h38q36 0 47 22.5t3 71.5q-1 2 -1 7zM290 270q91 -2 177 0q-24 117 -52 245q-50 -95 -125 -245zM641 861l30 1q8 -69 -23.5 -100t-85.5 -29q-38 1 -60 17t-43 50q-12 21 -20.5 28t-21.5 7q-38 0 -31 -75l-30 -1q-9 71 21 102t88 29q36 -1 58.5 -16.5t43.5 -50.5
q12 -21 20.5 -28t21.5 -7q39 0 32 73z" />
    <glyph glyph-name="Adieresis" unicode="&#xc4;" horiz-adv-x="879" 
d="M479 212q-106 2 -218 0l-3 -8q-23 -50 -17 -71.5t43 -21.5h35q-11 -49 -17 -113q-101 2 -159 2l-161 -2q12 55 17 113h20q42 0 66 19.5t52 70.5q163 299 261 496q70 -2 109 -2l108 2q51 -242 117 -496q14 -52 32 -71t49 -19h24q-12 -55 -17 -113q-143 2 -222 2l-223 -2
q12 55 17 113h38q36 0 47 22.5t3 71.5q-1 2 -1 7zM290 270q91 -2 177 0q-24 117 -52 245q-50 -95 -125 -245zM490 814q-3 -29 -22 -45.5t-46 -16.5q-26 0 -42 16.5t-13 45.5t22 45.5t46 16.5t43 -16.5t12 -45.5zM675 814q-3 -29 -22 -45.5t-46 -16.5t-42.5 16.5t-12.5 45.5
t22 45.5t45 16.5q27 0 43 -16.5t13 -45.5z" />
    <glyph glyph-name="Aring" unicode="&#xc5;" horiz-adv-x="879" 
d="M479 212q-106 2 -218 0l-3 -8q-23 -50 -17 -71.5t43 -21.5h35q-11 -49 -17 -113q-101 2 -159 2l-161 -2q12 55 17 113h20q42 0 66 19.5t52 70.5q163 299 261 496q70 -2 109 -2l108 2q51 -242 117 -496q14 -52 32 -71t49 -19h24q-12 -55 -17 -113q-143 2 -222 2l-223 -2
q12 55 17 113h38q36 0 47 22.5t3 71.5q-1 2 -1 7zM290 270q91 -2 177 0q-24 117 -52 245q-50 -95 -125 -245zM471 838q-2 -23 9 -35.5t32 -12.5q46 0 51 48q3 24 -8.5 37t-32.5 13t-34.5 -13t-16.5 -37zM424 838q5 42 32 67.5t70 25.5q41 0 64.5 -26t19.5 -67
q-5 -41 -32 -66.5t-70 -25.5q-41 0 -64.5 26t-19.5 66z" />
    <glyph glyph-name="AE" unicode="&#xc6;" horiz-adv-x="1094" 
d="M1075 277q-25 -104 -50 -281q-46 4 -218 4q-222 1 -274 1l-185 -2q7 34 18 112h21q33 0 48.5 15.5t23.5 50.5l8 44h-53h-63.5h-52.5l-11 -17q-58 -93 11 -93h28q-15 -66 -19 -112q-105 3 -164 3l-162 -3q16 60 18 112h21q41 0 71.5 20.5t69.5 69.5q125 151 246 316
q20 25 14.5 44.5t-39.5 19.5h-16q13 59 18 113q51 -6 269 -6h243q182 0 238 7q-33 -130 -45 -263q-46 2 -114 -1l2 14q14 82 -9.5 107.5t-87.5 25.5h-81q-33 0 -49.5 -14t-22.5 -46q-13 -61 -25 -138h32q40 1 58 21.5t25 64.5l5 32h86q-17 -64 -31 -152q-12 -78 -16 -153
h-84l5 29q7 48 -4.5 68t-54.5 22h-32q-17 -114 -19 -137q-4 -35 9.5 -49.5t44.5 -14.5h82q71 0 102 31.5t42 124.5l2 10q61 -2 121 0zM339 282q96 0 139 1q23 141 32 221q0 2 0.5 5t0.5 5q-102 -129 -172 -232z" />
    <glyph glyph-name="Ccedilla" unicode="&#xc7;" horiz-adv-x="703" 
d="M241 -108l-11 25q50 20 65 60q-152 9 -217 98t-39 271q28 182 122.5 273t241.5 91q90 0 169 -44q25 -15 44 -7t25 38q14 -1 44 -1t44 1q-19 -40 -33.5 -118.5t-20.5 -149.5q-1 0 -14 0.5t-29 1t-24 0.5t-25.5 -0.5t-32 -1t-15.5 -0.5q26 158 -100 158q-67 0 -104 -51
t-57 -190q-9 -77 -9 -124.5t15.5 -74t34.5 -35.5t48 -9q70 0 107 40.5t50 125.5q4 -2 74 -2q69 0 75 2q-23 -150 -103.5 -222t-232.5 -72h-1q-4 -23 -23 -41q45 2 76.5 -18.5t30.5 -61.5q-1 -43 -35 -68.5t-90 -25.5q-75 0 -113 58l24 23q27 -33 65 -33q51 0 53 46
q1 30 -23 40.5t-56 -2.5z" />
    <glyph glyph-name="Egrave" unicode="&#xc8;" horiz-adv-x="723" 
d="M445 466l5 32h86q-18 -82 -29 -151q-11 -77 -16 -154h-84l3 29q6 48 -4.5 68t-52.5 22h-34q-18 -131 -19 -143q-2 -35 12 -46.5t45 -11.5h80q70 0 100 31t44 125l1 10q62 -2 121 0q-23 -94 -49 -281q-45 4 -213 4h-249l-209 -2q14 91 17 113h27q29 0 38.5 11t18.5 47
q9 33 31.5 177.5t24.5 174.5q3 58 -43 58h-31q10 44 16 110l39 -1q39 0 89 -0.5t78 -0.5h232q178 0 242 8q-33 -139 -45 -262q-50 2 -114 -1l3 15q13 82 -10.5 106.5t-89.5 24.5h-81q-31 0 -47 -12t-23 -45q-7 -29 -25 -141h25q45 0 64 19.5t26 66.5zM494 755l-8 -12
q-97 10 -173 56q-37 21 -39 50.5t25 39.5t67 -6q32 -18 67.5 -54.5t60.5 -73.5z" />
    <glyph glyph-name="Eacute" unicode="&#xc9;" horiz-adv-x="723" 
d="M393 743l-8 12q64 92 129 128q40 16 67 6t25 -39.5t-39 -50.5q-76 -46 -174 -56zM445 466l5 32h86q-18 -82 -29 -151q-11 -77 -16 -154h-84l3 29q6 48 -4.5 68t-52.5 22h-34q-18 -131 -19 -143q-2 -35 12 -46.5t45 -11.5h80q70 0 100 31t44 125l1 10q62 -2 121 0
q-23 -94 -49 -281q-45 4 -213 4h-249l-209 -2q14 91 17 113h27q29 0 38.5 11t18.5 47q9 33 31.5 177.5t24.5 174.5q3 58 -43 58h-31q10 44 16 110l39 -1q39 0 89 -0.5t78 -0.5h232q178 0 242 8q-33 -139 -45 -262q-50 2 -114 -1l3 15q13 82 -10.5 106.5t-89.5 24.5h-81
q-31 0 -47 -12t-23 -45q-7 -29 -25 -141h25q45 0 64 19.5t26 66.5z" />
    <glyph glyph-name="Ecircumflex" unicode="&#xca;" horiz-adv-x="723" 
d="M599 753l-13 -11q-70 26 -123 78q-27 -23 -72 -46.5t-75 -30.5l-9 11q19 42 56.5 82t76.5 66h77q24 -24 47 -65.5t35 -83.5zM445 466l5 32h86q-18 -82 -29 -151q-11 -77 -16 -154h-84l3 29q6 48 -4.5 68t-52.5 22h-34q-18 -131 -19 -143q-2 -35 12 -46.5t45 -11.5h80
q70 0 100 31t44 125l1 10q62 -2 121 0q-23 -94 -49 -281q-45 4 -213 4h-249l-209 -2q14 91 17 113h27q29 0 38.5 11t18.5 47q9 33 31.5 177.5t24.5 174.5q3 58 -43 58h-31q10 44 16 110l39 -1q39 0 89 -0.5t78 -0.5h232q178 0 242 8q-33 -139 -45 -262q-50 2 -114 -1l3 15
q13 82 -10.5 106.5t-89.5 24.5h-81q-31 0 -47 -12t-23 -45q-7 -29 -25 -141h25q45 0 64 19.5t26 66.5z" />
    <glyph glyph-name="Edieresis" unicode="&#xcb;" horiz-adv-x="723" 
d="M421 814q-3 -29 -22 -45.5t-46 -16.5q-26 0 -42 16.5t-13 45.5t22 45.5t46 16.5t43 -16.5t12 -45.5zM606 814q-3 -29 -22 -45.5t-46 -16.5t-42.5 16.5t-12.5 45.5t22 45.5t45 16.5q27 0 43 -16.5t13 -45.5zM445 466l5 32h86q-18 -82 -29 -151q-11 -77 -16 -154h-84l3 29
q6 48 -4.5 68t-52.5 22h-34q-18 -131 -19 -143q-2 -35 12 -46.5t45 -11.5h80q70 0 100 31t44 125l1 10q62 -2 121 0q-23 -94 -49 -281q-45 4 -213 4h-249l-209 -2q14 91 17 113h27q29 0 38.5 11t18.5 47q9 33 31.5 177.5t24.5 174.5q3 58 -43 58h-31q10 44 16 110l39 -1
q39 0 89 -0.5t78 -0.5h232q178 0 242 8q-33 -139 -45 -262q-50 2 -114 -1l3 15q13 82 -10.5 106.5t-89.5 24.5h-81q-31 0 -47 -12t-23 -45q-7 -29 -25 -141h25q45 0 64 19.5t26 66.5z" />
    <glyph glyph-name="Igrave" unicode="&#xcc;" horiz-adv-x="426" 
d="M-18 -2q10 42 16 113h28q30 0 39 9.5t18 42.5q8 30 31.5 179.5t25.5 180.5q2 30 -7 43t-35 13h-32q10 44 16 110q121 -2 189 -2q41 0 114 1t74 1q-13 -73 -15 -110h-24q-50 0 -66 -56q-8 -28 -31 -179.5t-25 -179.5t7.5 -40.5t41.5 -12.5h27q-13 -58 -15 -113
q-121 2 -189 2zM356 755l-8 -12q-97 10 -173 56q-37 21 -39 50.5t25 39.5t67 -6q32 -18 67.5 -54.5t60.5 -73.5z" />
    <glyph glyph-name="Iacute" unicode="&#xcd;" horiz-adv-x="426" 
d="M-18 -2q10 42 16 113h28q30 0 39 9.5t18 42.5q8 30 31.5 179.5t25.5 180.5q2 30 -7 43t-35 13h-32q10 44 16 110q121 -2 189 -2q41 0 114 1t74 1q-13 -73 -15 -110h-24q-50 0 -66 -56q-8 -28 -31 -179.5t-25 -179.5t7.5 -40.5t41.5 -12.5h27q-13 -58 -15 -113
q-121 2 -189 2zM238 743l-8 12q64 92 129 128q40 16 67 6t25 -39.5t-39 -50.5q-76 -46 -174 -56z" />
    <glyph glyph-name="Icircumflex" unicode="&#xce;" horiz-adv-x="426" 
d="M-18 -2q10 42 16 113h28q30 0 39 9.5t18 42.5q8 30 31.5 179.5t25.5 180.5q2 30 -7 43t-35 13h-32q10 44 16 110q121 -2 189 -2q41 0 114 1t74 1q-13 -73 -15 -110h-24q-50 0 -66 -56q-8 -28 -31 -179.5t-25 -179.5t7.5 -40.5t41.5 -12.5h27q-13 -58 -15 -113
q-121 2 -189 2zM423 753l-13 -11q-70 26 -123 78q-27 -23 -72 -46.5t-75 -30.5l-9 11q19 42 56.5 82t76.5 66h77q24 -24 47 -65.5t35 -83.5z" />
    <glyph glyph-name="Idieresis" unicode="&#xcf;" horiz-adv-x="426" 
d="M-18 -2q10 42 16 113h28q30 0 39 9.5t18 42.5q8 30 31.5 179.5t25.5 180.5q2 30 -7 43t-35 13h-32q10 44 16 110q121 -2 189 -2q41 0 114 1t74 1q-13 -73 -15 -110h-24q-50 0 -66 -56q-8 -28 -31 -179.5t-25 -179.5t7.5 -40.5t41.5 -12.5h27q-13 -58 -15 -113
q-121 2 -189 2zM259 814q-3 -29 -22 -45.5t-46 -16.5q-26 0 -42 16.5t-13 45.5t22 45.5t46 16.5t43 -16.5t12 -45.5zM444 814q-3 -29 -22 -45.5t-46 -16.5t-42.5 16.5t-12.5 45.5t22 45.5t45 16.5q27 0 43 -16.5t13 -45.5z" />
    <glyph glyph-name="Eth" unicode="&#xd0;" horiz-adv-x="806" 
d="M485 688q336 0 289 -347q-48 -342 -386 -342q-135 1 -205 1l-200 -2q11 49 17 113h28q29 0 40 14.5t19 52.5q5 21 21 121q-13 0 -32 -0.5t-23 -0.5q10 28 17 93q11 -1 52 -1q16 98 18 133q2 30 -7.5 43t-35.5 13h-32q10 45 16 111q132 -3 200 -3q47 0 118 0.5t86 0.5z
M300 160q-2 -52 43 -52h19q82 0 127.5 51t64.5 184q21 136 -6 187t-111 51h-24q-42 0 -55 -40q-6 -18 -26 -152q71 0 113 2q-11 -34 -17 -93q-7 0 -45 0.5t-65 0.5q-15 -104 -18 -139z" />
    <glyph glyph-name="Ntilde" unicode="&#xd1;" horiz-adv-x="827" 
d="M396 689q48 -110 202 -402q26 150 32 222q5 70 -53 70h-49q10 44 16 110q66 -2 160 -2l159 2q-10 -44 -16 -110h-32q-58 0 -73 -70q-14 -71 -40 -245t-36 -265q-31 1 -96.5 1t-96.5 -1q-27 61 -221 443q-30 -175 -38 -261q-3 -32 12 -51t48 -19h42q-11 -49 -17 -113
q-104 2 -161 2l-161 -2q6 26 17 113h28q64 0 79 70q11 48 30 170.5t21 164.5q2 32 -10 47.5t-47 15.5h-32q11 38 17 110q158 -4 316 0zM626 864l30 1q8 -69 -23.5 -100t-85.5 -29q-38 1 -60 17t-43 50q-12 21 -20.5 28t-21.5 7q-38 0 -31 -75l-30 -1q-9 71 21 102t88 29
q36 -1 58.5 -16.5t43.5 -50.5q12 -21 20.5 -28t21.5 -7q39 0 32 73z" />
    <glyph glyph-name="Ograve" unicode="&#xd2;" horiz-adv-x="799" 
d="M370 98q69 0 104.5 55.5t55.5 193.5q21 141 2.5 190.5t-85.5 49.5t-103 -52.5t-57 -188.5q-20 -140 -1.5 -194t84.5 -54zM354 -25q-166 0 -250.5 95.5t-58.5 275.5q28 184 138 274t282 90q179 0 256.5 -92.5t50.5 -270.5q-28 -188 -141 -280t-277 -92zM534 755l-8 -12
q-97 10 -173 56q-37 21 -39 50.5t25 39.5t67 -6q32 -18 67.5 -54.5t60.5 -73.5z" />
    <glyph glyph-name="Oacute" unicode="&#xd3;" horiz-adv-x="799" 
d="M436 743l-8 12q64 92 129 128q40 16 67 6t25 -39.5t-39 -50.5q-76 -46 -174 -56zM370 98q69 0 104.5 55.5t55.5 193.5q21 141 2.5 190.5t-85.5 49.5t-103 -52.5t-57 -188.5q-20 -140 -1.5 -194t84.5 -54zM354 -25q-166 0 -250.5 95.5t-58.5 275.5q28 184 138 274t282 90
q179 0 256.5 -92.5t50.5 -270.5q-28 -188 -141 -280t-277 -92z" />
    <glyph glyph-name="Ocircumflex" unicode="&#xd4;" horiz-adv-x="799" 
d="M623 753l-13 -11q-70 26 -123 78q-27 -23 -72 -46.5t-75 -30.5l-9 11q19 42 56.5 82t76.5 66h77q24 -24 47 -65.5t35 -83.5zM370 98q69 0 104.5 55.5t55.5 193.5q21 141 2.5 190.5t-85.5 49.5t-103 -52.5t-57 -188.5q-20 -140 -1.5 -194t84.5 -54zM354 -25
q-166 0 -250.5 95.5t-58.5 275.5q28 184 138 274t282 90q179 0 256.5 -92.5t50.5 -270.5q-28 -188 -141 -280t-277 -92z" />
    <glyph glyph-name="Otilde" unicode="&#xd5;" horiz-adv-x="799" 
d="M370 98q69 0 104.5 55.5t55.5 193.5q21 141 2.5 190.5t-85.5 49.5t-103 -52.5t-57 -188.5q-20 -140 -1.5 -194t84.5 -54zM354 -25q-166 0 -250.5 95.5t-58.5 275.5q28 184 138 274t282 90q179 0 256.5 -92.5t50.5 -270.5q-28 -188 -141 -280t-277 -92zM615 864l30 1
q8 -69 -23.5 -100t-85.5 -29q-38 1 -60 17t-43 50q-12 21 -20.5 28t-21.5 7q-38 0 -31 -75l-30 -1q-9 71 21 102t88 29q36 -1 58.5 -16.5t43.5 -50.5q12 -21 20.5 -28t21.5 -7q39 0 32 73z" />
    <glyph glyph-name="Odieresis" unicode="&#xd6;" horiz-adv-x="799" 
d="M451 814q-3 -29 -22 -45.5t-46 -16.5q-26 0 -42 16.5t-13 45.5t22 45.5t46 16.5t43 -16.5t12 -45.5zM636 814q-3 -29 -22 -45.5t-46 -16.5t-42.5 16.5t-12.5 45.5t22 45.5t45 16.5q27 0 43 -16.5t13 -45.5zM370 98q69 0 104.5 55.5t55.5 193.5q21 141 2.5 190.5
t-85.5 49.5t-103 -52.5t-57 -188.5q-20 -140 -1.5 -194t84.5 -54zM354 -25q-166 0 -250.5 95.5t-58.5 275.5q28 184 138 274t282 90q179 0 256.5 -92.5t50.5 -270.5q-28 -188 -141 -280t-277 -92z" />
    <glyph glyph-name="multiply" unicode="&#xd7;" 
d="M469 126l-84 -70q-66 90 -96 143q-62 -65 -140 -131l-57 69q68 58 155 113q-57 49 -118 123l84 69q55 -70 95 -141q58 64 141 134l56 -70q-62 -55 -156 -116q46 -40 120 -123z" />
    <glyph glyph-name="Oslash" unicode="&#xd8;" horiz-adv-x="799" 
d="M354 -25q-113 0 -189 44l-62 -60l-23 19l46 69q-110 97 -81 299q28 184 138 274t282 90q107 0 179 -35l63 63l23 -18l-46 -68q121 -89 88 -305q-28 -188 -141 -280t-277 -92zM370 98q69 0 104.5 55.5t55.5 193.5q12 87 11 133l-122 -139l-137 -177q15 -66 88 -66z
M287 346q-11 -77 -11 -122l122 139l134 174q-18 50 -85 50t-103 -52.5t-57 -188.5z" />
    <glyph glyph-name="Ugrave" unicode="&#xd9;" horiz-adv-x="816" 
d="M97 264q35 218 38 256q2 31 -7.5 45t-36.5 14h-25q10 44 16 110q129 -2 199 -2q42 0 118.5 1t77.5 1q-12 -51 -17 -110h-36q-52 0 -68 -59q-2 -10 -37 -252q-12 -86 12 -122.5t87 -36.5q62 0 97 36t50 123q31 175 37 252q5 59 -49 59h-31q10 44 16 110q102 -2 159 -2
q34 0 95 1t64 1q-5 -22 -17 -110h-25q-49 0 -61 -59q-5 -23 -20.5 -134.5t-17.5 -121.5q-44 -288 -343 -288q-162 0 -231 65.5t-44 222.5zM556 755l-8 -12q-97 10 -173 56q-37 21 -39 50.5t25 39.5t67 -6q32 -18 67.5 -54.5t60.5 -73.5z" />
    <glyph glyph-name="Uacute" unicode="&#xda;" horiz-adv-x="816" 
d="M474 743l-8 12q64 92 129 128q40 16 67 6t25 -39.5t-39 -50.5q-76 -46 -174 -56zM97 264q35 218 38 256q2 31 -7.5 45t-36.5 14h-25q10 44 16 110q129 -2 199 -2q42 0 118.5 1t77.5 1q-12 -51 -17 -110h-36q-52 0 -68 -59q-2 -10 -37 -252q-12 -86 12 -122.5t87 -36.5
q62 0 97 36t50 123q31 175 37 252q5 59 -49 59h-31q10 44 16 110q102 -2 159 -2q34 0 95 1t64 1q-5 -22 -17 -110h-25q-49 0 -61 -59q-5 -23 -20.5 -134.5t-17.5 -121.5q-44 -288 -343 -288q-162 0 -231 65.5t-44 222.5z" />
    <glyph glyph-name="Ucircumflex" unicode="&#xdb;" horiz-adv-x="816" 
d="M662 753l-13 -11q-70 26 -123 78q-27 -23 -72 -46.5t-75 -30.5l-9 11q19 42 56.5 82t76.5 66h77q24 -24 47 -65.5t35 -83.5zM97 264q35 218 38 256q2 31 -7.5 45t-36.5 14h-25q10 44 16 110q129 -2 199 -2q42 0 118.5 1t77.5 1q-12 -51 -17 -110h-36q-52 0 -68 -59
q-2 -10 -37 -252q-12 -86 12 -122.5t87 -36.5q62 0 97 36t50 123q31 175 37 252q5 59 -49 59h-31q10 44 16 110q102 -2 159 -2q34 0 95 1t64 1q-5 -22 -17 -110h-25q-49 0 -61 -59q-5 -23 -20.5 -134.5t-17.5 -121.5q-44 -288 -343 -288q-162 0 -231 65.5t-44 222.5z" />
    <glyph glyph-name="Udieresis" unicode="&#xdc;" horiz-adv-x="816" 
d="M489 814q-3 -29 -22 -45.5t-46 -16.5q-26 0 -42 16.5t-13 45.5t22 45.5t46 16.5t43 -16.5t12 -45.5zM674 814q-3 -29 -22 -45.5t-46 -16.5t-42.5 16.5t-12.5 45.5t22 45.5t45 16.5q27 0 43 -16.5t13 -45.5zM97 264q35 218 38 256q2 31 -7.5 45t-36.5 14h-25q10 44 16 110
q129 -2 199 -2q42 0 118.5 1t77.5 1q-12 -51 -17 -110h-36q-52 0 -68 -59q-2 -10 -37 -252q-12 -86 12 -122.5t87 -36.5q62 0 97 36t50 123q31 175 37 252q5 59 -49 59h-31q10 44 16 110q102 -2 159 -2q34 0 95 1t64 1q-5 -22 -17 -110h-25q-49 0 -61 -59
q-5 -23 -20.5 -134.5t-17.5 -121.5q-44 -288 -343 -288q-162 0 -231 65.5t-44 222.5z" />
    <glyph glyph-name="Yacute" unicode="&#xdd;" horiz-adv-x="852" 
d="M707 503q-80 -110 -175 -263l-10 -70q-4 -31 6.5 -45t44.5 -14h38q-10 -45 -16 -113q-139 2 -218 2l-219 -2q10 44 16 113h34q36 0 50.5 13t18.5 44l10 70q-57 173 -101 279q-14 34 -36.5 48t-69.5 14h-17q13 48 16 110q146 -2 228 -2l228 1q-13 -49 -16 -109h-23
q-65 0 -42 -93q12 -44 50 -140q68 100 88 140q16 30 21.5 49t-1.5 31.5t-30 12.5h-20q13 48 16 110q102 -2 160 -2l158 2q-13 -48 -16 -110h-17q-65 0 -96.5 -18t-59.5 -58zM537 743l-8 12q64 92 129 128q40 16 67 6t25 -39.5t-39 -50.5q-76 -46 -174 -56z" />
    <glyph glyph-name="Thorn" unicode="&#xde;" horiz-adv-x="685" 
d="M-16 -2q10 42 16 113h28q30 0 39 9.5t18 42.5q8 30 31.5 179.5t25.5 180.5q2 30 -7 43t-35 13h-32q10 44 16 110q121 -2 189 -2q41 0 114 1t74 1q-13 -73 -15 -110h-24q-47 0 -64 -48q52 5 98 5q131 0 197 -52.5t46 -152.5q-20 -97 -98 -135.5t-235 -38.5q-37 0 -67 3
q-1 -26 9 -37.5t41 -11.5h27q-13 -58 -15 -113q-121 2 -189 2zM372 439q-22 0 -32 -1q-14 -82 -29 -188h17q64 0 92.5 19t38.5 70q8 50 -12 75t-75 25z" />
    <glyph glyph-name="germandbls" unicode="&#xdf;" horiz-adv-x="620" 
d="M43 413l8 53l69 -2q93 245 294 245q106 0 148 -59.5t28 -143.5q-18 -113 -120 -141q80 -12 111.5 -69t15.5 -144q-33 -168 -213 -168q-86 0 -115 49.5t11 142.5l36 -5q-48 -112 13 -112q24 0 41 28t31 95q18 85 -5.5 121.5t-81.5 32.5q8 31 10 48q34 0 54.5 22.5
t35.5 93.5q32 145 -24 145q-20 0 -33.5 -8.5t-29.5 -36t-30.5 -87t-27.5 -153.5q-43 -300 -123.5 -431t-206.5 -131q-58 0 -87.5 26.5t-20.5 66.5q5 25 23 39t44 14q28 0 42.5 -17.5t7.5 -42.5q-6 -21 -26 -31t-42 -8q12 -7 27 -7q65 0 94 82t60 298q14 105 42 196z" />
    <glyph glyph-name="agrave" unicode="&#xe0;" horiz-adv-x="595" 
d="M587 195q-9 -99 -53.5 -158.5t-123.5 -59.5q-55 0 -81.5 24.5t-25.5 78.5q-49 -103 -155 -103q-68 0 -100 50.5t-18 157.5q10 79 35 139t58.5 94.5t69.5 51.5t74 17q105 0 121 -89q46 38 62 69q17 -1 53 -1t52 1q-46 -206 -62 -316q-14 -91 5 -91q30 0 49 136zM240 61
q56 0 96 213q14 72 11 101t-28 29q-54 0 -92 -215q-14 -77 -11.5 -102.5t24.5 -25.5zM429 540l-8 -12q-97 10 -173 56q-37 21 -39 50.5t25 39.5t67 -6q32 -18 67.5 -54.5t60.5 -73.5z" />
    <glyph glyph-name="aacute" unicode="&#xe1;" horiz-adv-x="595" 
d="M587 195q-9 -99 -53.5 -158.5t-123.5 -59.5q-55 0 -81.5 24.5t-25.5 78.5q-49 -103 -155 -103q-68 0 -100 50.5t-18 157.5q10 79 35 139t58.5 94.5t69.5 51.5t74 17q105 0 121 -89q46 38 62 69q17 -1 53 -1t52 1q-46 -206 -62 -316q-14 -91 5 -91q30 0 49 136zM240 61
q56 0 96 213q14 72 11 101t-28 29q-54 0 -92 -215q-14 -77 -11.5 -102.5t24.5 -25.5zM333 528l-8 12q64 92 129 128q40 16 67 6t25 -39.5t-39 -50.5q-76 -46 -174 -56z" />
    <glyph glyph-name="acircumflex" unicode="&#xe2;" horiz-adv-x="595" 
d="M587 195q-9 -99 -53.5 -158.5t-123.5 -59.5q-55 0 -81.5 24.5t-25.5 78.5q-49 -103 -155 -103q-68 0 -100 50.5t-18 157.5q10 79 35 139t58.5 94.5t69.5 51.5t74 17q105 0 121 -89q46 38 62 69q17 -1 53 -1t52 1q-46 -206 -62 -316q-14 -91 5 -91q30 0 49 136zM240 61
q56 0 96 213q14 72 11 101t-28 29q-54 0 -92 -215q-14 -77 -11.5 -102.5t24.5 -25.5zM521 538l-13 -11q-70 26 -123 78q-27 -23 -72 -46.5t-75 -30.5l-9 11q19 42 56.5 82t76.5 66h77q24 -24 47 -65.5t35 -83.5z" />
    <glyph glyph-name="atilde" unicode="&#xe3;" horiz-adv-x="595" 
d="M587 195q-9 -99 -53.5 -158.5t-123.5 -59.5q-55 0 -81.5 24.5t-25.5 78.5q-49 -103 -155 -103q-68 0 -100 50.5t-18 157.5q10 79 35 139t58.5 94.5t69.5 51.5t74 17q105 0 121 -89q46 38 62 69q17 -1 53 -1t52 1q-46 -206 -62 -316q-14 -91 5 -91q30 0 49 136zM240 61
q56 0 96 213q14 72 11 101t-28 29q-54 0 -92 -215q-14 -77 -11.5 -102.5t24.5 -25.5zM505 649l30 1q8 -69 -23.5 -100t-85.5 -29q-38 1 -60 17t-43 50q-12 21 -20.5 28t-21.5 7q-38 0 -31 -75l-30 -1q-9 71 21 102t88 29q36 -1 58.5 -16.5t43.5 -50.5q12 -21 20.5 -28
t21.5 -7q39 0 32 73z" />
    <glyph glyph-name="adieresis" unicode="&#xe4;" horiz-adv-x="595" 
d="M587 195q-9 -99 -53.5 -158.5t-123.5 -59.5q-55 0 -81.5 24.5t-25.5 78.5q-49 -103 -155 -103q-68 0 -100 50.5t-18 157.5q10 79 35 139t58.5 94.5t69.5 51.5t74 17q105 0 121 -89q46 38 62 69q17 -1 53 -1t52 1q-46 -206 -62 -316q-14 -91 5 -91q30 0 49 136zM240 61
q56 0 96 213q14 72 11 101t-28 29q-54 0 -92 -215q-14 -77 -11.5 -102.5t24.5 -25.5zM349 591q-3 -29 -22 -45.5t-46 -16.5q-26 0 -42 16.5t-13 45.5t22 45.5t46 16.5t43 -16.5t12 -45.5zM534 591q-3 -29 -22 -45.5t-46 -16.5t-42.5 16.5t-12.5 45.5t22 45.5t45 16.5
q27 0 43 -16.5t13 -45.5z" />
    <glyph glyph-name="aring" unicode="&#xe5;" horiz-adv-x="595" 
d="M587 195q-9 -99 -53.5 -158.5t-123.5 -59.5q-55 0 -81.5 24.5t-25.5 78.5q-49 -103 -155 -103q-68 0 -100 50.5t-18 157.5q10 79 35 139t58.5 94.5t69.5 51.5t74 17q105 0 121 -89q46 38 62 69q17 -1 53 -1t52 1q-46 -206 -62 -316q-14 -91 5 -91q30 0 49 136zM240 61
q56 0 96 213q14 72 11 101t-28 29q-54 0 -92 -215q-14 -77 -11.5 -102.5t24.5 -25.5zM321 618q-2 -23 9 -35.5t32 -12.5q46 0 51 48q3 24 -8.5 37t-32.5 13t-34.5 -13t-16.5 -37zM274 618q5 42 32 67.5t70 25.5q41 0 64.5 -26t19.5 -67q-5 -41 -32 -66.5t-70 -25.5
q-41 0 -64.5 26t-19.5 66z" />
    <glyph glyph-name="ae" unicode="&#xe6;" horiz-adv-x="787" 
d="M636 178q89 -4 109 -3q-18 -96 -72 -147t-165 -51q-84 0 -129 31t-54 98q-25 -63 -72.5 -96t-104.5 -33q-68 0 -100.5 50.5t-18.5 157.5q20 153 87.5 227.5t149.5 74.5q120 0 122 -109q73 109 215 109q95 0 136 -43t29 -114q-13 -75 -76.5 -101.5t-175.5 -23.5
q-13 -69 -3.5 -95t42.5 -26q31 0 50 21.5t31 72.5zM239 61q26 0 51 53t44 160q14 72 11 101t-27 29q-52 0 -93 -215q-14 -77 -11.5 -102.5t25.5 -25.5zM599 416q-21 0 -35.5 -31t-39.5 -143q39 0 57.5 16t30.5 64q22 94 -13 94z" />
    <glyph glyph-name="ccedilla" unicode="&#xe7;" horiz-adv-x="489" 
d="M131 -108l-11 25q50 20 65 61q-99 7 -136 68t-13 186q24 127 94 191t178 64q88 0 128.5 -34.5t37.5 -93.5q-3 -50 -28 -76.5t-69 -26.5q-35 0 -57 23.5t-12 65.5q12 55 78 53q-12 20 -40 20q-27 0 -45 -11t-37 -52t-36 -119q-19 -92 -10.5 -122t45.5 -30q30 0 48 22
t29 72q90 -4 109 -3q-18 -92 -70.5 -143.5t-155.5 -54.5q-4 -23 -24 -43q45 2 76.5 -18.5t30.5 -61.5q-1 -43 -35 -68.5t-90 -25.5q-75 0 -113 58l24 23q27 -33 65 -33q51 0 53 46q1 30 -23 40.5t-56 -2.5z" />
    <glyph glyph-name="egrave" unicode="&#xe8;" horiz-adv-x="491" 
d="M340 178q90 -4 109 -3q-18 -96 -71.5 -147t-164.5 -51q-116 0 -159 61t-18 194q24 127 94 191t177 64q96 0 137.5 -43.5t28.5 -115.5q-13 -75 -76.5 -100.5t-175.5 -22.5q-12 -69 -3 -95t42 -26q31 0 49.5 21t30.5 73zM304 416q-22 0 -36.5 -31.5t-39.5 -142.5
q39 0 58 15.5t30 63.5q23 95 -12 95zM408 540l-8 -12q-97 10 -173 56q-37 21 -39 50.5t25 39.5t67 -6q32 -18 67.5 -54.5t60.5 -73.5z" />
    <glyph glyph-name="eacute" unicode="&#xe9;" horiz-adv-x="491" 
d="M268 528l-8 12q64 92 129 128q40 16 67 6t25 -39.5t-39 -50.5q-76 -46 -174 -56zM340 178q90 -4 109 -3q-18 -96 -71.5 -147t-164.5 -51q-116 0 -159 61t-18 194q24 127 94 191t177 64q96 0 137.5 -43.5t28.5 -115.5q-13 -75 -76.5 -100.5t-175.5 -22.5q-12 -69 -3 -95
t42 -26q31 0 49.5 21t30.5 73zM304 416q-22 0 -36.5 -31.5t-39.5 -142.5q39 0 58 15.5t30 63.5q23 95 -12 95z" />
    <glyph glyph-name="ecircumflex" unicode="&#xea;" horiz-adv-x="491" 
d="M455 538l-13 -11q-70 26 -123 78q-27 -23 -72 -46.5t-75 -30.5l-9 11q19 42 56.5 82t76.5 66h77q24 -24 47 -65.5t35 -83.5zM340 178q90 -4 109 -3q-18 -96 -71.5 -147t-164.5 -51q-116 0 -159 61t-18 194q24 127 94 191t177 64q96 0 137.5 -43.5t28.5 -115.5
q-13 -75 -76.5 -100.5t-175.5 -22.5q-12 -69 -3 -95t42 -26q31 0 49.5 21t30.5 73zM304 416q-22 0 -36.5 -31.5t-39.5 -142.5q39 0 58 15.5t30 63.5q23 95 -12 95z" />
    <glyph glyph-name="edieresis" unicode="&#xeb;" horiz-adv-x="491" 
d="M287 599q-3 -29 -22 -45.5t-46 -16.5q-26 0 -42 16.5t-13 45.5t22 45.5t46 16.5t43 -16.5t12 -45.5zM472 599q-3 -29 -22 -45.5t-46 -16.5t-42.5 16.5t-12.5 45.5t22 45.5t45 16.5q27 0 43 -16.5t13 -45.5zM340 178q90 -4 109 -3q-18 -96 -71.5 -147t-164.5 -51
q-116 0 -159 61t-18 194q24 127 94 191t177 64q96 0 137.5 -43.5t28.5 -115.5q-13 -75 -76.5 -100.5t-175.5 -22.5q-12 -69 -3 -95t42 -26q31 0 49.5 21t30.5 73zM304 416q-22 0 -36.5 -31.5t-39.5 -142.5q39 0 58 15.5t30 63.5q23 95 -12 95z" />
    <glyph glyph-name="igrave" unicode="&#xec;" horiz-adv-x="368" 
d="M294 291l-38 -152q-18 -78 7 -78q30 0 49 135l40 -1q-5 -60 -23.5 -107t-57.5 -79t-93 -32q-161 0 -104 198l43 154q22 75 -1 75q-20 0 -35 -38.5t-21 -99.5l-40 1q11 95 52.5 157.5t113.5 62.5q77 0 104 -52t4 -144zM292 540l-8 -12q-97 10 -173 56q-37 21 -39 50.5
t25 39.5t67 -6q32 -18 67.5 -54.5t60.5 -73.5z" />
    <glyph glyph-name="iacute" unicode="&#xed;" horiz-adv-x="368" 
d="M189 528l-8 12q64 92 129 128q40 16 67 6t25 -39.5t-39 -50.5q-76 -46 -174 -56zM294 291l-38 -152q-18 -78 7 -78q30 0 49 135l40 -1q-5 -60 -23.5 -107t-57.5 -79t-93 -32q-161 0 -104 198l43 154q22 75 -1 75q-20 0 -35 -38.5t-21 -99.5l-40 1q11 95 52.5 157.5
t113.5 62.5q77 0 104 -52t4 -144z" />
    <glyph glyph-name="icircumflex" unicode="&#xee;" horiz-adv-x="368" 
d="M364 538l-13 -11q-70 26 -123 78q-27 -23 -72 -46.5t-75 -30.5l-9 11q19 42 56.5 82t76.5 66h77q24 -24 47 -65.5t35 -83.5zM294 291l-38 -152q-18 -78 7 -78q30 0 49 135l40 -1q-5 -60 -23.5 -107t-57.5 -79t-93 -32q-161 0 -104 198l43 154q22 75 -1 75
q-20 0 -35 -38.5t-21 -99.5l-40 1q11 95 52.5 157.5t113.5 62.5q77 0 104 -52t4 -144z" />
    <glyph glyph-name="idieresis" unicode="&#xef;" horiz-adv-x="368" 
d="M197 599q-3 -29 -22 -45.5t-46 -16.5q-26 0 -42 16.5t-13 45.5t22 45.5t46 16.5t43 -16.5t12 -45.5zM382 599q-3 -29 -22 -45.5t-46 -16.5t-42.5 16.5t-12.5 45.5t22 45.5t45 16.5q27 0 43 -16.5t13 -45.5zM294 291l-38 -152q-18 -78 7 -78q30 0 49 135l40 -1
q-5 -60 -23.5 -107t-57.5 -79t-93 -32q-161 0 -104 198l43 154q22 75 -1 75q-20 0 -35 -38.5t-21 -99.5l-40 1q11 95 52.5 157.5t113.5 62.5q77 0 104 -52t4 -144z" />
    <glyph glyph-name="eth" unicode="&#xf0;" horiz-adv-x="547" 
d="M272 522l-19 26l51 33q-39 20 -125 17l13 91q128 7 206 -38q34 29 51 40l17 -26l-44 -30q132 -99 96 -356q-22 -155 -96.5 -228.5t-188.5 -73.5q-107 0 -163.5 59.5t-37.5 188.5q10 66 33 116t53.5 77.5t63 41t67.5 13.5q81 0 103 -44q15 99 -26 137q-14 -12 -54 -44z
M220 210q-15 -79 -12.5 -115t27.5 -36q47 0 84 194q17 81 16 117t-26 36q-55 0 -89 -196z" />
    <glyph glyph-name="ntilde" unicode="&#xf1;" horiz-adv-x="629" 
d="M51 266l-40 1q11 95 53.5 157.5t117.5 62.5q97 0 102 -111q55 111 168 111q80 0 104.5 -57.5t-2.5 -145.5l-36 -139q-23 -85 5 -85q30 0 47 136l41 -1q-9 -95 -52.5 -156.5t-125.5 -61.5q-54 0 -83 27t-31.5 72t12.5 102l32 107q35 119 -3 119q-31 0 -58 -59t-58 -216
l-26 -130q-57 3 -89 3l-89 -3q40 173 67 322q9 49 9 66t-11 17q-18 0 -32.5 -38.5t-21.5 -99.5zM509 649l30 1q8 -69 -23.5 -100t-85.5 -29q-38 1 -60 17t-43 50q-12 21 -20.5 28t-21.5 7q-38 0 -31 -75l-30 -1q-9 71 21 102t88 29q36 -1 58.5 -16.5t43.5 -50.5
q12 -21 20.5 -28t21.5 -7q39 0 32 73z" />
    <glyph glyph-name="ograve" unicode="&#xf2;" horiz-adv-x="534" 
d="M231 59q53 0 93 236q10 67 6.5 89t-26.5 22q-56 0 -92 -217q-12 -73 -7.5 -101.5t26.5 -28.5zM226 -23q-107 0 -160 60t-40 174q15 131 92 203.5t191 72.5q106 0 157.5 -55.5t41.5 -167.5q-9 -128 -84 -207.5t-198 -79.5zM403 540l-8 -12q-97 10 -173 56q-37 21 -39 50.5
t25 39.5t67 -6q32 -18 67.5 -54.5t60.5 -73.5z" />
    <glyph glyph-name="oacute" unicode="&#xf3;" horiz-adv-x="534" 
d="M290 528l-8 12q64 92 129 128q40 16 67 6t25 -39.5t-39 -50.5q-76 -46 -174 -56zM231 59q53 0 93 236q10 67 6.5 89t-26.5 22q-56 0 -92 -217q-12 -73 -7.5 -101.5t26.5 -28.5zM226 -23q-107 0 -160 60t-40 174q15 131 92 203.5t191 72.5q106 0 157.5 -55.5t41.5 -167.5
q-9 -128 -84 -207.5t-198 -79.5z" />
    <glyph glyph-name="ocircumflex" unicode="&#xf4;" horiz-adv-x="534" 
d="M475 538l-13 -11q-70 26 -123 78q-27 -23 -72 -46.5t-75 -30.5l-9 11q19 42 56.5 82t76.5 66h77q24 -24 47 -65.5t35 -83.5zM231 59q53 0 93 236q10 67 6.5 89t-26.5 22q-56 0 -92 -217q-12 -73 -7.5 -101.5t26.5 -28.5zM226 -23q-107 0 -160 60t-40 174q15 131 92 203.5
t191 72.5q106 0 157.5 -55.5t41.5 -167.5q-9 -128 -84 -207.5t-198 -79.5z" />
    <glyph glyph-name="otilde" unicode="&#xf5;" horiz-adv-x="534" 
d="M231 59q53 0 93 236q10 67 6.5 89t-26.5 22q-56 0 -92 -217q-12 -73 -7.5 -101.5t26.5 -28.5zM226 -23q-107 0 -160 60t-40 174q15 131 92 203.5t191 72.5q106 0 157.5 -55.5t41.5 -167.5q-9 -128 -84 -207.5t-198 -79.5zM471 649l30 1q8 -69 -23.5 -100t-85.5 -29
q-38 1 -60 17t-43 50q-12 21 -20.5 28t-21.5 7q-38 0 -31 -75l-30 -1q-9 71 21 102t88 29q36 -1 58.5 -16.5t43.5 -50.5q12 -21 20.5 -28t21.5 -7q39 0 32 73z" />
    <glyph glyph-name="odieresis" unicode="&#xf6;" horiz-adv-x="534" 
d="M305 599q-3 -29 -22 -45.5t-46 -16.5q-26 0 -42 16.5t-13 45.5t22 45.5t46 16.5t43 -16.5t12 -45.5zM490 599q-3 -29 -22 -45.5t-46 -16.5t-42.5 16.5t-12.5 45.5t22 45.5t45 16.5q27 0 43 -16.5t13 -45.5zM231 59q53 0 93 236q10 67 6.5 89t-26.5 22q-56 0 -92 -217
q-12 -73 -7.5 -101.5t26.5 -28.5zM226 -23q-107 0 -160 60t-40 174q15 131 92 203.5t191 72.5q106 0 157.5 -55.5t41.5 -167.5q-9 -128 -84 -207.5t-198 -79.5z" />
    <glyph glyph-name="divide" unicode="&#xf7;" 
d="M342 106q0 -30 -18 -47t-51 -17q-70 0 -70 65q0 28 20 47t50 19q32 0 50.5 -19.5t18.5 -47.5zM73 201l18 99q45 0 113 -6t101 -15q36 9 106 15t115 6l-18 -99q-45 0 -113 6t-101 15q-80 -21 -221 -21zM397 393q0 -30 -18 -47t-52 -17q-70 0 -70 65q0 28 20 47t50 19
q33 0 51.5 -19.5t18.5 -47.5z" />
    <glyph glyph-name="oslash" unicode="&#xf8;" horiz-adv-x="534" 
d="M226 -23q-64 0 -107 21l-44 -49l-15 12l31 52q-81 59 -65 198q15 131 92 203.5t191 72.5q64 0 109 -21l59 68l14 -11l-43 -75q70 -55 60 -184q-9 -128 -84 -207.5t-198 -79.5zM212 189l-3 -19l63 80l57 86q4 40 -1.5 55t-23.5 15q-56 0 -92 -217zM231 59q52 0 90 220
l-39 -49l-79 -116q-1 -55 28 -55z" />
    <glyph glyph-name="ugrave" unicode="&#xf9;" horiz-adv-x="629" 
d="M576 196l41 -1q-9 -92 -51.5 -155t-114.5 -63q-57 0 -83.5 25.5t-26.5 86.5q-53 -112 -161 -112q-151 0 -103 204l34 133q6 23 9 38.5t4 28t-2 18t-10 5.5q-20 0 -34.5 -38.5t-20.5 -99.5l-40 1q12 96 53.5 158t117.5 62q155 0 104 -200l-27 -107q-15 -62 -14 -90.5
t20 -28.5q55 0 101 218l40 189q57 -1 89 -1l88 1q-36 -163 -65 -318q-5 -25 -7 -38t-3 -27t2 -19.5t10 -5.5q31 0 50 136zM410 540l-8 -12q-97 10 -173 56q-37 21 -39 50.5t25 39.5t67 -6q32 -18 67.5 -54.5t60.5 -73.5z" />
    <glyph glyph-name="uacute" unicode="&#xfa;" horiz-adv-x="629" 
d="M309 528l-8 12q64 92 129 128q40 16 67 6t25 -39.5t-39 -50.5q-76 -46 -174 -56zM576 196l41 -1q-9 -92 -51.5 -155t-114.5 -63q-57 0 -83.5 25.5t-26.5 86.5q-53 -112 -161 -112q-151 0 -103 204l34 133q6 23 9 38.5t4 28t-2 18t-10 5.5q-20 0 -34.5 -38.5t-20.5 -99.5
l-40 1q12 96 53.5 158t117.5 62q155 0 104 -200l-27 -107q-15 -62 -14 -90.5t20 -28.5q55 0 101 218l40 189q57 -1 89 -1l88 1q-36 -163 -65 -318q-5 -25 -7 -38t-3 -27t2 -19.5t10 -5.5q31 0 50 136z" />
    <glyph glyph-name="ucircumflex" unicode="&#xfb;" horiz-adv-x="629" 
d="M504 538l-13 -11q-70 26 -123 78q-27 -23 -72 -46.5t-75 -30.5l-9 11q19 42 56.5 82t76.5 66h77q24 -24 47 -65.5t35 -83.5zM576 196l41 -1q-9 -92 -51.5 -155t-114.5 -63q-57 0 -83.5 25.5t-26.5 86.5q-53 -112 -161 -112q-151 0 -103 204l34 133q6 23 9 38.5t4 28
t-2 18t-10 5.5q-20 0 -34.5 -38.5t-20.5 -99.5l-40 1q12 96 53.5 158t117.5 62q155 0 104 -200l-27 -107q-15 -62 -14 -90.5t20 -28.5q55 0 101 218l40 189q57 -1 89 -1l88 1q-36 -163 -65 -318q-5 -25 -7 -38t-3 -27t2 -19.5t10 -5.5q31 0 50 136z" />
    <glyph glyph-name="udieresis" unicode="&#xfc;" horiz-adv-x="629" 
d="M341 599q-3 -29 -22 -45.5t-46 -16.5q-26 0 -42 16.5t-13 45.5t22 45.5t46 16.5t43 -16.5t12 -45.5zM526 599q-3 -29 -22 -45.5t-46 -16.5t-42.5 16.5t-12.5 45.5t22 45.5t45 16.5q27 0 43 -16.5t13 -45.5zM576 196l41 -1q-9 -92 -51.5 -155t-114.5 -63q-57 0 -83.5 25.5
t-26.5 86.5q-53 -112 -161 -112q-151 0 -103 204l34 133q6 23 9 38.5t4 28t-2 18t-10 5.5q-20 0 -34.5 -38.5t-20.5 -99.5l-40 1q12 96 53.5 158t117.5 62q155 0 104 -200l-27 -107q-15 -62 -14 -90.5t20 -28.5q55 0 101 218l40 189q57 -1 89 -1l88 1q-36 -163 -65 -318
q-5 -25 -7 -38t-3 -27t2 -19.5t10 -5.5q31 0 50 136z" />
    <glyph glyph-name="yacute" unicode="&#xfd;" horiz-adv-x="590" 
d="M57 266l-40 1q11 95 53 157.5t117 62.5q154 0 104 -200l-26 -107q-15 -51 -13.5 -85t19.5 -34q47 0 96 194l44 214q28 -2 88 -2l86 2q-57 -266 -85 -426q-44 -245 -298 -245q-83 0 -121.5 28.5t-35.5 69.5q3 33 23 50.5t50 17.5q26 0 42.5 -14t15.5 -38q-1 -29 -22 -45
t-49 -13q30 -23 79 -23q18 0 33.5 3.5t27.5 12t21 17t16.5 24.5t12 27.5t10 33t8 35t7 39t7.5 39.5q-54 -85 -147 -85q-155 0 -103 204l33 133q6 25 9 40t4 27t-1.5 17.5t-9.5 5.5q-39 0 -55 -138zM320 528l-8 12q64 92 129 128q40 16 67 6t25 -39.5t-39 -50.5
q-76 -46 -174 -56z" />
    <glyph glyph-name="thorn" unicode="&#xfe;" horiz-adv-x="562" 
d="M286 525l-25 -127q51 89 146 89q67 0 100 -55t20 -153q-21 -161 -85.5 -231.5t-153.5 -70.5q-74 0 -104 43l-11 -57q-4 -25 3.5 -35t29.5 -10h30q-13 -49 -20 -94q-97 2 -151 2l-150 -2q8 30 18 94h14q39 0 49 45q104 488 118 578q2 16 2 28.5t-7.5 20.5t-24.5 8h-17
l6 91q116 -4 234 0q-1 -72 -21 -164zM316 404q-26 0 -51.5 -53t-44.5 -161q-14 -71 -11 -100t27 -29q55 0 93 215q14 76 11.5 102t-24.5 26z" />
    <glyph glyph-name="ydieresis" unicode="&#xff;" horiz-adv-x="590" 
d="M57 266l-40 1q11 95 53 157.5t117 62.5q154 0 104 -200l-26 -107q-15 -51 -13.5 -85t19.5 -34q47 0 96 194l44 214q28 -2 88 -2l86 2q-57 -266 -85 -426q-44 -245 -298 -245q-83 0 -121.5 28.5t-35.5 69.5q3 33 23 50.5t50 17.5q26 0 42.5 -14t15.5 -38q-1 -29 -22 -45
t-49 -13q30 -23 79 -23q18 0 33.5 3.5t27.5 12t21 17t16.5 24.5t12 27.5t10 33t8 35t7 39t7.5 39.5q-54 -85 -147 -85q-155 0 -103 204l33 133q6 25 9 40t4 27t-1.5 17.5t-9.5 5.5q-39 0 -55 -138zM336 599q-3 -29 -22 -45.5t-46 -16.5q-26 0 -42 16.5t-13 45.5t22 45.5
t46 16.5t43 -16.5t12 -45.5zM521 599q-3 -29 -22 -45.5t-46 -16.5t-42.5 16.5t-12.5 45.5t22 45.5t45 16.5q27 0 43 -16.5t13 -45.5z" />
    <glyph glyph-name="Amacron" unicode="&#x100;" horiz-adv-x="879" 
d="M479 212q-106 2 -218 0l-3 -8q-23 -50 -17 -71.5t43 -21.5h35q-11 -49 -17 -113q-101 2 -159 2l-161 -2q12 55 17 113h20q42 0 66 19.5t52 70.5q163 299 261 496q70 -2 109 -2l108 2q51 -242 117 -496q14 -52 32 -71t49 -19h24q-12 -55 -17 -113q-143 2 -222 2l-223 -2
q12 55 17 113h38q36 0 47 22.5t3 71.5q-1 2 -1 7zM290 270q91 -2 177 0q-24 117 -52 245q-50 -95 -125 -245zM369 763q15 50 17 93q46 -2 142.5 -2t142.5 2q-9 -33 -18 -93q-46 1 -142 1t-142 -1z" />
    <glyph glyph-name="amacron" unicode="&#x101;" horiz-adv-x="595" 
d="M587 195q-9 -99 -53.5 -158.5t-123.5 -59.5q-55 0 -81.5 24.5t-25.5 78.5q-49 -103 -155 -103q-68 0 -100 50.5t-18 157.5q10 79 35 139t58.5 94.5t69.5 51.5t74 17q105 0 121 -89q46 38 62 69q17 -1 53 -1t52 1q-46 -206 -62 -316q-14 -91 5 -91q30 0 49 136zM240 61
q56 0 96 213q14 72 11 101t-28 29q-54 0 -92 -215q-14 -77 -11.5 -102.5t24.5 -25.5zM218 538q15 50 17 93q46 -1 142.5 -1t142.5 1q-9 -33 -18 -93q-46 2 -142 2t-142 -2z" />
    <glyph glyph-name="Abreve" unicode="&#x102;" horiz-adv-x="879" 
d="M479 212q-106 2 -218 0l-3 -8q-23 -50 -17 -71.5t43 -21.5h35q-11 -49 -17 -113q-101 2 -159 2l-161 -2q12 55 17 113h20q42 0 66 19.5t52 70.5q163 299 261 496q70 -2 109 -2l108 2q51 -242 117 -496q14 -52 32 -71t49 -19h24q-12 -55 -17 -113q-143 2 -222 2l-223 -2
q12 55 17 113h38q36 0 47 22.5t3 71.5q-1 2 -1 7zM290 270q91 -2 177 0q-24 117 -52 245q-50 -95 -125 -245zM498 746q-74 0 -99 40.5t-6 104.5l30 1q-1 -28 20 -40.5t70 -12.5q48 0 73 12.5t32 40.5l29 -1q-1 -64 -38 -104.5t-111 -40.5z" />
    <glyph glyph-name="abreve" unicode="&#x103;" horiz-adv-x="595" 
d="M587 195q-9 -99 -53.5 -158.5t-123.5 -59.5q-55 0 -81.5 24.5t-25.5 78.5q-49 -103 -155 -103q-68 0 -100 50.5t-18 157.5q10 79 35 139t58.5 94.5t69.5 51.5t74 17q105 0 121 -89q46 38 62 69q17 -1 53 -1t52 1q-46 -206 -62 -316q-14 -91 5 -91q30 0 49 136zM240 61
q56 0 96 213q14 72 11 101t-28 29q-54 0 -92 -215q-14 -77 -11.5 -102.5t24.5 -25.5zM358 535q-74 0 -99 40.5t-6 104.5l30 1q-1 -28 20 -40.5t70 -12.5q48 0 73 12.5t32 40.5l29 -1q-1 -64 -38 -104.5t-111 -40.5z" />
    <glyph glyph-name="Aogonek" unicode="&#x104;" horiz-adv-x="879" 
d="M749 -62q-9 -144 -139 -144q-48 0 -78 23t-26 69q8 80 95 114h-3l-223 -2q12 55 17 113h38q36 0 47 22.5t3 71.5q-1 2 -1 7q-106 2 -218 0l-3 -8q-23 -50 -17 -71.5t43 -21.5h35q-11 -49 -17 -113q-101 2 -159 2l-161 -2q12 55 17 113h20q42 0 66 19.5t52 70.5
q163 299 261 496q70 -2 109 -2l108 2q51 -242 117 -496q14 -52 32 -71t49 -19h24q-12 -55 -17 -113q-84 2 -159 2q-62 -21 -64 -71q-1 -22 11.5 -33t35.5 -11q53 0 69 58zM290 270q91 -2 177 0q-24 117 -52 245q-50 -95 -125 -245z" />
    <glyph glyph-name="aogonek" unicode="&#x105;" horiz-adv-x="595" 
d="M611 -62q-9 -144 -139 -144q-48 0 -78 23t-26 69q5 58 63 93q-12 -2 -21 -2q-55 0 -81.5 24.5t-25.5 78.5q-49 -103 -155 -103q-68 0 -100 50.5t-18 157.5q10 79 35 139t58.5 94.5t69.5 51.5t74 17q105 0 121 -89q46 38 62 69q17 -1 53 -1t52 1q-46 -206 -62 -316
q-14 -91 5 -91q30 0 49 136l40 -1q-9 -116 -72 -176q-52 -52 -53 -90q-2 -44 44 -44q53 0 69 58zM240 61q56 0 96 213q14 72 11 101t-28 29q-54 0 -92 -215q-14 -77 -11.5 -102.5t24.5 -25.5z" />
    <glyph glyph-name="Cacute" unicode="&#x106;" horiz-adv-x="703" 
d="M410 743l-8 12q64 92 129 128q40 16 67 6t25 -39.5t-39 -50.5q-76 -46 -174 -56zM403 710q90 0 169 -44q25 -15 44 -7t25 38q14 -1 44 -1t44 1q-19 -40 -33.5 -118.5t-20.5 -149.5q-1 0 -14 0.5t-29 1t-24 0.5t-25.5 -0.5t-32 -1t-15.5 -0.5q26 158 -100 158
q-67 0 -104 -51t-57 -190q-9 -77 -9 -124.5t15.5 -74t34.5 -35.5t48 -9q70 0 107 40.5t50 125.5q4 -2 74 -2q69 0 75 2q-23 -150 -103.5 -222t-232.5 -72q-172 0 -247 89t-47 282q28 182 122.5 273t241.5 91z" />
    <glyph glyph-name="cacute" unicode="&#x107;" horiz-adv-x="489" 
d="M286 528l-8 12q64 92 129 128q40 16 67 6t25 -39.5t-39 -50.5q-76 -46 -174 -56zM211 -23q-114 0 -157 61t-18 194q24 127 94 191t178 64q88 0 128.5 -34.5t37.5 -93.5q-3 -50 -28 -76.5t-69 -26.5q-35 0 -57 23.5t-12 65.5q12 55 78 53q-12 20 -40 20q-27 0 -45 -11
t-37 -52t-36 -119q-19 -92 -10.5 -122t45.5 -30q30 0 48 22t29 72q90 -4 109 -3q-18 -95 -73.5 -146.5t-164.5 -51.5z" />
    <glyph glyph-name="Ccircumflex" unicode="&#x108;" horiz-adv-x="703" 
d="M577 753l-13 -11q-70 26 -123 78q-27 -23 -72 -46.5t-75 -30.5l-9 11q19 42 56.5 82t76.5 66h77q24 -24 47 -65.5t35 -83.5zM403 710q90 0 169 -44q25 -15 44 -7t25 38q14 -1 44 -1t44 1q-19 -40 -33.5 -118.5t-20.5 -149.5q-1 0 -14 0.5t-29 1t-24 0.5t-25.5 -0.5
t-32 -1t-15.5 -0.5q26 158 -100 158q-67 0 -104 -51t-57 -190q-9 -77 -9 -124.5t15.5 -74t34.5 -35.5t48 -9q70 0 107 40.5t50 125.5q4 -2 74 -2q69 0 75 2q-23 -150 -103.5 -222t-232.5 -72q-172 0 -247 89t-47 282q28 182 122.5 273t241.5 91z" />
    <glyph glyph-name="ccircumflex" unicode="&#x109;" horiz-adv-x="489" 
d="M463 538l-13 -11q-70 26 -123 78q-27 -23 -72 -46.5t-75 -30.5l-9 11q19 42 56.5 82t76.5 66h77q24 -24 47 -65.5t35 -83.5zM211 -23q-114 0 -157 61t-18 194q24 127 94 191t178 64q88 0 128.5 -34.5t37.5 -93.5q-3 -50 -28 -76.5t-69 -26.5q-35 0 -57 23.5t-12 65.5
q12 55 78 53q-12 20 -40 20q-27 0 -45 -11t-37 -52t-36 -119q-19 -92 -10.5 -122t45.5 -30q30 0 48 22t29 72q90 -4 109 -3q-18 -95 -73.5 -146.5t-164.5 -51.5z" />
    <glyph glyph-name="Cdotaccent" unicode="&#x10a;" horiz-adv-x="703" 
d="M403 710q90 0 169 -44q25 -15 44 -7t25 38q14 -1 44 -1t44 1q-19 -40 -33.5 -118.5t-20.5 -149.5q-1 0 -14 0.5t-29 1t-24 0.5t-25.5 -0.5t-32 -1t-15.5 -0.5q26 158 -100 158q-67 0 -104 -51t-57 -190q-9 -77 -9 -124.5t15.5 -74t34.5 -35.5t48 -9q70 0 107 40.5
t50 125.5q4 -2 74 -2q69 0 75 2q-23 -150 -103.5 -222t-232.5 -72q-172 0 -247 89t-47 282q28 182 122.5 273t241.5 91zM509 819q-2 -29 -22.5 -49.5t-52.5 -20.5t-49 20t-15 50q2 31 22.5 50t50.5 19q32 0 50 -19t16 -50z" />
    <glyph glyph-name="cdotaccent" unicode="&#x10b;" horiz-adv-x="489" 
d="M211 -23q-114 0 -157 61t-18 194q24 127 94 191t178 64q88 0 128.5 -34.5t37.5 -93.5q-3 -50 -28 -76.5t-69 -26.5q-35 0 -57 23.5t-12 65.5q12 55 78 53q-12 20 -40 20q-27 0 -45 -11t-37 -52t-36 -119q-19 -92 -10.5 -122t45.5 -30q30 0 48 22t29 72q90 -4 109 -3
q-18 -95 -73.5 -146.5t-164.5 -51.5zM385 604q-2 -29 -22.5 -49.5t-52.5 -20.5t-49 20t-15 50q2 31 22.5 50t50.5 19q32 0 50 -19t16 -50z" />
    <glyph glyph-name="Ccaron" unicode="&#x10c;" horiz-adv-x="703" 
d="M313 895l13 11q60 -22 122 -81q29 24 74 48.5t74 31.5l9 -10q-19 -44 -55 -84t-73 -65h-77q-25 25 -50.5 66.5t-36.5 82.5zM403 710q90 0 169 -44q25 -15 44 -7t25 38q14 -1 44 -1t44 1q-19 -40 -33.5 -118.5t-20.5 -149.5q-1 0 -14 0.5t-29 1t-24 0.5t-25.5 -0.5t-32 -1
t-15.5 -0.5q26 158 -100 158q-67 0 -104 -51t-57 -190q-9 -77 -9 -124.5t15.5 -74t34.5 -35.5t48 -9q70 0 107 40.5t50 125.5q4 -2 74 -2q69 0 75 2q-23 -150 -103.5 -222t-232.5 -72q-172 0 -247 89t-47 282q28 182 122.5 273t241.5 91z" />
    <glyph glyph-name="ccaron" unicode="&#x10d;" horiz-adv-x="489" 
d="M191 680l13 11q60 -22 122 -81q29 24 74 48.5t74 31.5l9 -10q-19 -44 -55 -84t-73 -65h-77q-25 25 -50.5 66.5t-36.5 82.5zM211 -23q-114 0 -157 61t-18 194q24 127 94 191t178 64q88 0 128.5 -34.5t37.5 -93.5q-3 -50 -28 -76.5t-69 -26.5q-35 0 -57 23.5t-12 65.5
q12 55 78 53q-12 20 -40 20q-27 0 -45 -11t-37 -52t-36 -119q-19 -92 -10.5 -122t45.5 -30q30 0 48 22t29 72q90 -4 109 -3q-18 -95 -73.5 -146.5t-164.5 -51.5z" />
    <glyph glyph-name="Dcaron" unicode="&#x10e;" horiz-adv-x="806" 
d="M306 895l13 11q60 -22 122 -81q29 24 74 48.5t74 31.5l9 -10q-19 -44 -55 -84t-73 -65h-77q-25 25 -50.5 66.5t-36.5 82.5zM485 688q336 0 289 -347q-48 -342 -386 -342q-135 1 -205 1l-200 -2q11 49 17 113h28q29 0 40 14.5t19 52.5q8 34 30 175.5t23 169.5
q2 30 -7.5 43t-35.5 13h-32q10 45 16 111q132 -3 200 -3q47 0 118 0.5t86 0.5zM300 160q-2 -52 43 -52h19q82 0 127.5 51t64.5 184q21 136 -6 187t-111 51h-24q-42 0 -55 -40q-6 -20 -31 -187t-27 -194z" />
    <glyph glyph-name="dcaron" unicode="&#x10f;" horiz-adv-x="741" 
d="M670 568q-48 0 -45 58q2 29 21 47t50 18q66 0 61 -80q-4 -58 -48.5 -95.5t-110.5 -48.5l-4 20q111 22 127 106q-13 -25 -51 -25zM567 550q-62 -282 -80 -398q-9 -53 -8.5 -72.5t13.5 -19.5q31 0 48 136l41 -1q-10 -97 -53.5 -157.5t-122.5 -60.5q-100 0 -100 104
q-51 -104 -154 -104q-69 0 -102 50.5t-19 157.5q20 152 88.5 227t150.5 75t97 -67l24 120q11 57 -31 57h-17q10 45 12 92q115 -4 227 0q0 -77 -14 -139zM241 61q26 0 51.5 52.5t44.5 160.5q14 72 11.5 101t-27.5 29q-54 0 -92 -215q-14 -77 -11.5 -102.5t23.5 -25.5z" />
    <glyph glyph-name="Dcroat" unicode="&#x110;" horiz-adv-x="806" 
d="M485 688q336 0 289 -347q-48 -342 -386 -342q-135 1 -205 1l-200 -2q11 49 17 113h28q29 0 40 14.5t19 52.5q5 21 21 121q-13 0 -32 -0.5t-23 -0.5q10 28 17 93q11 -1 52 -1q16 98 18 133q2 30 -7.5 43t-35.5 13h-32q10 45 16 111q132 -3 200 -3q47 0 118 0.5t86 0.5z
M300 160q-2 -52 43 -52h19q82 0 127.5 51t64.5 184q21 136 -6 187t-111 51h-24q-42 0 -55 -40q-6 -18 -26 -152q71 0 113 2q-11 -34 -17 -93q-7 0 -45 0.5t-65 0.5q-15 -104 -18 -139z" />
    <glyph glyph-name="dcroat" unicode="&#x111;" horiz-adv-x="591" 
d="M325 504q7 27 9 49q28 -2 58 -2q6 46 -33 46h-17q10 45 12 92q115 -4 227 0q0 -76 -14 -137q38 0 51 1q-3 -10 -10 -49q-6 0 -23 0.5t-28 0.5q-52 -240 -70 -353q-9 -53 -8.5 -72.5t13.5 -19.5q31 0 48 136l41 -1q-10 -97 -53.5 -157.5t-122.5 -60.5q-100 0 -100 104
q-51 -104 -154 -104q-69 0 -102 50.5t-19 157.5q20 152 88.5 227t150.5 75t97 -67l17 85q-13 0 -32.5 -0.5t-25.5 -0.5zM241 61q26 0 51.5 52.5t44.5 160.5q14 72 11.5 101t-27.5 29q-54 0 -92 -215q-14 -77 -11.5 -102.5t23.5 -25.5z" />
    <glyph glyph-name="Emacron" unicode="&#x112;" horiz-adv-x="723" 
d="M445 466l5 32h86q-18 -82 -29 -151q-11 -77 -16 -154h-84l3 29q6 48 -4.5 68t-52.5 22h-34q-18 -131 -19 -143q-2 -35 12 -46.5t45 -11.5h80q70 0 100 31t44 125l1 10q62 -2 121 0q-23 -94 -49 -281q-45 4 -213 4h-249l-209 -2q14 91 17 113h27q29 0 38.5 11t18.5 47
q9 33 31.5 177.5t24.5 174.5q3 58 -43 58h-31q10 44 16 110l39 -1q39 0 89 -0.5t78 -0.5h232q178 0 242 8q-33 -139 -45 -262q-50 2 -114 -1l3 15q13 82 -10.5 106.5t-89.5 24.5h-81q-31 0 -47 -12t-23 -45q-7 -29 -25 -141h25q45 0 64 19.5t26 66.5zM312 763q15 50 17 93
q46 -2 142.5 -2t142.5 2q-9 -33 -18 -93q-46 1 -142 1t-142 -1z" />
    <glyph glyph-name="emacron" unicode="&#x113;" horiz-adv-x="491" 
d="M340 178q90 -4 109 -3q-18 -96 -71.5 -147t-164.5 -51q-116 0 -159 61t-18 194q24 127 94 191t177 64q96 0 137.5 -43.5t28.5 -115.5q-13 -75 -76.5 -100.5t-175.5 -22.5q-12 -69 -3 -95t42 -26q31 0 49.5 21t30.5 73zM304 416q-22 0 -36.5 -31.5t-39.5 -142.5
q39 0 58 15.5t30 63.5q23 95 -12 95zM169 538q15 50 17 93q46 -1 142.5 -1t142.5 1q-9 -33 -18 -93q-46 2 -142 2t-142 -2z" />
    <glyph glyph-name="Ebreve" unicode="&#x114;" horiz-adv-x="723" 
d="M445 466l5 32h86q-18 -82 -29 -151q-11 -77 -16 -154h-84l3 29q6 48 -4.5 68t-52.5 22h-34q-18 -131 -19 -143q-2 -35 12 -46.5t45 -11.5h80q70 0 100 31t44 125l1 10q62 -2 121 0q-23 -94 -49 -281q-45 4 -213 4h-249l-209 -2q14 91 17 113h27q29 0 38.5 11t18.5 47
q9 33 31.5 177.5t24.5 174.5q3 58 -43 58h-31q10 44 16 110l39 -1q39 0 89 -0.5t78 -0.5h232q178 0 242 8q-33 -139 -45 -262q-50 2 -114 -1l3 15q13 82 -10.5 106.5t-89.5 24.5h-81q-31 0 -47 -12t-23 -45q-7 -29 -25 -141h25q45 0 64 19.5t26 66.5zM447 746
q-74 0 -99 40.5t-6 104.5l30 1q-1 -28 20 -40.5t70 -12.5q48 0 73 12.5t32 40.5l29 -1q-1 -64 -38 -104.5t-111 -40.5z" />
    <glyph glyph-name="ebreve" unicode="&#x115;" horiz-adv-x="491" 
d="M340 178q90 -4 109 -3q-18 -96 -71.5 -147t-164.5 -51q-116 0 -159 61t-18 194q24 127 94 191t177 64q96 0 137.5 -43.5t28.5 -115.5q-13 -75 -76.5 -100.5t-175.5 -22.5q-12 -69 -3 -95t42 -26q31 0 49.5 21t30.5 73zM304 416q-22 0 -36.5 -31.5t-39.5 -142.5
q39 0 58 15.5t30 63.5q23 95 -12 95zM322 535q-74 0 -99 40.5t-6 104.5l30 1q-1 -28 20 -40.5t70 -12.5q48 0 73 12.5t32 40.5l29 -1q-1 -64 -38 -104.5t-111 -40.5z" />
    <glyph glyph-name="Edotaccent" unicode="&#x116;" horiz-adv-x="723" 
d="M445 466l5 32h86q-18 -82 -29 -151q-11 -77 -16 -154h-84l3 29q6 48 -4.5 68t-52.5 22h-34q-18 -131 -19 -143q-2 -35 12 -46.5t45 -11.5h80q70 0 100 31t44 125l1 10q62 -2 121 0q-23 -94 -49 -281q-45 4 -213 4h-249l-209 -2q14 91 17 113h27q29 0 38.5 11t18.5 47
q9 33 31.5 177.5t24.5 174.5q3 58 -43 58h-31q10 44 16 110l39 -1q39 0 89 -0.5t78 -0.5h232q178 0 242 8q-33 -139 -45 -262q-50 2 -114 -1l3 15q13 82 -10.5 106.5t-89.5 24.5h-81q-31 0 -47 -12t-23 -45q-7 -29 -25 -141h25q45 0 64 19.5t26 66.5zM500 819
q-2 -29 -22.5 -49.5t-52.5 -20.5t-49 20t-15 50q2 31 22.5 50t50.5 19q32 0 50 -19t16 -50z" />
    <glyph glyph-name="edotaccent" unicode="&#x117;" horiz-adv-x="491" 
d="M340 178q90 -4 109 -3q-18 -96 -71.5 -147t-164.5 -51q-116 0 -159 61t-18 194q24 127 94 191t177 64q96 0 137.5 -43.5t28.5 -115.5q-13 -75 -76.5 -100.5t-175.5 -22.5q-12 -69 -3 -95t42 -26q31 0 49.5 21t30.5 73zM304 416q-22 0 -36.5 -31.5t-39.5 -142.5
q39 0 58 15.5t30 63.5q23 95 -12 95zM385 604q-2 -29 -22.5 -49.5t-52.5 -20.5t-49 20t-15 50q2 31 22.5 50t50.5 19q32 0 50 -19t16 -50z" />
    <glyph glyph-name="Eogonek" unicode="&#x118;" horiz-adv-x="723" 
d="M445 466l5 32h86q-18 -82 -29 -151q-11 -77 -16 -154h-84l3 29q6 48 -4.5 68t-52.5 22h-34q-18 -131 -19 -143q-2 -35 12 -46.5t45 -11.5h80q70 0 100 31t44 125l1 10q62 -2 121 0q-23 -94 -49 -281q-22 2 -92 4q-61 -22 -63 -71q-1 -22 11.5 -33t35.5 -11q53 0 69 58
l36 -5q-9 -144 -139 -144q-48 0 -78 23t-26 69q8 80 95 114h-311l-209 -2q14 91 17 113h27q29 0 38.5 11t18.5 47q9 33 31.5 177.5t24.5 174.5q3 58 -43 58h-31q10 44 16 110l39 -1q39 0 89 -0.5t78 -0.5h232q178 0 242 8q-33 -139 -45 -262q-50 2 -114 -1l3 15
q13 82 -10.5 106.5t-89.5 24.5h-81q-31 0 -47 -12t-23 -45q-7 -29 -25 -141h25q45 0 64 19.5t26 66.5z" />
    <glyph glyph-name="eogonek" unicode="&#x119;" horiz-adv-x="491" 
d="M450 -62q-8 -144 -139 -144q-48 0 -77.5 23.5t-25.5 68.5q5 60 70 97q-38 -6 -65 -6q-116 0 -159 61t-18 194q24 127 94 191t178 64q95 0 136 -43.5t29 -115.5q-13 -75 -76 -100.5t-176 -22.5q-13 -69 -3.5 -95t43.5 -26q31 0 49.5 21t30.5 73q91 -4 109 -3
q-11 -59 -31 -93t-62 -69q-55 -45 -56 -84q-1 -21 11 -32.5t34 -11.5q53 0 69 58zM304 416q-21 0 -35.5 -31t-39.5 -143q39 0 58 15.5t30 63.5q23 95 -13 95z" />
    <glyph glyph-name="Ecaron" unicode="&#x11a;" horiz-adv-x="723" 
d="M290 895l13 11q60 -22 122 -81q29 24 74 48.5t74 31.5l9 -10q-19 -44 -55 -84t-73 -65h-77q-25 25 -50.5 66.5t-36.5 82.5zM445 466l5 32h86q-18 -82 -29 -151q-11 -77 -16 -154h-84l3 29q6 48 -4.5 68t-52.5 22h-34q-18 -131 -19 -143q-2 -35 12 -46.5t45 -11.5h80
q70 0 100 31t44 125l1 10q62 -2 121 0q-23 -94 -49 -281q-45 4 -213 4h-249l-209 -2q14 91 17 113h27q29 0 38.5 11t18.5 47q9 33 31.5 177.5t24.5 174.5q3 58 -43 58h-31q10 44 16 110l39 -1q39 0 89 -0.5t78 -0.5h232q178 0 242 8q-33 -139 -45 -262q-50 2 -114 -1l3 15
q13 82 -10.5 106.5t-89.5 24.5h-81q-31 0 -47 -12t-23 -45q-7 -29 -25 -141h25q45 0 64 19.5t26 66.5z" />
    <glyph glyph-name="ecaron" unicode="&#x11b;" horiz-adv-x="491" 
d="M183 680l13 11q60 -22 122 -81q29 24 74 48.5t74 31.5l9 -10q-19 -44 -55 -84t-73 -65h-77q-25 25 -50.5 66.5t-36.5 82.5zM340 178q90 -4 109 -3q-18 -96 -71.5 -147t-164.5 -51q-116 0 -159 61t-18 194q24 127 94 191t177 64q96 0 137.5 -43.5t28.5 -115.5
q-13 -75 -76.5 -100.5t-175.5 -22.5q-12 -69 -3 -95t42 -26q31 0 49.5 21t30.5 73zM304 416q-22 0 -36.5 -31.5t-39.5 -142.5q39 0 58 15.5t30 63.5q23 95 -12 95z" />
    <glyph glyph-name="Gcircumflex" unicode="&#x11c;" horiz-adv-x="791" 
d="M573 753l-13 -11q-70 26 -123 78q-27 -23 -72 -46.5t-75 -30.5l-9 11q19 42 56.5 82t76.5 66h77q24 -24 47 -65.5t35 -83.5zM365 103q53 0 86.5 25t43.5 94q9 66 -46 66h-26l12 84q109 -2 170 -2l170 2l-12 -84h-22q-21 0 -30.5 -12t-13.5 -41q-21 -139 -21 -235
q-21 2 -67.5 2t-67.5 -2q-7 42 -17 86q-35 -50 -94 -80.5t-135 -30.5q-51 0 -93.5 11.5t-79.5 38t-58 69t-30 105.5t6 147q29 181 125 272.5t241 91.5q104 0 170 -41q25 -16 44.5 -9t25.5 37q13 -1 43.5 -1t44.5 1q-19 -40 -33.5 -118.5t-20.5 -149.5q-41 2 -66 2l-74 -1
q17 78 -10.5 117.5t-91.5 39.5q-69 0 -105.5 -51t-57.5 -190q-9 -77 -8.5 -124.5t16 -74t34.5 -35.5t48 -9z" />
    <glyph glyph-name="gcircumflex" unicode="&#x11d;" horiz-adv-x="552" 
d="M493 538l-13 -11q-70 26 -123 78q-27 -23 -72 -46.5t-75 -30.5l-9 11q19 42 56.5 82t76.5 66h77q24 -24 47 -65.5t35 -83.5zM152 -169q21 0 38 5.5t29 13t21.5 23.5t15.5 28t12 36t9 38.5t8 44.5t8 45q-49 -88 -144 -88q-68 0 -100.5 50.5t-18.5 157.5q10 79 35 139
t58.5 94.5t69.5 51.5t74 17q66 0 94 -26t30 -77q51 38 76 91q12 -1 42 -1t43 1q-45 -191 -87 -432q-42 -245 -296 -245q-90 0 -128.5 33t-26.5 79q14 54 71 54q30 0 46.5 -17t11.5 -43q-4 -23 -23.5 -38t-46.5 -12q30 -23 79 -23zM240 61q56 0 96 213q14 72 11 101t-28 29
q-54 0 -92 -215q-14 -77 -11.5 -102.5t24.5 -25.5z" />
    <glyph glyph-name="Gbreve" unicode="&#x11e;" horiz-adv-x="791" 
d="M365 103q53 0 86.5 25t43.5 94q9 66 -46 66h-26l12 84q109 -2 170 -2l170 2l-12 -84h-22q-21 0 -30.5 -12t-13.5 -41q-21 -139 -21 -235q-21 2 -67.5 2t-67.5 -2q-7 42 -17 86q-35 -50 -94 -80.5t-135 -30.5q-51 0 -93.5 11.5t-79.5 38t-58 69t-30 105.5t6 147
q29 181 125 272.5t241 91.5q104 0 170 -41q25 -16 44.5 -9t25.5 37q13 -1 43.5 -1t44.5 1q-19 -40 -33.5 -118.5t-20.5 -149.5q-41 2 -66 2l-74 -1q17 78 -10.5 117.5t-91.5 39.5q-69 0 -105.5 -51t-57.5 -190q-9 -77 -8.5 -124.5t16 -74t34.5 -35.5t48 -9zM419 746
q-74 0 -99 40.5t-6 104.5l30 1q-1 -28 20 -40.5t70 -12.5q48 0 73 12.5t32 40.5l29 -1q-1 -64 -38 -104.5t-111 -40.5z" />
    <glyph glyph-name="gbreve" unicode="&#x11f;" horiz-adv-x="552" 
d="M152 -169q21 0 38 5.5t29 13t21.5 23.5t15.5 28t12 36t9 38.5t8 44.5t8 45q-49 -88 -144 -88q-68 0 -100.5 50.5t-18.5 157.5q10 79 35 139t58.5 94.5t69.5 51.5t74 17q66 0 94 -26t30 -77q51 38 76 91q12 -1 42 -1t43 1q-45 -191 -87 -432q-42 -245 -296 -245
q-90 0 -128.5 33t-26.5 79q14 54 71 54q30 0 46.5 -17t11.5 -43q-4 -23 -23.5 -38t-46.5 -12q30 -23 79 -23zM240 61q56 0 96 213q14 72 11 101t-28 29q-54 0 -92 -215q-14 -77 -11.5 -102.5t24.5 -25.5zM355 535q-74 0 -99 40.5t-6 104.5l30 1q-1 -28 20 -40.5t70 -12.5
q48 0 73 12.5t32 40.5l29 -1q-1 -64 -38 -104.5t-111 -40.5z" />
    <glyph glyph-name="Gdotaccent" unicode="&#x120;" horiz-adv-x="791" 
d="M365 103q53 0 86.5 25t43.5 94q9 66 -46 66h-26l12 84q109 -2 170 -2l170 2l-12 -84h-22q-21 0 -30.5 -12t-13.5 -41q-21 -139 -21 -235q-21 2 -67.5 2t-67.5 -2q-7 42 -17 86q-35 -50 -94 -80.5t-135 -30.5q-51 0 -93.5 11.5t-79.5 38t-58 69t-30 105.5t6 147
q29 181 125 272.5t241 91.5q104 0 170 -41q25 -16 44.5 -9t25.5 37q13 -1 43.5 -1t44.5 1q-19 -40 -33.5 -118.5t-20.5 -149.5q-41 2 -66 2l-74 -1q17 78 -10.5 117.5t-91.5 39.5q-69 0 -105.5 -51t-57.5 -190q-9 -77 -8.5 -124.5t16 -74t34.5 -35.5t48 -9zM513 820
q-2 -29 -22.5 -49.5t-52.5 -20.5t-49 20t-15 50q2 31 22.5 50t50.5 19q32 0 50 -19t16 -50z" />
    <glyph glyph-name="gdotaccent" unicode="&#x121;" horiz-adv-x="552" 
d="M152 -169q21 0 38 5.5t29 13t21.5 23.5t15.5 28t12 36t9 38.5t8 44.5t8 45q-49 -88 -144 -88q-68 0 -100.5 50.5t-18.5 157.5q10 79 35 139t58.5 94.5t69.5 51.5t74 17q66 0 94 -26t30 -77q51 38 76 91q12 -1 42 -1t43 1q-45 -191 -87 -432q-42 -245 -296 -245
q-90 0 -128.5 33t-26.5 79q14 54 71 54q30 0 46.5 -17t11.5 -43q-4 -23 -23.5 -38t-46.5 -12q30 -23 79 -23zM240 61q56 0 96 213q14 72 11 101t-28 29q-54 0 -92 -215q-14 -77 -11.5 -102.5t24.5 -25.5zM403 604q-2 -29 -22.5 -49.5t-52.5 -20.5t-49 20t-15 50
q2 31 22.5 50t50.5 19q32 0 50 -19t16 -50z" />
    <glyph glyph-name="Gcommaaccent" unicode="&#x122;" horiz-adv-x="791" 
d="M321 -176q-48 0 -45 58q2 29 21 47t50 18q66 0 61 -80q-4 -58 -48.5 -95.5t-110.5 -48.5l-4 20q111 22 127 106q-13 -25 -51 -25zM365 103q53 0 86.5 25t43.5 94q9 66 -46 66h-26l12 84q109 -2 170 -2l170 2l-12 -84h-22q-21 0 -30.5 -12t-13.5 -41q-21 -139 -21 -235
q-21 2 -67.5 2t-67.5 -2q-7 42 -17 86q-35 -50 -94 -80.5t-135 -30.5q-51 0 -93.5 11.5t-79.5 38t-58 69t-30 105.5t6 147q29 181 125 272.5t241 91.5q104 0 170 -41q25 -16 44.5 -9t25.5 37q13 -1 43.5 -1t44.5 1q-19 -40 -33.5 -118.5t-20.5 -149.5q-41 2 -66 2l-74 -1
q17 78 -10.5 117.5t-91.5 39.5q-69 0 -105.5 -51t-57.5 -190q-9 -77 -8.5 -124.5t16 -74t34.5 -35.5t48 -9z" />
    <glyph glyph-name="gcommaaccent" unicode="&#x123;" horiz-adv-x="552" 
d="M370 648q48 0 45 -58q-2 -29 -21 -47t-50 -18q-66 0 -61 80q4 58 48.5 95.5t110.5 48.5l4 -20q-111 -22 -127 -106q13 25 51 25zM152 -169q21 0 38 5.5t29 13t21.5 23.5t15.5 28t12 36t9 38.5t8 44.5t8 45q-49 -88 -144 -88q-68 0 -100.5 50.5t-18.5 157.5q10 79 35 139
t58.5 94.5t69.5 51.5t74 17q66 0 94 -26t30 -77q51 38 76 91q12 -1 42 -1t43 1q-45 -191 -87 -432q-42 -245 -296 -245q-90 0 -128.5 33t-26.5 79q14 54 71 54q30 0 46.5 -17t11.5 -43q-4 -23 -23.5 -38t-46.5 -12q30 -23 79 -23zM240 61q56 0 96 213q14 72 11 101t-28 29
q-54 0 -92 -215q-14 -77 -11.5 -102.5t24.5 -25.5z" />
    <glyph glyph-name="Hcircumflex" unicode="&#x124;" horiz-adv-x="850" 
d="M640 753l-13 -11q-70 26 -123 78q-27 -23 -72 -46.5t-75 -30.5l-9 11q19 42 56.5 82t76.5 66h77q24 -24 47 -65.5t35 -83.5zM-17 -2q10 42 16 113h28q29 0 38 9.5t18 42.5q10 37 34 188.5t24 180.5q0 25 -9.5 36t-33.5 11h-31q9 33 16 110q121 -2 189 -2q40 0 113 1t75 1
q-14 -61 -16 -110h-24q-51 0 -65 -56q-9 -31 -28 -156q101 -2 212 0q17 107 22 156q4 56 -50 56h-24q13 48 16 110q122 -2 190 -2q41 0 115.5 1t75.5 1q-13 -48 -16 -110h-31q-26 0 -39.5 -13t-22.5 -43q-7 -29 -30.5 -180t-25.5 -179q-2 -29 9 -41t43 -12h28
q-15 -66 -15 -113q-122 2 -191 2l-191 -2q13 72 15 113h26q30 0 41.5 12t20.5 41q5 17 23 133q-111 2 -212 0q-15 -108 -17 -133q-2 -28 8 -40.5t41 -12.5h26q-12 -54 -15 -113q-120 2 -188 2z" />
    <glyph glyph-name="hcircumflex" unicode="&#x125;" horiz-adv-x="592" 
d="M350 729l-13 -11q-70 26 -123 78q-27 -23 -72 -46.5t-75 -30.5l-9 11q19 42 56.5 82t76.5 66h77q24 -24 47 -65.5t35 -83.5zM537 196l41 -1q-12 -96 -55 -157t-125 -61q-156 0 -101 201l30 107q33 119 -2 119q-29 0 -54.5 -53t-57.5 -197l-30 -155q-57 3 -89 3l-89 -3
q86 387 110 541q9 57 -31 57h-18q7 44 7 92q117 -4 234 0q0 -61 -20 -164l-25 -125q56 87 155 87q148 0 99 -203l-32 -132q-6 -24 -9 -38t-4 -28t2.5 -20t12.5 -6q27 0 51 136z" />
    <glyph glyph-name="Hbar" unicode="&#x126;" horiz-adv-x="850" 
d="M-17 -2q10 42 16 113h28q29 0 38 9.5t18 42.5q17 66 46 271h-51q11 35 13 67q2 0 18.5 -0.5t28.5 -0.5q3 22 3 32q0 25 -9.5 36t-33.5 11h-31q9 33 16 110q121 -2 189 -2q40 0 113 1t75 1q-14 -61 -16 -110h-24q-51 0 -65 -56l-5 -23h208q1 6 2 13.5t1 9.5q4 56 -50 56
h-24q13 48 16 110q122 -2 190 -2q41 0 115.5 1t75.5 1q-13 -48 -16 -110h-31q-27 0 -41 -13t-21 -43l-5 -23q13 0 34 0.5t23 0.5q-6 -17 -13 -67h-56q-35 -215 -39 -270q-2 -29 9 -41t43 -12h28q-15 -66 -15 -113q-122 2 -191 2l-191 -2q13 72 15 113h26q30 0 41.5 12
t20.5 41q5 17 23 133q-111 2 -212 0q-15 -108 -17 -133q-2 -28 8 -40.5t41 -12.5h26q-12 -54 -15 -113q-120 2 -188 2zM549 435h-211q-7 -35 -11 -68q101 -2 212 0z" />
    <glyph glyph-name="hbar" unicode="&#x127;" horiz-adv-x="592" 
d="M54 504q7 27 9 49q13 -1 53 -1q5 45 -32 45h-18q7 44 7 92q117 -4 234 0q0 -58 -15 -137q41 0 55 1q-3 -10 -10 -49q-6 0 -24.5 0.5t-29.5 0.5l-21 -105q56 87 155 87q148 0 99 -203l-32 -132q-6 -24 -9 -38t-4 -28t2.5 -20t12.5 -6q27 0 51 136l41 -1q-12 -96 -55 -157
t-125 -61q-156 0 -101 201l30 107q33 119 -2 119q-29 0 -54.5 -53t-57.5 -197l-30 -155q-57 3 -89 3l-89 -3q80 367 104 506q-12 0 -30.5 -0.5t-24.5 -0.5z" />
    <glyph glyph-name="Itilde" unicode="&#x128;" horiz-adv-x="426" 
d="M-18 -2q10 42 16 113h28q30 0 39 9.5t18 42.5q8 30 31.5 179.5t25.5 180.5q2 30 -7 43t-35 13h-32q10 44 16 110q121 -2 189 -2q41 0 114 1t74 1q-13 -73 -15 -110h-24q-50 0 -66 -56q-8 -28 -31 -179.5t-25 -179.5t7.5 -40.5t41.5 -12.5h27q-13 -58 -15 -113
q-121 2 -189 2zM410 864l30 1q8 -69 -23.5 -100t-85.5 -29q-38 1 -60 17t-43 50q-12 21 -20.5 28t-21.5 7q-38 0 -31 -75l-30 -1q-9 71 21 102t88 29q36 -1 58.5 -16.5t43.5 -50.5q12 -21 20.5 -28t21.5 -7q39 0 32 73z" />
    <glyph glyph-name="itilde" unicode="&#x129;" horiz-adv-x="368" 
d="M294 291l-38 -152q-18 -78 7 -78q30 0 49 135l40 -1q-5 -60 -23.5 -107t-57.5 -79t-93 -32q-161 0 -104 198l43 154q22 75 -1 75q-20 0 -35 -38.5t-21 -99.5l-40 1q11 95 52.5 157.5t113.5 62.5q77 0 104 -52t4 -144zM353 649l30 1q8 -69 -23.5 -100t-85.5 -29
q-38 1 -60 17t-43 50q-12 21 -20.5 28t-21.5 7q-38 0 -31 -75l-30 -1q-9 71 21 102t88 29q36 -1 58.5 -16.5t43.5 -50.5q12 -21 20.5 -28t21.5 -7q39 0 32 73z" />
    <glyph glyph-name="Imacron" unicode="&#x12a;" horiz-adv-x="426" 
d="M-18 -2q10 42 16 113h28q30 0 39 9.5t18 42.5q8 30 31.5 179.5t25.5 180.5q2 30 -7 43t-35 13h-32q10 44 16 110q121 -2 189 -2q41 0 114 1t74 1q-13 -73 -15 -110h-24q-50 0 -66 -56q-8 -28 -31 -179.5t-25 -179.5t7.5 -40.5t41.5 -12.5h27q-13 -58 -15 -113
q-121 2 -189 2zM137 763q15 50 17 93q46 -2 142.5 -2t142.5 2q-9 -33 -18 -93q-46 1 -142 1t-142 -1z" />
    <glyph glyph-name="imacron" unicode="&#x12b;" horiz-adv-x="368" 
d="M294 291l-38 -152q-18 -78 7 -78q30 0 49 135l40 -1q-5 -60 -23.5 -107t-57.5 -79t-93 -32q-161 0 -104 198l43 154q22 75 -1 75q-20 0 -35 -38.5t-21 -99.5l-40 1q11 95 52.5 157.5t113.5 62.5q77 0 104 -52t4 -144zM82 538q15 50 17 93q46 -1 142.5 -1t142.5 1
q-9 -33 -18 -93q-46 2 -142 2t-142 -2z" />
    <glyph glyph-name="Ibreve" unicode="&#x12c;" horiz-adv-x="426" 
d="M-18 -2q10 42 16 113h28q30 0 39 9.5t18 42.5q8 30 31.5 179.5t25.5 180.5q2 30 -7 43t-35 13h-32q10 44 16 110q121 -2 189 -2q41 0 114 1t74 1q-13 -73 -15 -110h-24q-50 0 -66 -56q-8 -28 -31 -179.5t-25 -179.5t7.5 -40.5t41.5 -12.5h27q-13 -58 -15 -113
q-121 2 -189 2zM273 746q-74 0 -99 40.5t-6 104.5l30 1q-1 -28 20 -40.5t70 -12.5q48 0 73 12.5t32 40.5l29 -1q-1 -64 -38 -104.5t-111 -40.5z" />
    <glyph glyph-name="ibreve" unicode="&#x12d;" horiz-adv-x="368" 
d="M294 291l-38 -152q-18 -78 7 -78q30 0 49 135l40 -1q-5 -60 -23.5 -107t-57.5 -79t-93 -32q-161 0 -104 198l43 154q22 75 -1 75q-20 0 -35 -38.5t-21 -99.5l-40 1q11 95 52.5 157.5t113.5 62.5q77 0 104 -52t4 -144zM231 535q-74 0 -99 40.5t-6 104.5l30 1
q-1 -28 20 -40.5t70 -12.5q48 0 73 12.5t32 40.5l29 -1q-1 -64 -38 -104.5t-111 -40.5z" />
    <glyph glyph-name="Iogonek" unicode="&#x12e;" horiz-adv-x="426" 
d="M314 -62q-9 -144 -139 -144q-48 0 -78 23t-26 69q8 80 95 114l-184 -2q10 42 16 113h28q30 0 39 9.5t18 42.5q8 30 31.5 179.5t25.5 180.5q2 30 -7 43t-35 13h-32q10 44 16 110q121 -2 189 -2q41 0 114 1t74 1q-13 -73 -15 -110h-24q-50 0 -66 -56q-8 -28 -31 -179.5
t-25 -179.5t7.5 -40.5t41.5 -12.5h27q-13 -58 -15 -113q-70 2 -133 2q-62 -20 -64 -71q-1 -22 11.5 -33t35.5 -11q53 0 69 58z" />
    <glyph glyph-name="iogonek" unicode="&#x12f;" horiz-adv-x="368" 
d="M374 -62q-8 -144 -139 -144q-48 0 -77.5 23.5t-25.5 68.5q5 57 65 93q-16 -2 -26 -2q-154 0 -97 198l43 154q22 75 -1 75q-20 0 -35 -38.5t-21 -99.5l-40 1q11 95 52.5 157.5t113.5 62.5q77 0 104 -52t4 -144l-38 -152q-19 -78 7 -78q28 0 47 135l41 -1
q-11 -118 -72 -176q-53 -51 -54 -90q-1 -21 11 -32.5t34 -11.5q53 0 69 58zM344 629q-6 -41 -37 -70t-82 -29q-43 0 -67 28t-19 71q4 42 34.5 71.5t81.5 29.5q46 0 70 -29t19 -72z" />
    <glyph glyph-name="Idotaccent" unicode="&#x130;" horiz-adv-x="426" 
d="M-18 -2q10 42 16 113h28q30 0 39 9.5t18 42.5q8 30 31.5 179.5t25.5 180.5q2 30 -7 43t-35 13h-32q10 44 16 110q121 -2 189 -2q41 0 114 1t74 1q-13 -73 -15 -110h-24q-50 0 -66 -56q-8 -28 -31 -179.5t-25 -179.5t7.5 -40.5t41.5 -12.5h27q-13 -58 -15 -113
q-121 2 -189 2zM355 819q-2 -29 -22.5 -49.5t-52.5 -20.5t-49 20t-15 50q2 31 22.5 50t50.5 19q32 0 50 -19t16 -50z" />
    <glyph glyph-name="dotlessi" unicode="&#x131;" horiz-adv-x="368" 
d="M294 291l-38 -152q-18 -78 7 -78q30 0 49 135l40 -1q-5 -60 -23.5 -107t-57.5 -79t-93 -32q-161 0 -104 198l43 154q22 75 -1 75q-20 0 -35 -38.5t-21 -99.5l-40 1q11 95 52.5 157.5t113.5 62.5q77 0 104 -52t4 -144z" />
    <glyph glyph-name="IJ" unicode="&#x132;" horiz-adv-x="1001" 
d="M-18 -2q10 42 16 113h28q30 0 39 9.5t18 42.5q8 30 31.5 179.5t25.5 180.5q2 30 -7 43t-35 13h-32q10 44 16 110q121 -2 189 -2q41 0 114 1t74 1q-13 -73 -15 -110h-24q-50 0 -66 -56q-8 -28 -31 -179.5t-25 -179.5t7.5 -40.5t41.5 -12.5h27q-13 -58 -15 -113
q-121 2 -189 2zM600 148q-7 -47 -40 -67.5t-73 -20.5q27 -15 59 -15q51 0 82 32.5t46 112.5q52 286 53 333q2 30 -7 43t-36 13h-35q12 51 17 110q120 -2 188 -2q40 0 113 1t74 1q-10 -44 -16 -110h-23q-26 0 -40 -12t-20 -44q-15 -81 -53 -327q-35 -221 -297 -221
q-103 0 -153 44t-39 119q7 48 40 76t79 28q42 0 65 -26t16 -68z" />
    <glyph glyph-name="ij" unicode="&#x133;" horiz-adv-x="608" 
d="M348 622q-5 -39 -34 -66.5t-75 -27.5q-40 0 -62.5 27t-17.5 67t33 68t74 28q42 0 64.5 -28t17.5 -68zM578 622q-5 -39 -33.5 -66.5t-75.5 -27.5q-40 0 -62 27t-18 67q5 40 33.5 68t73.5 28q42 0 64.5 -28t17.5 -68zM57 266l-40 1q11 95 53 157.5t117 62.5q154 0 104 -200
l-26 -107q-29 -119 6 -119q56 0 96 194l44 214q28 -2 88 -2l86 2q-57 -266 -85 -426q-44 -245 -298 -245q-83 0 -121.5 28.5t-35.5 69.5q3 33 23 50.5t50 17.5q26 0 42.5 -14t15.5 -38q-1 -29 -22 -45t-49 -13q30 -23 79 -23q18 0 33.5 3.5t27.5 12t21 17t16.5 24.5t12 27.5
t10 33t8 35t7 39t7.5 39.5q-54 -85 -147 -85q-155 0 -103 204l33 133q6 25 9 40t4 27t-1.5 17.5t-9.5 5.5q-39 0 -55 -138z" />
    <glyph glyph-name="Jcircumflex" unicode="&#x134;" horiz-adv-x="591" 
d="M596 753l-13 -11q-70 26 -123 78q-27 -23 -72 -46.5t-75 -30.5l-9 11q19 42 56.5 82t76.5 66h77q24 -24 47 -65.5t35 -83.5zM190 148q-7 -47 -40 -67.5t-73 -20.5q27 -15 59 -15q51 0 82 32.5t46 112.5q52 286 53 333q2 30 -7 43t-36 13h-35q12 51 17 110q120 -2 188 -2
q41 0 113.5 1t73.5 1q-10 -44 -16 -110h-23q-26 0 -40 -12t-20 -44q-15 -81 -53 -327q-35 -221 -297 -221q-103 0 -153 44t-39 119q7 48 40 76t79 28q42 0 65 -26t16 -68z" />
    <glyph glyph-name="jcircumflex" unicode="&#x135;" horiz-adv-x="318" 
d="M280 291l-50 -258q-25 -129 -90.5 -182t-182.5 -53q-72 0 -107.5 27.5t-24.5 73.5q5 28 25 43.5t49 15.5q33 0 47 -19t8 -46q-6 -25 -31 -36t-51 -5q18 -18 49 -18q62 0 89 52.5t51 184.5l44 236q4 23 6.5 38t3.5 30t-1 22t-8 7q-19 0 -34 -39t-21 -99l-40 1
q12 99 54.5 159.5t115.5 60.5q138 0 99 -196zM347 538l-13 -11q-70 26 -123 78q-27 -23 -72 -46.5t-75 -30.5l-9 11q19 42 56.5 82t76.5 66h77q24 -24 47 -65.5t35 -83.5z" />
    <glyph glyph-name="Kcommaaccent" unicode="&#x136;" horiz-adv-x="827" 
d="M327 -176q-48 0 -45 58q2 29 21 47t50 18q66 0 61 -80q-4 -58 -48.5 -95.5t-110.5 -48.5l-4 20q111 22 127 106q-13 -25 -51 -25zM-17 -1q10 43 16 112h27q30 0 39.5 10.5t19.5 46.5q7 29 31 178t25 176q2 31 -8.5 44t-41.5 13h-25q10 38 17 110q121 -2 190 -2
q41 0 114 1t75 1q-10 -44 -16 -110h-30q-46 0 -61 -57q-11 -50 -28 -165q42 31 115.5 86.5t81.5 61.5q29 22 22.5 48t-39.5 26h-28q5 22 17 110q119 -2 185 -2q39 0 111 1t74 1q-12 -51 -17 -110h-31q-51 0 -90.5 -16.5t-94.5 -54.5l-70 -50q52 -123 138 -290
q18 -34 31.5 -45.5t38.5 -11.5h19q-11 -41 -17 -113q-123 2 -192 2l-193 -2q11 49 17 113h19q58 0 25 86q-15 38 -65 132l-69 -49q-14 -96 -14 -112q-2 -57 39 -57h27q-4 -19 -17 -112q-113 1 -182 1z" />
    <glyph glyph-name="kcommaaccent" unicode="&#x137;" horiz-adv-x="585" 
d="M221 -176q-48 0 -45 58q2 29 21 47t50 18q66 0 61 -80q-4 -58 -48.5 -95.5t-110.5 -48.5l-4 20q111 22 127 106q-13 -25 -51 -25zM525 196l41 -1q-8 -96 -50.5 -157t-124.5 -61q-69 0 -100.5 37.5t-15.5 105.5q13 56 3.5 73t-51.5 18l-43 -214q-56 3 -88 3q-46 0 -91 -3
q99 436 111 543q4 28 -1.5 42.5t-29.5 14.5h-17q6 38 6 92q120 -4 242 0q-5 -50 -28 -164l-25 -128q50 90 146 90q74 0 99.5 -38.5t13.5 -94.5q-11 -45 -49 -74.5t-88 -40.5q86 -15 79 -120q-4 -58 15 -58q32 0 46 135zM324 404q-24 0 -44.5 -35t-43.5 -125q42 4 68.5 32
t35.5 68q6 28 1.5 44t-17.5 16z" />
    <glyph glyph-name="kgreenlandic" unicode="&#x138;" horiz-adv-x="619" 
d="M51 266l-40 1q11 95 53.5 157.5t117.5 62.5q98 0 102 -114q50 114 158 114q75 0 101 -38.5t13 -94.5q-11 -45 -49 -74t-89 -41q86 -13 79 -120q-3 -58 16 -58q32 0 46 135l41 -1q-9 -96 -51 -157t-124 -61q-69 0 -101 37.5t-15 105.5q13 56 3 73t-51 18l-43 -212
q-57 3 -89 3l-89 -3q40 173 67 322q9 49 9 66t-11 17q-18 0 -32.5 -38.5t-21.5 -99.5zM358 404q-24 0 -44.5 -35t-43.5 -125q42 4 68.5 32t35.5 68q6 28 1 44t-17 16z" />
    <glyph glyph-name="Lacute" unicode="&#x139;" horiz-adv-x="668" 
d="M236 743l-8 12q64 92 129 128q40 16 67 6t25 -39.5t-39 -50.5q-76 -46 -174 -56zM474 689l-16 -110h-29q-33 0 -51 -14.5t-25 -48.5q-8 -37 -30 -175t-24 -172q-1 -34 12.5 -46t43.5 -12h37q57 0 90.5 32.5t49.5 119.5l8 42q16 -1 53 -1t54 1q-25 -134 -49 -309
q-47 4 -201 4h-282q-86 0 -132 -2q10 42 16 113h30q20 0 31 8.5t15 19.5t11 39q8 36 30.5 173t23.5 165q2 33 -6 48t-34 15h-33q10 44 16 110q125 -2 196 -2q31 0 78 0.5t81.5 1t35.5 0.5z" />
    <glyph glyph-name="lacute" unicode="&#x13a;" horiz-adv-x="318" 
d="M169 721l-8 12q64 92 129 128q40 16 67 6t25 -39.5t-39 -50.5q-76 -46 -174 -56zM292 550q-55 -267 -81 -408q-5 -25 -7 -41t-1 -25t4.5 -12.5t9.5 -3.5q14 0 27 37.5t21 98.5l40 -1q-8 -93 -51.5 -155.5t-119.5 -62.5q-72 0 -93 45.5t2 156.5q49 218 72 361
q13 57 -30 57h-17q5 22 12 92q112 -4 227 0q0 -64 -15 -139z" />
    <glyph glyph-name="Lcommaaccent" unicode="&#x13b;" horiz-adv-x="669" 
d="M229 -176q-48 0 -45 58q2 29 21 47t50 18q66 0 61 -80q-4 -58 -48.5 -95.5t-110.5 -48.5l-4 20q111 22 127 106q-13 -25 -51 -25zM474 689l-16 -110h-29q-33 0 -51 -14.5t-25 -48.5q-8 -37 -30 -175t-24 -172q-1 -34 12.5 -46t43.5 -12h37q57 0 90.5 32.5t49.5 119.5
l8 42q16 -1 53 -1t54 1q-25 -134 -49 -309q-47 4 -201 4h-282q-86 0 -132 -2q10 42 16 113h30q20 0 31 8.5t15 19.5t11 39q8 36 30.5 173t23.5 165q2 33 -6 48t-34 15h-33q10 44 16 110q125 -2 196 -2q31 0 78 0.5t81.5 1t35.5 0.5z" />
    <glyph glyph-name="lcommaaccent" unicode="&#x13c;" horiz-adv-x="318" 
d="M92 -176q-48 0 -45 58q2 29 21 47t50 18q66 0 61 -80q-4 -58 -48.5 -95.5t-110.5 -48.5l-4 20q111 22 127 106q-13 -25 -51 -25zM292 550q-55 -267 -81 -408q-5 -25 -7 -41t-1 -25t4.5 -12.5t9.5 -3.5q14 0 27 37.5t21 98.5l40 -1q-8 -93 -51.5 -155.5t-119.5 -62.5
q-72 0 -93 45.5t2 156.5q49 218 72 361q13 57 -30 57h-17q5 22 12 92q112 -4 227 0q0 -64 -15 -139z" />
    <glyph glyph-name="Lcaron" unicode="&#x13d;" horiz-adv-x="668" 
d="M589 575q-48 0 -45 58q2 29 21 47t50 18q66 0 61 -80q-4 -58 -48.5 -95.5t-110.5 -48.5l-4 20q111 22 127 106q-13 -25 -51 -25zM474 689l-16 -110h-29q-33 0 -51 -14.5t-25 -48.5q-8 -37 -30 -175t-24 -172q-1 -34 12.5 -46t43.5 -12h37q57 0 90.5 32.5t49.5 119.5l8 42
q16 -1 53 -1t54 1q-25 -134 -49 -309q-47 4 -201 4h-282q-86 0 -132 -2q10 42 16 113h30q20 0 31 8.5t15 19.5t11 39q8 36 30.5 173t23.5 165q2 33 -6 48t-34 15h-33q10 44 16 110q125 -2 196 -2q31 0 78 0.5t81.5 1t35.5 0.5z" />
    <glyph glyph-name="lcaron" unicode="&#x13e;" horiz-adv-x="467" 
d="M396 568q-48 0 -45 58q2 29 21 47t50 18q66 0 61 -80q-4 -58 -48.5 -95.5t-110.5 -48.5l-4 20q111 22 127 106q-13 -25 -51 -25zM292 550q-55 -267 -81 -408q-5 -25 -7 -41t-1 -25t4.5 -12.5t9.5 -3.5q14 0 27 37.5t21 98.5l40 -1q-8 -93 -51.5 -155.5t-119.5 -62.5
q-72 0 -93 45.5t2 156.5q49 218 72 361q13 57 -30 57h-17q5 22 12 92q112 -4 227 0q0 -64 -15 -139z" />
    <glyph glyph-name="Ldot" unicode="&#x13f;" horiz-adv-x="668" 
d="M474 689l-16 -110h-29q-33 0 -51 -14.5t-25 -48.5q-8 -37 -30 -175t-24 -172q-1 -34 12.5 -46t43.5 -12h37q57 0 90.5 32.5t49.5 119.5l8 42q16 -1 53 -1t54 1q-25 -134 -49 -309q-47 4 -201 4h-282q-86 0 -132 -2q10 42 16 113h30q20 0 31 8.5t15 19.5t11 39
q8 36 30.5 173t23.5 165q2 33 -6 48t-34 15h-33q10 44 16 110q125 -2 196 -2q31 0 78 0.5t81.5 1t35.5 0.5zM548 402q-2 -29 -22.5 -49.5t-52.5 -20.5t-49 20t-15 50q2 31 22.5 50t50.5 19q32 0 50 -19t16 -50z" />
    <glyph glyph-name="ldot" unicode="&#x140;" horiz-adv-x="447" 
d="M292 550q-55 -267 -81 -408q-5 -25 -7 -41t-1 -25t4.5 -12.5t9.5 -3.5q14 0 27 37.5t21 98.5l40 -1q-8 -93 -51.5 -155.5t-119.5 -62.5q-72 0 -93 45.5t2 156.5q49 218 72 361q13 57 -30 57h-17q5 22 12 92q112 -4 227 0q0 -64 -15 -139zM452 341q-2 -29 -22.5 -49.5
t-52.5 -20.5t-49 20t-15 50q2 31 22.5 50t50.5 19q32 0 50 -19t16 -50z" />
    <glyph glyph-name="Lslash" unicode="&#x141;" horiz-adv-x="668" 
d="M474 689l-16 -110h-29q-33 0 -51 -14.5t-25 -48.5q-2 -9 -18 -97q40 14 55 21l17 -59q-8 -3 -83 -29q-24 -155 -25 -183q-1 -34 12.5 -46t43.5 -12h37q57 0 90.5 32.5t49.5 119.5l8 42q16 -1 53 -1t54 1q-25 -134 -49 -309q-47 4 -201 4h-282q-86 0 -132 -2q10 42 16 113
h30q20 0 31 8.5t15 19.5t11 39q5 21 16 90l-28 -11l-17 59q1 0 22 7.5l35 12.5q24 146 26 180q2 33 -6 48t-34 15h-33q10 44 16 110q125 -2 196 -2q31 0 78 0.5t81.5 1t35.5 0.5z" />
    <glyph glyph-name="lslash" unicode="&#x142;" horiz-adv-x="318" 
d="M292 550l-26 -127l39 17l19 -59l-72 -26q-22 -110 -41 -213q-5 -25 -7 -41t-1 -25t4.5 -12.5t9.5 -3.5q14 0 27 37.5t21 98.5l40 -1q-8 -93 -51.5 -155.5t-119.5 -62.5q-72 0 -93 45.5t2 156.5l23 106l-26 -11l-18 59q18 5 57 19q9 41 21 108t15 80q11 57 -30 57h-17
q5 22 12 92q112 -4 227 0q0 -64 -15 -139z" />
    <glyph glyph-name="Nacute" unicode="&#x143;" horiz-adv-x="827" 
d="M451 743l-8 12q64 92 129 128q40 16 67 6t25 -39.5t-39 -50.5q-76 -46 -174 -56zM396 689q48 -110 202 -402q26 150 32 222q5 70 -53 70h-49q10 44 16 110q66 -2 160 -2l159 2q-10 -44 -16 -110h-32q-58 0 -73 -70q-14 -71 -40 -245t-36 -265q-31 1 -96.5 1t-96.5 -1
q-27 61 -221 443q-30 -175 -38 -261q-3 -32 12 -51t48 -19h42q-11 -49 -17 -113q-104 2 -161 2l-161 -2q6 26 17 113h28q64 0 79 70q11 48 30 170.5t21 164.5q2 32 -10 47.5t-47 15.5h-32q11 38 17 110q158 -4 316 0z" />
    <glyph glyph-name="nacute" unicode="&#x144;" horiz-adv-x="629" 
d="M325 528l-8 12q64 92 129 128q40 16 67 6t25 -39.5t-39 -50.5q-76 -46 -174 -56zM51 266l-40 1q11 95 53.5 157.5t117.5 62.5q97 0 102 -111q55 111 168 111q80 0 104.5 -57.5t-2.5 -145.5l-36 -139q-23 -85 5 -85q30 0 47 136l41 -1q-9 -95 -52.5 -156.5t-125.5 -61.5
q-54 0 -83 27t-31.5 72t12.5 102l32 107q35 119 -3 119q-31 0 -58 -59t-58 -216l-26 -130q-57 3 -89 3l-89 -3q40 173 67 322q9 49 9 66t-11 17q-18 0 -32.5 -38.5t-21.5 -99.5z" />
    <glyph glyph-name="Ncommaaccent" unicode="&#x145;" horiz-adv-x="827" 
d="M337 -176q-48 0 -45 58q2 29 21 47t50 18q66 0 61 -80q-4 -58 -48.5 -95.5t-110.5 -48.5l-4 20q111 22 127 106q-13 -25 -51 -25zM396 689q48 -110 202 -402q26 150 32 222q5 70 -53 70h-49q10 44 16 110q66 -2 160 -2l159 2q-10 -44 -16 -110h-32q-58 0 -73 -70
q-14 -71 -40 -245t-36 -265q-31 1 -96.5 1t-96.5 -1q-27 61 -221 443q-30 -175 -38 -261q-3 -32 12 -51t48 -19h42q-11 -49 -17 -113q-104 2 -161 2l-161 -2q6 26 17 113h28q64 0 79 70q11 48 30 170.5t21 164.5q2 32 -10 47.5t-47 15.5h-32q11 38 17 110q158 -4 316 0z" />
    <glyph glyph-name="ncommaaccent" unicode="&#x146;" horiz-adv-x="629" 
d="M247 -176q-48 0 -45 58q2 29 21 47t50 18q66 0 61 -80q-4 -58 -48.5 -95.5t-110.5 -48.5l-4 20q111 22 127 106q-13 -25 -51 -25zM51 266l-40 1q11 95 53.5 157.5t117.5 62.5q97 0 102 -111q55 111 168 111q80 0 104.5 -57.5t-2.5 -145.5l-36 -139q-23 -85 5 -85
q30 0 47 136l41 -1q-9 -95 -52.5 -156.5t-125.5 -61.5q-54 0 -83 27t-31.5 72t12.5 102l32 107q35 119 -3 119q-31 0 -58 -59t-58 -216l-26 -130q-57 3 -89 3l-89 -3q40 173 67 322q9 49 9 66t-11 17q-18 0 -32.5 -38.5t-21.5 -99.5z" />
    <glyph glyph-name="Ncaron" unicode="&#x147;" horiz-adv-x="827" 
d="M354 895l13 11q60 -22 122 -81q29 24 74 48.5t74 31.5l9 -10q-19 -44 -55 -84t-73 -65h-77q-25 25 -50.5 66.5t-36.5 82.5zM396 689q48 -110 202 -402q26 150 32 222q5 70 -53 70h-49q10 44 16 110q66 -2 160 -2l159 2q-10 -44 -16 -110h-32q-58 0 -73 -70
q-14 -71 -40 -245t-36 -265q-31 1 -96.5 1t-96.5 -1q-27 61 -221 443q-30 -175 -38 -261q-3 -32 12 -51t48 -19h42q-11 -49 -17 -113q-104 2 -161 2l-161 -2q6 26 17 113h28q64 0 79 70q11 48 30 170.5t21 164.5q2 32 -10 47.5t-47 15.5h-32q11 38 17 110q158 -4 316 0z" />
    <glyph glyph-name="ncaron" unicode="&#x148;" horiz-adv-x="629" 
d="M224 680l13 11q60 -22 122 -81q29 24 74 48.5t74 31.5l9 -10q-19 -44 -55 -84t-73 -65h-77q-25 25 -50.5 66.5t-36.5 82.5zM51 266l-40 1q11 95 53.5 157.5t117.5 62.5q97 0 102 -111q55 111 168 111q80 0 104.5 -57.5t-2.5 -145.5l-36 -139q-23 -85 5 -85q30 0 47 136
l41 -1q-9 -95 -52.5 -156.5t-125.5 -61.5q-54 0 -83 27t-31.5 72t12.5 102l32 107q35 119 -3 119q-31 0 -58 -59t-58 -216l-26 -130q-57 3 -89 3l-89 -3q40 173 67 322q9 49 9 66t-11 17q-18 0 -32.5 -38.5t-21.5 -99.5z" />
    <glyph glyph-name="napostrophe" unicode="&#x149;" horiz-adv-x="629" 
d="M152 600q-48 0 -45 58q2 29 21 47t50 18q66 0 61 -80q-4 -58 -48.5 -95.5t-110.5 -48.5l-4 20q111 22 127 106q-13 -25 -51 -25zM51 266l-40 1q11 95 53.5 157.5t117.5 62.5q97 0 102 -111q55 111 168 111q80 0 104.5 -57.5t-2.5 -145.5l-36 -139q-23 -85 5 -85
q30 0 47 136l41 -1q-9 -95 -52.5 -156.5t-125.5 -61.5q-54 0 -83 27t-31.5 72t12.5 102l32 107q35 119 -3 119q-31 0 -58 -59t-58 -216l-26 -130q-57 3 -89 3l-89 -3q40 173 67 322q9 49 9 66t-11 17q-18 0 -32.5 -38.5t-21.5 -99.5z" />
    <glyph glyph-name="Eng" unicode="&#x14a;" horiz-adv-x="827" 
d="M396 689q48 -110 202 -402q26 150 32 222q5 70 -53 70h-49q10 44 16 110q66 -2 160 -2l159 2q-10 -44 -16 -110h-32q-58 0 -73 -70q-14 -71 -40 -245t-36 -265q-25 -201 -255 -201q-74 0 -111 27.5t-26 73.5q6 28 26 43.5t49 15.5q33 0 46.5 -19t7.5 -46
q-6 -23 -26.5 -34t-45.5 -9q26 -16 67 -16q138 0 146 166q-55 0 -71 -1q-27 61 -221 443q-30 -175 -38 -261q-3 -32 12 -51t48 -19h42q-11 -49 -17 -113q-104 2 -161 2l-161 -2q6 26 17 113h28q64 0 79 70q11 48 30 170.5t21 164.5q2 32 -10 47.5t-47 15.5h-32q11 38 17 110
q158 -4 316 0z" />
    <glyph glyph-name="eng" unicode="&#x14b;" horiz-adv-x="587" 
d="M51 266l-40 1q11 95 53.5 157.5t117.5 62.5q97 0 102 -111q55 111 168 111q75 0 98.5 -54t0.5 -152l-64 -271q-26 -112 -94 -162t-178 -50q-72 0 -107.5 27.5t-24.5 73.5q5 28 25 43.5t49 15.5q33 0 47 -19t7 -46q-6 -25 -30.5 -36t-50.5 -5q16 -18 48 -18q51 0 76.5 43
t45.5 126l63 268q12 51 14.5 81t-2 41t-15.5 11q-27 0 -50.5 -44.5t-51.5 -160.5l-40 -200q-57 3 -89 3l-89 -3q40 173 67 322q9 49 9 66t-11 17q-18 0 -32.5 -38.5t-21.5 -99.5z" />
    <glyph glyph-name="Omacron" unicode="&#x14c;" horiz-adv-x="799" 
d="M336 763q15 50 17 93q46 -2 142.5 -2t142.5 2q-9 -33 -18 -93q-46 1 -142 1t-142 -1zM370 98q69 0 104.5 55.5t55.5 193.5q21 141 2.5 190.5t-85.5 49.5t-103 -52.5t-57 -188.5q-20 -140 -1.5 -194t84.5 -54zM354 -25q-166 0 -250.5 95.5t-58.5 275.5q28 184 138 274
t282 90q179 0 256.5 -92.5t50.5 -270.5q-28 -188 -141 -280t-277 -92z" />
    <glyph glyph-name="omacron" unicode="&#x14d;" horiz-adv-x="534" 
d="M188 538q15 50 17 93q46 -1 142.5 -1t142.5 1q-9 -33 -18 -93q-46 2 -142 2t-142 -2zM231 59q53 0 93 236q10 67 6.5 89t-26.5 22q-56 0 -92 -217q-12 -73 -7.5 -101.5t26.5 -28.5zM226 -23q-107 0 -160 60t-40 174q15 131 92 203.5t191 72.5q106 0 157.5 -55.5
t41.5 -167.5q-9 -128 -84 -207.5t-198 -79.5z" />
    <glyph glyph-name="Obreve" unicode="&#x14e;" horiz-adv-x="799" 
d="M370 98q69 0 104.5 55.5t55.5 193.5q21 141 2.5 190.5t-85.5 49.5t-103 -52.5t-57 -188.5q-20 -140 -1.5 -194t84.5 -54zM354 -25q-166 0 -250.5 95.5t-58.5 275.5q28 184 138 274t282 90q179 0 256.5 -92.5t50.5 -270.5q-28 -188 -141 -280t-277 -92zM478 746
q-74 0 -99 40.5t-6 104.5l30 1q-1 -28 20 -40.5t70 -12.5q48 0 73 12.5t32 40.5l29 -1q-1 -64 -38 -104.5t-111 -40.5z" />
    <glyph glyph-name="obreve" unicode="&#x14f;" horiz-adv-x="534" 
d="M231 59q53 0 93 236q10 67 6.5 89t-26.5 22q-56 0 -92 -217q-12 -73 -7.5 -101.5t26.5 -28.5zM226 -23q-107 0 -160 60t-40 174q15 131 92 203.5t191 72.5q106 0 157.5 -55.5t41.5 -167.5q-9 -128 -84 -207.5t-198 -79.5zM338 535q-74 0 -99 40.5t-6 104.5l30 1
q-1 -28 20 -40.5t70 -12.5q48 0 73 12.5t32 40.5l29 -1q-1 -64 -38 -104.5t-111 -40.5z" />
    <glyph glyph-name="Ohungarumlaut" unicode="&#x150;" horiz-adv-x="799" 
d="M363 743l-10 9q34 97 85 147q17 16 35 21t30.5 -1t20 -17.5t3 -29t-20.5 -34.5q-53 -59 -143 -95zM527 743l-10 9q34 99 85 147q17 16 35.5 21t31 -1t19.5 -17.5t2.5 -29t-20.5 -34.5q-53 -59 -143 -95zM370 98q69 0 104.5 55.5t55.5 193.5q21 141 2.5 190.5t-85.5 49.5
t-103 -52.5t-57 -188.5q-20 -140 -1.5 -194t84.5 -54zM354 -25q-166 0 -250.5 95.5t-58.5 275.5q28 184 138 274t282 90q179 0 256.5 -92.5t50.5 -270.5q-28 -188 -141 -280t-277 -92z" />
    <glyph glyph-name="ohungarumlaut" unicode="&#x151;" horiz-adv-x="534" 
d="M231 528l-10 9q34 97 85 147q17 16 35 21t30.5 -1t20 -17.5t3 -29t-20.5 -34.5q-53 -59 -143 -95zM395 528l-10 9q34 99 85 147q17 16 35.5 21t31 -1t19.5 -17.5t2.5 -29t-20.5 -34.5q-53 -59 -143 -95zM231 59q53 0 93 236q10 67 6.5 89t-26.5 22q-56 0 -92 -217
q-12 -73 -7.5 -101.5t26.5 -28.5zM226 -23q-107 0 -160 60t-40 174q15 131 92 203.5t191 72.5q106 0 157.5 -55.5t41.5 -167.5q-9 -128 -84 -207.5t-198 -79.5z" />
    <glyph glyph-name="OE" unicode="&#x152;" horiz-adv-x="1122" 
d="M843 466l5 32h86q-22 -108 -29 -152q-12 -78 -16 -153h-84l4 29q7 50 -6 70t-61 20h-25q-17 -120 -18 -143q-2 -35 12 -46.5t44 -11.5h81q69 0 99 31t45 125l1 10q59 -2 121 0q-25 -104 -50 -281q-46 4 -216 4h-324q-72 -25 -158 -25q-166 0 -250.5 95.5t-58.5 275.5
q28 184 138 274t282 90q92 0 152 -23h69q22 0 87.5 0.5t145.5 0.5q185 0 241 7q-33 -140 -45 -263q-47 2 -114 -1l3 16q15 83 -8.5 107t-90.5 24h-81q-31 0 -47 -12t-24 -45q-7 -29 -25 -141h26q45 0 64 20t25 66zM478 127q7 30 34.5 205t33.5 218q-23 38 -92 38
q-72 0 -109 -52t-58 -190q-21 -140 -1.5 -194t89.5 -54q27 0 59 9.5t44 19.5z" />
    <glyph glyph-name="oe" unicode="&#x153;" horiz-adv-x="771" 
d="M493 -23q-80 0 -133 41q-56 -41 -134 -41q-107 0 -160 60t-40 174q15 131 92 203.5t191 72.5q86 0 143 -44q62 44 135 44q95 0 136.5 -43t28.5 -114q-13 -75 -76.5 -101.5t-175.5 -23.5q-12 -69 -2.5 -95t42.5 -26q31 0 49.5 21.5t30.5 72.5q89 -4 109 -3
q-18 -96 -71.5 -147t-164.5 -51zM231 59q53 0 93 236q10 67 6.5 89t-26.5 22q-56 0 -92 -217q-12 -73 -7.5 -101.5t26.5 -28.5zM584 416q-22 0 -36.5 -31.5t-39.5 -142.5q39 0 57.5 16t30.5 64q22 94 -12 94z" />
    <glyph glyph-name="Racute" unicode="&#x154;" horiz-adv-x="811" 
d="M399 743l-8 12q64 92 129 128q40 16 67 6t25 -39.5t-39 -50.5q-76 -46 -174 -56zM655 180q0 -50 6.5 -70.5t22.5 -20.5q18 0 24.5 35t1.5 76l58 5q5 -62 -9 -111t-57 -83t-112 -34q-106 0 -140 45.5t-26 136.5q7 80 -15 108t-80 28h-14q-16 -108 -16 -129
q-1 -29 10.5 -42t38.5 -13h31q-4 -18 -17 -113q-123 2 -192 2l-187 -2q10 47 16 113h26q29 0 39.5 9.5t19.5 43.5q7 28 31 178.5t26 180.5q2 31 -7 43.5t-36 12.5h-32q11 48 16 110q6 0 98 -1t109 -1q24 0 92.5 0.5t87.5 0.5q150 0 214 -48t55 -140q-7 -72 -56 -116
t-122 -60q51 -14 72.5 -50.5t22.5 -93.5zM356 537q-5 -16 -30 -170h56q59 0 88 26t38 84q14 104 -78 104h-18q-24 0 -36.5 -10.5t-19.5 -33.5z" />
    <glyph glyph-name="racute" unicode="&#x155;" horiz-adv-x="487" 
d="M282 528l-8 12q64 92 129 128q40 16 67 6t25 -39.5t-39 -50.5q-76 -46 -174 -56zM327 342q8 32 32 45.5t53 10.5q-8 20 -35 20q-72 0 -100 -125q-51 -237 -60 -295q-57 2 -88 2l-89 -2q3 12 64 310q14 78 11 89q-2 7 -9 7q-19 0 -33.5 -38.5t-21.5 -99.5l-40 1
q11 95 53.5 157.5t117.5 62.5q90 0 100 -96q21 51 54 73.5t69 22.5q52 0 76.5 -32.5t15.5 -92.5q-14 -106 -99 -106q-35 0 -57.5 23.5t-13.5 62.5z" />
    <glyph glyph-name="Rcommaaccent" unicode="&#x156;" horiz-adv-x="811" 
d="M292 -176q-48 0 -45 58q2 29 21 47t50 18q66 0 61 -80q-4 -58 -48.5 -95.5t-110.5 -48.5l-4 20q111 22 127 106q-13 -25 -51 -25zM655 180q0 -50 6.5 -70.5t22.5 -20.5q18 0 24.5 35t1.5 76l58 5q5 -62 -9 -111t-57 -83t-112 -34q-106 0 -140 45.5t-26 136.5
q7 80 -15 108t-80 28h-14q-16 -108 -16 -129q-1 -29 10.5 -42t38.5 -13h31q-4 -18 -17 -113q-123 2 -192 2l-187 -2q10 47 16 113h26q29 0 39.5 9.5t19.5 43.5q7 28 31 178.5t26 180.5q2 31 -7 43.5t-36 12.5h-32q11 48 16 110q6 0 98 -1t109 -1q24 0 92.5 0.5t87.5 0.5
q150 0 214 -48t55 -140q-7 -72 -56 -116t-122 -60q51 -14 72.5 -50.5t22.5 -93.5zM356 537q-5 -16 -30 -170h56q59 0 88 26t38 84q14 104 -78 104h-18q-24 0 -36.5 -10.5t-19.5 -33.5z" />
    <glyph glyph-name="rcommaaccent" unicode="&#x157;" horiz-adv-x="483" 
d="M86 -176q-48 0 -45 58q2 29 21 47t50 18q66 0 61 -80q-4 -58 -48.5 -95.5t-110.5 -48.5l-4 20q111 22 127 106q-13 -25 -51 -25zM327 342q8 32 32 45.5t53 10.5q-8 20 -35 20q-72 0 -100 -125q-51 -237 -60 -295q-57 2 -88 2l-89 -2q3 12 64 310q14 78 11 89q-2 7 -9 7
q-19 0 -33.5 -38.5t-21.5 -99.5l-40 1q11 95 53.5 157.5t117.5 62.5q90 0 100 -96q21 51 54 73.5t69 22.5q52 0 76.5 -32.5t15.5 -92.5q-14 -106 -99 -106q-35 0 -57.5 23.5t-13.5 62.5z" />
    <glyph glyph-name="Rcaron" unicode="&#x158;" horiz-adv-x="811" 
d="M309 895l13 11q60 -22 122 -81q29 24 74 48.5t74 31.5l9 -10q-19 -44 -55 -84t-73 -65h-77q-25 25 -50.5 66.5t-36.5 82.5zM655 180q0 -50 6.5 -70.5t22.5 -20.5q18 0 24.5 35t1.5 76l58 5q5 -62 -9 -111t-57 -83t-112 -34q-106 0 -140 45.5t-26 136.5q7 80 -15 108
t-80 28h-14q-16 -108 -16 -129q-1 -29 10.5 -42t38.5 -13h31q-4 -18 -17 -113q-123 2 -192 2l-187 -2q10 47 16 113h26q29 0 39.5 9.5t19.5 43.5q7 28 31 178.5t26 180.5q2 31 -7 43.5t-36 12.5h-32q11 48 16 110q6 0 98 -1t109 -1q24 0 92.5 0.5t87.5 0.5q150 0 214 -48
t55 -140q-7 -72 -56 -116t-122 -60q51 -14 72.5 -50.5t22.5 -93.5zM356 537q-5 -16 -30 -170h56q59 0 88 26t38 84q14 104 -78 104h-18q-24 0 -36.5 -10.5t-19.5 -33.5z" />
    <glyph glyph-name="rcaron" unicode="&#x159;" horiz-adv-x="487" 
d="M164 680l13 11q60 -22 122 -81q29 24 74 48.5t74 31.5l9 -10q-19 -44 -55 -84t-73 -65h-77q-25 25 -50.5 66.5t-36.5 82.5zM327 342q8 32 32 45.5t53 10.5q-8 20 -35 20q-72 0 -100 -125q-51 -237 -60 -295q-57 2 -88 2l-89 -2q3 12 64 310q14 78 11 89q-2 7 -9 7
q-19 0 -33.5 -38.5t-21.5 -99.5l-40 1q11 95 53.5 157.5t117.5 62.5q90 0 100 -96q21 51 54 73.5t69 22.5q52 0 76.5 -32.5t15.5 -92.5q-14 -106 -99 -106q-35 0 -57.5 23.5t-13.5 62.5z" />
    <glyph glyph-name="Sacute" unicode="&#x15a;" horiz-adv-x="693" 
d="M368 743l-8 12q64 92 129 128q40 16 67 6t25 -39.5t-39 -50.5q-76 -46 -174 -56zM384 610q-133 0 -143 -67q-5 -36 25 -52.5t119 -20.5q154 -6 218.5 -81t44.5 -198q-16 -99 -97 -157t-209 -58q-117 0 -204 52q-46 27 -61 -29q-15 1 -47 1t-46 -1q39 85 49 230
q14 -1 44 -1t44 1q5 -145 213 -145q137 0 144 70q4 37 -27 54.5t-120 22.5q-138 5 -207.5 78.5t-49.5 189.5q18 108 99 160.5t203 50.5q91 -1 170 -42q27 -13 42 -7t24 36q14 -1 43 -1t43 1q-37 -79 -45 -213q-41 2 -81 0q-9 55 -59 90.5t-129 35.5z" />
    <glyph glyph-name="sacute" unicode="&#x15b;" horiz-adv-x="453" 
d="M249 528l-8 12q64 92 129 128q40 16 67 6t25 -39.5t-39 -50.5q-76 -46 -174 -56zM311 443q-81 0 -94 -41q-10 -28 7 -48t73 -39q59 -20 90.5 -54t34 -74t-12.5 -86q-46 -124 -224 -124q-98 0 -147 32.5t-36 85.5q6 24 24.5 38t45.5 14q31 0 46 -19.5t7 -47.5
q-11 -38 -56 -40q32 -17 80 -17q88 0 100 50q7 27 -9 48t-69 40q-157 58 -104 202q19 53 74.5 88.5t139.5 35.5q90 0 135.5 -32t33.5 -83q-11 -45 -66 -45q-31 0 -46.5 18.5t-6.5 45.5q10 33 43 40q-33 12 -63 12z" />
    <glyph glyph-name="Scircumflex" unicode="&#x15c;" horiz-adv-x="693" 
d="M536 753l-13 -11q-70 26 -123 78q-27 -23 -72 -46.5t-75 -30.5l-9 11q19 42 56.5 82t76.5 66h77q24 -24 47 -65.5t35 -83.5zM384 610q-133 0 -143 -67q-5 -36 25 -52.5t119 -20.5q154 -6 218.5 -81t44.5 -198q-16 -99 -97 -157t-209 -58q-117 0 -204 52q-46 27 -61 -29
q-15 1 -47 1t-46 -1q39 85 49 230q14 -1 44 -1t44 1q5 -145 213 -145q137 0 144 70q4 37 -27 54.5t-120 22.5q-138 5 -207.5 78.5t-49.5 189.5q18 108 99 160.5t203 50.5q91 -1 170 -42q27 -13 42 -7t24 36q14 -1 43 -1t43 1q-37 -79 -45 -213q-41 2 -81 0q-9 55 -59 90.5
t-129 35.5z" />
    <glyph glyph-name="scircumflex" unicode="&#x15d;" horiz-adv-x="453" 
d="M438 538l-13 -11q-70 26 -123 78q-27 -23 -72 -46.5t-75 -30.5l-9 11q19 42 56.5 82t76.5 66h77q24 -24 47 -65.5t35 -83.5zM311 443q-81 0 -94 -41q-10 -28 7 -48t73 -39q59 -20 90.5 -54t34 -74t-12.5 -86q-46 -124 -224 -124q-98 0 -147 32.5t-36 85.5q6 24 24.5 38
t45.5 14q31 0 46 -19.5t7 -47.5q-11 -38 -56 -40q32 -17 80 -17q88 0 100 50q7 27 -9 48t-69 40q-157 58 -104 202q19 53 74.5 88.5t139.5 35.5q90 0 135.5 -32t33.5 -83q-11 -45 -66 -45q-31 0 -46.5 18.5t-6.5 45.5q10 33 43 40q-33 12 -63 12z" />
    <glyph glyph-name="Scedilla" unicode="&#x15e;" horiz-adv-x="693" 
d="M263 -108l-11 25q50 20 65 60q-104 6 -179 51q-46 27 -61 -29q-15 1 -47 1t-46 -1q39 85 49 230q14 -1 44 -1t44 1q5 -145 213 -145q137 0 144 70q4 37 -27 54.5t-120 22.5q-138 5 -207.5 78.5t-49.5 189.5q18 108 99 160.5t203 50.5q91 -1 170 -42q27 -13 42 -7t24 36
q14 -1 43 -1t43 1q-37 -79 -45 -213q-41 2 -81 0q-9 55 -59 90.5t-129 35.5q-133 0 -143 -67q-5 -36 25 -52.5t119 -20.5q154 -6 218.5 -81t44.5 -198q-16 -96 -93.5 -154t-199.5 -61q-5 -23 -24 -42q45 2 76.5 -18.5t30.5 -61.5q-1 -43 -35 -68.5t-90 -25.5q-75 0 -113 58
l24 23q27 -33 65 -33q51 0 53 46q1 30 -23 40.5t-56 -2.5z" />
    <glyph glyph-name="scedilla" unicode="&#x15f;" horiz-adv-x="453" 
d="M115 -108l-11 25q50 20 65 61q-90 2 -134.5 34t-32.5 83q6 24 24.5 38t45.5 14q31 0 46 -19.5t7 -47.5q-11 -38 -56 -40q32 -17 80 -17q88 0 100 50q7 27 -9 48t-69 40q-157 58 -104 202q19 53 74.5 88.5t139.5 35.5q90 0 135.5 -32t33.5 -83q-11 -45 -66 -45
q-31 0 -46.5 18.5t-6.5 45.5q10 33 43 40q-33 12 -63 12q-81 0 -94 -41q-10 -28 7 -48t73 -39q59 -20 90.5 -54t34 -74t-12.5 -86q-42 -114 -202 -123q-5 -25 -24 -44q45 2 76.5 -18.5t30.5 -61.5q-1 -43 -35 -68.5t-90 -25.5q-75 0 -113 58l24 23q27 -33 65 -33q51 0 53 46
q1 30 -23 40.5t-56 -2.5z" />
    <glyph glyph-name="Scaron" unicode="&#x160;" horiz-adv-x="693" 
d="M285 895l13 11q60 -22 122 -81q29 24 74 48.5t74 31.5l9 -10q-19 -44 -55 -84t-73 -65h-77q-25 25 -50.5 66.5t-36.5 82.5zM384 610q-133 0 -143 -67q-5 -36 25 -52.5t119 -20.5q154 -6 218.5 -81t44.5 -198q-16 -99 -97 -157t-209 -58q-117 0 -204 52q-46 27 -61 -29
q-15 1 -47 1t-46 -1q39 85 49 230q14 -1 44 -1t44 1q5 -145 213 -145q137 0 144 70q4 37 -27 54.5t-120 22.5q-138 5 -207.5 78.5t-49.5 189.5q18 108 99 160.5t203 50.5q91 -1 170 -42q27 -13 42 -7t24 36q14 -1 43 -1t43 1q-37 -79 -45 -213q-41 2 -81 0q-9 55 -59 90.5
t-129 35.5z" />
    <glyph glyph-name="scaron" unicode="&#x161;" horiz-adv-x="453" 
d="M167 680l13 11q60 -22 122 -81q29 24 74 48.5t74 31.5l9 -10q-19 -44 -55 -84t-73 -65h-77q-25 25 -50.5 66.5t-36.5 82.5zM311 443q-81 0 -94 -41q-10 -28 7 -48t73 -39q59 -20 90.5 -54t34 -74t-12.5 -86q-46 -124 -224 -124q-98 0 -147 32.5t-36 85.5q6 24 24.5 38
t45.5 14q31 0 46 -19.5t7 -47.5q-11 -38 -56 -40q32 -17 80 -17q88 0 100 50q7 27 -9 48t-69 40q-157 58 -104 202q19 53 74.5 88.5t139.5 35.5q90 0 135.5 -32t33.5 -83q-11 -45 -66 -45q-31 0 -46.5 18.5t-6.5 45.5q10 33 43 40q-33 12 -63 12z" />
    <glyph glyph-name="Tcommaaccent" unicode="&#x162;" horiz-adv-x="744" 
d="M260 -108l-11 25q60 23 71 83l-198 -2q10 42 16 113h31q33 0 50.5 14.5t24.5 45.5q28 130 61 395h-45q-37 0 -57.5 -23t-30.5 -70l-16 -73q-56 4 -114 0q25 163 38 292q75 -5 198 -5h304q22 0 197 5q-34 -170 -49 -292q-57 4 -114 0l8 73q10 93 -60 93h-47
q-51 -276 -59 -395q-5 -60 56 -60h32q-10 -42 -16 -113q-103 2 -177 2q3 -39 -25 -66q45 2 76.5 -18.5t30.5 -61.5q-1 -43 -35 -68.5t-90 -25.5q-75 0 -113 58l24 23q27 -33 65 -33q51 0 53 46q1 30 -23 40.5t-56 -2.5z" />
    <glyph glyph-name="tcommaaccent" unicode="&#x163;" horiz-adv-x="378" 
d="M85 -108l-11 25q51 20 66 62q-119 13 -95 164q1 5 52 271h-35l6 53q49 0 82.5 10t55 32.5t34 47t25.5 65.5h62q-10 -36 -30 -157l85 2l-9 -53l-85 1q-35 -185 -41 -231q-11 -73 -10 -98t19 -25q14 0 27 37.5t20 97.5l40 -1q-8 -96 -48.5 -155t-117.5 -63q-4 -23 -24 -43
q45 2 76.5 -18.5t30.5 -61.5q-1 -43 -35 -68.5t-90 -25.5q-75 0 -113 58l24 23q27 -33 65 -33q51 0 53 46q1 30 -23 40.5t-56 -2.5z" />
    <glyph glyph-name="Tcaron" unicode="&#x164;" horiz-adv-x="744" 
d="M303 895l13 11q60 -22 122 -81q29 24 74 48.5t74 31.5l9 -10q-19 -44 -55 -84t-73 -65h-77q-25 25 -50.5 66.5t-36.5 82.5zM564 566h-47q-51 -276 -59 -395q-5 -60 56 -60h32q-10 -42 -16 -113q-131 2 -204 2l-204 -2q10 42 16 113h31q33 0 50.5 14.5t24.5 45.5
q28 130 61 395h-45q-37 0 -57.5 -23t-30.5 -70l-16 -73q-56 4 -114 0q25 163 38 292q75 -5 198 -5h304q22 0 197 5q-34 -170 -49 -292q-57 4 -114 0l8 73q10 93 -60 93z" />
    <glyph glyph-name="tcaron" unicode="&#x165;" horiz-adv-x="504" 
d="M449 588q-48 0 -45 58q2 29 21 47t50 18q66 0 61 -80q-4 -58 -48.5 -95.5t-110.5 -48.5l-4 20q111 22 127 106q-13 -25 -51 -25zM303 196l40 -1q-8 -100 -51 -159t-126 -59q-149 0 -121 166q0 3 52 271h-35l6 53q49 0 82.5 10t55 32.5t34 47t25.5 65.5h62
q-10 -36 -30 -157l85 2l-9 -53l-85 1q-35 -185 -41 -231q-11 -73 -10 -98t19 -25q14 0 27 37.5t20 97.5z" />
    <glyph glyph-name="Tbar" unicode="&#x166;" horiz-adv-x="744" 
d="M564 566h-47q-20 -108 -41 -246q27 2 63.5 3.5t37.5 1.5l-10 -60q-12 0 -98 4q-10 -86 -11 -98q-5 -60 56 -60h32q-10 -42 -16 -113q-131 2 -204 2l-204 -2q10 42 16 113h31q33 0 50.5 14.5t24.5 45.5q6 25 18 99q-75 -5 -102 -5l10 60q27 0 100 -5q24 154 35 246h-45
q-37 0 -57.5 -23t-30.5 -70l-16 -73q-56 4 -114 0q25 163 38 292q75 -5 198 -5h304q22 0 197 5q-34 -170 -49 -292q-57 4 -114 0l8 73q10 93 -60 93z" />
    <glyph glyph-name="tbar" unicode="&#x167;" horiz-adv-x="375" 
d="M303 196l40 -1q-8 -100 -51 -159t-126 -59q-149 0 -121 166q5 40 25 133q-15 -2 -38 -2l7 48q7 0 39 -2l19 94h-35l6 53q49 0 82.5 10t55 32.5t34 47t25.5 65.5h62q-10 -36 -30 -157l85 2l-9 -53l-85 1q-11 -56 -18 -98l85 5l-10 -48q-21 0 -83 5l-15 -95
q-11 -73 -10 -98t19 -25q14 0 27 37.5t20 97.5z" />
    <glyph glyph-name="Utilde" unicode="&#x168;" horiz-adv-x="816" 
d="M97 264q35 218 38 256q2 31 -7.5 45t-36.5 14h-25q10 44 16 110q129 -2 199 -2q42 0 118.5 1t77.5 1q-12 -51 -17 -110h-36q-52 0 -68 -59q-2 -10 -37 -252q-12 -86 12 -122.5t87 -36.5q62 0 97 36t50 123q31 175 37 252q5 59 -49 59h-31q10 44 16 110q102 -2 159 -2
q34 0 95 1t64 1q-5 -22 -17 -110h-25q-49 0 -61 -59q-5 -23 -20.5 -134.5t-17.5 -121.5q-44 -288 -343 -288q-162 0 -231 65.5t-44 222.5zM637 864l30 1q8 -69 -23.5 -100t-85.5 -29q-38 1 -60 17t-43 50q-12 21 -20.5 28t-21.5 7q-38 0 -31 -75l-30 -1q-9 71 21 102t88 29
q36 -1 58.5 -16.5t43.5 -50.5q12 -21 20.5 -28t21.5 -7q39 0 32 73z" />
    <glyph glyph-name="utilde" unicode="&#x169;" horiz-adv-x="629" 
d="M576 196l41 -1q-9 -92 -51.5 -155t-114.5 -63q-57 0 -83.5 25.5t-26.5 86.5q-53 -112 -161 -112q-151 0 -103 204l34 133q6 23 9 38.5t4 28t-2 18t-10 5.5q-20 0 -34.5 -38.5t-20.5 -99.5l-40 1q12 96 53.5 158t117.5 62q155 0 104 -200l-27 -107q-15 -62 -14 -90.5
t20 -28.5q55 0 101 218l40 189q57 -1 89 -1l88 1q-36 -163 -65 -318q-5 -25 -7 -38t-3 -27t2 -19.5t10 -5.5q31 0 50 136zM486 649l30 1q8 -69 -23.5 -100t-85.5 -29q-38 1 -60 17t-43 50q-12 21 -20.5 28t-21.5 7q-38 0 -31 -75l-30 -1q-9 71 21 102t88 29
q36 -1 58.5 -16.5t43.5 -50.5q12 -21 20.5 -28t21.5 -7q39 0 32 73z" />
    <glyph glyph-name="Umacron" unicode="&#x16a;" horiz-adv-x="816" 
d="M97 264q35 218 38 256q2 31 -7.5 45t-36.5 14h-25q10 44 16 110q129 -2 199 -2q42 0 118.5 1t77.5 1q-12 -51 -17 -110h-36q-52 0 -68 -59q-2 -10 -37 -252q-12 -86 12 -122.5t87 -36.5q62 0 97 36t50 123q31 175 37 252q5 59 -49 59h-31q10 44 16 110q102 -2 159 -2
q34 0 95 1t64 1q-5 -22 -17 -110h-25q-49 0 -61 -59q-5 -23 -20.5 -134.5t-17.5 -121.5q-44 -288 -343 -288q-162 0 -231 65.5t-44 222.5zM373 763q15 50 17 93q46 -2 142.5 -2t142.5 2q-9 -33 -18 -93q-46 1 -142 1t-142 -1z" />
    <glyph glyph-name="umacron" unicode="&#x16b;" horiz-adv-x="629" 
d="M576 196l41 -1q-9 -92 -51.5 -155t-114.5 -63q-57 0 -83.5 25.5t-26.5 86.5q-53 -112 -161 -112q-151 0 -103 204l34 133q6 23 9 38.5t4 28t-2 18t-10 5.5q-20 0 -34.5 -38.5t-20.5 -99.5l-40 1q12 96 53.5 158t117.5 62q155 0 104 -200l-27 -107q-15 -62 -14 -90.5
t20 -28.5q55 0 101 218l40 189q57 -1 89 -1l88 1q-36 -163 -65 -318q-5 -25 -7 -38t-3 -27t2 -19.5t10 -5.5q31 0 50 136zM220 538q15 50 17 93q46 -1 142.5 -1t142.5 1q-9 -33 -18 -93q-46 2 -142 2t-142 -2z" />
    <glyph glyph-name="Ubreve" unicode="&#x16c;" horiz-adv-x="816" 
d="M97 264q35 218 38 256q2 31 -7.5 45t-36.5 14h-25q10 44 16 110q129 -2 199 -2q42 0 118.5 1t77.5 1q-12 -51 -17 -110h-36q-52 0 -68 -59q-2 -10 -37 -252q-12 -86 12 -122.5t87 -36.5q62 0 97 36t50 123q31 175 37 252q5 59 -49 59h-31q10 44 16 110q102 -2 159 -2
q34 0 95 1t64 1q-5 -22 -17 -110h-25q-49 0 -61 -59q-5 -23 -20.5 -134.5t-17.5 -121.5q-44 -288 -343 -288q-162 0 -231 65.5t-44 222.5zM499 746q-74 0 -99 40.5t-6 104.5l30 1q-1 -28 20 -40.5t70 -12.5q48 0 73 12.5t32 40.5l29 -1q-1 -64 -38 -104.5t-111 -40.5z" />
    <glyph glyph-name="ubreve" unicode="&#x16d;" horiz-adv-x="629" 
d="M576 196l41 -1q-9 -92 -51.5 -155t-114.5 -63q-57 0 -83.5 25.5t-26.5 86.5q-53 -112 -161 -112q-151 0 -103 204l34 133q6 23 9 38.5t4 28t-2 18t-10 5.5q-20 0 -34.5 -38.5t-20.5 -99.5l-40 1q12 96 53.5 158t117.5 62q155 0 104 -200l-27 -107q-15 -62 -14 -90.5
t20 -28.5q55 0 101 218l40 189q57 -1 89 -1l88 1q-36 -163 -65 -318q-5 -25 -7 -38t-3 -27t2 -19.5t10 -5.5q31 0 50 136zM354 535q-74 0 -99 40.5t-6 104.5l30 1q-1 -28 20 -40.5t70 -12.5q48 0 73 12.5t32 40.5l29 -1q-1 -64 -38 -104.5t-111 -40.5z" />
    <glyph glyph-name="Uring" unicode="&#x16e;" horiz-adv-x="816" 
d="M479 838q-2 -23 9 -35.5t32 -12.5q46 0 51 48q3 24 -8.5 37t-32.5 13t-34.5 -13t-16.5 -37zM432 838q5 42 32 67.5t70 25.5q41 0 64.5 -26t19.5 -67q-5 -41 -32 -66.5t-70 -25.5q-41 0 -64.5 26t-19.5 66zM97 264q35 218 38 256q2 31 -7.5 45t-36.5 14h-25q10 44 16 110
q129 -2 199 -2q42 0 118.5 1t77.5 1q-12 -51 -17 -110h-36q-52 0 -68 -59q-2 -10 -37 -252q-12 -86 12 -122.5t87 -36.5q62 0 97 36t50 123q31 175 37 252q5 59 -49 59h-31q10 44 16 110q102 -2 159 -2q34 0 95 1t64 1q-5 -22 -17 -110h-25q-49 0 -61 -59
q-5 -23 -20.5 -134.5t-17.5 -121.5q-44 -288 -343 -288q-162 0 -231 65.5t-44 222.5z" />
    <glyph glyph-name="uring" unicode="&#x16f;" horiz-adv-x="629" 
d="M323 618q-2 -23 9 -35.5t32 -12.5q46 0 51 48q3 24 -8.5 37t-32.5 13t-34.5 -13t-16.5 -37zM276 618q5 42 32 67.5t70 25.5q41 0 64.5 -26t19.5 -67q-5 -41 -32 -66.5t-70 -25.5q-41 0 -64.5 26t-19.5 66zM576 196l41 -1q-9 -92 -51.5 -155t-114.5 -63q-57 0 -83.5 25.5
t-26.5 86.5q-53 -112 -161 -112q-151 0 -103 204l34 133q6 23 9 38.5t4 28t-2 18t-10 5.5q-20 0 -34.5 -38.5t-20.5 -99.5l-40 1q12 96 53.5 158t117.5 62q155 0 104 -200l-27 -107q-15 -62 -14 -90.5t20 -28.5q55 0 101 218l40 189q57 -1 89 -1l88 1q-36 -163 -65 -318
q-5 -25 -7 -38t-3 -27t2 -19.5t10 -5.5q31 0 50 136z" />
    <glyph glyph-name="Uhungarumlaut" unicode="&#x170;" horiz-adv-x="816" 
d="M97 264q35 218 38 256q2 31 -7.5 45t-36.5 14h-25q10 44 16 110q129 -2 199 -2q42 0 118.5 1t77.5 1q-12 -51 -17 -110h-36q-52 0 -68 -59q-2 -10 -37 -252q-12 -86 12 -122.5t87 -36.5q62 0 97 36t50 123q31 175 37 252q5 59 -49 59h-31q10 44 16 110q102 -2 159 -2
q34 0 95 1t64 1q-5 -22 -17 -110h-25q-49 0 -61 -59q-5 -23 -20.5 -134.5t-17.5 -121.5q-44 -288 -343 -288q-162 0 -231 65.5t-44 222.5zM414 743l-10 9q34 97 85 147q17 16 35 21t30.5 -1t20 -17.5t3 -29t-20.5 -34.5q-53 -59 -143 -95zM578 743l-10 9q34 99 85 147
q17 16 35.5 21t31 -1t19.5 -17.5t2.5 -29t-20.5 -34.5q-53 -59 -143 -95z" />
    <glyph glyph-name="uhungarumlaut" unicode="&#x171;" horiz-adv-x="629" 
d="M576 196l41 -1q-9 -92 -51.5 -155t-114.5 -63q-57 0 -83.5 25.5t-26.5 86.5q-53 -112 -161 -112q-151 0 -103 204l34 133q6 23 9 38.5t4 28t-2 18t-10 5.5q-20 0 -34.5 -38.5t-20.5 -99.5l-40 1q12 96 53.5 158t117.5 62q155 0 104 -200l-27 -107q-15 -62 -14 -90.5
t20 -28.5q55 0 101 218l40 189q57 -1 89 -1l88 1q-36 -163 -65 -318q-5 -25 -7 -38t-3 -27t2 -19.5t10 -5.5q31 0 50 136zM266 528l-10 9q34 97 85 147q17 16 35 21t30.5 -1t20 -17.5t3 -29t-20.5 -34.5q-53 -59 -143 -95zM430 528l-10 9q34 99 85 147q17 16 35.5 21t31 -1
t19.5 -17.5t2.5 -29t-20.5 -34.5q-53 -59 -143 -95z" />
    <glyph glyph-name="Uogonek" unicode="&#x172;" horiz-adv-x="816" 
d="M97 264q35 218 38 256q2 31 -7.5 45t-36.5 14h-25q10 44 16 110q129 -2 199 -2q42 0 118.5 1t77.5 1q-12 -51 -17 -110h-36q-52 0 -68 -59q-2 -10 -37 -252q-12 -86 12 -122.5t87 -36.5q62 0 97 36t50 123q31 175 37 252q5 59 -49 59h-31q10 44 16 110q102 -2 159 -2
q34 0 95 1t64 1q-5 -22 -17 -110h-25q-49 0 -61 -59q-5 -23 -20.5 -134.5t-17.5 -121.5q-42 -274 -313 -287q-17 -27 -17 -48q-2 -44 44 -44q53 0 69 58l36 -5q-9 -144 -139 -144q-48 0 -78 23t-26 69q5 55 59 90q-150 4 -214 70t-39 218z" />
    <glyph glyph-name="uogonek" unicode="&#x173;" horiz-adv-x="629" 
d="M640 -62q-9 -144 -139 -144q-48 0 -78 23t-26 69q5 56 64 92q-6 -1 -20 -1q-99 0 -99 114q-53 -114 -162 -114q-151 0 -103 204l34 133q6 23 9 38.5t4 28t-2 18t-10 5.5q-20 0 -34.5 -38.5t-20.5 -99.5l-40 1q12 96 53.5 158t117.5 62q155 0 104 -200l-27 -107
q-15 -62 -14 -90.5t20 -28.5q49 0 101 218l40 189q57 -1 89 -1l88 1q-36 -163 -65 -318q-5 -25 -7 -38t-3 -27t2 -19.5t10 -5.5q31 0 50 136l41 -1q-11 -116 -72 -176q-53 -51 -54 -90q-2 -44 44 -44q53 0 69 58z" />
    <glyph glyph-name="Wcircumflex" unicode="&#x174;" horiz-adv-x="1156" 
d="M862 753l-13 -11q-70 26 -123 78q-27 -23 -72 -46.5t-75 -30.5l-9 11q19 42 56.5 82t76.5 66h77q24 -24 47 -65.5t35 -83.5zM838 -6q-116 4 -230 0q-10 110 -38 336q-98 -225 -142 -336q-104 4 -208 0q-33 341 -60 519q-5 35 -21 50.5t-55 15.5h-24q12 51 17 110
q133 -2 208 -2q33 0 81.5 0.5t85 1t40.5 0.5q-5 -22 -17 -110h-23q-29 0 -39 -15.5t-8 -50.5q2 -45 36 -313q93 210 131 314q23 65 -32 65h-19q12 44 18 110q108 -2 169 -2q36 0 102 1t67 1q-12 -51 -17 -110h-23q-25 0 -35.5 -14.5t-9.5 -49.5q8 -114 38 -320
q92 213 127 315q23 69 -30 69h-22q12 44 18 110q90 -2 140 -2q30 0 83.5 1t56.5 1q-12 -51 -17 -110h-30q-37 0 -59.5 -14t-42.5 -55q-72 -151 -216 -516z" />
    <glyph glyph-name="wcircumflex" unicode="&#x175;" horiz-adv-x="766" 
d="M649 538l-13 -11q-70 26 -123 78q-27 -23 -72 -46.5t-75 -30.5l-9 11q19 42 56.5 82t76.5 66h77q24 -24 47 -65.5t35 -83.5zM176 -23q-151 0 -99 204l35 142q24 81 -2 81q-18 0 -33.5 -39.5t-22.5 -98.5l-40 1q11 95 53.5 157.5t117.5 62.5q84 0 112 -56.5t3 -143.5
l-30 -107q-34 -119 4 -119q46 0 85 177l50 231q60 -2 93 -2l94 2q-10 -32 -22.5 -81.5t-28 -116t-21.5 -90.5q-16 -63 -11.5 -91.5t32.5 -28.5q46 0 83 68t49 156q5 34 3 72h-3q-26 0 -42 19t-12 50t22 46.5t42 14.5q77 -2 52 -159q-10 -59 -30 -116.5t-51.5 -112.5
t-80.5 -88.5t-107 -33.5q-127 0 -134 112q-57 -112 -160 -112z" />
    <glyph glyph-name="Ycircumflex" unicode="&#x176;" horiz-adv-x="852" 
d="M707 503q-80 -110 -175 -263l-10 -70q-4 -31 6.5 -45t44.5 -14h38q-10 -45 -16 -113q-139 2 -218 2l-219 -2q10 44 16 113h34q36 0 50.5 13t18.5 44l10 70q-57 173 -101 279q-14 34 -36.5 48t-69.5 14h-17q13 48 16 110q146 -2 228 -2l228 1q-13 -49 -16 -109h-23
q-65 0 -42 -93q12 -44 50 -140q68 100 88 140q16 30 21.5 49t-1.5 31.5t-30 12.5h-20q13 48 16 110q102 -2 160 -2l158 2q-13 -48 -16 -110h-17q-65 0 -96.5 -18t-59.5 -58zM702 753l-13 -11q-70 26 -123 78q-27 -23 -72 -46.5t-75 -30.5l-9 11q19 42 56.5 82t76.5 66h77
q24 -24 47 -65.5t35 -83.5z" />
    <glyph glyph-name="ycircumflex" unicode="&#x177;" horiz-adv-x="590" 
d="M57 266l-40 1q11 95 53 157.5t117 62.5q154 0 104 -200l-26 -107q-15 -51 -13.5 -85t19.5 -34q47 0 96 194l44 214q28 -2 88 -2l86 2q-57 -266 -85 -426q-44 -245 -298 -245q-83 0 -121.5 28.5t-35.5 69.5q3 33 23 50.5t50 17.5q26 0 42.5 -14t15.5 -38q-1 -29 -22 -45
t-49 -13q30 -23 79 -23q18 0 33.5 3.5t27.5 12t21 17t16.5 24.5t12 27.5t10 33t8 35t7 39t7.5 39.5q-54 -85 -147 -85q-155 0 -103 204l33 133q6 25 9 40t4 27t-1.5 17.5t-9.5 5.5q-39 0 -55 -138zM499 538l-13 -11q-70 26 -123 78q-27 -23 -72 -46.5t-75 -30.5l-9 11
q19 42 56.5 82t76.5 66h77q24 -24 47 -65.5t35 -83.5z" />
    <glyph glyph-name="Ydieresis" unicode="&#x178;" horiz-adv-x="852" 
d="M707 503q-80 -110 -175 -263l-10 -70q-4 -31 6.5 -45t44.5 -14h38q-10 -45 -16 -113q-139 2 -218 2l-219 -2q10 44 16 113h34q36 0 50.5 13t18.5 44l10 70q-57 173 -101 279q-14 34 -36.5 48t-69.5 14h-17q13 48 16 110q146 -2 228 -2l228 1q-13 -49 -16 -109h-23
q-65 0 -42 -93q12 -44 50 -140q68 100 88 140q16 30 21.5 49t-1.5 31.5t-30 12.5h-20q13 48 16 110q102 -2 160 -2l158 2q-13 -48 -16 -110h-17q-65 0 -96.5 -18t-59.5 -58zM540 814q-3 -29 -22 -45.5t-46 -16.5q-26 0 -42 16.5t-13 45.5t22 45.5t46 16.5t43 -16.5t12 -45.5
zM725 814q-3 -29 -22 -45.5t-46 -16.5t-42.5 16.5t-12.5 45.5t22 45.5t45 16.5q27 0 43 -16.5t13 -45.5z" />
    <glyph glyph-name="Zacute" unicode="&#x179;" horiz-adv-x="678" 
d="M361 743l-8 12q64 92 129 128q40 16 67 6t25 -39.5t-39 -50.5q-76 -46 -174 -56zM-16 0q13 71 15 103q132 141 421 475h-82q-87 0 -125.5 -28.5t-51.5 -106.5l-7 -41q-51 4 -99 0q26 134 44 290q128 -5 222 -5h387q-10 -44 -16 -102q-182 -200 -415 -474h94
q161 0 184 157l6 36q49 -4 100 0q-22 -113 -48 -308q-71 4 -198 4h-431z" />
    <glyph glyph-name="zacute" unicode="&#x17a;" horiz-adv-x="504" 
d="M284 528l-8 12q64 92 129 128q40 16 67 6t25 -39.5t-39 -50.5q-76 -46 -174 -56zM139 256l-33 2q-26 116 7 177.5t113 61.5q72 0 158 -68q49 -42 89 -35q-40 14 -40 50q0 24 12 38t34 14q24 0 36 -19t9 -48q-5 -40 -44.5 -73.5t-132.5 -89.5q-3 -2 -25.5 -15t-59.5 -35
t-64 -38q47 18 96 2q44 -16 69 -16q30 0 52.5 15.5t23.5 45.5l31 -2q29 -98 -6 -171.5t-126 -74.5q-54 0 -93.5 16t-76.5 54q-47 49 -97 34q35 -10 35 -53q0 -22 -11.5 -36t-34.5 -14q-20 0 -32.5 14.5t-12.5 41.5q0 43 37 79.5t134 94.5q6 4 160 86q-43 -7 -91 17
q-32 16 -55 16q-29 0 -44.5 -16t-16.5 -55z" />
    <glyph glyph-name="Zdotaccent" unicode="&#x17b;" horiz-adv-x="678" 
d="M-16 0q13 71 15 103q132 141 421 475h-82q-87 0 -125.5 -28.5t-51.5 -106.5l-7 -41q-51 4 -99 0q26 134 44 290q128 -5 222 -5h387q-10 -44 -16 -102q-182 -200 -415 -474h94q161 0 184 157l6 36q49 -4 100 0q-22 -113 -48 -308q-71 4 -198 4h-431zM475 819
q-2 -29 -22.5 -49.5t-52.5 -20.5t-49 20t-15 50q2 31 22.5 50t50.5 19q32 0 50 -19t16 -50z" />
    <glyph glyph-name="zdotaccent" unicode="&#x17c;" horiz-adv-x="504" 
d="M139 256l-33 2q-26 116 7 177.5t113 61.5q72 0 158 -68q49 -42 89 -35q-40 14 -40 50q0 24 12 38t34 14q24 0 36 -19t9 -48q-5 -40 -44.5 -73.5t-132.5 -89.5q-3 -2 -25.5 -15t-59.5 -35t-64 -38q47 18 96 2q44 -16 69 -16q30 0 52.5 15.5t23.5 45.5l31 -2
q29 -98 -6 -171.5t-126 -74.5q-54 0 -93.5 16t-76.5 54q-47 49 -97 34q35 -10 35 -53q0 -22 -11.5 -36t-34.5 -14q-20 0 -32.5 14.5t-12.5 41.5q0 43 37 79.5t134 94.5q6 4 160 86q-43 -7 -91 17q-32 16 -55 16q-29 0 -44.5 -16t-16.5 -55zM392 604q-2 -29 -22.5 -49.5
t-52.5 -20.5t-49 20t-15 50q2 31 22.5 50t50.5 19q32 0 50 -19t16 -50z" />
    <glyph glyph-name="Zcaron" unicode="&#x17d;" horiz-adv-x="678" 
d="M283 895l13 11q60 -22 122 -81q29 24 74 48.5t74 31.5l9 -10q-19 -44 -55 -84t-73 -65h-77q-25 25 -50.5 66.5t-36.5 82.5zM-16 0q13 71 15 103q132 141 421 475h-82q-87 0 -125.5 -28.5t-51.5 -106.5l-7 -41q-51 4 -99 0q26 134 44 290q128 -5 222 -5h387
q-10 -44 -16 -102q-182 -200 -415 -474h94q161 0 184 157l6 36q49 -4 100 0q-22 -113 -48 -308q-71 4 -198 4h-431z" />
    <glyph glyph-name="zcaron" unicode="&#x17e;" horiz-adv-x="504" 
d="M190 680l13 11q60 -22 122 -81q29 24 74 48.5t74 31.5l9 -10q-19 -44 -55 -84t-73 -65h-77q-25 25 -50.5 66.5t-36.5 82.5zM139 256l-33 2q-26 116 7 177.5t113 61.5q72 0 158 -68q49 -42 89 -35q-40 14 -40 50q0 24 12 38t34 14q24 0 36 -19t9 -48q-5 -40 -44.5 -73.5
t-132.5 -89.5q-3 -2 -25.5 -15t-59.5 -35t-64 -38q47 18 96 2q44 -16 69 -16q30 0 52.5 15.5t23.5 45.5l31 -2q29 -98 -6 -171.5t-126 -74.5q-54 0 -93.5 16t-76.5 54q-47 49 -97 34q35 -10 35 -53q0 -22 -11.5 -36t-34.5 -14q-20 0 -32.5 14.5t-12.5 41.5q0 43 37 79.5
t134 94.5q6 4 160 86q-43 -7 -91 17q-32 16 -55 16q-29 0 -44.5 -16t-16.5 -55z" />
    <glyph glyph-name="longs" unicode="&#x17f;" horiz-adv-x="388" 
d="M401 654q-50 0 -79.5 -62t-50.5 -221q-41 -300 -123.5 -436.5t-208.5 -136.5q-58 0 -87.5 26.5t-20.5 66.5q5 25 23 39t44 14q28 0 42.5 -17.5t7.5 -42.5q-6 -21 -26 -31t-42 -8q12 -7 27 -7q23 0 40.5 9t32 32t24.5 49.5t20.5 75t18 94t18.5 119.5q17 118 47.5 208.5
t64 142.5t74.5 85t74.5 44.5t67.5 11.5q67 0 99 -32.5t26 -82.5q-12 -85 -87 -85q-34 0 -52.5 19t-13.5 49q5 27 29 43.5t61 9.5q-18 24 -50 24z" />
    <glyph glyph-name="florin" unicode="&#x192;" horiz-adv-x="564" 
d="M124 322l11 70l64 -2q12 162 89 240.5t178 78.5q85 0 117 -34.5t23 -85.5q-6 -36 -27.5 -57.5t-59.5 -21.5q-69 0 -63 55q4 27 25.5 42.5t50.5 15.5q2 0 8 -0.5t8 -0.5q-17 20 -47 20q-21 0 -36.5 -5t-31.5 -20.5t-26.5 -42.5t-17.5 -73.5t-8 -110.5l87 3l-11 -71l-78 2
q-5 -108 -30.5 -187t-66 -123t-86 -64t-98.5 -20q-71 0 -104 29.5t-24 79.5q5 35 28 56t60 21q31 0 47 -15.5t12 -39.5q-9 -54 -75 -53q-11 0 -16 1q17 -19 52 -19q30 0 49.5 12t36 46.5t24.5 102.5t9 173z" />
    <glyph glyph-name="uni01B5" unicode="&#x1b5;" horiz-adv-x="678" 
d="M-16 0q13 71 15 103q30 32 159 176q-52 -2 -60 -2v56q24 0 104 -5q177 203 218 250h-82q-87 0 -125.5 -28.5t-51.5 -106.5l-7 -41q-51 4 -99 0q26 134 44 290q128 -5 222 -5h387q-10 -44 -16 -102q-85 -93 -226 -255q14 1 34 2t25 1v-56q-9 0 -24.5 1t-38 2t-38.5 2
q-104 -120 -147 -171h94q161 0 184 157l6 36q49 -4 100 0q-22 -113 -48 -308q-71 4 -198 4h-431z" />
    <glyph glyph-name="uni01B6" unicode="&#x1b6;" horiz-adv-x="504" 
d="M139 256l-33 2q-26 116 7 177.5t113 61.5q72 0 158 -68q49 -42 89 -35q-40 14 -40 50q0 24 12 38t34 14q24 0 36 -19t9 -48q-5 -40 -44.5 -73.5t-132.5 -89.5q-14 -9 -37 -22q43 10 98 20l4 -31q-44 -8 -145 -14l-69 -41q47 18 96 2q44 -16 69 -16q30 0 52.5 15.5
t23.5 45.5l31 -2q29 -98 -6 -171.5t-126 -74.5q-54 0 -93.5 16t-76.5 54q-47 49 -97 34q35 -10 35 -53q0 -22 -11.5 -36t-34.5 -14q-20 0 -32.5 14.5t-12.5 41.5q0 41 34 76t120 88q-21 -5 -80 -16l-4 32l134 13l127 67q-43 -7 -91 17q-32 16 -55 16q-29 0 -44.5 -16
t-16.5 -55z" />
    <glyph glyph-name="uni01FA" unicode="&#x1fa;" horiz-adv-x="881" 
d="M479 212q-106 2 -218 0l-3 -8q-23 -50 -17 -71.5t43 -21.5h35q-11 -49 -17 -113q-101 2 -159 2l-161 -2q12 55 17 113h20q42 0 66 19.5t52 70.5q163 299 261 496q70 -2 109 -2l108 2q51 -242 117 -496q14 -52 32 -71t49 -19h24q-12 -55 -17 -113q-143 2 -222 2l-223 -2
q12 55 17 113h38q36 0 47 22.5t3 71.5q-1 2 -1 7zM290 270q91 -2 177 0q-24 117 -52 245q-50 -95 -125 -245zM467 953l-8 12q64 92 129 128q40 16 67 6t25 -39.5t-39 -50.5q-76 -46 -174 -56zM467 838q-2 -23 9 -35.5t32 -12.5q46 0 51 48q3 24 -8.5 37t-32.5 13t-34.5 -13
t-16.5 -37zM420 838q5 42 32 67.5t70 25.5q41 0 64.5 -26t19.5 -67q-5 -41 -32 -66.5t-70 -25.5q-41 0 -64.5 26t-19.5 66z" />
    <glyph glyph-name="aringacute" unicode="&#x1fb;" horiz-adv-x="595" 
d="M587 195q-9 -99 -53.5 -158.5t-123.5 -59.5q-55 0 -81.5 24.5t-25.5 78.5q-49 -103 -155 -103q-68 0 -100 50.5t-18 157.5q10 79 35 139t58.5 94.5t69.5 51.5t74 17q105 0 121 -89q46 38 62 69q17 -1 53 -1t52 1q-46 -206 -62 -316q-14 -91 5 -91q30 0 49 136zM240 61
q56 0 96 213q14 72 11 101t-28 29q-54 0 -92 -215q-14 -77 -11.5 -102.5t24.5 -25.5zM335 745l-8 12q64 92 129 128q40 16 67 6t25 -39.5t-39 -50.5q-76 -46 -174 -56zM325 618q-2 -23 9 -35.5t32 -12.5q46 0 51 48q3 24 -8.5 37t-32.5 13t-34.5 -13t-16.5 -37zM278 618
q5 42 32 67.5t70 25.5q41 0 64.5 -26t19.5 -67q-5 -41 -32 -66.5t-70 -25.5q-41 0 -64.5 26t-19.5 66z" />
    <glyph glyph-name="AEacute" unicode="&#x1fc;" horiz-adv-x="1094" 
d="M704 735l-8 12q64 92 129 128q40 16 67 6t25 -39.5t-39 -50.5q-76 -46 -174 -56zM1075 277q-25 -104 -50 -281q-46 4 -218 4q-222 1 -274 1l-185 -2q7 34 18 112h21q33 0 48.5 15.5t23.5 50.5l8 44h-53h-63.5h-52.5l-11 -17q-58 -93 11 -93h28q-15 -66 -19 -112
q-105 3 -164 3l-162 -3q16 60 18 112h21q41 0 71.5 20.5t69.5 69.5q125 151 246 316q20 25 14.5 44.5t-39.5 19.5h-16q13 59 18 113q51 -6 269 -6h243q182 0 238 7q-33 -130 -45 -263q-46 2 -114 -1l2 14q14 82 -9.5 107.5t-87.5 25.5h-81q-33 0 -49.5 -14t-22.5 -46
q-13 -61 -25 -138h32q40 1 58 21.5t25 64.5l5 32h86q-17 -64 -31 -152q-12 -78 -16 -153h-84l5 29q7 48 -4.5 68t-54.5 22h-32q-17 -114 -19 -137q-4 -35 9.5 -49.5t44.5 -14.5h82q71 0 102 31.5t42 124.5l2 10q61 -2 121 0zM339 282q96 0 139 1q23 141 32 221q0 2 0.5 5
t0.5 5q-102 -129 -172 -232z" />
    <glyph glyph-name="aeacute" unicode="&#x1fd;" horiz-adv-x="787" 
d="M406 528l-8 12q64 92 129 128q40 16 67 6t25 -39.5t-39 -50.5q-76 -46 -174 -56zM636 178q89 -4 109 -3q-18 -96 -72 -147t-165 -51q-84 0 -129 31t-54 98q-25 -63 -72.5 -96t-104.5 -33q-68 0 -100.5 50.5t-18.5 157.5q20 153 87.5 227.5t149.5 74.5q120 0 122 -109
q73 109 215 109q95 0 136 -43t29 -114q-13 -75 -76.5 -101.5t-175.5 -23.5q-13 -69 -3.5 -95t42.5 -26q31 0 50 21.5t31 72.5zM239 61q26 0 51 53t44 160q14 72 11 101t-27 29q-52 0 -93 -215q-14 -77 -11.5 -102.5t25.5 -25.5zM599 416q-21 0 -35.5 -31t-39.5 -143
q39 0 57.5 16t30.5 64q22 94 -13 94z" />
    <glyph glyph-name="Oslashacute" unicode="&#x1fe;" horiz-adv-x="799" 
d="M354 -25q-113 0 -189 44l-62 -60l-23 19l46 69q-110 97 -81 299q28 184 138 274t282 90q107 0 179 -35l63 63l23 -18l-46 -68q121 -89 88 -305q-28 -188 -141 -280t-277 -92zM370 98q69 0 104.5 55.5t55.5 193.5q12 87 11 133l-122 -139l-137 -177q15 -66 88 -66z
M287 346q-11 -77 -11 -122l122 139l134 174q-18 50 -85 50t-103 -52.5t-57 -188.5zM432 743l-8 12q64 92 129 128q40 16 67 6t25 -39.5t-39 -50.5q-76 -46 -174 -56z" />
    <glyph glyph-name="oslashacute" unicode="&#x1ff;" horiz-adv-x="534" 
d="M226 -23q-64 0 -107 21l-44 -49l-15 12l31 52q-81 59 -65 198q15 131 92 203.5t191 72.5q64 0 109 -21l54 60l15 -11l-39 -68q70 -55 60 -183q-9 -128 -84 -207.5t-198 -79.5zM278 528l-8 12q64 92 129 128q40 16 67 6t25 -39.5t-39 -50.5q-76 -46 -174 -56zM212 189
l-3 -19l63 80l4 6l53 80q4 40 -1.5 55t-23.5 15q-56 0 -92 -217zM231 59q52 0 90 220l-39 -49l-79 -116q-1 -55 28 -55z" />
    <glyph glyph-name="Scommaaccent" unicode="&#x218;" horiz-adv-x="693" 
d="M269 -176q-48 0 -45 58q2 29 21 47t50 18q66 0 61 -80q-4 -58 -48.5 -95.5t-110.5 -48.5l-4 20q111 22 127 106q-13 -25 -51 -25zM384 610q-133 0 -143 -67q-5 -36 25 -52.5t119 -20.5q154 -6 218.5 -81t44.5 -198q-16 -99 -97 -157t-209 -58q-117 0 -204 52
q-46 27 -61 -29q-15 1 -47 1t-46 -1q39 85 49 230q14 -1 44 -1t44 1q5 -145 213 -145q137 0 144 70q4 37 -27 54.5t-120 22.5q-138 5 -207.5 78.5t-49.5 189.5q18 108 99 160.5t203 50.5q91 -1 170 -42q27 -13 42 -7t24 36q14 -1 43 -1t43 1q-37 -79 -45 -213q-41 2 -81 0
q-9 55 -59 90.5t-129 35.5z" />
    <glyph glyph-name="scommaaccent" unicode="&#x219;" horiz-adv-x="453" 
d="M165 -176q-48 0 -45 58q2 29 21 47t50 18q66 0 61 -80q-4 -58 -48.5 -95.5t-110.5 -48.5l-4 20q111 22 127 106q-13 -25 -51 -25zM311 443q-81 0 -94 -41q-10 -28 7 -48t73 -39q59 -20 90.5 -54t34 -74t-12.5 -86q-46 -124 -224 -124q-98 0 -147 32.5t-36 85.5
q6 24 24.5 38t45.5 14q31 0 46 -19.5t7 -47.5q-11 -38 -56 -40q32 -17 80 -17q88 0 100 50q7 27 -9 48t-69 40q-157 58 -104 202q19 53 74.5 88.5t139.5 35.5q90 0 135.5 -32t33.5 -83q-11 -45 -66 -45q-31 0 -46.5 18.5t-6.5 45.5q10 33 43 40q-33 12 -63 12z" />
    <glyph glyph-name="uni021A" unicode="&#x21a;" horiz-adv-x="744" 
d="M282 -176q-48 0 -45 58q2 29 21 47t50 18q66 0 61 -80q-4 -58 -48.5 -95.5t-110.5 -48.5l-4 20q111 22 127 106q-13 -25 -51 -25zM564 566h-47q-51 -276 -59 -395q-5 -60 56 -60h32q-10 -42 -16 -113q-131 2 -204 2l-204 -2q10 42 16 113h31q33 0 50.5 14.5t24.5 45.5
q28 130 61 395h-45q-37 0 -57.5 -23t-30.5 -70l-16 -73q-56 4 -114 0q25 163 38 292q75 -5 198 -5h304q22 0 197 5q-34 -170 -49 -292q-57 4 -114 0l8 73q10 93 -60 93z" />
    <glyph glyph-name="uni021B" unicode="&#x21b;" horiz-adv-x="378" 
d="M130 -176q-48 0 -45 58q2 29 21 47t50 18q66 0 61 -80q-4 -58 -48.5 -95.5t-110.5 -48.5l-4 20q111 22 127 106q-13 -25 -51 -25zM303 196l40 -1q-8 -100 -51 -159t-126 -59q-149 0 -121 166q0 3 52 271h-35l6 53q49 0 82.5 10t55 32.5t34 47t25.5 65.5h62
q-10 -36 -30 -157l85 2l-9 -53l-85 1q-35 -185 -41 -231q-11 -73 -10 -98t19 -25q14 0 27 37.5t20 97.5z" />
    <glyph glyph-name="uni0237" unicode="&#x237;" horiz-adv-x="318" 
d="M280 291l-50 -258q-25 -129 -90.5 -182t-182.5 -53q-72 0 -107.5 27.5t-24.5 73.5q5 28 25 43.5t49 15.5q33 0 47 -19t8 -46q-6 -25 -31 -36t-51 -5q18 -18 49 -18q62 0 89 52.5t51 184.5l44 236q4 23 6.5 38t3.5 30t-1 22t-8 7q-19 0 -34 -39t-21 -99l-40 1
q12 99 54.5 159.5t115.5 60.5q138 0 99 -196z" />
    <glyph glyph-name="circumflex" unicode="&#x2c6;" horiz-adv-x="532" 
d="M407 552l-13 -11q-70 26 -123 78q-27 -23 -72 -46.5t-75 -30.5l-9 11q19 42 56.5 82t76.5 66h77q24 -24 47 -65.5t35 -83.5z" />
    <glyph glyph-name="caron" unicode="&#x2c7;" horiz-adv-x="532" 
d="M118 694l13 11q60 -22 122 -81q29 24 74 48.5t74 31.5l9 -10q-19 -44 -55 -84t-73 -65h-77q-25 25 -50.5 66.5t-36.5 82.5z" />
    <glyph glyph-name="breve" unicode="&#x2d8;" horiz-adv-x="532" 
d="M244 549q-74 0 -99 40.5t-6 104.5l30 1q-1 -28 20 -40.5t70 -12.5q48 0 73 12.5t32 40.5l29 -1q-1 -64 -38 -104.5t-111 -40.5z" />
    <glyph glyph-name="dotaccent" unicode="&#x2d9;" horiz-adv-x="532" 
d="M347 618q-2 -29 -22.5 -49.5t-52.5 -20.5t-49 20t-15 50q2 31 22.5 50t50.5 19q32 0 50 -19t16 -50z" />
    <glyph glyph-name="ring" unicode="&#x2da;" horiz-adv-x="532" 
d="M225 637q-2 -23 9 -35.5t32 -12.5q46 0 51 48q3 24 -8.5 37t-32.5 13t-34.5 -13t-16.5 -37zM178 637q5 42 32 67.5t70 25.5q41 0 64.5 -26t19.5 -67q-5 -41 -32 -66.5t-70 -25.5q-41 0 -64.5 26t-19.5 66z" />
    <glyph glyph-name="ogonek" unicode="&#x2db;" horiz-adv-x="532" 
d="M410 -62q-9 -144 -139 -144q-48 0 -78 23t-26 69q6 59 60.5 95.5t125.5 32.5l4 -6q-45 -6 -71.5 -27.5t-27.5 -51.5q-1 -22 11.5 -33t35.5 -11q53 0 69 58z" />
    <glyph glyph-name="tilde" unicode="&#x2dc;" horiz-adv-x="532" 
d="M387 663l30 1q8 -69 -23.5 -100t-85.5 -29q-38 1 -60 17t-43 50q-12 21 -20.5 28t-21.5 7q-38 0 -31 -75l-30 -1q-9 71 21 102t88 29q36 -1 58.5 -16.5t43.5 -50.5q12 -21 20.5 -28t21.5 -7q39 0 32 73z" />
    <glyph glyph-name="hungarumlaut" unicode="&#x2dd;" horiz-adv-x="532" 
d="M113 542l-10 9q34 97 85 147q17 16 35 21t30.5 -1t20 -17.5t3 -29t-20.5 -34.5q-53 -59 -143 -95zM277 542l-10 9q34 99 85 147q17 16 35.5 21t31 -1t19.5 -17.5t2.5 -29t-20.5 -34.5q-53 -59 -143 -95z" />
    <glyph glyph-name="Wgrave" unicode="&#x1e80;" horiz-adv-x="1156" 
d="M838 -6q-116 4 -230 0q-10 110 -38 336q-98 -225 -142 -336q-104 4 -208 0q-33 341 -60 519q-5 35 -21 50.5t-55 15.5h-24q12 51 17 110q133 -2 208 -2q33 0 81.5 0.5t85 1t40.5 0.5q-5 -22 -17 -110h-23q-29 0 -39 -15.5t-8 -50.5q2 -45 36 -313q93 210 131 314
q23 65 -32 65h-19q12 44 18 110q108 -2 169 -2q36 0 102 1t67 1q-12 -51 -17 -110h-23q-25 0 -35.5 -14.5t-9.5 -49.5q8 -114 38 -320q92 213 127 315q23 69 -30 69h-22q12 44 18 110q90 -2 140 -2q30 0 83.5 1t56.5 1q-12 -51 -17 -110h-30q-37 0 -59.5 -14t-42.5 -55
q-72 -151 -216 -516zM730 755l-8 -12q-97 10 -173 56q-37 21 -39 50.5t25 39.5t67 -6q32 -18 67.5 -54.5t60.5 -73.5z" />
    <glyph glyph-name="wgrave" unicode="&#x1e81;" horiz-adv-x="766" 
d="M176 -23q-151 0 -99 204l35 142q24 81 -2 81q-18 0 -33.5 -39.5t-22.5 -98.5l-40 1q11 95 53.5 157.5t117.5 62.5q84 0 112 -56.5t3 -143.5l-30 -107q-34 -119 4 -119q46 0 85 177l50 231q60 -2 93 -2l94 2q-10 -32 -22.5 -81.5t-28 -116t-21.5 -90.5
q-16 -63 -11.5 -91.5t32.5 -28.5q46 0 83 68t49 156q5 34 3 72h-3q-26 0 -42 19t-12 50t22 46.5t42 14.5q77 -2 52 -159q-10 -59 -30 -116.5t-51.5 -112.5t-80.5 -88.5t-107 -33.5q-127 0 -134 112q-57 -112 -160 -112zM515 540l-8 -12q-97 10 -173 56q-37 21 -39 50.5
t25 39.5t67 -6q32 -18 67.5 -54.5t60.5 -73.5z" />
    <glyph glyph-name="Wacute" unicode="&#x1e82;" horiz-adv-x="1156" 
d="M650 743l-8 12q64 92 129 128q40 16 67 6t25 -39.5t-39 -50.5q-76 -46 -174 -56zM838 -6q-116 4 -230 0q-10 110 -38 336q-98 -225 -142 -336q-104 4 -208 0q-33 341 -60 519q-5 35 -21 50.5t-55 15.5h-24q12 51 17 110q133 -2 208 -2q33 0 81.5 0.5t85 1t40.5 0.5
q-5 -22 -17 -110h-23q-29 0 -39 -15.5t-8 -50.5q2 -45 36 -313q93 210 131 314q23 65 -32 65h-19q12 44 18 110q108 -2 169 -2q36 0 102 1t67 1q-12 -51 -17 -110h-23q-25 0 -35.5 -14.5t-9.5 -49.5q8 -114 38 -320q92 213 127 315q23 69 -30 69h-22q12 44 18 110
q90 -2 140 -2q30 0 83.5 1t56.5 1q-12 -51 -17 -110h-30q-37 0 -59.5 -14t-42.5 -55q-72 -151 -216 -516z" />
    <glyph glyph-name="wacute" unicode="&#x1e83;" horiz-adv-x="766" 
d="M453 528l-8 12q64 92 129 128q40 16 67 6t25 -39.5t-39 -50.5q-76 -46 -174 -56zM176 -23q-151 0 -99 204l35 142q24 81 -2 81q-18 0 -33.5 -39.5t-22.5 -98.5l-40 1q11 95 53.5 157.5t117.5 62.5q84 0 112 -56.5t3 -143.5l-30 -107q-34 -119 4 -119q46 0 85 177l50 231
q60 -2 93 -2l94 2q-10 -32 -22.5 -81.5t-28 -116t-21.5 -90.5q-16 -63 -11.5 -91.5t32.5 -28.5q46 0 83 68t49 156q5 34 3 72h-3q-26 0 -42 19t-12 50t22 46.5t42 14.5q77 -2 52 -159q-10 -59 -30 -116.5t-51.5 -112.5t-80.5 -88.5t-107 -33.5q-127 0 -134 112
q-57 -112 -160 -112z" />
    <glyph glyph-name="Wdieresis" unicode="&#x1e84;" horiz-adv-x="1156" 
d="M683 814q-3 -29 -22 -45.5t-46 -16.5q-26 0 -42 16.5t-13 45.5t22 45.5t46 16.5t43 -16.5t12 -45.5zM868 814q-3 -29 -22 -45.5t-46 -16.5t-42.5 16.5t-12.5 45.5t22 45.5t45 16.5q27 0 43 -16.5t13 -45.5zM838 -6q-116 4 -230 0q-10 110 -38 336q-98 -225 -142 -336
q-104 4 -208 0q-33 341 -60 519q-5 35 -21 50.5t-55 15.5h-24q12 51 17 110q133 -2 208 -2q33 0 81.5 0.5t85 1t40.5 0.5q-5 -22 -17 -110h-23q-29 0 -39 -15.5t-8 -50.5q2 -45 36 -313q93 210 131 314q23 65 -32 65h-19q12 44 18 110q108 -2 169 -2q36 0 102 1t67 1
q-12 -51 -17 -110h-23q-25 0 -35.5 -14.5t-9.5 -49.5q8 -114 38 -320q92 213 127 315q23 69 -30 69h-22q12 44 18 110q90 -2 140 -2q30 0 83.5 1t56.5 1q-12 -51 -17 -110h-30q-37 0 -59.5 -14t-42.5 -55q-72 -151 -216 -516z" />
    <glyph glyph-name="wdieresis" unicode="&#x1e85;" horiz-adv-x="766" 
d="M489 599q-3 -29 -22 -45.5t-46 -16.5q-26 0 -42 16.5t-13 45.5t22 45.5t46 16.5t43 -16.5t12 -45.5zM674 599q-3 -29 -22 -45.5t-46 -16.5t-42.5 16.5t-12.5 45.5t22 45.5t45 16.5q27 0 43 -16.5t13 -45.5zM176 -23q-151 0 -99 204l35 142q24 81 -2 81q-18 0 -33.5 -39.5
t-22.5 -98.5l-40 1q11 95 53.5 157.5t117.5 62.5q84 0 112 -56.5t3 -143.5l-30 -107q-34 -119 4 -119q46 0 85 177l50 231q60 -2 93 -2l94 2q-10 -32 -22.5 -81.5t-28 -116t-21.5 -90.5q-16 -63 -11.5 -91.5t32.5 -28.5q46 0 83 68t49 156q5 34 3 72h-3q-26 0 -42 19t-12 50
t22 46.5t42 14.5q77 -2 52 -159q-10 -59 -30 -116.5t-51.5 -112.5t-80.5 -88.5t-107 -33.5q-127 0 -134 112q-57 -112 -160 -112z" />
    <glyph glyph-name="uni1E8A" unicode="&#x1e8a;" horiz-adv-x="820" 
d="M354 208l-31 72q-60 -67 -63 -71q-26 -33 -32.5 -56.5t1 -32.5t23.5 -9h18q-11 -49 -17 -113q-89 2 -139 2l-139 -2q11 49 17 113h11q68 0 111.5 28t106.5 100l77 94q-33 72 -80 167q-23 45 -49.5 62t-72.5 17h-34q10 44 16 110q153 -2 239 -2l240 1q-12 -52 -17 -109
h-18q-28 0 -36.5 -24.5t6.5 -65.5q11 -29 36 -85l61 84q22 30 27.5 51.5t-3 30.5t-25.5 9h-12q12 52 17 109q86 -1 133 -1l135 2q-5 -22 -17 -110h-18q-67 0 -105 -23.5t-73 -75.5q-5 -6 -22 -29t-40 -56t-33 -47q51 -111 81 -168q19 -36 46 -52.5t70 -16.5h24
q-4 -17 -17 -113q-147 2 -231 2l-233 -2q4 17 17 113h25q24 0 30.5 21t-11.5 76zM579 819q-2 -29 -22.5 -49.5t-52.5 -20.5t-49 20t-15 50q2 31 22.5 50t50.5 19q32 0 50 -19t16 -50z" />
    <glyph glyph-name="uni1E8B" unicode="&#x1e8b;" horiz-adv-x="606" 
d="M539 196q4 -108 -43 -163.5t-142 -55.5q-135 0 -161 98q-38 -91 -120 -91q-46 0 -67 28.5t-11 79.5q7 39 30 61t54 22t43.5 -18.5t5.5 -48.5q-8 -35 -36 -46.5t-48 0.5q4 -30 37 -30q40 0 65.5 42.5t51.5 144.5q11 43 17 74t7.5 58t-6 40.5t-24.5 13.5q-60 0 -63 -140
l-38 2q-3 103 43.5 161.5t132.5 58.5q110 0 132 -95q42 95 120 95q96 0 85 -112q-10 -98 -83 -98q-31 0 -47 21t-9 58q8 35 33.5 47t49.5 2q-6 29 -39 29q-39 0 -65.5 -41.5t-50.5 -139.5q-28 -119 -21 -161t47 -42q41 0 61.5 38.5t17.5 107.5h41zM461 604
q-2 -29 -22.5 -49.5t-52.5 -20.5t-49 20t-15 50q2 31 22.5 50t50.5 19q32 0 50 -19t16 -50z" />
    <glyph glyph-name="Ygrave" unicode="&#x1ef2;" horiz-adv-x="852" 
d="M707 503q-80 -110 -175 -263l-10 -70q-4 -31 6.5 -45t44.5 -14h38q-10 -45 -16 -113q-139 2 -218 2l-219 -2q10 44 16 113h34q36 0 50.5 13t18.5 44l10 70q-57 173 -101 279q-14 34 -36.5 48t-69.5 14h-17q13 48 16 110q146 -2 228 -2l228 1q-13 -49 -16 -109h-23
q-65 0 -42 -93q12 -44 50 -140q68 100 88 140q16 30 21.5 49t-1.5 31.5t-30 12.5h-20q13 48 16 110q102 -2 160 -2l158 2q-13 -48 -16 -110h-17q-65 0 -96.5 -18t-59.5 -58zM549 755l-8 -12q-97 10 -173 56q-37 21 -39 50.5t25 39.5t67 -6q32 -18 67.5 -54.5t60.5 -73.5z
" />
    <glyph glyph-name="ygrave" unicode="&#x1ef3;" horiz-adv-x="590" 
d="M57 266l-40 1q11 95 53 157.5t117 62.5q154 0 104 -200l-26 -107q-15 -51 -13.5 -85t19.5 -34q47 0 96 194l44 214q28 -2 88 -2l86 2q-57 -266 -85 -426q-44 -245 -298 -245q-83 0 -121.5 28.5t-35.5 69.5q3 33 23 50.5t50 17.5q26 0 42.5 -14t15.5 -38q-1 -29 -22 -45
t-49 -13q30 -23 79 -23q18 0 33.5 3.5t27.5 12t21 17t16.5 24.5t12 27.5t10 33t8 35t7 39t7.5 39.5q-54 -85 -147 -85q-155 0 -103 204l33 133q6 25 9 40t4 27t-1.5 17.5t-9.5 5.5q-39 0 -55 -138zM405 540l-8 -12q-97 10 -173 56q-37 21 -39 50.5t25 39.5t67 -6
q32 -18 67.5 -54.5t60.5 -73.5z" />
    <glyph glyph-name="uni2009" unicode="&#x2009;" horiz-adv-x="100" 
 />
    <glyph glyph-name="endash" unicode="&#x2013;" horiz-adv-x="500" 
d="M23 184q14 83 18 120q217 -4 434 0q-4 -21 -18 -120q-217 4 -434 0z" />
    <glyph glyph-name="emdash" unicode="&#x2014;" horiz-adv-x="1000" 
d="M34 184l17 120q459 -4 917 0q-11 -54 -18 -120q-530 7 -916 0z" />
    <glyph glyph-name="quoteleft" unicode="&#x2018;" horiz-adv-x="267" 
d="M185 574q29 0 45.5 -18t15.5 -49q-2 -38 -27.5 -60.5t-63.5 -22.5q-39 0 -59.5 26t-15.5 70q7 73 58 120t127 57l5 -25q-127 -26 -145 -129q20 31 60 31z" />
    <glyph glyph-name="quoteright" unicode="&#x2019;" horiz-adv-x="267" 
d="M168 552q-29 0 -45 17.5t-15 48.5q2 39 27.5 61t62.5 22q39 0 59.5 -26t16.5 -70q-7 -73 -58 -119.5t-127 -57.5l-5 25q123 25 144 129q-19 -30 -60 -30z" />
    <glyph glyph-name="quotesinglbase" unicode="&#x201a;" horiz-adv-x="267" 
d="M85 30q-29 0 -45 17.5t-15 48.5q2 39 27.5 61t62.5 22q39 0 59.5 -26t16.5 -70q-7 -73 -58 -119.5t-127 -57.5l-5 25q123 25 144 129q-19 -30 -60 -30z" />
    <glyph glyph-name="quotedblleft" unicode="&#x201c;" horiz-adv-x="456" 
d="M178 574q29 0 45.5 -18t15.5 -49q-2 -38 -27.5 -60.5t-63.5 -22.5q-39 0 -59.5 26t-15.5 70q7 73 58 120t127 57l5 -25q-127 -26 -145 -129q20 31 60 31zM374 574q29 0 45.5 -18t15.5 -49q-2 -38 -27.5 -60.5t-63.5 -22.5q-39 0 -59.5 26t-15.5 70q7 73 58 120t127 57
l5 -25q-127 -26 -145 -129q20 31 60 31z" />
    <glyph glyph-name="quotedblright" unicode="&#x201d;" horiz-adv-x="456" 
d="M162 552q-29 0 -45 17.5t-15 48.5q2 39 27.5 61t62.5 22q39 0 59.5 -26t16.5 -70q-7 -73 -58 -119.5t-127 -57.5l-5 25q123 25 144 129q-19 -30 -60 -30zM359 552q-29 0 -45 17.5t-15 48.5q2 39 27.5 61t62.5 22q39 0 59.5 -26t16.5 -70q-7 -73 -58 -119.5t-127 -57.5
l-5 25q123 25 144 129q-19 -30 -60 -30z" />
    <glyph glyph-name="quotedblbase" unicode="&#x201e;" horiz-adv-x="456" 
d="M84 30q-29 0 -45 17.5t-15 48.5q2 39 27.5 61t62.5 22q39 0 59.5 -26t16.5 -70q-7 -73 -58 -119.5t-127 -57.5l-5 25q123 25 144 129q-19 -30 -60 -30zM274 30q-29 0 -45 17.5t-15 48.5q2 39 27.5 61t62.5 22q39 0 59.5 -26t16.5 -70q-7 -73 -58 -119.5t-127 -57.5l-5 25
q123 25 144 129q-19 -30 -60 -30z" />
    <glyph glyph-name="dagger" unicode="&#x2020;" 
d="M239 471q-38 -26 -72.5 -10.5t-32.5 57.5q1 28 19.5 43.5t45 13.5t49.5 -21q29 -23 57 -30q8 15 25 18q10 57 -7 102q-17 39 -1 76.5t56 37.5q36 0 49.5 -23t4 -54t-34.5 -57q-28 -31 -45 -87q12 -7 15 -18q29 3 65 26q39 25 73.5 10t33.5 -57q-2 -42 -40.5 -54t-75.5 18
q-30 24 -58 30q-8 -16 -26 -18q-16 -103 26 -123l-7 -37q-31 -13 -50.5 -50t-35.5 -110q-7 -30 -9.5 -46.5t-1 -40.5t10.5 -46q16 -40 -1 -76.5t-54 -37.5q-36 -1 -48.5 22t-3 54.5t32.5 57.5q35 40 51 113q30 136 -19 160l7 37q52 21 79 128q-9 6 -14 17q-31 -3 -63 -25z
" />
    <glyph glyph-name="daggerdbl" unicode="&#x2021;" 
d="M239 471q-38 -26 -72.5 -10.5t-32.5 57.5q2 43 40 54.5t74 -18.5q29 -23 56 -30q8 15 26 18q10 57 -7 102q-17 39 -1 76.5t56 37.5q36 0 49.5 -23t4 -54t-34.5 -57q-28 -31 -45 -88q11 -8 14 -17q30 3 66 26q38 26 73.5 10.5t33.5 -57.5t-40.5 -54t-75.5 18
q-30 24 -59 31q-9 -18 -25 -19q-16 -103 26 -123l-7 -37q-56 -22 -83 -146q38 1 79 27q38 26 73.5 10.5t34.5 -57.5q-2 -43 -39 -54t-74 18q-35 29 -79 34q-18 -77 2 -125q16 -40 -1 -76.5t-54 -37.5q-36 -1 -48.5 22.5t-3 54.5t32.5 57q32 36 49 106q-42 -1 -82 -26
q-38 -26 -74 -10.5t-34 57.5t39.5 54t73.5 -18q39 -30 82 -35q23 123 -22 145l7 37q52 21 79 128q-10 6 -15 17q-26 -3 -62 -25z" />
    <glyph glyph-name="bullet" unicode="&#x2022;" horiz-adv-x="456" 
d="M409 240q0 -83 -50.5 -130.5t-135.5 -47.5q-82 0 -133.5 47.5t-51.5 134.5q0 82 52.5 131.5t132.5 49.5q85 0 135.5 -50.5t50.5 -134.5z" />
    <glyph glyph-name="ellipsis" unicode="&#x2026;" horiz-adv-x="913" 
d="M227 82q-3 -45 -32 -70.5t-78 -25.5q-47 0 -71.5 24.5t-20.5 72.5q4 42 34.5 69t75.5 27q48 0 72.5 -27t19.5 -70zM531 82q-3 -45 -32 -70.5t-78 -25.5q-47 0 -71.5 24.5t-20.5 72.5q4 42 34.5 69t75.5 27q48 0 72.5 -27t19.5 -70zM836 82q-3 -45 -32 -70.5t-78 -25.5
q-47 0 -71.5 24.5t-20.5 72.5q4 42 34.5 69t75.5 27q48 0 72.5 -27t19.5 -70z" />
    <glyph glyph-name="perthousand" unicode="&#x2030;" horiz-adv-x="915" 
d="M108 117q0 10 9 10t9 -10q0 -9 -9 -9t-9 9zM144 168q0 6 4.5 10.5t10.5 4.5t10.5 -4.5t4.5 -10.5q0 -7 -4.5 -11.5t-10.5 -4.5t-10.5 4.5t-4.5 11.5zM180 218q0 8 6.5 14.5t14.5 6.5t14.5 -6.5t6.5 -14.5q0 -9 -6.5 -15t-14.5 -6t-14.5 6t-6.5 15zM218 268q0 10 7.5 17.5
t17.5 7.5t17.5 -7.5t7.5 -17.5t-7.5 -17.5t-17.5 -7.5t-17.5 7.5t-7.5 17.5zM257 318q0 12 8.5 20t19.5 8t19.5 -8t8.5 -20q0 -11 -8.5 -19t-19.5 -8t-19.5 8t-8.5 19zM298 369q0 11 9 19.5t20 8.5t20 -8.5t9 -19.5q0 -12 -9 -20.5t-20 -8.5t-20 8.5t-9 20.5zM341 419
q0 11 8.5 19.5t19.5 8.5t19.5 -8.5t8.5 -19.5t-8.5 -19.5t-19.5 -8.5t-19.5 8.5t-8.5 19.5zM386 469q0 10 7.5 17.5t17.5 7.5t17.5 -7.5t7.5 -17.5t-7.5 -17.5t-17.5 -7.5t-17.5 7.5t-7.5 17.5zM432 519q0 9 6.5 15t14.5 6t14.5 -6t6.5 -15q0 -8 -6.5 -14t-14.5 -6t-14.5 6
t-6.5 14zM480 570q0 6 4.5 10.5t10.5 4.5t10.5 -4.5t4.5 -10.5q0 -7 -4.5 -11.5t-10.5 -4.5t-10.5 4.5t-4.5 11.5zM528 620q0 9 9 9t9 -9t-9 -9t-9 9zM373 24q32 0 51 106q19 110 -10 110q-32 0 -52 -110q-20 -106 11 -106zM366 -29q-59 0 -95 36.5t-22 122.5
q30 160 172 160q143 0 115 -160q-27 -159 -170 -159zM687 24q32 0 51 106q19 110 -10 110q-32 0 -52 -110q-20 -106 11 -106zM680 -29q-59 0 -95 36.5t-22 122.5q30 160 172 160q143 0 115 -160q-27 -159 -170 -159zM189 452q33 0 51 106q21 110 -9 110q-33 0 -53 -110
q-20 -106 11 -106zM182 399q-27 0 -49 7.5t-41 24.5t-26.5 49.5t-0.5 77.5q30 160 173 160q141 0 115 -160q-28 -159 -171 -159z" />
    <glyph glyph-name="guilsinglleft" unicode="&#x2039;" horiz-adv-x="289" 
d="M250 430l11 -10q-13 -38 -44.5 -86.5t-68.5 -81.5q20 -35 35.5 -84t16.5 -84l-14 -11q-74 76 -155 145q10 30 13 75z" />
    <glyph glyph-name="guilsinglright" unicode="&#x203a;" horiz-adv-x="289" 
d="M82 420l14 10q92 -83 156 -143q-13 -39 -13 -75q-107 -67 -205 -139l-11 11q14 37 45.5 88t63.5 83q-48 90 -50 165z" />
    <glyph glyph-name="fraction" unicode="&#x2044;" horiz-adv-x="150" 
d="M-221 -32q0 10 10 10t10 -10t-10 -10t-10 10zM-182 24q0 6 4.5 10.5t10.5 4.5t10.5 -4.5t4.5 -10.5t-4.5 -10.5t-10.5 -4.5t-10.5 4.5t-4.5 10.5zM-143 80q0 8 6 14t14 6t14 -6t6 -14t-6.5 -14t-13.5 -6t-13.5 6t-6.5 14zM-102 136q0 10 6.5 16.5t16.5 6.5t16.5 -6.5
t6.5 -16.5t-6.5 -16.5t-16.5 -6.5t-16.5 6.5t-6.5 16.5zM-61 192q0 11 7.5 19t18.5 8t18.5 -8t7.5 -19t-7.5 -18.5t-18.5 -7.5t-18.5 7.5t-7.5 18.5zM-20 248q0 12 8.5 20.5t20.5 8.5t20.5 -8.5t8.5 -20.5t-8.5 -20t-20.5 -8t-20.5 8t-8.5 20zM23 304q0 13 8.5 21.5
t21.5 8.5t21.5 -8.5t8.5 -21.5q0 -12 -8.5 -21t-21.5 -9t-21.5 9t-8.5 21zM67 361q0 12 8.5 21t21.5 9t21.5 -9t8.5 -21q0 -13 -8.5 -21.5t-21.5 -8.5t-21.5 8.5t-8.5 21.5zM112 417q0 12 8.5 20t20.5 8t20.5 -8t8.5 -20t-8.5 -20.5t-20.5 -8.5t-20.5 8.5t-8.5 20.5z
M159 473q0 11 7.5 18.5t18.5 7.5t18.5 -7.5t7.5 -18.5t-7.5 -19t-18.5 -8t-18.5 8t-7.5 19zM206 529q0 10 6.5 16.5t16.5 6.5t16.5 -6.5t6.5 -16.5t-6.5 -16.5t-16.5 -6.5t-16.5 6.5t-6.5 16.5zM253 585q0 7 6.5 13.5t13.5 6.5t13.5 -6.5t6.5 -13.5q0 -8 -6 -14t-14 -6
t-14 6t-6 14zM302 641q0 6 4.5 10.5t10.5 4.5t10.5 -4.5t4.5 -10.5t-4.5 -10.5t-10.5 -4.5t-10.5 4.5t-4.5 10.5zM351 697q0 10 10 10t10 -10t-10 -10t-10 10z" />
    <glyph glyph-name="Euro" unicode="&#x20ac;" 
d="M36 450l44 -1q84 236 329 236q122 0 174 -46.5t41 -118.5q-7 -45 -36.5 -68.5t-70.5 -23.5q-39 0 -59.5 22t-14.5 54q7 37 33.5 58t64.5 21h10q-27 18 -77 18q-60 0 -101 -36t-66 -118l103 3q-3 -10 -15 -84l-108 3q-2 -8 -3.5 -17t-3 -20t-2.5 -17l111 3
q-2 -8 -4.5 -24.5t-5 -35t-3.5 -24.5l-106 3q-4 -88 25.5 -126.5t97.5 -38.5q57 0 91 24h-17q-42 0 -60 22t-15 55q4 37 28 58t67 21q45 0 66.5 -27.5t13.5 -75.5q-12 -74 -80 -121.5t-191 -47.5q-119 0 -186 61.5t-67 193.5l-42 -1q10 39 15 84l33 -1q4 28 8 50l-35 -1z
" />
    <glyph glyph-name="uni2116" unicode="&#x2116;" horiz-adv-x="1117" 
d="M1011 82q-3 -45 -32 -70.5t-78 -25.5q-47 0 -71.5 24.5t-20.5 72.5q4 42 34.5 69t75.5 27q48 0 72.5 -27t19.5 -70zM940 277q42 0 68 28t37 92q11 65 -6 92.5t-59 27.5q-84 0 -106 -120q-11 -65 6 -92.5t60 -27.5zM933 238q-65 0 -97.5 41t-20.5 118q29 160 172 160
q65 0 98 -41.5t19 -118.5q-26 -159 -171 -159zM396 689q48 -110 202 -402q26 150 32 222q5 70 -53 70h-49q10 44 16 110q66 -2 160 -2l159 2q-10 -44 -16 -110h-32q-58 0 -73 -70q-14 -71 -40 -245t-36 -265q-31 1 -96.5 1t-96.5 -1q-27 61 -221 443q-30 -175 -38 -261
q-3 -32 12 -51t48 -19h42q-11 -49 -17 -113q-104 2 -161 2l-161 -2q6 26 17 113h28q64 0 79 70q11 48 30 170.5t21 164.5q2 32 -10 47.5t-47 15.5h-32q11 38 17 110q158 -4 316 0z" />
    <glyph glyph-name="trademark" unicode="&#x2122;" horiz-adv-x="718" 
d="M752 633h-13q-22 0 -27 -25q-7 -28 -17 -98q-2 -16 1.5 -22.5t16.5 -6.5h12l-10 -57q-56 1 -86 1l-84 -1q1 5 3.5 16.5t4.5 24.5t3 16h11q23 0 29 29l12 70q-12 -17 -44.5 -59t-43.5 -58h-21q-16 40 -50 116q-9 -47 -12 -69q-3 -29 21 -29h13l-10 -57q-39 1 -61 1l-65 -1
q8 31 11 57h14q24 0 30 29q12 53 17 97q3 26 -21 26h-14q1 4 3.5 15t5 24.5t2.5 15.5q71 -2 144 0q10 -35 39 -96q25 32 70 96q62 -2 126 0q-7 -22 -10 -55zM162 687h120q55 0 81 2q-17 -70 -23 -127q-29 2 -55 0l4 28q2 18 -2 25.5t-17 7.5h-14q-18 -105 -19 -116
q-2 -26 22 -26h12l-10 -57q-56 1 -86 1l-86 -1q7 20 11 57h12q24 0 31 26q10 49 20 116h-13q-14 0 -20.5 -7.5t-10.5 -25.5l-6 -28q-8 1 -27 1t-27 -1q15 71 21 127q19 -2 82 -2z" />
    <glyph glyph-name="onethird" unicode="&#x2153;" horiz-adv-x="378" 
d="M176 488l18 111l-56 -1q10 40 10 59h19q82 0 100 57q11 -2 35 -2t34 2q-19 -77 -30 -135l-14 -91q-6 -28 26 -28h28q-8 -28 -10 -54q-75 1 -118 1l-119 -1q9 33 9 54h33q31 0 35 28zM288 215q-3 -58 -69 -79q57 -17 57 -64q0 -101 -166 -101q-55 0 -86 19t-29 52
q1 26 18 42t44 16q23 0 34.5 -10t10.5 -25q-1 -21 -17 -32t-39 -9h-5q16 -14 42 -14q66 0 69 62q1 23 -12 34.5t-38 11.5h-16l6 31h11q62 2 65 55q2 41 -44 41q-26 0 -44 -11q2 1 8 1q21 0 32 -9t10 -23q-2 -39 -50 -39q-22 0 -35 10.5t-12 29.5q1 38 43 62t102 24
q56 0 84 -20.5t26 -54.5zM8 344q0 23 24 23q10 0 16.5 -6.5t6.5 -16.5q0 -24 -23 -24q-24 0 -24 24zM73 344q0 21 22 21q9 0 15 -6t6 -15q0 -22 -21 -22q-22 0 -22 22zM138 344q0 19 20 19q8 0 13.5 -5.5t5.5 -13.5q0 -20 -19 -20q-20 0 -20 20zM201 344q0 19 20 19
q7 0 13 -5.5t6 -13.5q0 -20 -19 -20q-20 0 -20 20zM262 344q0 21 22 21q9 0 15 -6t6 -15q0 -22 -21 -22q-22 0 -22 22zM323 344q0 23 24 23q10 0 16.5 -6.5t6.5 -16.5q0 -24 -23 -24q-24 0 -24 24z" />
    <glyph glyph-name="twothirds" unicode="&#x2154;" horiz-adv-x="378" 
d="M342 524q18 -37 -3 -81t-85 -44q-37 0 -90 33q-21 15 -39 15q-14 0 -13 -6q0 -2 4 -4q15 -7 13 -22.5t-21 -15.5q-15 0 -23 11t-7 29q3 60 92 100q73 34 80 83q3 22 -7.5 36.5t-37.5 14.5q-21 0 -44 -14q3 0 9 0.5t8 0.5q21 -1 29.5 -11t5.5 -24q-2 -16 -16 -25.5
t-37 -9.5t-35.5 12t-8.5 33q6 36 46.5 59.5t94.5 23.5q65 0 90.5 -25.5t19.5 -63.5q-13 -91 -174 -113q-43 -5 -61 -30q29 13 90 8q32 -5 60.5 -0.5t28.5 27.5zM288 215q-3 -58 -69 -79q57 -17 57 -64q0 -101 -166 -101q-55 0 -86 19t-29 52q1 26 18 42t44 16q23 0 34.5 -10
t10.5 -25q-1 -21 -17 -32t-39 -9h-5q16 -14 42 -14q66 0 69 62q1 23 -12 34.5t-38 11.5h-16l6 31h11q62 2 65 55q2 41 -44 41q-26 0 -44 -11q2 1 8 1q21 0 32 -9t10 -23q-2 -39 -50 -39q-22 0 -35 10.5t-12 29.5q1 38 43 62t102 24q56 0 84 -20.5t26 -54.5zM8 344
q0 23 24 23q10 0 16.5 -6.5t6.5 -16.5q0 -24 -23 -24q-24 0 -24 24zM73 344q0 21 22 21q9 0 15 -6t6 -15q0 -22 -21 -22q-22 0 -22 22zM138 344q0 19 20 19q8 0 13.5 -5.5t5.5 -13.5q0 -20 -19 -20q-20 0 -20 20zM201 344q0 19 20 19q7 0 13 -5.5t6 -13.5q0 -20 -19 -20
q-20 0 -20 20zM262 344q0 21 22 21q9 0 15 -6t6 -15q0 -22 -21 -22q-22 0 -22 22zM323 344q0 23 24 23q10 0 16.5 -6.5t6.5 -16.5q0 -24 -23 -24q-24 0 -24 24z" />
    <glyph glyph-name="oneeighth" unicode="&#x215b;" horiz-adv-x="378" 
d="M299 221q-7 -35 -43 -52q52 -27 40 -95q-8 -48 -52.5 -75.5t-110.5 -27.5q-68 0 -98 18t-25 54q6 38 63 54q-43 27 -31 90q9 49 49 76t104 27q56 0 82.5 -18.5t21.5 -50.5zM176 488l18 111l-56 -1q10 40 10 59h19q82 0 100 57q11 -2 35 -2t34 2q-19 -77 -30 -135l-14 -91
q-6 -28 26 -28h28q-8 -28 -10 -54q-75 1 -118 1l-119 -1q9 33 9 54h33q31 0 35 28zM127 78q-15 2 -25 6q-22 -16 -25 -35q-2 -16 12.5 -26t48.5 -10q72 0 77 29q3 14 -12 20t-76 16zM187 251q-56 0 -61 -30q-2 -14 11 -20.5t62 -14.5l23 -4q13 15 16 33q3 15 -9.5 25.5
t-41.5 10.5zM8 344q0 23 24 23q10 0 16.5 -6.5t6.5 -16.5q0 -24 -23 -24q-24 0 -24 24zM73 344q0 21 22 21q9 0 15 -6t6 -15q0 -22 -21 -22q-22 0 -22 22zM138 344q0 19 20 19q8 0 13.5 -5.5t5.5 -13.5q0 -20 -19 -20q-20 0 -20 20zM201 344q0 19 20 19q7 0 13 -5.5t6 -13.5
q0 -20 -19 -20q-20 0 -20 20zM262 344q0 21 22 21q9 0 15 -6t6 -15q0 -22 -21 -22q-22 0 -22 22zM323 344q0 23 24 23q10 0 16.5 -6.5t6.5 -16.5q0 -24 -23 -24q-24 0 -24 24z" />
    <glyph glyph-name="threeeighths" unicode="&#x215c;" horiz-adv-x="378" 
d="M299 221q-7 -35 -43 -52q52 -27 40 -95q-8 -48 -52.5 -75.5t-110.5 -27.5q-68 0 -98 18t-25 54q6 38 63 54q-43 27 -31 90q9 49 49 76t104 27q56 0 82.5 -18.5t21.5 -50.5zM368 643q-3 -58 -69 -79q59 -16 57 -64q-3 -101 -166 -101q-55 0 -86 19t-29 51q1 26 18.5 42.5
t44.5 16.5q44 0 44 -35q0 -21 -16 -32t-39 -9h-6q17 -14 42 -14q67 0 70 62q1 22 -12.5 33.5t-38.5 11.5h-15l6 32h10q63 2 66 55q2 41 -45 41q-25 0 -43 -11q2 1 7 1q21 0 32 -9t11 -23q-2 -39 -51 -39q-22 0 -35 10.5t-12 29.5q1 38 43 62t102 24q56 0 84 -20.5t26 -54.5z
M127 78q-15 2 -25 6q-22 -16 -25 -35q-2 -16 12.5 -26t48.5 -10q72 0 77 29q3 14 -12 20t-76 16zM187 251q-56 0 -61 -30q-2 -14 11 -20.5t62 -14.5l23 -4q13 15 16 33q3 15 -9.5 25.5t-41.5 10.5zM8 344q0 23 24 23q10 0 16.5 -6.5t6.5 -16.5q0 -24 -23 -24q-24 0 -24 24z
M73 344q0 21 22 21q9 0 15 -6t6 -15q0 -22 -21 -22q-22 0 -22 22zM138 344q0 19 20 19q8 0 13.5 -5.5t5.5 -13.5q0 -20 -19 -20q-20 0 -20 20zM201 344q0 19 20 19q7 0 13 -5.5t6 -13.5q0 -20 -19 -20q-20 0 -20 20zM262 344q0 21 22 21q9 0 15 -6t6 -15q0 -22 -21 -22
q-22 0 -22 22zM323 344q0 23 24 23q10 0 16.5 -6.5t6.5 -16.5q0 -24 -23 -24q-24 0 -24 24z" />
    <glyph glyph-name="fiveeighths" unicode="&#x215d;" horiz-adv-x="378" 
d="M299 221q-7 -35 -43 -52q52 -27 40 -95q-8 -48 -52.5 -75.5t-110.5 -27.5q-68 0 -98 18t-25 54q6 38 63 54q-43 27 -31 90q9 49 49 76t104 27q56 0 82.5 -18.5t21.5 -50.5zM167 552q-28 0 -52 -11l-11 13q41 54 53 154q26 -8 101 -8q80 0 119 13l-2 -41q-36 -54 -126 -54
q-49 0 -79 15q-8 -30 -22 -52q44 17 99 17q62 0 89 -24t19 -71q-19 -104 -169 -104q-63 0 -91 21.5t-22 58.5q8 47 62 47q25 0 36 -11.5t7 -30.5q-6 -34 -50 -34q-9 0 -14 1q13 -13 40 -13q58 0 68 58q10 56 -55 56zM127 78q-15 2 -25 6q-22 -16 -25 -35q-2 -16 12.5 -26
t48.5 -10q72 0 77 29q3 14 -12 20t-76 16zM187 251q-56 0 -61 -30q-2 -14 11 -20.5t62 -14.5l23 -4q13 15 16 33q3 15 -9.5 25.5t-41.5 10.5zM8 344q0 23 24 23q10 0 16.5 -6.5t6.5 -16.5q0 -24 -23 -24q-24 0 -24 24zM73 344q0 21 22 21q9 0 15 -6t6 -15q0 -22 -21 -22
q-22 0 -22 22zM138 344q0 19 20 19q8 0 13.5 -5.5t5.5 -13.5q0 -20 -19 -20q-20 0 -20 20zM201 344q0 19 20 19q7 0 13 -5.5t6 -13.5q0 -20 -19 -20q-20 0 -20 20zM262 344q0 21 22 21q9 0 15 -6t6 -15q0 -22 -21 -22q-22 0 -22 22zM323 344q0 23 24 23q10 0 16.5 -6.5
t6.5 -16.5q0 -24 -23 -24q-24 0 -24 24z" />
    <glyph glyph-name="seveneighths" unicode="&#x215e;" horiz-adv-x="378" 
d="M299 221q-7 -35 -43 -52q52 -27 40 -95q-8 -48 -52.5 -75.5t-110.5 -27.5q-68 0 -98 18t-25 54q6 38 63 54q-43 27 -31 90q9 49 49 76t104 27q56 0 82.5 -18.5t21.5 -50.5zM153 714l3 -24q18 28 59 28q35 0 70 -26q39 -26 62 -26q8 0 9 6.5t-6 11.5q-9 7 -11.5 16t3 15.5
t16.5 6.5q16 0 24.5 -12.5t5.5 -30.5q-6 -44 -50 -74q-41 -30 -60 -61t-24 -82q-3 -33 -24.5 -49t-53.5 -16q-34 0 -51 15t-14 44q4 47 45.5 82t116.5 63l20 7q-50 -12 -90 -1q-31 6 -44 0t-16 -25q-5 1 -25 1t-25 -1q12 37 25 132q16 -2 35 0zM127 78q-15 2 -25 6
q-22 -16 -25 -35q-2 -16 12.5 -26t48.5 -10q72 0 77 29q3 14 -12 20t-76 16zM187 251q-56 0 -61 -30q-2 -14 11 -20.5t62 -14.5l23 -4q13 15 16 33q3 15 -9.5 25.5t-41.5 10.5zM323 344q0 23 24 23q10 0 16.5 -6.5t6.5 -16.5q0 -24 -23 -24q-24 0 -24 24zM8 344q0 23 24 23
q10 0 16.5 -6.5t6.5 -16.5q0 -24 -23 -24q-24 0 -24 24zM73 344q0 21 22 21q9 0 15 -6t6 -15q0 -22 -21 -22q-22 0 -22 22zM262 344q0 21 22 21q9 0 15 -6t6 -15q0 -22 -21 -22q-22 0 -22 22zM201 344q0 19 20 19q7 0 13 -5.5t6 -13.5q0 -20 -19 -20q-20 0 -20 20zM138 344
q0 19 20 19q8 0 13.5 -5.5t5.5 -13.5q0 -20 -19 -20q-20 0 -20 20z" />
    <glyph glyph-name="minus" unicode="&#x2212;" 
d="M70 201q11 42 19 101q218 -4 440 0q-11 -46 -19 -101q-217 4 -440 0z" />
    <glyph glyph-name="notequal" unicode="&#x2260;" 
d="M86 288q11 45 16 89q114 -2 222 -2q5 15 16.5 53.5t19.5 61.5q15 -4 29 0q-24 -70 -38 -115q91 0 191 2q-8 -33 -16 -89q-53 1 -203 1l-24 -77q102 0 214 2q-12 -48 -16 -89q-58 1 -225 1q-7 -21 -20 -64.5t-19 -61.5q-15 4 -29 0l41 126q-139 0 -188 -1q8 31 16 89
q104 -2 200 -2q3 8 24 77q-156 0 -211 -1z" />
    <glyph glyph-name="lessequal" unicode="&#x2264;" 
d="M113 231l10 46q194 104 317 179l21 -85q-3 -1 -111 -49.5t-158 -71.5q96 -58 221 -127l-21 -35q65 0 91 1q-12 -46 -16 -89q-220 4 -440 0q11 45 16 89q136 -2 268 -2q-31 24 -198 144z" />
    <glyph glyph-name="greaterequal" unicode="&#x2265;" 
d="M480 267l-7 -46q-132 -71 -242 -134q122 0 252 2q-12 -46 -16 -89q-220 4 -440 0q11 45 16 89q56 -2 99 -2l-9 38q25 12 124 57t144 66q-195 114 -220 129l46 79q19 -18 57 -47.5t63.5 -48t77.5 -55t55 -38.5z" />
    <glyph glyph-name="space_uni0326" horiz-adv-x="200" 
d="M101 258q-48 0 -45 58q2 29 21 47t50 18q66 0 61 -80q-4 -58 -48.5 -95.5t-110.5 -48.5l-4 20q111 22 127 106q-13 -25 -51 -25z" />
    <glyph glyph-name="dotlessI" horiz-adv-x="417" 
d="M-17 -2q10 42 16 113h28q30 0 39 9.5t18 42.5q8 30 31.5 179.5t25.5 180.5q2 30 -7 43t-35 13h-32q10 44 16 110q121 -2 189 -2q40 0 113 1t75 1q-13 -73 -15 -110h-24q-50 0 -66 -56q-8 -28 -31 -179.5t-25 -179.5t7.5 -40.5t41.5 -12.5h27q-13 -58 -15 -113
q-121 2 -189 2z" />
    <glyph glyph-name="Jacute" horiz-adv-x="591" 
d="M404 743l-8 12q64 92 129 128q40 16 67 6t25 -39.5t-39 -50.5q-76 -46 -174 -56zM190 148q-7 -47 -40 -67.5t-73 -20.5q27 -15 59 -15q51 0 82 32.5t46 112.5q52 286 53 333q2 30 -7 43t-36 13h-35q12 51 17 110q120 -2 188 -2q41 0 113.5 1t73.5 1q-10 -44 -16 -110h-23
q-26 0 -40 -12t-20 -44q-15 -81 -53 -327q-35 -221 -297 -221q-103 0 -153 44t-39 119q7 48 40 76t79 28q42 0 65 -26t16 -68z" />
    <glyph glyph-name="idotaccent" horiz-adv-x="368" 
d="M344 629q-6 -41 -37 -70t-82 -29q-43 0 -67 28t-19 71q4 42 34.5 71.5t81.5 29.5q46 0 70 -29t19 -72zM294 291l-38 -152q-19 -78 7 -78q28 0 47 135l41 -1q-4 -44 -15.5 -81.5t-32 -69t-53 -49.5t-74.5 -18q-159 0 -102 198l43 154q22 75 -1 75q-20 0 -35 -38.5
t-21 -99.5l-40 1q11 95 52.5 157.5t113.5 62.5q77 0 104 -52t4 -144z" />
    <glyph glyph-name="jacute" horiz-adv-x="318" 
d="M280 291l-50 -258q-25 -129 -90.5 -182t-182.5 -53q-72 0 -107.5 27.5t-24.5 73.5q5 28 25 43.5t49 15.5q33 0 47 -19t8 -46q-6 -25 -31 -36t-51 -5q18 -18 49 -18q62 0 89 52.5t51 184.5l44 236q4 23 6.5 38t3.5 30t-1 22t-8 7q-19 0 -34 -39t-21 -99l-40 1
q12 99 54.5 159.5t115.5 60.5q138 0 99 -196zM176 528l-8 12q64 92 129 128q40 16 67 6t25 -39.5t-39 -50.5q-76 -46 -174 -56z" />
    <glyph glyph-name="C.round" horiz-adv-x="703" 
d="M405 710q170 0 200 -108q22 36 41 88q48 -6 94 0q-40 -128 -58 -253q-1 0 -14 0.5t-30.5 1t-29.5 0.5q-11 0 -28 -0.5t-29.5 -1t-13.5 -0.5q17 150 -100 150q-69 0 -105.5 -51t-57.5 -190q-9 -77 -9 -124.5t16 -74t34.5 -35.5t47.5 -9q70 0 107 40.5t50 125.5q4 -2 74 -2
q69 0 75 2q-23 -150 -103.5 -222t-232.5 -72q-172 0 -247.5 89.5t-46.5 281.5q28 181 124.5 272.5t241.5 91.5z" />
    <glyph glyph-name="G.round" horiz-adv-x="791" 
d="M365 103q53 0 86 25t43 94q9 66 -46 66h-26l12 84q109 -2 171 -2l170 2l-13 -84h-22q-21 0 -30.5 -12t-13.5 -41q-21 -139 -21 -236q-21 1 -67.5 1t-67.5 -1q-7 42 -17 87q-36 -51 -94.5 -81t-134.5 -30q-51 0 -93 11.5t-79 38t-58 69t-30 105.5t6 147q29 182 126 273
t247 91q168 0 194 -115q25 40 47 95q53 -4 107 0q-17 -47 -36 -128t-22 -125q-51 2 -83 2l-82 -1q13 74 -15.5 111.5t-84.5 37.5q-70 0 -105.5 -49.5t-57.5 -194.5q-9 -76 -9 -123t15.5 -73t35 -35t48.5 -9z" />
    <glyph glyph-name="S.round" horiz-adv-x="693" 
d="M382 610q-127 0 -141 -68q-7 -35 25 -51.5t117 -20.5q154 -7 219.5 -81t45.5 -198q-16 -101 -100.5 -158t-218.5 -57q-154 0 -226 97q-22 -40 -34 -74q-43 4 -86 0q34 109 47 225q12 -2 37.5 -2t37.5 2q43 -140 230 -140q133 0 144 70q6 37 -24.5 54.5t-122.5 22.5
q-139 7 -208.5 79.5t-49.5 188.5q37 211 311 211q149 0 197 -88q25 34 33 68q38 -4 77 0q-34 -103 -38 -207q-12 1 -39.5 1t-39.5 -1q-45 127 -193 127z" />
    <glyph glyph-name="Cacute.round" horiz-adv-x="703" 
d="M393 743l-8 12q64 92 129 128q40 16 67 6t25 -39.5t-39 -50.5q-76 -46 -174 -56zM405 710q170 0 200 -108q22 36 41 88q48 -6 94 0q-40 -128 -58 -253q-1 0 -14 0.5t-30.5 1t-29.5 0.5q-11 0 -28 -0.5t-29.5 -1t-13.5 -0.5q17 150 -100 150q-69 0 -105.5 -51t-57.5 -190
q-9 -77 -9 -124.5t16 -74t34.5 -35.5t47.5 -9q70 0 107 40.5t50 125.5q4 -2 74 -2q69 0 75 2q-23 -150 -103.5 -222t-232.5 -72q-172 0 -247.5 89.5t-46.5 281.5q28 181 124.5 272.5t241.5 91.5z" />
    <glyph glyph-name="Ccaron.round" horiz-adv-x="703" 
d="M296 895l13 11q60 -22 122 -81q29 24 74 48.5t74 31.5l9 -10q-19 -44 -55 -84t-73 -65h-77q-25 25 -50.5 66.5t-36.5 82.5zM405 710q170 0 200 -108q22 36 41 88q48 -6 94 0q-40 -128 -58 -253q-1 0 -14 0.5t-30.5 1t-29.5 0.5q-11 0 -28 -0.5t-29.5 -1t-13.5 -0.5
q17 150 -100 150q-69 0 -105.5 -51t-57.5 -190q-9 -77 -9 -124.5t16 -74t34.5 -35.5t47.5 -9q70 0 107 40.5t50 125.5q4 -2 74 -2q69 0 75 2q-23 -150 -103.5 -222t-232.5 -72q-172 0 -247.5 89.5t-46.5 281.5q28 181 124.5 272.5t241.5 91.5z" />
    <glyph glyph-name="Ccedilla.round" horiz-adv-x="703" 
d="M405 710q170 0 200 -108q22 36 41 88q48 -6 94 0q-40 -128 -58 -253q-1 0 -14 0.5t-30.5 1t-29.5 0.5q-11 0 -28 -0.5t-29.5 -1t-13.5 -0.5q17 150 -100 150q-69 0 -105.5 -51t-57.5 -190q-9 -77 -9 -124.5t16 -74t34.5 -35.5t47.5 -9q70 0 107 40.5t50 125.5q4 -2 74 -2
q69 0 75 2q-23 -150 -103.5 -222t-232.5 -72h-1q-4 -23 -23 -41q45 2 76.5 -18.5t30.5 -61.5q-1 -43 -35 -68.5t-90 -25.5q-75 0 -113 58l24 23q27 -33 65 -33q51 0 53 46q1 30 -23 40.5t-56 -2.5l-11 25q50 20 65 60q-152 9 -217.5 98t-38.5 271q28 181 124.5 272.5
t241.5 91.5z" />
    <glyph glyph-name="Ccircumflex.round" horiz-adv-x="703" 
d="M575 753l-13 -11q-70 26 -123 78q-27 -23 -72 -46.5t-75 -30.5l-9 11q19 42 56.5 82t76.5 66h77q24 -24 47 -65.5t35 -83.5zM405 710q170 0 200 -108q22 36 41 88q48 -6 94 0q-40 -128 -58 -253q-1 0 -14 0.5t-30.5 1t-29.5 0.5q-11 0 -28 -0.5t-29.5 -1t-13.5 -0.5
q17 150 -100 150q-69 0 -105.5 -51t-57.5 -190q-9 -77 -9 -124.5t16 -74t34.5 -35.5t47.5 -9q70 0 107 40.5t50 125.5q4 -2 74 -2q69 0 75 2q-23 -150 -103.5 -222t-232.5 -72q-172 0 -247.5 89.5t-46.5 281.5q28 181 124.5 272.5t241.5 91.5z" />
    <glyph glyph-name="Cdotaccent.round" horiz-adv-x="703" 
d="M405 710q170 0 200 -108q22 36 41 88q48 -6 94 0q-40 -128 -58 -253q-1 0 -14 0.5t-30.5 1t-29.5 0.5q-11 0 -28 -0.5t-29.5 -1t-13.5 -0.5q17 150 -100 150q-69 0 -105.5 -51t-57.5 -190q-9 -77 -9 -124.5t16 -74t34.5 -35.5t47.5 -9q70 0 107 40.5t50 125.5q4 -2 74 -2
q69 0 75 2q-23 -150 -103.5 -222t-232.5 -72q-172 0 -247.5 89.5t-46.5 281.5q28 181 124.5 272.5t241.5 91.5zM507 819q-2 -29 -22.5 -49.5t-52.5 -20.5t-49 20t-15 50q2 31 22.5 50t50.5 19q32 0 50 -19t16 -50z" />
    <glyph glyph-name="Gbreve.round" horiz-adv-x="791" 
d="M365 103q53 0 86 25t43 94q9 66 -46 66h-26l12 84q109 -2 171 -2l170 2l-13 -84h-22q-21 0 -30.5 -12t-13.5 -41q-21 -139 -21 -236q-21 1 -67.5 1t-67.5 -1q-7 42 -17 87q-36 -51 -94.5 -81t-134.5 -30q-51 0 -93 11.5t-79 38t-58 69t-30 105.5t6 147q29 182 126 273
t247 91q168 0 194 -115q25 40 47 95q53 -4 107 0q-17 -47 -36 -128t-22 -125q-51 2 -83 2l-82 -1q13 74 -15.5 111.5t-84.5 37.5q-70 0 -105.5 -49.5t-57.5 -194.5q-9 -76 -9 -123t15.5 -73t35 -35t48.5 -9zM442 746q-74 0 -99 40.5t-6 104.5l30 1q-1 -28 20 -40.5t70 -12.5
q48 0 73 12.5t32 40.5l29 -1q-1 -64 -38 -104.5t-111 -40.5z" />
    <glyph glyph-name="Gcircumflex.round" horiz-adv-x="791" 
d="M576 753l-13 -11q-70 26 -123 78q-27 -23 -72 -46.5t-75 -30.5l-9 11q19 42 56.5 82t76.5 66h77q24 -24 47 -65.5t35 -83.5zM365 103q53 0 86 25t43 94q9 66 -46 66h-26l12 84q109 -2 171 -2l170 2l-13 -84h-22q-21 0 -30.5 -12t-13.5 -41q-21 -139 -21 -236
q-21 1 -67.5 1t-67.5 -1q-7 42 -17 87q-36 -51 -94.5 -81t-134.5 -30q-51 0 -93 11.5t-79 38t-58 69t-30 105.5t6 147q29 182 126 273t247 91q168 0 194 -115q25 40 47 95q53 -4 107 0q-17 -47 -36 -128t-22 -125q-51 2 -83 2l-82 -1q13 74 -15.5 111.5t-84.5 37.5
q-70 0 -105.5 -49.5t-57.5 -194.5q-9 -76 -9 -123t15.5 -73t35 -35t48.5 -9z" />
    <glyph glyph-name="Gcommaaccent.round" horiz-adv-x="791" 
d="M317 -176q-48 0 -45 58q2 29 21 47t50 18q66 0 61 -80q-4 -58 -48.5 -95.5t-110.5 -48.5l-4 20q111 22 127 106q-13 -25 -51 -25zM365 103q53 0 86 25t43 94q9 66 -46 66h-26l12 84q109 -2 171 -2l170 2l-13 -84h-22q-21 0 -30.5 -12t-13.5 -41q-21 -139 -21 -236
q-21 1 -67.5 1t-67.5 -1q-7 42 -17 87q-36 -51 -94.5 -81t-134.5 -30q-51 0 -93 11.5t-79 38t-58 69t-30 105.5t6 147q29 182 126 273t247 91q168 0 194 -115q25 40 47 95q53 -4 107 0q-17 -47 -36 -128t-22 -125q-51 2 -83 2l-82 -1q13 74 -15.5 111.5t-84.5 37.5
q-70 0 -105.5 -49.5t-57.5 -194.5q-9 -76 -9 -123t15.5 -73t35 -35t48.5 -9z" />
    </font>
</defs>
</svg>
