<?xml version="1.0" standalone="no"?>
<!DOCTYPE svg PUBLIC "-//W3C//DTD SVG 1.1//EN" "http://www.w3.org/Graphics/SVG/1.1/DTD/svg11.dtd" >
<svg>
<metadata>
Created by FontForge 20110222 at Mon Apr 21 12:38:01 2014
 By Orthosie Webhosting
(C)2010 House Industries/Brand Design Co., Inc. All Rights Reserved.
</metadata>
<defs>
<font id="EamesCenturyModernLight" horiz-adv-x="600" >
  <font-face 
    font-family="EamesCenturyModernLight"
    font-weight="300"
    font-stretch="normal"
    units-per-em="1000"
    panose-1="2 0 4 3 7 7 5 2 2 3"
    ascent="820"
    descent="-180"
    x-height="451"
    cap-height="690"
    bbox="-218 -270 1072 1092.59"
    underline-thickness="50"
    underline-position="-50"
    unicode-range="U+0020-FB04"
  />
<missing-glyph horiz-adv-x="500" 
 />
    <glyph glyph-name="f_f" unicode="ff" horiz-adv-x="681" 
d="M625 31v-33q-1 0 -55 1t-84 1q-22 0 -55.5 -0.5t-58 -1t-26.5 -0.5v33h68q39 0 39 42q1 26 1 148.5t-1 200.5h-264v-349q0 -22 10.5 -32t36.5 -10h65v-33q-1 0 -55.5 1t-84.5 1q-22 0 -55 -0.5t-57.5 -1t-26.5 -0.5v33h67q39 0 39 42v348l-101 -1v31l101 -2v39
q0 109 46.5 156.5t119.5 47.5q58 0 83 -26.5t25 -61.5q0 -54 -50 -54q-20 0 -32 11t-12 31q0 26 18 37t44 5q-24 34 -74 34q-57 0 -83 -41t-25 -129l1 -49h264v39q-1 107 46.5 155.5t123.5 48.5q58 0 88 -27.5t30 -63.5q0 -51 -50 -51q-20 0 -32.5 11.5t-12.5 31.5
q0 24 18.5 36t42.5 5q-26 34 -79 34q-59 0 -86.5 -37.5t-27.5 -127.5v-54l112 2v-31l-112 1v-110v-154.5v-83.5q0 -22 9 -32t35 -10h67z" />
    <glyph glyph-name="f_i" unicode="fi" horiz-adv-x="645" 
d="M27 451l101 -3v12q0 116 53.5 174t148.5 58q71 0 111 -26t40 -67q0 -24 -14 -36.5t-36 -12.5q-21 0 -33 12t-12 32q0 19 13 31t37 11q-33 32 -106 32q-72 0 -106.5 -47t-34.5 -152v-18q294 0 331 3q-1 -15 -1 -174.5t1 -194.5q1 -34 10.5 -44t40.5 -10h46v-33
q-81 2 -128 2l-129 -2v33h54q27 0 36 10t9 42v61.5v92v88.5v44q0 28 -10 39.5t-35 12.5q-82 3 -225 1v-349q0 -23 9.5 -32.5t37.5 -9.5h65v-33q-90 2 -140 2l-139 -2v33h67q37 0 39 42q1 18 1 149.5t-1 199.5l-101 -2v31z" />
    <glyph glyph-name="f_l" unicode="fl" horiz-adv-x="646" 
d="M27 451l101 -3v61q0 97 34 140t100 43q49 0 70.5 -26.5t21.5 -59.5q0 -56 -50 -56q-20 0 -32 12t-12 32q0 25 18.5 36t47.5 3q-19 35 -61 35q-44 0 -61.5 -36.5t-15.5 -119.5l1 -64l112 3v-31l-112 2v-348q0 -22 10.5 -32t36.5 -10h65v-34q-90 2 -140 2l-139 -2v34h67
q39 0 39 42q2 74 0 348l-101 -2v31zM520 693q-1 -71 -1 -313t1 -285t11 -53.5t52 -10.5h36v-33q-83 2 -130 2l-131 -2v33h41q41 0 50.5 11t9.5 52q1 41 1 248.5t-1 246.5q0 42 -9.5 56t-48.5 14h-40v31q124 0 159 3z" />
    <glyph glyph-name="f_f_i" unicode="ffi" horiz-adv-x="963" 
d="M625 31v-33q-89 2 -139 2l-140 -2v33h68q38 0 39 42q1 18 1 143t-1 207h-264v-350q0 -22 10.5 -32t36.5 -10h65v-33q-90 2 -140 2l-139 -2v33h67q39 0 39 42v49.5v91.5v107.5v100.5l-101 -2v31l101 -3v26q0 218 157 218q59 0 88 -26.5t29 -63.5q0 -52 -50 -52
q-21 0 -32.5 11.5t-11.5 31.5q0 24 18.5 36t45.5 4q-30 35 -85 35q-58 0 -79.5 -42.5t-19.5 -148.5l1 -29h264v14q-1 114 53.5 172t148.5 58q70 0 110 -25t40 -67q0 -24 -13.5 -37t-35.5 -13q-21 0 -32.5 12t-11.5 32q0 19 12.5 30.5t34.5 11.5h1q-34 32 -105 32
q-70 0 -105.5 -44.5t-35.5 -151.5v-21q286 0 324 3v-87.5v-176.5v-105q0 -35 10 -44.5t41 -9.5h46v-33q-82 2 -128 2l-130 -2v33h54q27 0 36 10t10 42q1 33 1 145.5t-1 140.5t-10.5 40t-34.5 12q-2 0 -102 0.5t-117 0.5v-122t0.5 -143.5t0.5 -83.5q0 -22 9.5 -32t37.5 -10
h64z" />
    <glyph glyph-name="f_f_l" unicode="ffl" horiz-adv-x="963" 
d="M625 32v-34q-89 2 -139 2l-140 -2v34h68q39 0 39 42q2 74 0 349h-264v-350q0 -22 10.5 -32t36.5 -10h65v-33q-90 2 -140 2l-139 -2v33h67q39 0 39 42q2 85 0 349l-101 -2v31l101 -3v26q0 218 164 218q58 0 84 -26t26 -59q0 -57 -50 -57q-20 0 -32 11.5t-12 31.5
q0 25 18 36t44 5q-25 34 -76 34q-59 0 -83.5 -43.5t-22.5 -147.5l1 -29h264v61q-1 183 134 183q49 0 70.5 -25.5t21.5 -59.5q0 -57 -50 -57q-21 0 -32.5 12t-11.5 32q0 25 19.5 36t45.5 3q-20 35 -60 35q-41 0 -61 -35.5t-17 -120.5l2 -64l112 3v-31l-113 2q-2 -207 1 -348
q0 -22 10.5 -32t36.5 -10h64zM838 693q-1 -541 0 -598q0 -43 10.5 -53.5t52.5 -10.5h35v-33q-83 2 -129 2l-131 -2v33h41q41 1 50 11.5t10 51.5q1 40 1 248t-1 247q-1 43 -10 56.5t-48 13.5h-40v31q120 0 159 3z" />
    <glyph glyph-name="f_j" unicode="fj" horiz-adv-x="609" 
d="M27 451l101 -3v12q0 116 54 174t148 58q71 0 111 -26t40 -67q0 -24 -14.5 -36.5t-35.5 -12.5t-33 12.5t-12 32.5q0 19 13.5 31t35.5 11q-32 31 -105 31q-72 0 -106.5 -47t-34.5 -152v-18q293 0 331 3v-111.5v-222v-124.5q1 -96 -37 -143t-105 -47q-51 0 -79 21t-28 52
q0 25 14.5 38t34.5 13q47 0 47 -44q0 -17 -13 -30t-33 -14q20 -10 50 -10q41 0 65 30.5t24 124.5v383q0 26 -10.5 38.5t-38.5 12.5h-222v-348q0 -23 9.5 -32.5t37.5 -9.5h65v-33q-90 2 -140 2l-139 -2v33h67q37 0 39 42q1 18 1 149.5t-1 199.5l-101 -2v31z" />
    <glyph glyph-name="f_t" unicode="ft" horiz-adv-x="737" 
d="M663 150l29 -1q4 -80 -21 -121t-88 -41q-68 0 -96.5 36t-28.5 119v280h-269v-348q0 -22 10.5 -32t36.5 -10h65v-34q-90 2 -140 2l-139 -2v34h67q39 0 39 42q2 73 0 347l-101 -1v31l101 -3v61q0 97 34 140t100 43q49 0 72 -26.5t23 -58.5q0 -57 -50 -57q-20 0 -32.5 12
t-12.5 31q0 24 20 36.5t46 3.5q-19 35 -63 35q-45 0 -63 -37t-14 -119l1 -63h160q82 0 113 37t41 153h26q-5 -59 -9 -188l145 5v-36l-145 1v-278q0 -72 16 -97t53 -25q43 0 60.5 30.5t13.5 98.5z" />
    <glyph glyph-name="t_t" unicode="tt" horiz-adv-x="697" 
d="M623 150l29 -1q3 -80 -21.5 -121t-88.5 -41q-68 0 -96.5 36t-28.5 119v280h-269v-279q1 -73 16.5 -97.5t52.5 -24.5q43 0 60.5 30.5t13.5 98.5l29 -1q4 -80 -21 -121t-88 -41q-68 0 -96.5 36t-28.5 119v71.5v131v77.5h-77v26q68 3 90 42.5t32 148.5h26q-4 -52 -9 -190v-1
h157q41 1 68 9t43 19.5t25.5 39t13 51t7.5 72.5h27q-9 -113 -9 -188l144 5v-36l-145 1q0 -256 1 -278q4 -74 18 -98t50 -24q43 0 61 30t14 99z" />
    <glyph glyph-name=".notdef" horiz-adv-x="500" 
 />
    <glyph glyph-name=".null" horiz-adv-x="0" 
 />
    <glyph glyph-name="nonmarkingreturn" horiz-adv-x="333" 
 />
    <glyph glyph-name="space" unicode=" " horiz-adv-x="225" 
 />
    <glyph glyph-name="exclam" unicode="!" horiz-adv-x="230" 
d="M173 48q0 -27 -16.5 -42.5t-41.5 -15.5t-41.5 15.5t-16.5 42.5q0 26 16.5 42t41.5 16t41.5 -16t16.5 -42zM124 203q0 -12 -11 -12t-11 12q0 194 -29 368q-23 137 40 137q65 0 40 -137q-29 -160 -29 -368z" />
    <glyph glyph-name="quotedbl" unicode="&#x22;" horiz-adv-x="372" 
d="M122 436q0 -13 -11 -13q-9 0 -9 13v32v33t-1 28.5t-2.5 31t-5.5 26t-9 27.5q-14 37 -5.5 59t32.5 22t33 -22t-6 -59q-15 -34 -17.5 -83.5t1.5 -94.5zM272 436q0 -13 -11 -13q-9 0 -9 13v32v33t-1 28.5t-2.5 31t-5.5 26t-9 27.5q-14 37 -5.5 59t32.5 22t33 -22t-6 -59
q-15 -34 -17.5 -83.5t1.5 -94.5z" />
    <glyph glyph-name="numbersign" unicode="#" horiz-adv-x="597" 
d="M149 0h-26q24 99 50 233q-27 0 -69 -0.5t-57 -0.5q0 1 2.5 14t3.5 14q64 -2 125 -2l33 167q-28 0 -72.5 -0.5t-59.5 -0.5q0 1 2.5 13.5t3.5 13.5q68 -2 130 -2q27 141 42 239h28q-25 -109 -52 -239h176q25 143 39 239h27q-16 -69 -49 -239q60 0 128 2q0 -1 -3 -14l-3 -13
q-14 0 -57 0.5t-69 0.5q-7 -35 -31 -167q57 0 121 2q-1 -1 -3.5 -14t-2.5 -14q-14 0 -54 0.5t-65 0.5q-27 -152 -38 -233h-25q14 63 46 233h-180q-23 -115 -41 -233zM228 425q-16 -73 -33 -167h180q27 147 30 167h-177z" />
    <glyph glyph-name="dollar" unicode="$" horiz-adv-x="559" 
d="M244 787l-2 -114q20 2 31 2q15 0 41 -2l-1 114h32l-2 -118q65 -12 102 -45t37 -77q0 -25 -14.5 -39t-36.5 -14q-51 0 -51 48q0 20 13.5 33t37.5 13h2q-29 39 -91 52l-4 -259q97 -24 141 -67t44 -109q0 -77 -47 -125t-133 -61l2 -118h-32l1 115q-11 -1 -34 -1q-26 0 -38 1
l2 -115h-32l2 118q-83 11 -130 47.5t-47 82.5q0 25 15 40t39 15q51 0 51 -50q0 -17 -13 -30.5t-35 -14.5q37 -47 120 -60l4 281q-150 46 -150 170q0 65 39 110t107 59l-2 118h32zM477 176q0 44 -32 74t-106 51l3 -253q64 11 99.5 44.5t35.5 83.5zM282 44q22 0 33 1l3 262
l-81 18l5 -280q13 -1 40 -1zM238 403q52 -12 80 -17l-3 259q-21 3 -42 3q-12 0 -32 -2zM112 524q0 -44 22.5 -70t83.5 -45l-4 233q-51 -12 -76.5 -44t-25.5 -74z" />
    <glyph glyph-name="percent" unicode="%" 
d="M94 87q0 7 7 7t7 -7t-7 -7t-7 7zM131 140q0 11 11 11t11 -11q0 -12 -11 -12t-11 12zM168 193q0 6 4.5 10.5t11.5 4.5q6 0 10.5 -4.5t4.5 -10.5q0 -7 -4.5 -11.5t-10.5 -4.5q-16 0 -16 16zM206 245q0 8 5.5 13.5t12.5 5.5q8 0 14 -5.5t6 -13.5q0 -7 -6 -12.5t-14 -5.5
t-13 5.5t-5 12.5zM245 298q0 8 6.5 14t14.5 6t14 -6t6 -14t-6 -14.5t-14 -6.5t-14.5 6.5t-6.5 14.5zM285 351q0 8 6.5 14t15.5 6t15.5 -6t6.5 -14q0 -9 -6.5 -15.5t-15.5 -6.5t-15.5 6.5t-6.5 15.5zM328 403q0 8 6 14.5t14 6.5t14.5 -6.5t6.5 -14.5t-6.5 -14t-14.5 -6t-14 6
t-6 14zM370 456q0 7 6 12.5t14 5.5t13 -5t5 -13t-5.5 -13.5t-12.5 -5.5q-8 0 -14 5.5t-6 13.5zM415 508q0 7 4.5 11.5t10.5 4.5q16 0 16 -16q0 -6 -4.5 -10.5t-11.5 -4.5q-6 0 -10.5 4.5t-4.5 10.5zM461 561q0 11 11 11t11 -11t-11 -11t-11 11zM506 614q0 7 7 7t7 -7
q0 -8 -7 -8t-7 8zM416 -11q42 0 60.5 30.5t18.5 110.5q0 84 -18.5 113t-60.5 29q-39 0 -58.5 -31t-19.5 -111q0 -84 18 -112.5t60 -28.5zM416 -29q-59 0 -92 40t-33 119q0 78 35.5 119t89.5 41q60 0 93 -40.5t33 -119.5q0 -77 -36 -118t-90 -41zM187 410q42 0 60.5 30.5
t18.5 109.5q0 84 -18.5 113t-60.5 29q-39 0 -58.5 -31t-19.5 -111q0 -84 18 -112t60 -28zM187 391q-59 0 -92 40t-33 119q0 78 35.5 119t89.5 41q60 0 93 -40.5t33 -119.5q0 -77 -36 -118t-90 -41z" />
    <glyph glyph-name="ampersand" unicode="&#x26;" horiz-adv-x="716" 
d="M716 116q-16 -122 -133 -122q-85 0 -148 57q-79 -69 -189 -69q-93 0 -146 45t-53 121q0 136 164 203q-60 111 -60 190q0 77 40 118t119 41q68 0 104.5 -40.5t36.5 -99.5q0 -71 -40.5 -117t-126.5 -89q14 -25 46 -70q83 -120 127 -171q61 66 71 162q5 42 -31 42h-63v33
q83 -3 123 -3l123 3v-33h-69q-16 0 -25.5 -5.5t-13 -13.5t-5.5 -21q-15 -103 -91 -184q62 -65 126 -65q76 0 92 93zM256 19q91 0 158 53q-55 55 -142 181q-18 25 -48 75q-117 -59 -117 -157q0 -74 46 -113.5t103 -38.5zM214 551q0 -74 59 -178q67 34 93.5 76.5t26.5 108.5
q0 55 -17.5 84.5t-65.5 29.5q-54 0 -75 -29t-21 -92z" />
    <glyph glyph-name="quotesingle" unicode="'" horiz-adv-x="223" 
d="M122 436q0 -13 -11 -13q-9 0 -9 13v32v33t-1 28.5t-2.5 31t-5.5 26t-9 27.5q-14 37 -5.5 59t32.5 22t33 -22t-6 -59q-15 -34 -17.5 -83.5t1.5 -94.5z" />
    <glyph glyph-name="parenleft" unicode="(" horiz-adv-x="270" 
d="M109 324q0 -177 27 -300.5t89 -209.5l-14 -10q-167 188 -167 520q0 330 167 520l14 -11q-62 -86 -89 -209t-27 -300z" />
    <glyph glyph-name="parenright" unicode=")" horiz-adv-x="270" 
d="M159 324q0 176 -27 299.5t-88 209.5l13 11q168 -191 168 -520q0 -331 -168 -520l-13 10q61 86 88 209.5t27 300.5z" />
    <glyph glyph-name="asterisk" unicode="*" horiz-adv-x="500" 
d="M263 604q-6 -33 -6 -70l13 -8q38 23 56 41q8 7 22.5 26t27.5 27q17 9 31 6t21 -16q8 -12 3.5 -27t-20.5 -24q-13 -7 -36 -9.5t-34 -6.5q-29 -10 -63 -29v-16q36 -19 63 -27q10 -3 33.5 -6t36.5 -10q17 -9 21 -24t-4 -27q-7 -12 -21 -15.5t-31 5.5q-13 8 -27 27t-22 26
q-24 21 -56 40l-14 -8q0 -40 7 -69q2 -10 11 -31.5t10 -36.5q1 -19 -9.5 -30t-25.5 -11t-25.5 11t-9.5 30q1 14 10 35.5t11 32.5q6 30 7 69l-14 8q-33 -20 -55 -40q-8 -7 -22.5 -26t-27.5 -27q-17 -9 -31 -6t-21 16q-8 12 -3.5 27t20.5 24q13 7 36 9.5t34 6.5q22 6 64 28v16
q-31 17 -64 28q-10 3 -33.5 6t-36.5 10q-17 9 -21 24t4 27q7 12 21 15.5t31 -5.5q13 -8 27 -27t22 -26q19 -18 57 -41l13 8q-1 45 -7 70q-2 8 -11.5 30.5t-10.5 37.5q-1 19 10 30t26 11t25.5 -11t9.5 -30q-1 -15 -10.5 -36.5t-11.5 -31.5z" />
    <glyph glyph-name="plus" unicode="+" 
d="M321 26h-43q6 177 12 215q-49 -7 -213 -12v43q164 -5 213 -12q-7 50 -12 213h43q-5 -163 -13 -214q51 8 215 13v-43q-173 5 -215 12q7 -46 13 -215z" />
    <glyph glyph-name="comma" unicode="," horiz-adv-x="238" 
d="M20 -122q66 13 105.5 53t35.5 102q-10 -16 -36 -16q-18 0 -29 11t-11 31t13 33.5t35 13.5q55 0 55 -74q0 -58 -39.5 -107.5t-121.5 -64.5z" />
    <glyph glyph-name="hyphen" unicode="-" horiz-adv-x="319" 
d="M28 227v47q131 -4 263 0v-47q-131 4 -263 0z" />
    <glyph glyph-name="period" unicode="." horiz-adv-x="231" 
d="M174 48q0 -27 -16.5 -42.5t-42.5 -15.5q-25 0 -41.5 15.5t-16.5 42.5q0 26 16.5 42t41.5 16t42 -16t17 -42z" />
    <glyph glyph-name="slash" unicode="/" horiz-adv-x="399" 
d="M84 -175q-7 1 -22 1t-23 -1q151 458 276 866q7 -1 22 -1t23 1q-152 -465 -276 -866z" />
    <glyph glyph-name="zero" unicode="0" horiz-adv-x="602" 
d="M120 271q0 -262 181 -262t181 263t-182 263q-80 0 -130 -60.5t-50 -203.5zM50 271q0 137 67.5 214.5t183.5 77.5q120 0 185.5 -76.5t65.5 -214.5q0 -142 -68 -216.5t-183 -74.5q-122 0 -186.5 73.5t-64.5 216.5z" />
    <glyph glyph-name="one" unicode="1" horiz-adv-x="381" 
d="M161 76v362q-42 -34 -119 -21v31h26q67 0 92.5 27.5t32.5 97.5h34q-5 -71 -5 -172v-325q0 -26 12.5 -35t46.5 -9h60v-33q-95 2 -150 2l-150 -2v33h61q34 0 46.5 9t12.5 35z" />
    <glyph glyph-name="two" unicode="2" horiz-adv-x="529" 
d="M469 179q14 -42 14 -78q1 -57 -28.5 -91.5t-87.5 -34.5q-31 0 -58 10t-45 22.5t-54 41.5q-38 31 -75 31q-41 0 -55 -29q8 2 16 2q18 0 28 -10t10 -27q0 -18 -12 -27t-27 -9q-47 0 -47 66q0 133 175 196q96 34 134 73.5t38 98.5q0 54 -34 86.5t-103 32.5q-37 0 -69.5 -8.5
t-60 -34t-32.5 -65.5q14 11 34 11q49 0 49 -49q0 -20 -13.5 -33t-38.5 -13q-24 0 -41 17t-17 53q0 68 54.5 110t142.5 42q95 0 144.5 -41t49.5 -106q0 -75 -49.5 -121.5t-170.5 -79.5q-152 -40 -166 -143q24 40 89 40q41 0 87 -22q80 -42 128 -42q44 -1 63.5 31t5.5 99z" />
    <glyph glyph-name="three" unicode="3" horiz-adv-x="549" 
d="M469 394q0 -69 -34.5 -114t-99.5 -59q79 -7 124.5 -56.5t45.5 -124.5q0 -100 -68 -151t-183 -51q-99 0 -156 44t-57 109q0 41 20 60t46 19q23 0 36 -13t13 -36q0 -21 -14.5 -34t-37.5 -13q-22 0 -36 12q4 -59 55.5 -89.5t126.5 -30.5q92 0 139.5 45.5t47.5 127.5
t-45 122.5t-149 40.5h-21v30h21q88 0 125.5 37.5t37.5 124.5q0 64 -41 101.5t-105 37.5q-58 0 -106.5 -25.5t-56.5 -81.5q12 10 32 10q49 0 49 -49q0 -21 -13.5 -33.5t-37.5 -12.5q-58 0 -58 68q0 64 53.5 109t145.5 45t146.5 -45t54.5 -124z" />
    <glyph glyph-name="four" unicode="4" horiz-adv-x="549" 
d="M347 -58v119q-133 1 -300 -1v32l329 474h32q-1 -135 -1 -475h2l128 3v-37l-124 3h-6q0 -23 0.5 -64.5t0.5 -53.5q0 -24 11 -31.5t41 -7.5h57v-33q-89 2 -141 2l-144 -2v33h56q36 0 47.5 7.5t11.5 31.5zM347 90q0 178 -2 384l-266 -384q120 -2 268 0z" />
    <glyph glyph-name="five" unicode="5" horiz-adv-x="544" 
d="M268 262q-94 0 -173 -66l-18 15q29 56 43.5 159t5.5 196q65 -23 178 -23q117 0 183 34l12 -14q-53 -85 -194 -85q-92 0 -150 30q-2 -158 -38 -265q71 49 164 49q222 0 222 -222q0 -105 -71 -168.5t-182 -63.5q-99 0 -154.5 43.5t-55.5 109.5q0 38 19 58.5t49 20.5
q48 0 48 -49q0 -22 -14.5 -34.5t-38.5 -12.5q-23 0 -35 12q4 -59 54.5 -89.5t126.5 -30.5q184 0 184 205q0 99 -40.5 145t-124.5 46z" />
    <glyph glyph-name="six" unicode="6" horiz-adv-x="561" 
d="M306 681q-100 0 -147.5 -82.5t-48.5 -260.5q25 45 75.5 73t113.5 28q109 0 161.5 -57.5t52.5 -160.5q0 -106 -62 -171t-165 -65q-119 0 -179.5 79t-60.5 257q0 192 71 289.5t187 97.5q90 0 136.5 -43.5t46.5 -100.5q0 -73 -59 -73q-23 0 -36 12t-13 34t13 35.5t39 13.5
q15 0 24 -6q-7 50 -46 75.5t-103 25.5zM114 221q0 -92 44.5 -149.5t132.5 -57.5q78 0 119 56.5t41 147.5q0 191 -158 191q-84 0 -131.5 -48t-47.5 -140z" />
    <glyph glyph-name="seven" unicode="7" horiz-adv-x="519" 
d="M82 572l3 -62q29 54 102 54q53 0 114 -44q58 -43 107 -43q46 0 59 28q-4 -1 -12 -1q-16 0 -25.5 9.5t-9.5 24.5q0 38 34 38q39 0 39 -54q0 -49 -62 -112q-45 -45 -74.5 -87t-55 -102t-34 -140.5t0.5 -181.5q1 -22 -9.5 -35t-29.5 -13q-42 0 -42 61q-1 155 47 270t150 215
q8 7 25.5 23t28 27t18.5 23q-36 -33 -100 -33q-62 -1 -126 37q-44 27 -76 27q-41 -1 -59 -27t-14 -84q-16 2 -33 0q11 88 3 182q15 -2 31 0z" />
    <glyph glyph-name="eight" unicode="8" horiz-adv-x="561" 
d="M490 542q0 -100 -113 -173q79 -27 112.5 -72.5t33.5 -108.5q0 -95 -66 -149t-176 -54q-123 0 -182 44.5t-59 135.5q0 57 36 106.5t100 78.5q-95 53 -95 167q0 85 56.5 138t152.5 53q100 0 150 -45.5t50 -120.5zM273 316q-40 8 -76 23q-110 -54 -110 -174q0 -71 49.5 -110
t145.5 -39q92 0 145.5 38.5t53.5 105.5q0 59 -44.5 95t-163.5 61zM289 678q-80 0 -122.5 -39.5t-42.5 -100.5q0 -58 44 -95t143 -56q27 -5 43 -10q92 72 92 166q0 57 -38 96t-119 39z" />
    <glyph glyph-name="nine" unicode="9" horiz-adv-x="562" 
d="M244 -136q105 0 155 81.5t51 260.5q-25 -47 -76 -71.5t-113 -24.5q-109 0 -163.5 57.5t-54.5 159.5q0 106 64 171t171 65q239 0 239 -336q0 -194 -71 -291.5t-200 -97.5q-94 0 -148.5 42.5t-54.5 105.5q0 35 17.5 55.5t47.5 20.5q23 0 36 -12.5t13 -34.5
q0 -20 -13.5 -33.5t-37.5 -13.5q-21 0 -33 9q7 -56 54.5 -84.5t116.5 -28.5zM450 329q0 92 -45 148.5t-131 56.5q-82 0 -125.5 -56.5t-43.5 -148.5q0 -93 42 -141.5t121 -48.5q83 0 132.5 47t49.5 143z" />
    <glyph glyph-name="colon" unicode=":" horiz-adv-x="237" 
d="M168 337q0 -23 -14 -35.5t-36 -12.5q-21 0 -35 13t-14 36q0 22 14 35.5t35 13.5q22 0 36 -13.5t14 -36.5zM168 75q0 -23 -14 -36t-36 -13q-21 0 -35 13t-14 36t14 36t35 13t35.5 -13.5t14.5 -35.5z" />
    <glyph glyph-name="semicolon" unicode=";" horiz-adv-x="237" 
d="M67 78q0 19 13 32.5t35 13.5q28 0 41.5 -20t13.5 -51q0 -60 -41.5 -109t-117.5 -66l-9 17q64 17 104.5 56.5t38.5 102.5q-10 -19 -38 -19q-40 0 -40 43zM168 337q0 -23 -14 -35.5t-36 -12.5q-21 0 -35 13t-14 36q0 22 14 35.5t35 13.5q22 0 36 -13.5t14 -36.5z" />
    <glyph glyph-name="less" unicode="&#x3c;" 
d="M135 237v24q148 96 281 195l25 -35q-36 -21 -140 -86.5t-137 -85.5q33 -20 137 -85.5t140 -86.5l-25 -35q-122 92 -281 195z" />
    <glyph glyph-name="equal" unicode="=" 
d="M80 152v42q221 -4 440 0v-42q-219 4 -440 0zM80 308v42q221 -4 440 0v-42q-219 4 -440 0z" />
    <glyph glyph-name="greater" unicode="&#x3e;" 
d="M440 261v-24q-161 -103 -281 -195l-26 35q36 21 140 86.5t137 85.5q-33 20 -137 85.5t-140 86.5l26 35q46 -35 137.5 -98.5t143.5 -96.5z" />
    <glyph glyph-name="question" unicode="?" horiz-adv-x="503" 
d="M356 278l15 -18q-60 -74 -133 -74q-29 0 -45.5 15.5t-16.5 39.5q0 29 21 49t77 50q64 34 92.5 75t28.5 117q0 66 -38.5 106t-119.5 40q-61 0 -112 -31t-52 -94q16 18 42 18q24 0 36.5 -13.5t12.5 -35.5t-15 -35.5t-40 -13.5q-29 0 -46 20t-17 60q0 67 56.5 111t149.5 44
q106 0 159.5 -49t53.5 -126q0 -82 -43.5 -129t-129.5 -87q-51 -24 -68.5 -39.5t-17.5 -32.5q0 -32 37 -32q56 0 113 65zM312 48q0 -27 -16.5 -42.5t-42.5 -15.5q-25 0 -41.5 15.5t-16.5 42.5q0 26 17 42t41 16q25 0 42 -16t17 -42z" />
    <glyph glyph-name="at" unicode="@" horiz-adv-x="820" 
d="M603 437q-25 -97 -54 -233q-15 -58 -2.5 -95t60.5 -37q50 0 83.5 43t49.5 109q40 170 -30.5 269t-227.5 99q-147 0 -245 -82.5t-131 -240.5q-41 -195 38.5 -292t240.5 -97q59 0 119 15.5t87 34.5l12 -15q-37 -28 -97.5 -44t-119.5 -16q-190 0 -282 111t-50 304
q35 164 152 255.5t275 91.5q174 0 250.5 -108t34.5 -287q-41 -178 -179 -178q-52 0 -81 27t-26 79q-23 -46 -60 -71.5t-75 -25.5q-58 0 -88 40.5t-18 122.5q17 107 71.5 168.5t121.5 61.5q43 0 69 -23.5t28 -64.5q22 42 36 79q3 -1 19 -1t19 1zM366 86q44 0 82 49.5
t57 147.5q14 66 -4 98t-59 32q-45 0 -83.5 -48t-55.5 -146q-11 -64 5.5 -98.5t57.5 -34.5z" />
    <glyph glyph-name="A" unicode="A" horiz-adv-x="861" 
d="M610 112l-42 120q-155 4 -298 0q-44 -110 -46 -120q-14 -44 -2.5 -61t60.5 -17h54v-36q-97 2 -152 2l-152 -2v36h46q45 0 66.5 15t40.5 60q3 8 115 289t119 300q11 -1 25 -1l27 1q80 -240 215 -588q17 -46 36.5 -61t63.5 -15h43v-36q-103 2 -161 2l-161 -2l1 36h50
q43 0 55 18.5t-3 59.5zM558 263q-41 117 -132 363l-144 -363q134 -2 276 0z" />
    <glyph glyph-name="B" unicode="B" horiz-adv-x="711" 
d="M665 190q0 -93 -63.5 -142t-217.5 -49q-155 1 -178 1l-157 -1v35h64q35 0 47 7.5t12 32.5q1 34 1 266.5t-1 265.5q0 28 -12 38.5t-40 10.5h-70v35q5 0 69.5 -1t87.5 -1t89 0.5t86 0.5q120 0 185 -43t65 -129q0 -62 -39.5 -104t-102.5 -58q81 -11 128 -54t47 -111z
M369 338h-130v-266q0 -25 11.5 -33t41.5 -8h83q116 0 165.5 38t49.5 121q0 68 -48 108t-173 40zM239 610v-244h122q101 0 148.5 35.5t47.5 115.5q0 73 -47.5 106.5t-145.5 33.5h-77q-25 0 -36.5 -10.5t-11.5 -36.5z" />
    <glyph glyph-name="C" unicode="C" horiz-adv-x="720" 
d="M574 655q25 -17 38.5 -8.5t19.5 50.5h33q-17 -124 -6 -236q-5 1 -18 1t-18 -1q-6 98 -63 156t-174 58q-258 0 -258 -329q0 -175 65 -253t187 -78q70 0 119 17t75.5 51t38.5 74t16 96q4 -1 20 -1t20 1q-6 -146 -73.5 -208.5t-216.5 -62.5q-157 0 -243 89t-86 275
q0 184 91 273t242 89q112 0 191 -53z" />
    <glyph glyph-name="D" unicode="D" horiz-adv-x="787" 
d="M376 689q181 0 269.5 -82.5t90.5 -256.5q1 -76 -18 -136t-51.5 -100t-79.5 -66t-99.5 -37.5t-112.5 -11.5q-128 1 -167 1l-169 -2v36h74q36 0 47.5 8t11.5 34q1 16 1 271t-1 268q0 25 -9 32.5t-36 7.5h-88v35q4 0 75 -1t97 -1q22 0 87.5 0.5t77.5 0.5zM238 77
q2 -46 44 -46h82q72 0 124 15t92.5 50t60.5 98.5t20 155.5q0 164 -72.5 235.5t-223.5 71.5h-90q-19 0 -27.5 -8.5t-9.5 -29.5q-1 -32 -1 -270.5t1 -271.5z" />
    <glyph glyph-name="E" unicode="E" horiz-adv-x="726" 
d="M450 492v15h33q0 -12 -1.5 -62t-1.5 -93q0 -109 3 -160h-33v17q-2 72 -26 100t-94 28h-94q0 -53 0.5 -112.5t1 -99.5t0.5 -45q0 -46 37 -46h228q80 0 110 40t32 156h35q-7 -102 -7 -234q-47 4 -202 4h-266l-173 -2v36h88q31 0 41 10t11 37q1 30 1 268t-1 267
q-1 23 -9.5 31t-35.5 8h-95v35q7 0 80.5 -1t88.5 -1h299q108 0 163 7q-4 -116 2 -228h-34q0 114 -24.5 150.5t-109.5 36.5h-224q-19 0 -27 -8.5t-8 -29.5q0 -5 -0.5 -43.5t-1 -96.5t-0.5 -110h96q70 0 93.5 25.5t24.5 100.5z" />
    <glyph glyph-name="F" unicode="F" horiz-adv-x="691" 
d="M433 506h33q-3 -43 -3 -155q0 -109 3 -160h-32v23q0 67 -26 94t-96 27h-75q0 -51 0.5 -109.5t0.5 -98v-45.5q0 -48 43 -48h109v-36q-114 2 -178 2l-180 -2v36h89q30 0 40.5 11t10.5 37q1 34 1 269.5t-1 264.5q0 23 -9 31t-36 8h-95v35q8 0 83.5 -1t85.5 -1h43.5t101 0.5
t124.5 0.5q124 0 171 6q-4 -81 1 -228h-34q-1 118 -26.5 152.5t-116.5 34.5h-192q-19 0 -27 -8.5t-8 -29.5v-44t-0.5 -97t-0.5 -109h78q68 0 92.5 24.5t25.5 93.5v22z" />
    <glyph glyph-name="G" unicode="G" horiz-adv-x="799" 
d="M383 708q103 0 191 -53q25 -17 38.5 -8.5t19.5 50.5h33q-17 -124 -6 -236q-5 1 -18 1t-18 -1q-6 98 -63 156t-174 58q-258 0 -258 -329q0 -331 252 -331q99 0 163 58.5t64 155.5q0 48 -12 64t-47 16h-64v35q92 -2 143 -2l142 2v-35h-50q-26 0 -37 -13.5t-11 -53.5
q0 -186 5 -259h-37q-1 3 -3 25t-6 55.5t-8 58.5q-29 -60 -92.5 -100t-150.5 -40q-157 0 -243 89t-86 275q0 184 91 273t242 89z" />
    <glyph glyph-name="H" unicode="H" horiz-adv-x="867" 
d="M49 -2v36h64q36 0 47.5 7t11.5 32q1 35 1 266.5t-1 265.5q0 28 -12 39t-40 11h-70v35q100 -2 156 -2q32 0 92 1t63 1v-35h-70q-28 0 -40 -11t-12 -39q0 -6 -0.5 -44.5t-0.5 -95v-106.5q192 -2 391 0q0 50 -0.5 106.5t-0.5 95v44.5q-1 29 -12.5 39.5t-39.5 10.5h-70v35
q100 -2 155 -2q33 0 93 1t63 1v-35h-70q-28 0 -40 -11t-12 -39q-1 -34 -1 -265.5t1 -266.5q0 -25 11.5 -32t47.5 -7h63v-36q-100 2 -156 2l-155 -2v36h63q36 0 47.5 7t11.5 32v47t0.5 98t0.5 109q-199 4 -391 0v-109t0.5 -98t0.5 -47q0 -25 11 -32t47 -7h64v-36
q-100 2 -156 2z" />
    <glyph glyph-name="I" unicode="I" horiz-adv-x="412" 
d="M50 -2v36h63q34 0 46.5 10.5t12.5 36.5q1 34 1 262t-1 262q0 28 -12 39t-40 11h-69v35q100 -2 156 -2q32 0 92 1t63 1v-35h-70q-28 0 -39.5 -10.5t-12.5 -39.5q-1 -34 -1 -262t1 -262q0 -26 12.5 -36.5t46.5 -10.5h63v-36q-100 2 -156 2z" />
    <glyph glyph-name="J" unicode="J" 
d="M107 103q-15 0 -27 5q21 -94 134 -94q78 0 113 47t36 160q1 47 1 198.5t-1 185.5q0 28 -12 39t-40 11h-66v35q98 -2 153 -2q32 0 90.5 1t61.5 1v-35h-66q-28 0 -39.5 -10.5t-12.5 -39.5v-76v-123v-122v-64q1 -238 -216 -238q-81 0 -126 45.5t-45 104.5q0 35 17.5 55.5
t47.5 20.5q25 0 39.5 -14.5t14.5 -38.5t-16.5 -38t-40.5 -14z" />
    <glyph glyph-name="K" unicode="K" horiz-adv-x="835" 
d="M49 -2v36h64q34 0 46 11t13 39q1 32 1 259.5t-1 261.5q0 28 -12 39t-40 11h-70v35q100 -2 156 -2q32 0 92 1t63 1v-35h-70q-28 0 -40 -11t-12 -39q0 -7 -0.5 -53.5t-0.5 -113v-123.5l320 286q20 16 12.5 35t-42.5 19h-51v35q100 -2 156 -2q32 0 90.5 1t61.5 1v-35h-40
q-45 0 -77.5 -15.5t-75.5 -52.5l-199 -176q103 -144 248 -320q26 -31 50 -44t61 -13h36v-35q-100 2 -155 2l-157 -2v35h40q38 0 46 17t-10 42q-71 107 -209 273l-105 -93v-81.5t0.5 -73t0.5 -34.5q0 -28 11.5 -39t44.5 -11h66v-36q-100 2 -156 2z" />
    <glyph glyph-name="L" unicode="L" horiz-adv-x="663" 
d="M361 690v-35h-70q-28 0 -40 -11t-12 -39q-1 -34 -1 -262t1 -262q0 -25 12 -36t44 -11h111q40 0 63.5 2t45.5 9.5t32.5 20t19.5 37t12 56t5 81.5h35q-10 -143 -8 -244q-47 4 -200 4h-202q-23 0 -61 -0.5t-67.5 -1t-31.5 -0.5v36h64q34 0 46.5 10.5t12.5 36.5q1 34 1 262
t-1 262q0 28 -12 39t-40 11h-70v35q100 -2 156 -2q37 0 155 2z" />
    <glyph glyph-name="M" unicode="M" horiz-adv-x="996" 
d="M472 42q-65 149 -265 580q0 -515 1 -528q1 -31 14 -45.5t46 -14.5h71v-36q-95 2 -148 2l-148 -2v36h67q33 0 46.5 14.5t14.5 45.5q1 11 1 256.5t-1 258.5q-1 46 -49 46h-78v35q106 -4 209 0q78 -185 251 -550q192 419 246 550q98 -4 197 0v-35h-71q-28 0 -39.5 -11
t-12.5 -40q-1 -32 -1 -253.5t1 -257.5q1 -32 13.5 -45.5t46.5 -13.5h63v-36q-100 2 -156 2l-156 -2v36h64q34 0 46.5 13.5t12.5 45.5v536q-216 -469 -265 -587h-21z" />
    <glyph glyph-name="N" unicode="N" horiz-adv-x="848" 
d="M238 690q127 -197 398 -591v498q0 58 -60 58h-69v35q3 0 60.5 -1t89.5 -1t90 1l58 1v-35h-70q-30 0 -44.5 -13.5t-14.5 -44.5v-600q-4 1 -26 1t-27 -1q-179 273 -411 608q0 -477 1 -516q0 -55 60 -55h69v-36q-96 2 -150 2l-149 -2v36h70q33 0 46 14t13 41v516
q0 28 -12 39t-40 11h-76v35q97 -4 194 0z" />
    <glyph glyph-name="O" unicode="O" horiz-adv-x="776" 
d="M388 15q122 0 192 80.5t70 249.5q0 163 -69 247t-193 84q-118 0 -190 -82.5t-72 -249.5q0 -174 70.5 -251.5t191.5 -77.5zM388 -18q-158 0 -248 95t-90 267q0 173 93 268.5t245 95.5q163 0 250.5 -98.5t87.5 -264.5q0 -174 -94 -268.5t-244 -94.5z" />
    <glyph glyph-name="P" unicode="P" horiz-adv-x="696" 
d="M348 248q-4 0 -47 0.5t-63 0.5v-77.5t0.5 -65t0.5 -29.5q1 -26 13.5 -35t46.5 -9h58v-35q-98 2 -153 2l-155 -2v36h61q36 0 49 8.5t13 35.5q1 30 1 262t-1 266q0 28 -12 38.5t-40 10.5h-70v35q8 0 78.5 -1t80.5 -1q24 0 71.5 0.5t67.5 0.5q145 0 221.5 -51.5t76.5 -167.5
q0 -109 -75.5 -165.5t-222.5 -56.5zM239 610q-1 -30 -1 -327h104q126 0 177 46t51 141t-51 141t-176 46h-55q-26 0 -37 -10t-12 -37z" />
    <glyph glyph-name="Q" unicode="Q" horiz-adv-x="776" 
d="M388 -18q-158 0 -248 95t-90 267q0 173 93 268.5t245 95.5q163 0 250.5 -98.5t87.5 -264.5q0 -130 -54 -216.5t-148 -122.5q8 -103 30 -144t72 -41q94 0 79 145l28 3q11 -79 -18 -134t-109 -55q-143 0 -145 209q-42 -7 -73 -7zM376 220q68 0 101.5 -44t43.5 -130
q129 73 129 299q0 163 -69 247t-193 84q-118 0 -190 -82.5t-72 -249.5q0 -262 168 -316q-33 31 -33 78q0 51 31 82.5t84 31.5zM370 15q60 0 91 8q-1 96 -22.5 133t-69.5 37q-35 0 -58.5 -22t-23.5 -65q0 -44 26.5 -66t56.5 -25z" />
    <glyph glyph-name="R" unicode="R" horiz-adv-x="747" 
d="M566 179q8 -99 24 -130.5t45 -31.5q35 0 48 43.5t-5 147.5l30 4q13 -63 12.5 -114t-26 -83.5t-73.5 -32.5q-63 0 -91 38t-35 135q-7 105 -37.5 138t-120.5 33h-99q0 -230 1 -247q1 -26 13.5 -36t46.5 -10h59v-35q-117 2 -154 2l-155 -2v36h61q36 0 49 10.5t13 35.5
q1 26 1 260.5t-1 264.5q0 27 -11 38.5t-41 11.5h-70v35q8 0 77 -1t79 -1q23 0 82.5 1t80.5 1q134 0 194.5 -44t60.5 -134q0 -72 -48 -120t-119 -58q54 -12 78.5 -50.5t30.5 -104.5zM239 620q0 -5 -0.5 -45t-0.5 -101.5v-117.5h114q98 0 148 34t50 121q0 76 -39.5 111
t-144.5 35h-95q-20 0 -25.5 -9t-6.5 -28z" />
    <glyph glyph-name="S" unicode="S" horiz-adv-x="612" 
d="M303 675q-83 0 -126.5 -37t-43.5 -99q0 -59 43.5 -91.5t152.5 -55.5q126 -25 181.5 -72.5t55.5 -137.5t-61.5 -145t-173.5 -55q-104 0 -177 45q-38 20 -50 11.5t-17 -47.5h-32q21 105 13 233h31q18 -211 231 -210q92 1 139.5 40t47.5 102q0 68 -47.5 102t-172.5 60
q-110 22 -160.5 69t-50.5 125q0 89 58.5 142.5t160.5 53.5q82 0 151 -44q30 -17 40.5 -10.5t15.5 43.5h31q-18 -107 -6 -227h-30q-8 96 -60 150.5t-144 54.5z" />
    <glyph glyph-name="T" unicode="T" horiz-adv-x="724" 
d="M549 653h-155q-1 -66 -0.5 -304t1.5 -268q0 -27 11.5 -37t45.5 -10h65v-36q-99 2 -155 2l-157 -2v36h64q34 0 47 10.5t13 36.5q1 29 1 268t-1 304h-153q-43 0 -62.5 -18.5t-22.5 -61.5q-6 -56 -3 -108h-37q4 105 -5 228q32 -4 122 -4h388q29 0 121 4q-9 -123 -5 -228h-37
q3 52 -3 108q-3 44 -21.5 62t-61.5 18z" />
    <glyph glyph-name="U" unicode="U" horiz-adv-x="881" 
d="M167 285v318q0 30 -11.5 41t-39.5 11h-66v35q98 -2 152 -2q120 0 152 2v-35h-61q-33 0 -45.5 -11t-12.5 -41v-328q0 -138 54 -197.5t161 -59.5q109 0 163.5 57t54.5 200v323q0 32 -13 44.5t-45 12.5h-59v35q89 -2 139 -2q105 0 137 2v-35h-54q-32 0 -45.5 -13t-13.5 -44
v-314q0 -151 -63.5 -227t-203.5 -76q-143 0 -211.5 72.5t-68.5 231.5z" />
    <glyph glyph-name="V" unicode="V" horiz-adv-x="808" 
d="M220 581q93 -273 187 -519q130 322 190 506q16 40 6.5 63.5t-53.5 23.5h-43v35q94 -2 143 -2q22 0 53 0.5t54 1t24 0.5v-35h-33q-41 0 -62 -19.5t-44 -68.5q-81 -180 -227 -573h-51q-101 291 -217 588q-17 43 -34.5 58t-58.5 15h-26v35q88 -2 141 -2q23 0 60.5 0.5
t65.5 1.5h28v-35h-54q-38 0 -49.5 -16.5t0.5 -57.5z" />
    <glyph glyph-name="W" unicode="W" horiz-adv-x="1094" 
d="M758 -6h-56q-61 242 -158 572q-119 -389 -169 -572h-55q-87 331 -165 589q-12 40 -27 56t-48 16h-53v35q94 -2 146 -2q23 0 58.5 0.5t61.5 1.5h26v-35h-48q-34 0 -45 -16.5t-1 -55.5q43 -173 142 -509q126 429 146 510q11 39 1.5 55t-47.5 16h-34v35q83 -2 129 -2
q20 0 51 0.5t53 1.5h23v-35h-43q-55 0 -39 -65q41 -166 142 -514q102 342 135 492q10 47 -3 67t-56 20h-32v35q90 -2 139 -2q22 0 54.5 0.5t57.5 1.5h24v-35h-50q-34 0 -54 -20.5t-35 -67.5q-22 -67 -90.5 -298t-80.5 -275z" />
    <glyph glyph-name="X" unicode="X" horiz-adv-x="854" 
d="M562 112q-49 71 -145 202q-50 -66 -142 -201q-23 -30 -13 -54.5t50 -24.5h54v-36q-104 2 -161 2l-159 -2v36h37q52 0 85.5 21t64.5 62q123 162 166 223l-181 245q-28 38 -52 54t-67 16h-49v35q111 -2 170 -2l162 2v-35h-40q-44 0 -53.5 -22.5t10.5 -48.5q45 -66 145 -203
q90 117 143 203q19 26 9.5 48.5t-53.5 22.5h-50v35q100 -2 156 -2l156 2v-35h-41q-50 0 -73.5 -14t-57.5 -58q-129 -168 -170 -227q107 -147 183 -246q30 -40 58 -58t64 -18h39v-36q-107 2 -167 2l-165 -2v36h47q44 0 54.5 22.5t-14.5 55.5z" />
    <glyph glyph-name="Y" unicode="Y" horiz-adv-x="802" 
d="M607 585q-98 -178 -179 -341v-160q0 -28 12 -39t47 -11h76v-36q-107 2 -168 2l-169 -2v36h76q36 0 48 11t12 39v155q-108 216 -181 348q-20 37 -46 52.5t-72 15.5h-35v35q108 -2 168 -2l167 2v-35h-51q-85 0 -55 -69q45 -104 156 -305q116 220 154 305q16 28 7 48.5
t-55 20.5h-59v35q103 -2 160 -2l159 2v-35h-42q-54 0 -81 -14t-49 -56z" />
    <glyph glyph-name="Z" unicode="Z" horiz-adv-x="646" 
d="M46 0v35q186 243 461 618h-238q-39 0 -61 -1.5t-42 -9t-28.5 -18t-15.5 -34t-8.5 -51t-2.5 -74.5h-37q7 121 5 226q62 -2 213 -2h301v-34q-184 -237 -466 -620h303q82 0 106 35t27 156h36q-7 -138 -4 -228q-30 2 -159 2h-390z" />
    <glyph glyph-name="bracketleft" unicode="[" horiz-adv-x="250" 
d="M61 126v406q0 132 -11 268q75 -4 150 0v-32h-37q-28 0 -40 -10.5t-12 -38.5v-792q0 -27 12.5 -38t46.5 -11h30v-32q-75 4 -150 0q11 136 11 280z" />
    <glyph glyph-name="backslash" unicode="\" horiz-adv-x="399" 
d="M315 -175q-124 401 -276 866q7 -1 22 -1t23 1q125 -408 276 -866q-8 1 -23 1t-22 -1z" />
    <glyph glyph-name="bracketright" unicode="]" horiz-adv-x="250" 
d="M189 529v-414q0 -133 11 -269q-16 1 -75 1t-75 -1v32h30q34 0 46.5 11t12.5 38v792q0 28 -12 38.5t-40 10.5h-37v32q16 -1 74.5 -1t75.5 1q-11 -136 -11 -271z" />
    <glyph glyph-name="asciicircum" unicode="^" 
d="M275 708h18q27 -49 198 -279l-32 -25q-27 26 -89 128t-86 158q-28 -62 -85.5 -158.5t-89.5 -127.5l-32 25q168 223 198 279z" />
    <glyph glyph-name="underscore" unicode="_" horiz-adv-x="500" 
d="M0 -197q1 23 0 48q80 -1 250 -1t250 1q-1 -24 0 -48q-80 1 -250 1t-250 -1z" />
    <glyph glyph-name="grave" unicode="`" horiz-adv-x="532" 
d="M355 523l-7 -9q-108 67 -157 103q-13 9 -10 23t15.5 18.5t26.5 -3.5q14 -12 34 -31.5t53.5 -54.5t44.5 -46z" />
    <glyph glyph-name="a" unicode="a" horiz-adv-x="526" 
d="M385 282v-184q0 -76 41 -76q62 0 49 133l27 2q16 -166 -89 -166q-88 0 -88 95v13q-46 -108 -156 -108q-60 0 -100 29.5t-40 92.5q0 45 25 75.5t71.5 46.5t92 22.5t107.5 9.5v13q0 41 -4 67t-15.5 49t-35 33t-60.5 10q-82 0 -116 -48q6 2 12 2q25 0 37.5 -13t12.5 -34
t-14 -34.5t-38 -13.5q-52 0 -52 57q0 45 47 77.5t121 32.5q97 0 131 -45t34 -138zM184 26q65 0 102 47t39 134v39q-115 -5 -170 -36.5t-55 -95.5q0 -40 22 -64t62 -24z" />
    <glyph glyph-name="b" unicode="b" horiz-adv-x="554" 
d="M317 -17q-131 0 -171 126q-26 -58 -40 -119h-28q16 82 16 133v497q0 37 -38 37h-61v32q150 0 161 1q-2 -78 -2 -206v-139q40 120 166 120q87 0 137 -59t50 -179t-49 -182t-141 -62zM154 225q0 -206 144 -206q71 0 106.5 45t35.5 161q0 97 -29.5 151t-110.5 54
q-70 0 -107 -51t-39 -145v-9z" />
    <glyph glyph-name="c" unicode="c" horiz-adv-x="484" 
d="M405 125l31 -7q-12 -58 -55.5 -96.5t-125.5 -38.5q-101 0 -154.5 60t-53.5 177q0 111 58.5 178t160.5 67q76 0 120 -33t44 -77q0 -57 -56 -57q-23 0 -36 13t-13 34q0 47 53 48q-34 44 -113 44q-151 0 -151 -220q0 -110 36 -156t109 -46q120 0 146 110z" />
    <glyph glyph-name="d" unicode="d" horiz-adv-x="588" 
d="M239 465q123 0 163 -113v267q0 23 -11 31.5t-33 8.5h-57v31q122 0 161 3q1 -129 1 -621q0 -41 44 -41h51v-31q-98 0 -156 -3v104q-40 -118 -165 -118q-89 0 -138.5 59.5t-49.5 179.5t49.5 181.5t140.5 61.5zM402 224q0 206 -143 206q-71 0 -107 -45.5t-36 -162.5
q0 -96 29.5 -149.5t110.5 -53.5q70 0 108 52t38 153z" />
    <glyph glyph-name="e" unicode="e" horiz-adv-x="512" 
d="M431 124l32 -7q-48 -135 -196 -135q-109 0 -164.5 65t-55.5 179q0 115 61.5 177t155.5 62q102 0 152 -71t42 -183l-344 -1q3 -107 44 -151.5t115 -44.5q121 0 158 110zM262 436q-145 0 -148 -201h249q15 0 20.5 6.5t5.5 22.5q0 85 -34 128.5t-93 43.5z" />
    <glyph glyph-name="f" unicode="f" horiz-adv-x="356" 
d="M27 451l101 -3v40q-1 108 43.5 156t119.5 48q58 0 91.5 -27.5t33.5 -63.5q0 -51 -51 -51q-20 0 -32 11.5t-12 31.5q0 24 17.5 35.5t42.5 6.5q-30 33 -85 33q-57 0 -82 -36.5t-25 -123.5v-60l114 3v-31l-114 2v-349q0 -22 9 -32t35 -10h68v-32q-4 0 -57.5 1t-82.5 1
q-22 0 -54.5 -0.5t-57 -1t-27.5 -0.5v32h67q39 0 39 42v349l-101 -2v31z" />
    <glyph glyph-name="g" unicode="g" horiz-adv-x="573" 
d="M246 465q71 0 116 -27q10 43 36.5 66.5t63.5 23.5q38 0 57 -17.5t19 -44.5q0 -54 -47 -54q-22 0 -34 12t-12 33q0 30 26 41q-69 5 -93 -71q60 -45 60 -130q0 -77 -52.5 -121.5t-140.5 -44.5q-123 0 -123 -43q0 -13 11.5 -21t49.5 -14.5t106 -7.5q121 -2 168.5 -26.5
t47.5 -83.5q0 -64 -66.5 -102.5t-189.5 -38.5q-115 0 -173.5 25.5t-58.5 82.5q0 36 33 61.5t87 35.5q-61 17 -61 69q0 57 95 73q-54 16 -85 56.5t-31 99.5q0 77 53.5 122.5t137.5 45.5zM247 439q-55 0 -90.5 -34.5t-35.5 -107.5q0 -139 126 -139q125 0 125 139
q0 142 -125 142zM264 -16q-50 1 -85 6q-112 -15 -112 -81q0 -86 182 -86q107 0 163 26t56 70q0 37 -39 49.5t-165 15.5z" />
    <glyph glyph-name="h" unicode="h" horiz-adv-x="642" 
d="M517 277q-3 -100 0 -182q1 -44 10 -54t49 -10h33v-32q-4 0 -51 1t-73 1q-27 0 -77 -1l-49 -1v32h33q41 0 52 10.5t12 52.5q1 12 1 88.5t-1 90.5q-2 77 -31 116.5t-92 39.5q-71 0 -106.5 -50.5t-40.5 -150.5v-136q0 -42 10 -51.5t52 -9.5h33v-32q-5 0 -52 1t-73 1
q-27 0 -79 -1t-53 -1v32h41q42 1 50.5 10t9.5 50q1 7 1 250.5t-1 251.5q-2 43 -11 54.5t-48 11.5h-39v31q121 0 161 3q-2 -31 -2 -137v-221q18 63 60 96.5t103 33.5q173 0 168 -188z" />
    <glyph glyph-name="i" unicode="i" horiz-adv-x="311" 
d="M186 454q-1 -323 0 -369q1 -35 10.5 -44.5t40.5 -9.5h46v-32q-5 0 -53 1t-75 1q-28 0 -79 -1l-51 -1v32h56q26 0 34.5 10t9.5 43t1 146t-1 139q-1 28 -10.5 40t-39.5 12h-47v30q119 0 158 3zM195 611q0 -22 -15 -37.5t-37 -15.5t-37.5 15.5t-15.5 37.5t15.5 37t37.5 15
t37 -15t15 -37z" />
    <glyph glyph-name="j" unicode="j" horiz-adv-x="287" 
d="M38 -116q0 -17 -14 -29.5t-36 -11.5q18 -11 48 -11q47 0 70 33t23 122v383q0 26 -10.5 38.5t-37.5 12.5h-49v30q122 0 161 3q-3 -38 -3 -141v-317q0 -96 -37.5 -143t-105.5 -47q-49 0 -77.5 20t-28.5 53q0 24 14 37.5t36 13.5q47 0 47 -46zM199 611q0 -22 -15 -37.5
t-37 -15.5t-37.5 15.5t-15.5 37.5t15.5 37t37.5 15t37 -15t15 -37z" />
    <glyph glyph-name="k" unicode="k" horiz-adv-x="615" 
d="M186 693v-471l161 128q20 16 27.5 32.5t0.5 27.5t-27 11h-38v31q84 -2 131 -2q29 0 81 1l51 1v-31h-24q-43 0 -79.5 -18t-107.5 -73l-56 -43q36 -50 148 -198q23 -31 46.5 -44t65.5 -13h20v-33q-4 0 -53.5 1t-76.5 1q-28 0 -79 -1t-52 -1v32h31q30 0 38 15.5t-14 46.5
l-120 159l-74 -57v-89q0 -45 15.5 -60t51.5 -15h36v-32q-5 0 -54.5 1t-76.5 1q-28 0 -80 -1h-52v31h47q32 0 41 13.5t11 60.5q1 10 1 246.5t-1 246.5q-1 38 -12 49.5t-42 11.5h-42v31q118 0 157 3z" />
    <glyph glyph-name="l" unicode="l" horiz-adv-x="311" 
d="M186 693q-1 -582 0 -598q3 -44 12.5 -54t49.5 -10h36v-32q-1 0 -24 0.5t-54 1t-51 0.5q-21 0 -52.5 -0.5t-54.5 -0.5l-24 -1v32h41q41 1 49.5 11t10.5 52q1 12 1 248.5t-1 246.5q-1 24 -2.5 33.5t-7 20t-17 13.5t-32.5 3h-39v31q120 0 159 3z" />
    <glyph glyph-name="m" unicode="m" horiz-adv-x="959" 
d="M834 277q-2 -123 0 -182q1 -44 10.5 -54t49.5 -10h35v-32q-4 0 -52 1t-74 1q-27 0 -77 -1l-49 -1v32h32q42 0 53.5 10.5t11.5 52.5v179q0 77 -26.5 116.5t-90.5 39.5q-77 0 -112 -60.5t-35 -181.5v-92q0 -43 9.5 -53.5t50.5 -10.5h35v-32q-4 0 -52 1t-74 1q-27 0 -77 -1
l-49 -1v32h32q42 0 53.5 10.5t11.5 52.5v179q0 77 -26.5 116.5t-90.5 39.5q-136 0 -147 -201v-133q0 -43 10.5 -53.5t51.5 -10.5h33v-32q-5 0 -53.5 1t-74.5 1q-27 0 -77.5 -1t-51.5 -1v32h41q41 1 50 11.5t10 51.5q2 132 0 256q-1 30 -3.5 42.5t-15 20t-40.5 7.5h-39v31
q120 0 159 3v-119q18 63 60 96.5t103 33.5q75 0 112.5 -35.5t45.5 -107.5q16 70 59 106.5t107 36.5q87 0 124.5 -47t36.5 -141z" />
    <glyph glyph-name="n" unicode="n" horiz-adv-x="642" 
d="M517 277q-2 -119 0 -182q2 -44 10.5 -54t48.5 -10h33v-32q-4 0 -51 1t-73 1q-27 0 -77 -1l-49 -1v32h33q41 0 52 10.5t12 52.5q2 90 0 179q-2 156 -123 156q-71 0 -106.5 -50.5t-40.5 -150.5v-133q0 -43 10.5 -53.5t51.5 -10.5h33v-32q-5 0 -53.5 1t-74.5 1
q-27 0 -77.5 -1t-51.5 -1v32h41q41 0 50 10.5t10 52.5q2 134 0 256q-1 30 -3.5 42.5t-15 20t-40.5 7.5h-39v31q120 0 159 3v-119q18 63 60 96.5t103 33.5q171 0 168 -188z" />
    <glyph glyph-name="o" unicode="o" horiz-adv-x="531" 
d="M47 223q0 118 58 180t161 62t160.5 -62.5t57.5 -178.5q0 -119 -57.5 -180.5t-160.5 -61.5q-105 0 -162 61t-57 180zM116 224q0 -65 12.5 -109t35.5 -66t47 -30.5t55 -8.5q150 0 150 214t-151 214q-31 0 -55 -8.5t-46.5 -30t-35 -66t-12.5 -109.5z" />
    <glyph glyph-name="p" unicode="p" horiz-adv-x="585" 
d="M348 -17q-123 0 -162 113v-175q0 -41 11 -52.5t53 -11.5h32v-32q-1 0 -24 0.5t-54 1t-51 0.5t-51.5 -0.5t-54.5 -0.5l-23 -1v32h40q41 1 50.5 12t10.5 51q1 39 1 214t-1 216q-1 44 -10.5 57t-48.5 13h-42v31q123 0 162 3v-110q40 121 166 121q88 0 137 -59.5t49 -178.5
q0 -120 -49 -182t-141 -62zM186 225q0 -206 143 -206q71 0 106.5 45t35.5 161q0 63 -9.5 104.5t-41.5 71t-88 29.5q-69 0 -106.5 -51t-39.5 -145v-9z" />
    <glyph glyph-name="q" unicode="q" horiz-adv-x="586" 
d="M238 465q133 0 169 -127q30 66 37 145h23q-2 -19 -6 -169q-1 -34 -0.5 -216t1.5 -201q0 -20 9 -30t35 -10h52v-32q-1 0 -24 0.5t-54.5 1t-52.5 0.5q-20 0 -52 -0.5t-55 -0.5l-23 -1v32h59q23 0 34 9t11 32v203q-40 -118 -166 -118q-89 0 -137.5 59t-48.5 180t48.5 182
t140.5 61zM401 224q0 55 -10.5 97.5t-44.5 75t-89 32.5q-71 0 -106 -44.5t-35 -161.5q0 -36 3 -64t12 -55.5t24 -45.5t40.5 -29t59.5 -11q70 0 108 52.5t38 153.5z" />
    <glyph glyph-name="r" unicode="r" horiz-adv-x="441" 
d="M305 437q-54 0 -86 -49t-33 -145v-150q0 -42 10.5 -52t51.5 -10h50v-32q-4 0 -56 1t-81 1t-83 -1l-54 -1v32h41q42 1 50.5 10.5t9.5 50.5q2 132 0 260q0 22 -1.5 32.5t-7.5 20t-17.5 12.5t-32.5 3h-39v31q120 0 159 3l-6 -118q27 129 130 129q57 0 80.5 -30t23.5 -70
q0 -33 -15 -50t-40 -17q-49 0 -49 48q0 27 22 39.5t48 4.5q-15 47 -75 47z" />
    <glyph glyph-name="s" unicode="s" horiz-adv-x="449" 
d="M223 433q-54 0 -83 -22.5t-29 -56.5q0 -40 30 -60t112 -35q81 -15 116.5 -49t35.5 -88q0 -68 -40.5 -104t-118.5 -36q-70 0 -132 43q-40 28 -46 -33h-24q14 89 6 169h24q18 -70 62.5 -108.5t109.5 -38.5q56 0 85.5 22.5t29.5 61.5q1 40 -30 61.5t-114 35.5
q-80 14 -115.5 47.5t-35.5 88.5q0 61 44 97.5t116 36.5q58 0 107 -33q14 -11 23.5 -3.5t14.5 37.5q1 -1 11 -1t11 1q-12 -80 -6 -163h-23q-12 66 -45.5 98t-95.5 32z" />
    <glyph glyph-name="t" unicode="t" horiz-adv-x="364" 
d="M291 151l26 2q18 -164 -109 -164q-122 0 -122 153v280h-77v26q68 3 90 42.5t32 148.5h26q-5 -59 -9 -188l145 5v-36l-145 1v-278q0 -68 17 -95t53 -27q43 0 60.5 31t12.5 99z" />
    <glyph glyph-name="u" unicode="u" horiz-adv-x="603" 
d="M481 452q-3 -54 -3 -137v-217q0 -44 13 -55.5t57 -11.5h29v-31q-120 0 -159 -3v112q-17 -58 -56.5 -91.5t-100.5 -33.5q-75 0 -117.5 42t-42.5 147v186q0 40 -9.5 51t-50.5 11h-35v30h74q7 0 44.5 0.5t39.5 0.5q-3 -57 -3 -135v-140q0 -46 11 -78.5t23 -47.5t33 -23
t28.5 -8.5t21.5 -0.5q73 0 106.5 56t33.5 181v103q0 41 -12 51.5t-57 10.5h-30v30h86q70 0 76 1z" />
    <glyph glyph-name="v" unicode="v" horiz-adv-x="556" 
d="M547 420h-35q-31 0 -49.5 -13.5t-35.5 -55.5q-11 -25 -74.5 -185t-69.5 -178h-33q-60 178 -142 382q-8 19 -13 26.5t-20 15.5t-40 8h-27v31q80 -2 124 -2l127 2v-31h-21q-40 0 -55 -12t-5 -41q80 -237 104 -301q93 222 115 285q23 69 -39 69h-33v31q71 -2 110 -2l112 2
v-31z" />
    <glyph glyph-name="w" unicode="w" horiz-adv-x="862" 
d="M550 -12q-49 150 -129 360q-132 -341 -137 -360h-35q-50 153 -137 382q-7 19 -12.5 27.5t-19.5 15.5t-38 7h-29v31q76 -2 119 -2l119 2v-31h-19q-36 0 -48 -12.5t-4 -40.5q26 -93 105 -305q103 264 115 302q2 11 3 23.5t-11.5 22.5t-38.5 10h-11v31q62 -2 99 -2l100 2
v-31h-12q-67 0 -49 -53q60 -186 104 -304q105 277 108 285q14 31 4.5 51.5t-43.5 20.5h-26v31q72 -2 111 -2l111 2v-31h-32q-35 0 -56 -15t-37 -57q-1 -3 -37 -93.5t-68 -172.5t-35 -94h-34z" />
    <glyph glyph-name="x" unicode="x" horiz-adv-x="586" 
d="M370 85q-41 54 -89 113l-89 -113q-17 -19 -7.5 -36.5t42.5 -17.5h36v-32q-76 2 -117 2l-119 -2v32h21q34 0 57.5 13t52.5 42l110 128q-21 26 -45 55.5t-47 57.5t-31 38q-27 34 -44 44.5t-48 10.5h-23v31q78 -2 122 -2l127 2v-31h-43q-34 0 -39.5 -14.5t11.5 -32.5
q33 -43 94 -118q9 11 34 41.5t42.5 52t19.5 24.5q14 14 6.5 30.5t-36.5 16.5h-45v31q73 -2 114 -2l120 2v-31h-29q-33 0 -53.5 -10.5t-50.5 -44.5q-17 -17 -109 -126q79 -100 130 -160q41 -48 82 -48h32v-32q-81 2 -125 2l-127 -2v32h30q32 0 41.5 12.5t-8.5 41.5z" />
    <glyph glyph-name="y" unicode="y" horiz-adv-x="550" 
d="M384 363q21 57 -28 57h-40v31q70 -2 116 -2l105 2v-31h-43q-30 0 -45 -11.5t-30 -46.5q-13 -30 -68 -175t-74 -192q-18 -46 -31 -72t-34.5 -56.5t-50 -44t-65.5 -13.5q-47 0 -71.5 20.5t-24.5 51.5q0 25 15.5 39t37.5 14t35.5 -12t13.5 -35q0 -19 -14.5 -32t-37.5 -13
q19 -8 47 -8q49 0 84 35.5t73 140.5h-16q-75 223 -130 360q-11 25 -26.5 37.5t-44.5 12.5h-27v31q72 -2 121 -2l122 2v-31h-45q-49 0 -34 -51q46 -146 103 -297q13 36 39 106t45 121t23 64z" />
    <glyph glyph-name="z" unicode="z" horiz-adv-x="477" 
d="M295 0h-266v27q206 247 321 395h-150q-64 0 -89 -29t-31 -118h-27q8 95 3 180q50 -4 144 -4h223v-26q-272 -331 -323 -396h195q56 0 84.5 34t29.5 125h26q-10 -95 -4 -191q-55 3 -136 3z" />
    <glyph glyph-name="braceleft" unicode="{" horiz-adv-x="293" 
d="M45 316v23h7q94 0 31 211q-32 116 6.5 190.5t156.5 87.5l2 -21q-31 -9 -48.5 -15t-34 -18.5t-23.5 -27.5t-11 -42t-2.5 -62t7.5 -88q1 -5 4 -32.5t4 -41t2 -40.5t-3 -42t-11 -32.5t-21 -26.5t-34 -11q58 -5 67.5 -79.5t-6.5 -128.5q-1 -11 -2 -16q-12 -86 -7.5 -138.5
t31 -78.5t88.5 -39l-2 -21q-112 12 -156 82t-7 196q63 211 -31 211h-7z" />
    <glyph glyph-name="bar" unicode="|" horiz-adv-x="300" 
d="M142 -143q0 9 8 9t8 -9q0 -8 -8 -8t-8 8zM137 -63q0 12 13 12t13 -12t-13 -12t-13 12zM133 17q0 7 5 12t12 5t12 -5t5 -12t-5 -11.5t-12 -4.5t-12 4.5t-5 11.5zM130 97q0 8 6 13.5t14 5.5t14 -5.5t6 -13.5t-6 -14t-14 -6t-14 6t-6 14zM127 177q0 9 6.5 16t16.5 7t16.5 -7
t6.5 -16q0 -10 -6.5 -16.5t-16.5 -6.5t-16.5 6.5t-6.5 16.5zM125 257q0 10 7.5 17t17.5 7t17.5 -7t7.5 -17q0 -11 -7.5 -18t-17.5 -7t-17.5 7t-7.5 18zM125 337q0 10 7.5 17.5t17.5 7.5t17.5 -7.5t7.5 -17.5q0 -11 -7.5 -18.5t-17.5 -7.5t-17.5 7.5t-7.5 18.5zM125 416
q0 10 7.5 17.5t17.5 7.5t17.5 -7.5t7.5 -17.5t-7.5 -17t-17.5 -7t-17.5 7t-7.5 17zM127 496q0 10 6.5 16.5t16.5 6.5t16.5 -6.5t6.5 -16.5q0 -9 -6.5 -16t-16.5 -7t-16.5 7t-6.5 16zM130 576q0 8 6 14t14 6t14 -6t6 -14t-6 -13.5t-14 -5.5t-14 5.5t-6 13.5zM133 656
q0 7 5 11.5t12 4.5t12 -4.5t5 -11.5t-5 -12t-12 -5t-12 5t-5 12zM137 736q0 12 13 12t13 -12t-13 -12t-13 12zM142 816q0 8 8 8t8 -8q0 -9 -8 -9t-8 9z" />
    <glyph glyph-name="braceright" unicode="}" horiz-adv-x="289" 
d="M246 339v-23h-6q-92 0 -32 -211q37 -126 -6.5 -196t-155.5 -82l-2 21q62 13 88.5 39t31 78.5t-7.5 138.5q-13 102 -10 138q8 81 69 86q-16 1 -28 7t-19 17.5t-12.5 22.5t-7 28.5t-2.5 30.5t0.5 33.5t2.5 31t3.5 30.5t3.5 25q6 53 7.5 88t-2.5 62t-11 42t-23.5 27.5
t-34 18.5t-48.5 15l2 21q118 -13 156.5 -87.5t5.5 -190.5q-60 -211 32 -211h6z" />
    <glyph glyph-name="asciitilde" unicode="~" horiz-adv-x="532" 
d="M419 694l21 3q25 -82 -3.5 -125t-84.5 -43q-37 0 -61.5 17.5t-48.5 54.5q-19 29 -28 41t-24 22t-33 10q-31 0 -42.5 -30.5t2.5 -100.5l-22 -3q-25 82 3.5 125t85.5 43q34 0 58.5 -17t49.5 -55q20 -29 29 -40.5t24.5 -22t33.5 -10.5q30 0 42 32.5t-2 98.5z" />
    <glyph glyph-name="exclamdown" unicode="&#xa1;" horiz-adv-x="230" 
d="M56 408q0 27 16.5 42t42.5 15q25 0 41.5 -15t16.5 -43q0 -25 -17 -41t-41 -16q-25 0 -42 16t-17 42zM105 253q0 12 12 12q10 0 10 -12q0 -194 29 -368q23 -137 -39 -137q-66 0 -41 137q29 160 29 368z" />
    <glyph glyph-name="cent" unicode="&#xa2;" horiz-adv-x="485" 
d="M253 357l-39 -237q19 -4 45 -4q83 0 121 47h-7q-24 0 -35.5 12.5t-11.5 31.5q0 22 13 35t38 13q50 0 50 -55q0 -43 -47.5 -79.5t-123.5 -36.5q-26 0 -47 3l-23 -142l-29 5l27 142q-147 38 -147 235q0 114 61 176.5t158 62.5q2 0 6 -0.5t6 -0.5l22 140l29 -5l-27 -137
q58 -9 93 -40t35 -67q0 -27 -14.5 -41t-38.5 -14q-23 0 -35 12.5t-12 32.5q0 46 52 46h2q-32 36 -87 42zM107 327q0 -167 84 -200l45 233l27 176h-8q-148 0 -148 -209z" />
    <glyph glyph-name="sterling" unicode="&#xa3;" horiz-adv-x="574" 
d="M89 254v32q22 -2 82 -2q-25 45 -36.5 67.5t-24.5 66t-13 83.5q0 95 58.5 150t149.5 55q81 0 123.5 -39.5t42.5 -90.5q0 -84 -64 -84q-22 0 -34.5 12.5t-12.5 32.5t13.5 32.5t37.5 12.5q19 0 32 -11v3q0 41 -33 72t-99 31q-74 0 -112.5 -46.5t-38.5 -131.5q0 -21 3 -41.5
t11.5 -47t12.5 -38.5t18 -47t16 -41q64 0 120 2v-32q-10 0 -48 1t-62 1q29 -82 29 -138q0 -2 -0.5 -6.5t-0.5 -6.5q11 -7 38.5 -25t41 -26t36.5 -16t45 -8q96 0 115 91l22 -5q0 -49 -35 -90.5t-104 -41.5q-90 0 -171 67q-32 -66 -129 -66q-47 0 -72.5 21.5t-25.5 56.5
q0 38 27.5 62t72.5 24q54 0 110 -27q-1 56 -44 135h-11q-20 0 -86 -3zM119 10q82 0 104 62q-59 50 -103 50q-36 0 -54 -16t-18 -43q0 -22 18.5 -37.5t52.5 -15.5z" />
    <glyph glyph-name="yen" unicode="&#xa5;" horiz-adv-x="623" 
d="M101 340l135 -4q-42 104 -103 251q-16 37 -35.5 52.5t-56.5 15.5h-21v35q78 -2 126 -2l130 2l-1 -35h-28q-67 0 -43 -69q38 -116 116 -302q82 207 114 302q13 28 5.5 48.5t-43.5 20.5h-35v35q78 -2 124 -2l118 2v-35h-27q-42 0 -63 -14t-38 -56q-68 -160 -104 -250l137 5
v-38l-149 4l-23 -59v-47l172 5v-37l-172 4v-87q0 -28 12 -39t47 -11h67v-35q-98 2 -159 2l-160 -2v35h68q35 0 47 11t12 39v87l-169 -4q1 2 1 18.5t-1 18.5l169 -5v49l-23 57l-146 -4q1 2 1 19t-1 19z" />
    <glyph glyph-name="brokenbar" unicode="&#xa6;" horiz-adv-x="300" 
d="M142 -143q0 9 8 9t8 -9q0 -8 -8 -8t-8 8zM137 -63q0 12 13 12t13 -12t-13 -12t-13 12zM133 17q0 7 5 12t12 5t12 -5t5 -12t-5 -11.5t-12 -4.5t-12 4.5t-5 11.5zM130 97q0 8 6 13.5t14 5.5t14 -5.5t6 -13.5t-6 -14t-14 -6t-14 6t-6 14zM127 177q0 9 6.5 16t16.5 7t16.5 -7
t6.5 -16q0 -10 -6.5 -16.5t-16.5 -6.5t-16.5 6.5t-6.5 16.5zM125 257q0 10 7.5 17t17.5 7t17.5 -7t7.5 -17q0 -11 -7.5 -18t-17.5 -7t-17.5 7t-7.5 18zM125 416q0 10 7.5 17.5t17.5 7.5t17.5 -7.5t7.5 -17.5t-7.5 -17t-17.5 -7t-17.5 7t-7.5 17zM127 496q0 10 6.5 16.5
t16.5 6.5t16.5 -6.5t6.5 -16.5q0 -9 -6.5 -16t-16.5 -7t-16.5 7t-6.5 16zM130 576q0 8 6 14t14 6t14 -6t6 -14t-6 -13.5t-14 -5.5t-14 5.5t-6 13.5zM133 656q0 7 5 11.5t12 4.5t12 -4.5t5 -11.5t-5 -12t-12 -5t-12 5t-5 12zM137 736q0 12 13 12t13 -12t-13 -12t-13 12z
M142 816q0 8 8 8t8 -8q0 -9 -8 -9t-8 9z" />
    <glyph glyph-name="section" unicode="&#xa7;" horiz-adv-x="728" 
d="M468 658l5 -8q-41 -32 -62.5 -62t-44 -110t-38.5 -219q-13 -112 -31.5 -194.5t-40 -132t-48.5 -79.5t-52.5 -40.5t-57.5 -10.5q-47 0 -68.5 29.5t-17.5 70.5q3 29 19 46t39 17q21 0 32 -11.5t8 -31.5q-4 -25 -25.5 -34t-43.5 1q-2 -28 13 -45.5t49 -17.5q67 0 106 87.5
t63 302.5q21 193 68.5 297.5t127.5 144.5zM261 -149l-5 7q41 32 62.5 62t43.5 110t38 219t40 232.5t55.5 140.5t63.5 65.5t72 18.5q46 0 68 -29.5t18 -69.5q-7 -63 -60 -63q-19 0 -30.5 11.5t-7.5 31.5q4 23 25 32.5t43 0.5q2 62 -62 62q-68 0 -106 -87t-62 -302
q-21 -193 -68.5 -297.5t-127.5 -144.5z" />
    <glyph glyph-name="dieresis" unicode="&#xa8;" horiz-adv-x="532" 
d="M213 584q0 -19 -12.5 -31.5t-31.5 -12.5q-20 0 -33 12.5t-13 31.5t13 31.5t33 12.5q19 0 31.5 -12.5t12.5 -31.5zM391 584q0 -19 -13 -31.5t-32 -12.5t-32 12.5t-13 31.5t13 31.5t32 12.5t32 -12.5t13 -31.5z" />
    <glyph glyph-name="copyright" unicode="&#xa9;" horiz-adv-x="848" 
d="M424 -17q-177 0 -272 97.5t-95 262.5q0 161 102 261t265 100q170 0 268.5 -99t98.5 -262q0 -165 -95 -262.5t-272 -97.5zM424 14q83 0 146.5 25.5t101.5 71t57 104t19 128.5q0 145 -84 238t-240 93q-157 0 -240.5 -93t-83.5 -238q0 -144 83.5 -236.5t240.5 -92.5z
M426 569q63 0 115 -33q18 -12 28 -7.5t12 28.5h23q-12 -75 -6 -141q-3 1 -12.5 1t-12.5 -1q-6 60 -42 93.5t-103 33.5q-151 0 -151 -198q0 -196 147 -196q64 0 103.5 38.5t44.5 103.5h30q-8 -168 -179 -168q-96 0 -148.5 54.5t-52.5 167.5q0 111 56 167.5t148 56.5z" />
    <glyph glyph-name="ordfeminine" unicode="&#xaa;" horiz-adv-x="486" 
d="M335 568v-130q0 -49 27 -49q40 0 32 89l21 2q10 -118 -64 -118q-64 0 -64 69v1q-32 -70 -107 -70q-42 0 -70 21.5t-28 63.5q0 31 17.5 52.5t49.5 32.5t64 16.5t74 7.5v12q0 57 -15 82t-64 25q-52 0 -77 -27q2 1 6 1q18 0 27.5 -10t9.5 -26q0 -15 -10.5 -25t-27.5 -10
q-39 0 -39 41q0 33 34 55t86 22q68 0 93 -31.5t25 -96.5zM194 392q43 0 67.5 29.5t25.5 87.5v31q-76 -3 -112.5 -24.5t-36.5 -66.5q0 -27 14.5 -42t41.5 -15zM61 227v47q47 -2 179.5 -2t179.5 2v-47q-47 1 -179.5 1t-179.5 -1z" />
    <glyph glyph-name="guillemotleft" unicode="&#xab;" horiz-adv-x="439" 
d="M240 411l10 -9q-58 -71 -146 -152q76 -71 146 -151l-10 -9q-61 50 -185 144v33q124 94 185 144zM383 411l10 -9q-58 -71 -146 -152q76 -71 146 -151l-10 -9q-61 50 -185 144v33q124 94 185 144z" />
    <glyph glyph-name="registered" unicode="&#xae;" horiz-adv-x="848" 
d="M424 14q83 0 146.5 25.5t101.5 71t57 104t19 128.5q0 145 -84 238t-240 93q-157 0 -240.5 -93t-83.5 -238q0 -144 83.5 -236.5t240.5 -92.5zM424 -17q-177 0 -272 97.5t-95 262.5q0 161 102 261t265 100q170 0 268.5 -99t98.5 -262q0 -165 -95 -262.5t-272 -97.5z
M556 258q7 -55 15.5 -74t24.5 -19q19 0 27.5 27.5t-0.5 81.5l20 1q14 -53 0.5 -95t-57.5 -42t-60.5 25.5t-21.5 89.5q-4 53 -24.5 69t-76.5 16h-50q0 -125 1 -135q1 -16 8.5 -22.5t27.5 -6.5h35v-27q-61 2 -96 2l-97 -2v27h36q22 0 29.5 6.5t8.5 23.5t1 150.5t-1 151.5
q-1 17 -7.5 24t-23.5 7h-42v27q1 0 44.5 -1t55.5 -1h102q153 0 153 -108q0 -43 -28.5 -72.5t-70.5 -36.5q32 -7 47 -26.5t20 -60.5zM354 512q-1 -10 -1 -152h55q66 0 97 20.5t31 70.5q0 44 -25 65.5t-87 21.5h-44q-24 0 -26 -26z" />
    <glyph glyph-name="macron" unicode="&#xaf;" horiz-adv-x="532" 
d="M122 574q1 21 0 44q135 -4 270 0q-1 -22 0 -44q-135 4 -270 0z" />
    <glyph glyph-name="degree" unicode="&#xb0;" horiz-adv-x="318" 
d="M159 395q93 0 93 135q0 137 -93 137q-41 0 -67 -33t-26 -104q0 -75 24 -105t69 -30zM159 371q-61 0 -95 40t-34 119t36.5 119.5t92.5 40.5q129 0 129 -160q0 -78 -36.5 -118.5t-92.5 -40.5z" />
    <glyph glyph-name="plusminus" unicode="&#xb1;" 
d="M80 0v42q98 -2 198 -2q3 146 12 201q-49 -7 -213 -12v43q164 -5 213 -12q-7 50 -12 213h43q-5 -163 -13 -214q51 8 215 13v-43q-173 5 -215 12q9 -55 12 -201q102 0 200 2v-42q-219 4 -440 0z" />
    <glyph glyph-name="acute" unicode="&#xb4;" horiz-adv-x="532" 
d="M173 514l-7 9q11 11 44.5 46t53.5 54.5t34 31.5q14 9 27.5 3.5t15 -18t-10.5 -23.5q-49 -36 -157 -103z" />
    <glyph glyph-name="paragraph" unicode="&#xb6;" horiz-adv-x="512" 
d="M222 -170q20 0 34 5.5t28 22t21 51.5t7 89v281h-7q-236 0 -236 205t249 205h144v-32h-39q-28 0 -40 -10.5t-12 -38.5l1 -612q0 -190 -142 -190q-51 0 -79.5 21t-28.5 52q0 25 14 38.5t34 13.5q23 0 35.5 -12.5t12.5 -32.5q0 -17 -11 -30t-29 -17q21 -9 44 -9z" />
    <glyph glyph-name="periodcentered" unicode="&#xb7;" horiz-adv-x="237" 
d="M177 246q0 -27 -16.5 -42.5t-42.5 -15.5q-25 0 -41.5 15.5t-16.5 42.5q0 26 16.5 42t41.5 16t42 -16t17 -42z" />
    <glyph glyph-name="cedilla" unicode="&#xb8;" horiz-adv-x="532" 
d="M218 -109l-9 18q40 18 55 39t16 56l19 -2q7 -49 -31 -79q45 7 80 -13t35 -63q0 -40 -29.5 -64t-81.5 -24q-71 0 -107 50l16 13q30 -35 78 -35q71 0 71 61q0 33 -29 47.5t-83 -4.5z" />
    <glyph glyph-name="ordmasculine" unicode="&#xba;" horiz-adv-x="476" 
d="M86 525q0 84 41 127.5t113 43.5t113 -43.5t41 -126.5t-40.5 -126t-113.5 -43t-113.5 43t-40.5 125zM140 526q0 -85 27.5 -115.5t72.5 -30.5t72.5 30.5t27.5 115.5q0 148 -100 148t-100 -148zM62 227v47q47 -2 176 -2t176 2v-47q-47 1 -176 1t-176 -1z" />
    <glyph glyph-name="guillemotright" unicode="&#xbb;" horiz-adv-x="439" 
d="M45 402l11 9q25 -20 184 -144v-33q-129 -98 -184 -144l-11 9q57 62 146 151q-93 94 -146 152zM188 402l11 9q25 -20 184 -144v-33q-129 -98 -184 -144l-11 9q57 62 146 151q-93 94 -146 152z" />
    <glyph glyph-name="onequarter" unicode="&#xbc;" horiz-adv-x="378" 
d="M17 344q0 14 15 14q5 0 9.5 -4.5t4.5 -9.5q0 -15 -14 -15q-15 0 -15 15zM80 344q0 14 15 14q5 0 9.5 -4.5t4.5 -9.5q0 -15 -14 -15q-15 0 -15 15zM144 344q0 13 14 13q13 0 13 -13q0 -14 -13 -14q-14 0 -14 14zM207 344q0 13 14 13q13 0 13 -13q0 -14 -13 -14
q-14 0 -14 14zM269 344q0 14 15 14q5 0 9.5 -4.5t4.5 -9.5q0 -15 -14 -15q-15 0 -15 15zM332 344q0 14 15 14q5 0 9.5 -4.5t4.5 -9.5q0 -15 -14 -15q-15 0 -15 15zM137 420q30 0 30 22v192q-35 -12 -66 -5v22h17q36 0 52.5 15.5t20.5 43.5h24q-4 -45 -4 -102v-166
q0 -12 6 -17t23 -5h39v-22q-58 2 -90 2l-90 -2v22h38zM184 0q19 0 24.5 3t5.5 14v28q-89 2 -156 -1v19l175 223h24q-1 -37 -1 -223l65 1v-21l-65 1q0 -6 0.5 -15t0.5 -12q0 -10 6 -13.5t22 -3.5h34v-22q-52 1 -83 1l-85 -1v22h33zM214 62q0 126 -1 167l-131 -167
q59 -2 132 0z" />
    <glyph glyph-name="onehalf" unicode="&#xbd;" horiz-adv-x="378" 
d="M17 344q0 14 15 14q5 0 9.5 -4.5t4.5 -9.5q0 -15 -14 -15q-15 0 -15 15zM80 344q0 14 15 14q5 0 9.5 -4.5t4.5 -9.5q0 -15 -14 -15q-15 0 -15 15zM144 344q0 13 14 13q13 0 13 -13q0 -14 -13 -14q-14 0 -14 14zM207 344q0 13 14 13q13 0 13 -13q0 -14 -13 -14
q-14 0 -14 14zM269 344q0 14 15 14q5 0 9.5 -4.5t4.5 -9.5q0 -15 -14 -15q-15 0 -15 15zM332 344q0 14 15 14q5 0 9.5 -4.5t4.5 -9.5q0 -15 -14 -15q-15 0 -15 15zM297 63q14 -40 -1 -66.5t-56 -26.5q-9 0 -17.5 1.5t-14 3t-12.5 5t-11 6t-12 8t-13 8.5q-24 14 -45.5 13.5
t-26.5 -14.5q10 3 18 -1t8 -13q0 -17 -16 -17q-24 0 -24 29q0 42 22 69t74 51q45 20 63.5 40t18.5 51q0 60 -72 60q-25 0 -47 -10t-29 -29q10 4 19 4q32 0 32 -31t-35 -31q-37 0 -37 40q0 35 30.5 56t72.5 21q109 0 109 -79q0 -72 -97 -102q-95 -31 -109 -87q28 31 96 10
q38 -16 72.5 -11.5t25.5 41.5zM137 420q30 0 30 22v192q-35 -12 -66 -5v22h17q36 0 52.5 15.5t20.5 43.5h24q-4 -45 -4 -102v-166q0 -12 6 -17t23 -5h39v-22q-58 2 -90 2l-90 -2v22h38z" />
    <glyph glyph-name="threequarters" unicode="&#xbe;" horiz-adv-x="378" 
d="M17 344q0 14 15 14q5 0 9.5 -4.5t4.5 -9.5q0 -15 -14 -15q-15 0 -15 15zM80 344q0 14 15 14q5 0 9.5 -4.5t4.5 -9.5q0 -15 -14 -15q-15 0 -15 15zM144 344q0 13 14 13q13 0 13 -13q0 -14 -13 -14q-14 0 -14 14zM207 344q0 13 14 13q13 0 13 -13q0 -14 -13 -14
q-14 0 -14 14zM269 344q0 14 15 14q5 0 9.5 -4.5t4.5 -9.5q0 -15 -14 -15q-15 0 -15 15zM332 344q0 14 15 14q5 0 9.5 -4.5t4.5 -9.5q0 -15 -14 -15q-15 0 -15 15zM293 633q0 -28 -17.5 -47t-48.5 -26q39 -5 62 -26.5t23 -51.5q0 -91 -132 -91q-55 0 -84 21.5t-29 53.5
q0 19 10.5 29t27.5 10q35 0 35 -31q0 -14 -9 -23t-25 -9q-10 0 -14 1q20 -33 83 -33q48 0 68 17.5t20 53.5q0 35 -20.5 51t-70.5 16h-17v19h16q42 0 59.5 16t17.5 49q0 58 -68 58q-59 0 -77 -33q8 3 17 3q15 0 24 -8t9 -22q0 -33 -36 -33q-15 0 -25 10t-10 28q0 33 29.5 54
t76.5 21q48 0 76.5 -20t28.5 -57zM184 0q19 0 24.5 3t5.5 14v28q-89 2 -156 -1v19l175 223h24q-1 -37 -1 -223l65 1v-21l-65 1q0 -6 0.5 -15t0.5 -12q0 -10 6 -13.5t22 -3.5h34v-22q-52 1 -83 1l-85 -1v22h33zM214 62q0 126 -1 167l-131 -167q59 -2 132 0z" />
    <glyph glyph-name="questiondown" unicode="&#xbf;" horiz-adv-x="503" 
d="M155 178l-16 18q62 74 134 74q28 0 45 -15.5t17 -40.5q0 -28 -21 -48t-77 -50q-65 -34 -93 -75t-28 -117q0 -66 38.5 -106t119.5 -40q38 0 73 11.5t62.5 40.5t28.5 72q-17 -17 -43 -17q-48 0 -48 49q0 22 15 35.5t40 13.5q29 0 46 -20.5t17 -59.5q0 -67 -56.5 -111
t-150.5 -44q-105 0 -158.5 49t-53.5 126q0 82 43.5 129t129.5 87q51 24 68.5 39.5t17.5 32.5q0 32 -37 32q-55 0 -113 -65zM199 408q0 27 16.5 42t41.5 15t41.5 -15t16.5 -43q0 -26 -16.5 -41.5t-41.5 -15.5t-41.5 16t-16.5 42z" />
    <glyph glyph-name="Agrave" unicode="&#xc0;" horiz-adv-x="861" 
d="M610 112l-42 120q-155 4 -298 0q-44 -110 -46 -120q-14 -44 -2.5 -61t60.5 -17h54v-36q-97 2 -152 2l-152 -2v36h46q45 0 66.5 15t40.5 60q3 8 115 289t119 300q11 -1 25 -1l27 1q80 -240 215 -588q17 -46 36.5 -61t63.5 -15h43v-36q-103 2 -161 2l-161 -2l1 36h50
q43 0 55 18.5t-3 59.5zM558 263q-41 117 -132 363l-144 -363q134 -2 276 0zM474 757l-7 -9q-108 67 -157 103q-13 9 -10 23t15.5 18.5t26.5 -3.5q14 -12 34 -31.5t53.5 -54.5t44.5 -46z" />
    <glyph glyph-name="Aacute" unicode="&#xc1;" horiz-adv-x="861" 
d="M610 112l-42 120q-155 4 -298 0q-44 -110 -46 -120q-14 -44 -2.5 -61t60.5 -17h54v-36q-97 2 -152 2l-152 -2v36h46q45 0 66.5 15t40.5 60q3 8 115 289t119 300q11 -1 25 -1l27 1q80 -240 215 -588q17 -46 36.5 -61t63.5 -15h43v-36q-103 2 -161 2l-161 -2l1 36h50
q43 0 55 18.5t-3 59.5zM558 263q-41 117 -132 363l-144 -363q134 -2 276 0zM431 751l-7 9q11 11 44.5 46t53.5 54.5t34 31.5q14 9 27.5 3.5t15 -18t-10.5 -23.5q-49 -36 -157 -103z" />
    <glyph glyph-name="Acircumflex" unicode="&#xc2;" horiz-adv-x="861" 
d="M610 112l-42 120q-155 4 -298 0q-44 -110 -46 -120q-14 -44 -2.5 -61t60.5 -17h54v-36q-97 2 -152 2l-152 -2v36h46q45 0 66.5 15t40.5 60q3 8 115 289t119 300q11 -1 25 -1l27 1q80 -240 215 -588q17 -46 36.5 -61t63.5 -15h43v-36q-103 2 -161 2l-161 -2l1 36h50
q43 0 55 18.5t-3 59.5zM558 263q-41 117 -132 363l-144 -363q134 -2 276 0zM574 750l-7 -9q-71 65 -126 124q-58 -62 -126 -124l-7 9q24 41 116 152h34q25 -25 62 -73.5t54 -78.5z" />
    <glyph glyph-name="Atilde" unicode="&#xc3;" horiz-adv-x="861" 
d="M610 112l-42 120q-155 4 -298 0q-44 -110 -46 -120q-14 -44 -2.5 -61t60.5 -17h54v-36q-97 2 -152 2l-152 -2v36h46q45 0 66.5 15t40.5 60q3 8 115 289t119 300q11 -1 25 -1l27 1q80 -240 215 -588q17 -46 36.5 -61t63.5 -15h43v-36q-103 2 -161 2l-161 -2l1 36h50
q43 0 55 18.5t-3 59.5zM558 263q-41 117 -132 363l-144 -363q134 -2 276 0zM558 900l18 3q21 -69 -3.5 -105.5t-71.5 -36.5q-31 0 -51.5 15t-40.5 46q-16 25 -23.5 34.5t-20.5 18t-28 8.5q-26 0 -36 -25.5t2 -84.5l-18 -3q-21 69 3 105.5t72 36.5q52 0 91 -61
q17 -24 24.5 -34t20.5 -18.5t28 -8.5q26 0 36 27t-2 83z" />
    <glyph glyph-name="Adieresis" unicode="&#xc4;" horiz-adv-x="861" 
d="M610 112l-42 120q-155 4 -298 0q-44 -110 -46 -120q-14 -44 -2.5 -61t60.5 -17h54v-36q-97 2 -152 2l-152 -2v36h46q45 0 66.5 15t40.5 60q3 8 115 289t119 300q11 -1 25 -1l27 1q80 -240 215 -588q17 -46 36.5 -61t63.5 -15h43v-36q-103 2 -161 2l-161 -2l1 36h50
q43 0 55 18.5t-3 59.5zM558 263q-41 117 -132 363l-144 -363q134 -2 276 0zM398 804q0 -19 -12.5 -31.5t-31.5 -12.5q-20 0 -33 12.5t-13 31.5t13 31.5t33 12.5q19 0 31.5 -12.5t12.5 -31.5zM576 804q0 -19 -13 -31.5t-32 -12.5t-32 12.5t-13 31.5t13 31.5t32 12.5t32 -12.5
t13 -31.5z" />
    <glyph glyph-name="Aring" unicode="&#xc5;" horiz-adv-x="861" 
d="M610 112l-42 120q-155 4 -298 0q-44 -110 -46 -120q-14 -44 -2.5 -61t60.5 -17h54v-36q-97 2 -152 2l-152 -2v36h46q45 0 66.5 15t40.5 60q3 8 115 289t119 300q11 -1 25 -1l27 1q80 -240 215 -588q17 -46 36.5 -61t63.5 -15h43v-36q-103 2 -161 2l-161 -2l1 36h50
q43 0 55 18.5t-3 59.5zM558 263q-41 117 -132 363l-144 -363q134 -2 276 0zM495 825q0 25 -13.5 39t-35.5 14q-23 0 -36 -14t-13 -39t13 -39.5t36 -14.5q22 0 35.5 14.5t13.5 39.5zM525 825q0 -35 -22 -56t-57 -21t-57 21t-22 56t22 55.5t57 20.5t57 -20.5t22 -55.5z" />
    <glyph glyph-name="AE" unicode="&#xc6;" horiz-adv-x="1058" 
d="M1012 224q-8 -114 -6 -228q-47 4 -202 4q-246 1 -267 1q-148 0 -172 -2v36h88q30 0 41 10.5t11 36.5v114q-126 2 -220 -1q-12 -22 -40 -79q-22 -42 -13 -61.5t57 -19.5h47v-36q-97 2 -152 2l-152 -2v36h50q43 0 64.5 15.5t48.5 62.5q61 106 157 282t119 223q8 18 0 28.5
t-31 10.5h-55v34q39 -3 149 -3q9 0 113 0.5t186 0.5q116 0 163 6q-4 -106 2 -214l-34 -1v29q0 82 -28 113.5t-106 31.5h-224q-19 0 -27 -8.5t-8 -29.5q0 -5 -0.5 -43.5t-1 -97t-0.5 -110.5h96q70 1 93.5 26.5t24.5 100.5v15h33q0 -12 -1.5 -62t-1.5 -93q0 -109 3 -160h-33
v17q-2 75 -28.5 102t-107.5 27h-78q0 -53 0.5 -112t1 -99t0.5 -45q0 -47 37 -47h228q75 0 108 36t33 129v24h35zM300 225q103 -2 205 0v392q-75 -139 -205 -392z" />
    <glyph glyph-name="Ccedilla" unicode="&#xc7;" horiz-adv-x="720" 
d="M314 -109l-9 18q61 28 69 73q-155 2 -239.5 90.5t-84.5 273.5q0 184 91 273t242 89q112 0 191 -53q25 -17 38.5 -8.5t19.5 50.5h33q-17 -124 -6 -236q-5 1 -18 1t-18 -1q-6 98 -63 156t-174 58q-258 0 -258 -329q0 -175 65 -253t187 -78q70 0 119 17t75.5 51t38.5 74
t16 96q4 -1 20 -1t20 1q-6 -142 -70 -204.5t-203 -66.5q-3 -36 -32 -59q45 7 80 -13t35 -63q0 -40 -29.5 -64t-81.5 -24q-71 0 -107 50l16 13q30 -35 78 -35q71 0 71 61q0 33 -29 47.5t-83 -4.5z" />
    <glyph glyph-name="Egrave" unicode="&#xc8;" horiz-adv-x="726" 
d="M450 492v15h33q0 -12 -1.5 -62t-1.5 -93q0 -109 3 -160h-33v17q-2 72 -26 100t-94 28h-94q0 -53 0.5 -112.5t1 -99.5t0.5 -45q0 -46 37 -46h228q80 0 110 40t32 156h35q-7 -102 -7 -234q-47 4 -202 4h-266l-173 -2v36h88q31 0 41 10t11 37q1 30 1 268t-1 267
q-1 23 -9.5 31t-35.5 8h-95v35q7 0 80.5 -1t88.5 -1h299q108 0 163 7q-4 -116 2 -228h-34q0 114 -24.5 150.5t-109.5 36.5h-224q-19 0 -27 -8.5t-8 -29.5q0 -5 -0.5 -43.5t-1 -96.5t-0.5 -110h96q70 0 93.5 25.5t24.5 100.5zM465 757l-7 -9q-108 67 -157 103q-13 9 -10 23
t15.5 18.5t26.5 -3.5q14 -12 34 -31.5t53.5 -54.5t44.5 -46z" />
    <glyph glyph-name="Eacute" unicode="&#xc9;" horiz-adv-x="726" 
d="M355 751l-7 9q11 11 44.5 46t53.5 54.5t34 31.5q14 9 27.5 3.5t15 -18t-10.5 -23.5q-49 -36 -157 -103zM450 492v15h33q0 -12 -1.5 -62t-1.5 -93q0 -109 3 -160h-33v17q-2 72 -26 100t-94 28h-94q0 -53 0.5 -112.5t1 -99.5t0.5 -45q0 -46 37 -46h228q80 0 110 40t32 156
h35q-7 -102 -7 -234q-47 4 -202 4h-266l-173 -2v36h88q31 0 41 10t11 37q1 30 1 268t-1 267q-1 23 -9.5 31t-35.5 8h-95v35q7 0 80.5 -1t88.5 -1h299q108 0 163 7q-4 -116 2 -228h-34q0 114 -24.5 150.5t-109.5 36.5h-224q-19 0 -27 -8.5t-8 -29.5q0 -5 -0.5 -43.5t-1 -96.5
t-0.5 -110h96q70 0 93.5 25.5t24.5 100.5z" />
    <glyph glyph-name="Ecircumflex" unicode="&#xca;" horiz-adv-x="726" 
d="M534 750l-7 -9q-71 65 -126 124q-58 -62 -126 -124l-7 9q24 41 116 152h34q25 -25 62 -73.5t54 -78.5zM450 492v15h33q0 -12 -1.5 -62t-1.5 -93q0 -109 3 -160h-33v17q-2 72 -26 100t-94 28h-94q0 -53 0.5 -112.5t1 -99.5t0.5 -45q0 -46 37 -46h228q80 0 110 40t32 156
h35q-7 -102 -7 -234q-47 4 -202 4h-266l-173 -2v36h88q31 0 41 10t11 37q1 30 1 268t-1 267q-1 23 -9.5 31t-35.5 8h-95v35q7 0 80.5 -1t88.5 -1h299q108 0 163 7q-4 -116 2 -228h-34q0 114 -24.5 150.5t-109.5 36.5h-224q-19 0 -27 -8.5t-8 -29.5q0 -5 -0.5 -43.5t-1 -96.5
t-0.5 -110h96q70 0 93.5 25.5t24.5 100.5z" />
    <glyph glyph-name="Edieresis" unicode="&#xcb;" horiz-adv-x="726" 
d="M349 821q0 -19 -12.5 -31.5t-31.5 -12.5q-20 0 -33 12.5t-13 31.5t13 31.5t33 12.5q19 0 31.5 -12.5t12.5 -31.5zM527 821q0 -19 -13 -31.5t-32 -12.5t-32 12.5t-13 31.5t13 31.5t32 12.5t32 -12.5t13 -31.5zM450 492v15h33q0 -12 -1.5 -62t-1.5 -93q0 -109 3 -160h-33
v17q-2 72 -26 100t-94 28h-94q0 -53 0.5 -112.5t1 -99.5t0.5 -45q0 -46 37 -46h228q80 0 110 40t32 156h35q-7 -102 -7 -234q-47 4 -202 4h-266l-173 -2v36h88q31 0 41 10t11 37q1 30 1 268t-1 267q-1 23 -9.5 31t-35.5 8h-95v35q7 0 80.5 -1t88.5 -1h299q108 0 163 7
q-4 -116 2 -228h-34q0 114 -24.5 150.5t-109.5 36.5h-224q-19 0 -27 -8.5t-8 -29.5q0 -5 -0.5 -43.5t-1 -96.5t-0.5 -110h96q70 0 93.5 25.5t24.5 100.5z" />
    <glyph glyph-name="Igrave" unicode="&#xcc;" horiz-adv-x="412" 
d="M50 -2v36h63q34 0 46.5 10.5t12.5 36.5q1 34 1 262t-1 262q0 28 -12 39t-40 11h-69v35q100 -2 156 -2q32 0 92 1t63 1v-35h-70q-28 0 -39.5 -10.5t-12.5 -39.5q-1 -34 -1 -262t1 -262q0 -26 12.5 -36.5t46.5 -10.5h63v-36q-100 2 -156 2zM249 757l-7 -9q-108 67 -157 103
q-13 9 -10 23t15.5 18.5t26.5 -3.5q14 -12 34 -31.5t53.5 -54.5t44.5 -46z" />
    <glyph glyph-name="Iacute" unicode="&#xcd;" horiz-adv-x="412" 
d="M50 -2v36h63q34 0 46.5 10.5t12.5 36.5q1 34 1 262t-1 262q0 28 -12 39t-40 11h-69v35q100 -2 156 -2q32 0 92 1t63 1v-35h-70q-28 0 -39.5 -10.5t-12.5 -39.5q-1 -34 -1 -262t1 -262q0 -26 12.5 -36.5t46.5 -10.5h63v-36q-100 2 -156 2zM185 751l-7 9q11 11 44.5 46
t53.5 54.5t34 31.5q14 9 27.5 3.5t15 -18t-10.5 -23.5q-49 -36 -157 -103z" />
    <glyph glyph-name="Icircumflex" unicode="&#xce;" horiz-adv-x="412" 
d="M50 -2v36h63q34 0 46.5 10.5t12.5 36.5q1 34 1 262t-1 262q0 28 -12 39t-40 11h-69v35q100 -2 156 -2q32 0 92 1t63 1v-35h-70q-28 0 -39.5 -10.5t-12.5 -39.5q-1 -34 -1 -262t1 -262q0 -26 12.5 -36.5t46.5 -10.5h63v-36q-100 2 -156 2zM339 757l-7 -9q-71 65 -126 124
q-58 -62 -126 -124l-7 9q24 41 116 152h34q25 -25 62 -73.5t54 -78.5z" />
    <glyph glyph-name="Idieresis" unicode="&#xcf;" horiz-adv-x="412" 
d="M50 -2v36h63q34 0 46.5 10.5t12.5 36.5q1 34 1 262t-1 262q0 28 -12 39t-40 11h-69v35q100 -2 156 -2q32 0 92 1t63 1v-35h-70q-28 0 -39.5 -10.5t-12.5 -39.5q-1 -34 -1 -262t1 -262q0 -26 12.5 -36.5t46.5 -10.5h63v-36q-100 2 -156 2zM162 821q0 -19 -12.5 -31.5
t-31.5 -12.5q-20 0 -33 12.5t-13 31.5t13 31.5t33 12.5q19 0 31.5 -12.5t12.5 -31.5zM340 821q0 -19 -13 -31.5t-32 -12.5t-32 12.5t-13 31.5t13 31.5t32 12.5t32 -12.5t13 -31.5z" />
    <glyph glyph-name="Eth" unicode="&#xd0;" horiz-adv-x="787" 
d="M376 689q181 0 269.5 -82.5t90.5 -256.5q1 -76 -18 -136t-51.5 -100t-79.5 -66t-99.5 -37.5t-112.5 -11.5q-128 1 -167 1l-169 -2v36h74q36 0 47.5 8t11.5 34v40.5t0.5 101t0.5 116.5q-21 0 -53.5 -0.5t-40.5 -0.5v38q42 -2 94 -2q0 53 -0.5 112t-0.5 96v38q0 25 -9 32.5
t-36 7.5h-88v35q4 0 75 -1t97 -1q22 0 87.5 0.5t77.5 0.5zM238 77q2 -46 44 -46h82q72 0 124 15t92.5 50t60.5 98.5t20 155.5q0 164 -72.5 235.5t-223.5 71.5h-90q-19 0 -27.5 -8.5t-9.5 -29.5q-1 -20 -1 -250q75 0 131 2v-38q-28 1 -131 1q0 -236 1 -257z" />
    <glyph glyph-name="Ntilde" unicode="&#xd1;" horiz-adv-x="848" 
d="M238 690q127 -197 398 -591v498q0 58 -60 58h-69v35q3 0 60.5 -1t89.5 -1t90 1l58 1v-35h-70q-30 0 -44.5 -13.5t-14.5 -44.5v-600q-4 1 -26 1t-27 -1q-179 273 -411 608q0 -477 1 -516q0 -55 60 -55h69v-36q-96 2 -150 2l-149 -2v36h70q33 0 46 14t13 41v516
q0 28 -12 39t-40 11h-76v35q97 -4 194 0zM541 900l18 3q21 -69 -3.5 -105.5t-71.5 -36.5q-31 0 -51.5 15t-40.5 46q-16 25 -23.5 34.5t-20.5 18t-28 8.5q-26 0 -36 -25.5t2 -84.5l-18 -3q-21 69 3 105.5t72 36.5q52 0 91 -61q17 -24 24.5 -34t20.5 -18.5t28 -8.5q26 0 36 27
t-2 83z" />
    <glyph glyph-name="Ograve" unicode="&#xd2;" horiz-adv-x="776" 
d="M388 15q122 0 192 80.5t70 249.5q0 163 -69 247t-193 84q-118 0 -190 -82.5t-72 -249.5q0 -174 70.5 -251.5t191.5 -77.5zM388 -18q-158 0 -248 95t-90 267q0 173 93 268.5t245 95.5q163 0 250.5 -98.5t87.5 -264.5q0 -174 -94 -268.5t-244 -94.5zM431 757l-7 -9
q-108 67 -157 103q-13 9 -10 23t15.5 18.5t26.5 -3.5q14 -12 34 -31.5t53.5 -54.5t44.5 -46z" />
    <glyph glyph-name="Oacute" unicode="&#xd3;" horiz-adv-x="776" 
d="M367 751l-7 9q11 11 44.5 46t53.5 54.5t34 31.5q14 9 27.5 3.5t15 -18t-10.5 -23.5q-49 -36 -157 -103zM388 15q122 0 192 80.5t70 249.5q0 163 -69 247t-193 84q-118 0 -190 -82.5t-72 -249.5q0 -174 70.5 -251.5t191.5 -77.5zM388 -18q-158 0 -248 95t-90 267
q0 173 93 268.5t245 95.5q163 0 250.5 -98.5t87.5 -264.5q0 -174 -94 -268.5t-244 -94.5z" />
    <glyph glyph-name="Ocircumflex" unicode="&#xd4;" horiz-adv-x="776" 
d="M524 750l-7 -9q-71 65 -126 124q-58 -62 -126 -124l-7 9q24 41 116 152h34q25 -25 62 -73.5t54 -78.5zM388 15q122 0 192 80.5t70 249.5q0 163 -69 247t-193 84q-118 0 -190 -82.5t-72 -249.5q0 -174 70.5 -251.5t191.5 -77.5zM388 -18q-158 0 -248 95t-90 267
q0 173 93 268.5t245 95.5q163 0 250.5 -98.5t87.5 -264.5q0 -174 -94 -268.5t-244 -94.5z" />
    <glyph glyph-name="Otilde" unicode="&#xd5;" horiz-adv-x="776" 
d="M388 15q122 0 192 80.5t70 249.5q0 163 -69 247t-193 84q-118 0 -190 -82.5t-72 -249.5q0 -174 70.5 -251.5t191.5 -77.5zM388 -18q-158 0 -248 95t-90 267q0 173 93 268.5t245 95.5q163 0 250.5 -98.5t87.5 -264.5q0 -174 -94 -268.5t-244 -94.5zM515 900l18 3
q21 -69 -3.5 -105.5t-71.5 -36.5q-31 0 -51.5 15t-40.5 46q-16 25 -23.5 34.5t-20.5 18t-28 8.5q-26 0 -36 -25.5t2 -84.5l-18 -3q-21 69 3 105.5t72 36.5q52 0 91 -61q17 -24 24.5 -34t20.5 -18.5t28 -8.5q26 0 36 27t-2 83z" />
    <glyph glyph-name="Odieresis" unicode="&#xd6;" horiz-adv-x="776" 
d="M347 821q0 -19 -12.5 -31.5t-31.5 -12.5q-20 0 -33 12.5t-13 31.5t13 31.5t33 12.5q19 0 31.5 -12.5t12.5 -31.5zM525 821q0 -19 -13 -31.5t-32 -12.5t-32 12.5t-13 31.5t13 31.5t32 12.5t32 -12.5t13 -31.5zM388 15q122 0 192 80.5t70 249.5q0 163 -69 247t-193 84
q-118 0 -190 -82.5t-72 -249.5q0 -174 70.5 -251.5t191.5 -77.5zM388 -18q-158 0 -248 95t-90 267q0 173 93 268.5t245 95.5q163 0 250.5 -98.5t87.5 -264.5q0 -174 -94 -268.5t-244 -94.5z" />
    <glyph glyph-name="multiply" unicode="&#xd7;" 
d="M473 106l-30 -30q-116 122 -145 161q-20 -28 -141 -160l-30 31q113 108 159 141q-61 45 -159 143l30 30q104 -108 142 -160q46 64 143 161l30 -30q-114 -109 -161 -143q16 -12 42 -34.5t47 -41.5t45.5 -42t27.5 -26z" />
    <glyph glyph-name="Oslash" unicode="&#xd8;" horiz-adv-x="776" 
d="M388 -18q-130 0 -214 64l-87 -96l-16 13l78 104q-99 96 -99 277q0 173 93 268.5t245 95.5q138 0 225 -74l93 101l15 -12l-83 -113q88 -97 88 -265q0 -174 -94 -268.5t-244 -94.5zM126 344q0 -153 58 -235l201 238l195 246q-69 83 -192 83q-118 0 -190 -82.5t-72 -249.5z
M388 15q122 0 192 80.5t70 249.5q0 137 -51 219l-195 -228l-200 -252q66 -69 184 -69z" />
    <glyph glyph-name="Ugrave" unicode="&#xd9;" horiz-adv-x="881" 
d="M167 285v318q0 30 -11.5 41t-39.5 11h-66v35q98 -2 152 -2q120 0 152 2v-35h-61q-33 0 -45.5 -11t-12.5 -41v-328q0 -138 54 -197.5t161 -59.5q109 0 163.5 57t54.5 200v323q0 32 -13 44.5t-45 12.5h-59v35q89 -2 139 -2q105 0 137 2v-35h-54q-32 0 -45.5 -13t-13.5 -44
v-314q0 -151 -63.5 -227t-203.5 -76q-143 0 -211.5 72.5t-68.5 231.5zM481 757l-7 -9q-108 67 -157 103q-13 9 -10 23t15.5 18.5t26.5 -3.5q14 -12 34 -31.5t53.5 -54.5t44.5 -46z" />
    <glyph glyph-name="Uacute" unicode="&#xda;" horiz-adv-x="881" 
d="M433 751l-7 9q11 11 44.5 46t53.5 54.5t34 31.5q14 9 27.5 3.5t15 -18t-10.5 -23.5q-49 -36 -157 -103zM167 285v318q0 30 -11.5 41t-39.5 11h-66v35q98 -2 152 -2q120 0 152 2v-35h-61q-33 0 -45.5 -11t-12.5 -41v-328q0 -138 54 -197.5t161 -59.5q109 0 163.5 57
t54.5 200v323q0 32 -13 44.5t-45 12.5h-59v35q89 -2 139 -2q105 0 137 2v-35h-54q-32 0 -45.5 -13t-13.5 -44v-314q0 -151 -63.5 -227t-203.5 -76q-143 0 -211.5 72.5t-68.5 231.5z" />
    <glyph glyph-name="Ucircumflex" unicode="&#xdb;" horiz-adv-x="881" 
d="M586 764l-7 -9q-71 65 -126 124q-58 -62 -126 -124l-7 9q24 41 116 152h34q25 -25 62 -73.5t54 -78.5zM167 285v318q0 30 -11.5 41t-39.5 11h-66v35q98 -2 152 -2q120 0 152 2v-35h-61q-33 0 -45.5 -11t-12.5 -41v-328q0 -138 54 -197.5t161 -59.5q109 0 163.5 57
t54.5 200v323q0 32 -13 44.5t-45 12.5h-59v35q89 -2 139 -2q105 0 137 2v-35h-54q-32 0 -45.5 -13t-13.5 -44v-314q0 -151 -63.5 -227t-203.5 -76q-143 0 -211.5 72.5t-68.5 231.5z" />
    <glyph glyph-name="Udieresis" unicode="&#xdc;" horiz-adv-x="881" 
d="M415 821q0 -19 -12.5 -31.5t-31.5 -12.5q-20 0 -33 12.5t-13 31.5t13 31.5t33 12.5q19 0 31.5 -12.5t12.5 -31.5zM593 821q0 -19 -13 -31.5t-32 -12.5t-32 12.5t-13 31.5t13 31.5t32 12.5t32 -12.5t13 -31.5zM167 285v318q0 30 -11.5 41t-39.5 11h-66v35q98 -2 152 -2
q120 0 152 2v-35h-61q-33 0 -45.5 -11t-12.5 -41v-328q0 -138 54 -197.5t161 -59.5q109 0 163.5 57t54.5 200v323q0 32 -13 44.5t-45 12.5h-59v35q89 -2 139 -2q105 0 137 2v-35h-54q-32 0 -45.5 -13t-13.5 -44v-314q0 -151 -63.5 -227t-203.5 -76q-143 0 -211.5 72.5
t-68.5 231.5z" />
    <glyph glyph-name="Yacute" unicode="&#xdd;" horiz-adv-x="802" 
d="M607 585q-98 -178 -179 -341v-160q0 -28 12 -39t47 -11h76v-36q-107 2 -168 2l-169 -2v36h76q36 0 48 11t12 39v155q-108 216 -181 348q-20 37 -46 52.5t-72 15.5h-35v35q108 -2 168 -2l167 2v-35h-51q-85 0 -55 -69q45 -104 156 -305q116 220 154 305q16 28 7 48.5
t-55 20.5h-59v35q103 -2 160 -2l159 2v-35h-42q-54 0 -81 -14t-49 -56zM400 751l-7 9q11 11 44.5 46t53.5 54.5t34 31.5q14 9 27.5 3.5t15 -18t-10.5 -23.5q-49 -36 -157 -103z" />
    <glyph glyph-name="Thorn" unicode="&#xde;" horiz-adv-x="697" 
d="M49 -2v36h63q34 0 46.5 10.5t12.5 36.5q1 34 1 262t-1 262q0 28 -12 39t-40 11h-69v35q100 -2 156 -2q32 0 92 1t63 1v-35h-70q-28 0 -39.5 -10.5t-12.5 -39.5q0 -2 -0.5 -16.5t-0.5 -24.5q55 11 114 11q164 0 230 -58t66 -168q0 -109 -68.5 -166.5t-229.5 -57.5
q-66 0 -112 8q0 -12 0.5 -31.5t0.5 -20.5q0 -26 12.5 -36.5t46.5 -10.5h63v-36q-100 2 -156 2zM344 542q-67 0 -106 -6v-373q46 -7 106 -7q131 0 179.5 47.5t48.5 146.5q0 102 -48.5 147t-179.5 45z" />
    <glyph glyph-name="germandbls" unicode="&#xdf;" horiz-adv-x="629" 
d="M40 451l88 -2v25q-1 111 52.5 165t138.5 54q88 0 136 -43.5t48 -127.5q0 -59 -26.5 -102t-78.5 -58q84 -3 131 -49.5t47 -128.5q0 -106 -41.5 -151.5t-130.5 -45.5q-72 0 -105.5 42t-27.5 122l27 1q-2 -65 23 -100t77 -35q56 0 82 36.5t26 130.5q0 91 -43 126t-151 28v32
q65 -1 94 36t29 116q0 74 -30 107t-88 33q-128 0 -128 -182v-407q1 -40 4 -73l-79 2q-21 0 -41.5 -0.5t-33.5 -1t-16 -0.5v31h62q23 0 33 10t10 32q2 132 0 349l-88 -2v31z" />
    <glyph glyph-name="agrave" unicode="&#xe0;" horiz-adv-x="526" 
d="M386 282v-184q0 -76 41 -76q62 0 49 133l27 2q16 -166 -89 -166q-88 0 -88 95v13q-46 -108 -156 -108q-60 0 -100 29.5t-40 92.5q0 45 25 75.5t71.5 46.5t92 22.5t107.5 9.5v13q0 41 -4 67t-15.5 49t-35 33t-60.5 10q-81 0 -116 -48q6 2 12 2q25 0 37.5 -13t12.5 -34
t-14 -34.5t-38 -13.5q-52 0 -52 57q0 45 47 77.5t121 32.5q97 0 131 -45t34 -138zM185 26q65 0 102 47t39 134v39q-115 -5 -170 -36.5t-55 -95.5q0 -40 22 -64t62 -24zM283 523l-7 -9q-108 67 -157 103q-13 9 -10 23t15.5 18.5t26.5 -3.5q14 -12 34 -31.5t53.5 -54.5
t44.5 -46z" />
    <glyph glyph-name="aacute" unicode="&#xe1;" horiz-adv-x="526" 
d="M386 282v-184q0 -76 41 -76q62 0 49 133l27 2q16 -166 -89 -166q-88 0 -88 95v13q-46 -108 -156 -108q-60 0 -100 29.5t-40 92.5q0 45 25 75.5t71.5 46.5t92 22.5t107.5 9.5v13q0 41 -4 67t-15.5 49t-35 33t-60.5 10q-81 0 -116 -48q6 2 12 2q25 0 37.5 -13t12.5 -34
t-14 -34.5t-38 -13.5q-52 0 -52 57q0 45 47 77.5t121 32.5q97 0 131 -45t34 -138zM185 26q65 0 102 47t39 134v39q-115 -5 -170 -36.5t-55 -95.5q0 -40 22 -64t62 -24zM199 514l-7 9q11 11 44.5 46t53.5 54.5t34 31.5q14 9 27.5 3.5t15 -18t-10.5 -23.5q-49 -36 -157 -103z
" />
    <glyph glyph-name="acircumflex" unicode="&#xe2;" horiz-adv-x="526" 
d="M386 282v-184q0 -76 41 -76q62 0 49 133l27 2q16 -166 -89 -166q-88 0 -88 95v13q-46 -108 -156 -108q-60 0 -100 29.5t-40 92.5q0 45 25 75.5t71.5 46.5t92 22.5t107.5 9.5v13q0 41 -4 67t-15.5 49t-35 33t-60.5 10q-81 0 -116 -48q6 2 12 2q25 0 37.5 -13t12.5 -34
t-14 -34.5t-38 -13.5q-52 0 -52 57q0 45 47 77.5t121 32.5q97 0 131 -45t34 -138zM185 26q65 0 102 47t39 134v39q-115 -5 -170 -36.5t-55 -95.5q0 -40 22 -64t62 -24zM367 523l-7 -9q-71 65 -126 124q-58 -62 -126 -124l-7 9q24 41 116 152h34q25 -25 62 -73.5t54 -78.5z
" />
    <glyph glyph-name="atilde" unicode="&#xe3;" horiz-adv-x="526" 
d="M386 282v-184q0 -76 41 -76q62 0 49 133l27 2q16 -166 -89 -166q-88 0 -88 95v13q-46 -108 -156 -108q-60 0 -100 29.5t-40 92.5q0 45 25 75.5t71.5 46.5t92 22.5t107.5 9.5v13q0 41 -4 67t-15.5 49t-35 33t-60.5 10q-81 0 -116 -48q6 2 12 2q25 0 37.5 -13t12.5 -34
t-14 -34.5t-38 -13.5q-52 0 -52 57q0 45 47 77.5t121 32.5q97 0 131 -45t34 -138zM185 26q65 0 102 47t39 134v39q-115 -5 -170 -36.5t-55 -95.5q0 -40 22 -64t62 -24zM356 660l18 3q21 -69 -3.5 -105.5t-71.5 -36.5q-31 0 -51.5 15t-40.5 46q-16 25 -23.5 34.5t-20.5 18
t-28 8.5q-26 0 -36 -25.5t2 -84.5l-18 -3q-21 69 3 105.5t72 36.5q52 0 91 -61q17 -24 24.5 -34t20.5 -18.5t28 -8.5q26 0 36 27t-2 83z" />
    <glyph glyph-name="adieresis" unicode="&#xe4;" horiz-adv-x="526" 
d="M386 282v-184q0 -76 41 -76q62 0 49 133l27 2q16 -166 -89 -166q-88 0 -88 95v13q-46 -108 -156 -108q-60 0 -100 29.5t-40 92.5q0 45 25 75.5t71.5 46.5t92 22.5t107.5 9.5v13q0 41 -4 67t-15.5 49t-35 33t-60.5 10q-81 0 -116 -48q6 2 12 2q25 0 37.5 -13t12.5 -34
t-14 -34.5t-38 -13.5q-52 0 -52 57q0 45 47 77.5t121 32.5q97 0 131 -45t34 -138zM185 26q65 0 102 47t39 134v39q-115 -5 -170 -36.5t-55 -95.5q0 -40 22 -64t62 -24zM186 584q0 -19 -12.5 -31.5t-31.5 -12.5q-20 0 -33 12.5t-13 31.5t13 31.5t33 12.5q19 0 31.5 -12.5
t12.5 -31.5zM364 584q0 -19 -13 -31.5t-32 -12.5t-32 12.5t-13 31.5t13 31.5t32 12.5t32 -12.5t13 -31.5z" />
    <glyph glyph-name="aring" unicode="&#xe5;" horiz-adv-x="526" 
d="M386 282v-184q0 -76 41 -76q62 0 49 133l27 2q16 -166 -89 -166q-88 0 -88 95v13q-46 -108 -156 -108q-60 0 -100 29.5t-40 92.5q0 45 25 75.5t71.5 46.5t92 22.5t107.5 9.5v13q0 41 -4 67t-15.5 49t-35 33t-60.5 10q-81 0 -116 -48q6 2 12 2q25 0 37.5 -13t12.5 -34
t-14 -34.5t-38 -13.5q-52 0 -52 57q0 45 47 77.5t121 32.5q97 0 131 -45t34 -138zM185 26q65 0 102 47t39 134v39q-115 -5 -170 -36.5t-55 -95.5q0 -40 22 -64t62 -24zM282 604q0 25 -13.5 39t-35.5 14q-23 0 -36 -14t-13 -39t13 -39.5t36 -14.5q22 0 35.5 14.5t13.5 39.5z
M312 604q0 -35 -22 -56t-57 -21t-57 21t-22 56t22 55.5t57 20.5t57 -20.5t22 -55.5z" />
    <glyph glyph-name="ae" unicode="&#xe6;" horiz-adv-x="784" 
d="M734 118q-48 -135 -195 -135q-165 0 -203 132q-41 -124 -167 -124q-60 0 -100 29.5t-40 92.5q0 44 25 75t71.5 46.5t91.5 22.5t107 10v13q0 80 -23 119.5t-90 39.5q-79 0 -117 -47q2 0 6 0.5t6 0.5q50 0 50 -47q0 -22 -14 -35t-37 -13q-24 0 -38.5 14.5t-14.5 42.5
q0 45 47 77.5t119 32.5q119 0 150 -80q56 80 167 80q103 0 153 -71t42 -183l-338 -1q2 -108 40 -151.5t112 -43.5q67 0 102.5 29t53.5 81zM533 438q-138 0 -141 -204h240q15 0 20.5 7t5.5 23q0 83 -34 128.5t-91 45.5zM183 27q67 0 104 49t37 141v29q-114 -5 -169 -36.5
t-55 -95.5q0 -40 22 -63.5t61 -23.5z" />
    <glyph glyph-name="ccedilla" unicode="&#xe7;" horiz-adv-x="484" 
d="M198 -109l-9 18q34 15 49 32t20 42h-3q-101 0 -154.5 60t-53.5 177q0 111 58.5 178t160.5 67q76 0 120 -33t44 -77q0 -57 -56 -57q-23 0 -36 13t-13 34q0 47 53 48q-34 44 -113 44q-151 0 -151 -220q0 -110 36 -156t109 -46q120 0 146 110l31 -7q-26 -122 -156 -134
q-2 -36 -32 -61q45 7 80 -13t35 -63q0 -40 -29.5 -64t-81.5 -24q-71 0 -107 50l16 13q30 -35 78 -35q71 0 71 61q0 33 -29 47.5t-83 -4.5z" />
    <glyph glyph-name="egrave" unicode="&#xe8;" horiz-adv-x="512" 
d="M431 124l32 -7q-48 -135 -196 -135q-109 0 -164.5 65t-55.5 179q0 115 61.5 177t155.5 62q102 0 152 -71t42 -183l-344 -1q3 -107 44 -151.5t115 -44.5q121 0 158 110zM262 436q-145 0 -148 -201h249q15 0 20.5 6.5t5.5 22.5q0 85 -34 128.5t-93 43.5zM305 523l-7 -9
q-108 67 -157 103q-13 9 -10 23t15.5 18.5t26.5 -3.5q14 -12 34 -31.5t53.5 -54.5t44.5 -46z" />
    <glyph glyph-name="eacute" unicode="&#xe9;" horiz-adv-x="512" 
d="M235 514l-7 9q11 11 44.5 46t53.5 54.5t34 31.5q14 9 27.5 3.5t15 -18t-10.5 -23.5q-49 -36 -157 -103zM431 124l32 -7q-48 -135 -196 -135q-109 0 -164.5 65t-55.5 179q0 115 61.5 177t155.5 62q102 0 152 -71t42 -183l-344 -1q3 -107 44 -151.5t115 -44.5
q121 0 158 110zM262 436q-145 0 -148 -201h249q15 0 20.5 6.5t5.5 22.5q0 85 -34 128.5t-93 43.5z" />
    <glyph glyph-name="ecircumflex" unicode="&#xea;" horiz-adv-x="512" 
d="M399 523l-7 -9q-71 65 -126 124q-58 -62 -126 -124l-7 9q24 41 116 152h34q25 -25 62 -73.5t54 -78.5zM431 124l32 -7q-48 -135 -196 -135q-109 0 -164.5 65t-55.5 179q0 115 61.5 177t155.5 62q102 0 152 -71t42 -183l-344 -1q3 -107 44 -151.5t115 -44.5q121 0 158 110
zM262 436q-145 0 -148 -201h249q15 0 20.5 6.5t5.5 22.5q0 85 -34 128.5t-93 43.5z" />
    <glyph glyph-name="edieresis" unicode="&#xeb;" horiz-adv-x="512" 
d="M212 584q0 -19 -12.5 -31.5t-31.5 -12.5q-20 0 -33 12.5t-13 31.5t13 31.5t33 12.5q19 0 31.5 -12.5t12.5 -31.5zM390 584q0 -19 -13 -31.5t-32 -12.5t-32 12.5t-13 31.5t13 31.5t32 12.5t32 -12.5t13 -31.5zM431 124l32 -7q-48 -135 -196 -135q-109 0 -164.5 65
t-55.5 179q0 115 61.5 177t155.5 62q102 0 152 -71t42 -183l-344 -1q3 -107 44 -151.5t115 -44.5q121 0 158 110zM262 436q-145 0 -148 -201h249q15 0 20.5 6.5t5.5 22.5q0 85 -34 128.5t-93 43.5z" />
    <glyph glyph-name="igrave" unicode="&#xec;" horiz-adv-x="311" 
d="M186 454v-369q0 -35 10 -44.5t41 -9.5h46v-32q-5 0 -53 1t-75 1q-28 0 -79 -1l-51 -1v32h56q26 0 34.5 10t9.5 43t1 146t-1 139q-1 28 -10.5 40t-39.5 12h-47v30q119 0 158 3zM194 523l-7 -9q-108 67 -157 103q-13 9 -10 23t15.5 18.5t26.5 -3.5q14 -12 34 -31.5
t53.5 -54.5t44.5 -46z" />
    <glyph glyph-name="iacute" unicode="&#xed;" horiz-adv-x="311" 
d="M186 454v-369q0 -35 10 -44.5t41 -9.5h46v-32q-5 0 -53 1t-75 1q-28 0 -79 -1l-51 -1v32h56q26 0 34.5 10t9.5 43t1 146t-1 139q-1 28 -10.5 40t-39.5 12h-47v30q119 0 158 3zM130 514l-7 9q11 11 44.5 46t53.5 54.5t34 31.5q14 9 27.5 3.5t15 -18t-10.5 -23.5
q-49 -36 -157 -103z" />
    <glyph glyph-name="icircumflex" unicode="&#xee;" horiz-adv-x="311" 
d="M186 454v-369q0 -35 10 -44.5t41 -9.5h46v-32q-5 0 -53 1t-75 1q-28 0 -79 -1l-51 -1v32h56q26 0 34.5 10t9.5 43t1 146t-1 139q-1 28 -10.5 40t-39.5 12h-47v30q119 0 158 3zM281 523l-7 -9q-71 65 -126 124q-58 -62 -126 -124l-7 9q24 41 116 152h34q25 -25 62 -73.5
t54 -78.5z" />
    <glyph glyph-name="idieresis" unicode="&#xef;" horiz-adv-x="311" 
d="M186 454v-369q0 -35 10 -44.5t41 -9.5h46v-32q-5 0 -53 1t-75 1q-28 0 -79 -1l-51 -1v32h56q26 0 34.5 10t9.5 43t1 146t-1 139q-1 28 -10.5 40t-39.5 12h-47v30q119 0 158 3zM91 584q0 -19 -12.5 -31.5t-31.5 -12.5q-20 0 -33 12.5t-13 31.5t13 31.5t33 12.5
q19 0 31.5 -12.5t12.5 -31.5zM269 584q0 -19 -13 -31.5t-32 -12.5t-32 12.5t-13 31.5t13 31.5t32 12.5t32 -12.5t13 -31.5z" />
    <glyph glyph-name="eth" unicode="&#xf0;" horiz-adv-x="531" 
d="M197 536l-19 28l90 54q-56 33 -134 45l6 26q91 -9 160 -51l94 67l18 -28l-92 -52q78 -55 116 -148.5t38 -209.5q0 -139 -56 -212t-160 -73q-103 0 -157 61.5t-54 179.5q0 123 56.5 182.5t155.5 59.5q97 0 138 -74q-21 147 -109 213zM114 224q0 -65 11.5 -108.5t33 -65
t45 -29.5t55.5 -8q71 0 110.5 47.5t39.5 163.5q0 118 -40 164t-110 46q-31 0 -54.5 -8t-45.5 -29t-33.5 -64.5t-11.5 -108.5z" />
    <glyph glyph-name="ntilde" unicode="&#xf1;" horiz-adv-x="642" 
d="M517 277q-2 -119 0 -182q2 -44 10.5 -54t48.5 -10h33v-32q-4 0 -51 1t-73 1q-27 0 -77 -1l-49 -1v32h33q41 0 52 10.5t12 52.5q2 90 0 179q-2 156 -123 156q-71 0 -106.5 -50.5t-40.5 -150.5v-133q0 -43 10.5 -53.5t51.5 -10.5h33v-32q-5 0 -53.5 1t-74.5 1
q-27 0 -77.5 -1t-51.5 -1v32h41q41 0 50 10.5t10 52.5q2 134 0 256q-1 30 -3.5 42.5t-15 20t-40.5 7.5h-39v31q120 0 159 3v-119q18 63 60 96.5t103 33.5q171 0 168 -188zM440 660l18 3q21 -69 -3.5 -105.5t-71.5 -36.5q-31 0 -51.5 15t-40.5 46q-16 25 -23.5 34.5t-20.5 18
t-28 8.5q-26 0 -36 -25.5t2 -84.5l-18 -3q-21 69 3 105.5t72 36.5q52 0 91 -61q17 -24 24.5 -34t20.5 -18.5t28 -8.5q26 0 36 27t-2 83z" />
    <glyph glyph-name="ograve" unicode="&#xf2;" horiz-adv-x="531" 
d="M47 223q0 118 58 180t161 62t160.5 -62.5t57.5 -178.5q0 -119 -57.5 -180.5t-160.5 -61.5q-105 0 -162 61t-57 180zM116 224q0 -65 12.5 -109t35.5 -66t47 -30.5t55 -8.5q150 0 150 214t-151 214q-31 0 -55 -8.5t-46.5 -30t-35 -66t-12.5 -109.5zM312 523l-7 -9
q-108 67 -157 103q-13 9 -10 23t15.5 18.5t26.5 -3.5q14 -12 34 -31.5t53.5 -54.5t44.5 -46z" />
    <glyph glyph-name="oacute" unicode="&#xf3;" horiz-adv-x="531" 
d="M245 514l-7 9q11 11 44.5 46t53.5 54.5t34 31.5q14 9 27.5 3.5t15 -18t-10.5 -23.5q-49 -36 -157 -103zM47 223q0 118 58 180t161 62t160.5 -62.5t57.5 -178.5q0 -119 -57.5 -180.5t-160.5 -61.5q-105 0 -162 61t-57 180zM116 224q0 -65 12.5 -109t35.5 -66t47 -30.5
t55 -8.5q150 0 150 214t-151 214q-31 0 -55 -8.5t-46.5 -30t-35 -66t-12.5 -109.5z" />
    <glyph glyph-name="ocircumflex" unicode="&#xf4;" horiz-adv-x="531" 
d="M399 523l-7 -9q-71 65 -126 124q-58 -62 -126 -124l-7 9q24 41 116 152h34q25 -25 62 -73.5t54 -78.5zM47 223q0 118 58 180t161 62t160.5 -62.5t57.5 -178.5q0 -119 -57.5 -180.5t-160.5 -61.5q-105 0 -162 61t-57 180zM116 224q0 -65 12.5 -109t35.5 -66t47 -30.5
t55 -8.5q150 0 150 214t-151 214q-31 0 -55 -8.5t-46.5 -30t-35 -66t-12.5 -109.5z" />
    <glyph glyph-name="otilde" unicode="&#xf5;" horiz-adv-x="531" 
d="M47 223q0 118 58 180t161 62t160.5 -62.5t57.5 -178.5q0 -119 -57.5 -180.5t-160.5 -61.5q-105 0 -162 61t-57 180zM116 224q0 -65 12.5 -109t35.5 -66t47 -30.5t55 -8.5q150 0 150 214t-151 214q-31 0 -55 -8.5t-46.5 -30t-35 -66t-12.5 -109.5zM393 660l18 3
q21 -69 -3.5 -105.5t-71.5 -36.5q-31 0 -51.5 15t-40.5 46q-16 25 -23.5 34.5t-20.5 18t-28 8.5q-26 0 -36 -25.5t2 -84.5l-18 -3q-21 69 3 105.5t72 36.5q52 0 91 -61q17 -24 24.5 -34t20.5 -18.5t28 -8.5q26 0 36 27t-2 83z" />
    <glyph glyph-name="odieresis" unicode="&#xf6;" horiz-adv-x="531" 
d="M222 584q0 -19 -12.5 -31.5t-31.5 -12.5q-20 0 -33 12.5t-13 31.5t13 31.5t33 12.5q19 0 31.5 -12.5t12.5 -31.5zM400 584q0 -19 -13 -31.5t-32 -12.5t-32 12.5t-13 31.5t13 31.5t32 12.5t32 -12.5t13 -31.5zM47 223q0 118 58 180t161 62t160.5 -62.5t57.5 -178.5
q0 -119 -57.5 -180.5t-160.5 -61.5q-105 0 -162 61t-57 180zM116 224q0 -65 12.5 -109t35.5 -66t47 -30.5t55 -8.5q150 0 150 214t-151 214q-31 0 -55 -8.5t-46.5 -30t-35 -66t-12.5 -109.5z" />
    <glyph glyph-name="divide" unicode="&#xf7;" 
d="M347 113q0 -22 -13.5 -34.5t-34.5 -12.5t-34.5 12.5t-13.5 34.5q0 21 14 34t34 13q21 0 34.5 -13t13.5 -34zM97 229v43q155 -4 203 -14q49 10 203 14v-43q-155 4 -203 14q-49 -10 -203 -14zM347 387q0 -22 -13.5 -34t-34.5 -12t-34.5 12.5t-13.5 34.5q0 21 14 34t34 13
q21 0 34.5 -13.5t13.5 -34.5z" />
    <glyph glyph-name="oslash" unicode="&#xf8;" horiz-adv-x="531" 
d="M47 223q0 118 58 180t161 62q83 0 136 -41l70 78l13 -10l-60 -88q59 -64 59 -180q0 -119 -57.5 -180.5t-160.5 -61.5q-90 0 -145 45l-60 -66l-14 11l54 75q-54 62 -54 176zM416 224q0 86 -25 139l-119 -139l-121 -159q36 -55 115 -55q150 0 150 214zM116 224
q0 -81 21 -133l124 147l114 151q-38 49 -110 49q-31 0 -55 -8.5t-46.5 -30t-35 -66t-12.5 -109.5z" />
    <glyph glyph-name="ugrave" unicode="&#xf9;" horiz-adv-x="603" 
d="M481 452q-3 -54 -3 -137v-217q0 -44 13 -55.5t57 -11.5h29v-31q-120 0 -159 -3v112q-17 -58 -56.5 -91.5t-100.5 -33.5q-75 0 -118 42t-42 147v186q0 40 -9.5 51t-50.5 11h-35v30h74q7 0 44.5 0.5t39.5 0.5q-3 -57 -3 -135v-140q0 -46 11 -78.5t23 -47.5t33 -23
t28.5 -8.5t21.5 -0.5q73 0 106.5 56t33.5 181v103q0 41 -12 51.5t-57 10.5h-30v30h86q70 0 76 1zM328 523l-7 -9q-108 67 -157 103q-13 9 -10 23t15.5 18.5t26.5 -3.5q14 -12 34 -31.5t53.5 -54.5t44.5 -46z" />
    <glyph glyph-name="uacute" unicode="&#xfa;" horiz-adv-x="603" 
d="M271 514l-7 9q11 11 44.5 46t53.5 54.5t34 31.5q14 9 27.5 3.5t15 -18t-10.5 -23.5q-49 -36 -157 -103zM481 452q-3 -54 -3 -137v-217q0 -44 13 -55.5t57 -11.5h29v-31q-120 0 -159 -3v112q-17 -58 -56.5 -91.5t-100.5 -33.5q-75 0 -118 42t-42 147v186q0 40 -9.5 51
t-50.5 11h-35v30h74q7 0 44.5 0.5t39.5 0.5q-3 -57 -3 -135v-140q0 -46 11 -78.5t23 -47.5t33 -23t28.5 -8.5t21.5 -0.5q73 0 106.5 56t33.5 181v103q0 41 -12 51.5t-57 10.5h-30v30h86q70 0 76 1z" />
    <glyph glyph-name="ucircumflex" unicode="&#xfb;" horiz-adv-x="603" 
d="M397 523l-7 -9q-71 65 -126 124q-58 -62 -126 -124l-7 9q24 41 116 152h34q25 -25 62 -73.5t54 -78.5zM481 452q-3 -54 -3 -137v-217q0 -44 13 -55.5t57 -11.5h29v-31q-120 0 -159 -3v112q-17 -58 -56.5 -91.5t-100.5 -33.5q-75 0 -118 42t-42 147v186q0 40 -9.5 51
t-50.5 11h-35v30h74q7 0 44.5 0.5t39.5 0.5q-3 -57 -3 -135v-140q0 -46 11 -78.5t23 -47.5t33 -23t28.5 -8.5t21.5 -0.5q73 0 106.5 56t33.5 181v103q0 41 -12 51.5t-57 10.5h-30v30h86q70 0 76 1z" />
    <glyph glyph-name="udieresis" unicode="&#xfc;" horiz-adv-x="603" 
d="M220 584q0 -19 -12.5 -31.5t-31.5 -12.5q-20 0 -33 12.5t-13 31.5t13 31.5t33 12.5q19 0 31.5 -12.5t12.5 -31.5zM398 584q0 -19 -13 -31.5t-32 -12.5t-32 12.5t-13 31.5t13 31.5t32 12.5t32 -12.5t13 -31.5zM481 452q-3 -54 -3 -137v-217q0 -44 13 -55.5t57 -11.5h29
v-31q-120 0 -159 -3v112q-17 -58 -56.5 -91.5t-100.5 -33.5q-75 0 -118 42t-42 147v186q0 40 -9.5 51t-50.5 11h-35v30h74q7 0 44.5 0.5t39.5 0.5q-3 -57 -3 -135v-140q0 -46 11 -78.5t23 -47.5t33 -23t28.5 -8.5t21.5 -0.5q73 0 106.5 56t33.5 181v103q0 41 -12 51.5
t-57 10.5h-30v30h86q70 0 76 1z" />
    <glyph glyph-name="yacute" unicode="&#xfd;" horiz-adv-x="550" 
d="M384 363q21 57 -28 57h-40v31q70 -2 116 -2l105 2v-31h-43q-30 0 -45 -11.5t-30 -46.5q-13 -30 -68 -175t-74 -192q-18 -46 -31 -72t-34.5 -56.5t-50 -44t-65.5 -13.5q-47 0 -71.5 20.5t-24.5 51.5q0 25 15.5 39t37.5 14t35.5 -12t13.5 -35q0 -19 -14.5 -32t-37.5 -13
q19 -8 47 -8q49 0 84 35.5t73 140.5h-16q-75 223 -130 360q-11 25 -26.5 37.5t-44.5 12.5h-27v31q72 -2 121 -2l122 2v-31h-45q-49 0 -34 -51q46 -146 103 -297q13 36 39 106t45 121t23 64zM266 514l-7 9q11 11 44.5 46t53.5 54.5t34 31.5q14 9 27.5 3.5t15 -18t-10.5 -23.5
q-49 -36 -157 -103z" />
    <glyph glyph-name="thorn" unicode="&#xfe;" horiz-adv-x="585" 
d="M348 -17q-122 0 -162 111v-173q0 -41 11 -52.5t53 -11.5h32v-31q-1 0 -24 0.5t-54 1t-51 0.5t-51.5 -0.5t-54.5 -1.5h-23v31h40q41 1 50.5 12t10.5 51q1 39 1 333.5t-1 335.5q-1 43 -10.5 56.5t-48.5 13.5h-42v31q123 0 162 3v-347q40 119 166 119q88 0 137 -59.5
t49 -178.5q0 -120 -48.5 -182t-141.5 -62zM186 225q0 -206 143 -206q72 0 107 44.5t35 161.5q0 63 -9.5 104.5t-41.5 71t-88 29.5q-70 0 -107 -50t-39 -145v-10z" />
    <glyph glyph-name="ydieresis" unicode="&#xff;" horiz-adv-x="550" 
d="M384 363q21 57 -28 57h-40v31q70 -2 116 -2l105 2v-31h-43q-30 0 -45 -11.5t-30 -46.5q-13 -30 -68 -175t-74 -192q-18 -46 -31 -72t-34.5 -56.5t-50 -44t-65.5 -13.5q-47 0 -71.5 20.5t-24.5 51.5q0 25 15.5 39t37.5 14t35.5 -12t13.5 -35q0 -19 -14.5 -32t-37.5 -13
q19 -8 47 -8q49 0 84 35.5t73 140.5h-16q-75 223 -130 360q-11 25 -26.5 37.5t-44.5 12.5h-27v31q72 -2 121 -2l122 2v-31h-45q-49 0 -34 -51q46 -146 103 -297q13 36 39 106t45 121t23 64zM248 584q0 -19 -12.5 -31.5t-31.5 -12.5q-20 0 -33 12.5t-13 31.5t13 31.5t33 12.5
q19 0 31.5 -12.5t12.5 -31.5zM426 584q0 -19 -13 -31.5t-32 -12.5t-32 12.5t-13 31.5t13 31.5t32 12.5t32 -12.5t13 -31.5z" />
    <glyph glyph-name="Amacron" unicode="&#x100;" horiz-adv-x="861" 
d="M610 112l-42 120q-155 4 -298 0q-44 -110 -46 -120q-14 -44 -2.5 -61t60.5 -17h54v-36q-97 2 -152 2l-152 -2v36h46q45 0 66.5 15t40.5 60q3 8 115 289t119 300q11 -1 25 -1l27 1q80 -240 215 -588q17 -46 36.5 -61t63.5 -15h43v-36q-103 2 -161 2l-161 -2l1 36h50
q43 0 55 18.5t-3 59.5zM558 263q-41 117 -132 363l-144 -363q134 -2 276 0zM313 778q1 21 0 44q135 -4 270 0q-1 -22 0 -44q-135 4 -270 0z" />
    <glyph glyph-name="amacron" unicode="&#x101;" horiz-adv-x="526" 
d="M386 282v-184q0 -76 41 -76q62 0 49 133l27 2q16 -166 -89 -166q-88 0 -88 95v13q-46 -108 -156 -108q-60 0 -100 29.5t-40 92.5q0 45 25 75.5t71.5 46.5t92 22.5t107.5 9.5v13q0 41 -4 67t-15.5 49t-35 33t-60.5 10q-81 0 -116 -48q6 2 12 2q25 0 37.5 -13t12.5 -34
t-14 -34.5t-38 -13.5q-52 0 -52 57q0 45 47 77.5t121 32.5q97 0 131 -45t34 -138zM185 26q65 0 102 47t39 134v39q-115 -5 -170 -36.5t-55 -95.5q0 -40 22 -64t62 -24zM102 552q1 21 0 44q135 -4 270 0q-1 -22 0 -44q-135 4 -270 0z" />
    <glyph glyph-name="Abreve" unicode="&#x102;" horiz-adv-x="861" 
d="M610 112l-42 120q-155 4 -298 0q-44 -110 -46 -120q-14 -44 -2.5 -61t60.5 -17h54v-36q-97 2 -152 2l-152 -2v36h46q45 0 66.5 15t40.5 60q3 8 115 289t119 300q11 -1 25 -1l27 1q80 -240 215 -588q17 -46 36.5 -61t63.5 -15h43v-36q-103 2 -161 2l-161 -2l1 36h50
q43 0 55 18.5t-3 59.5zM558 263q-41 117 -132 363l-144 -363q134 -2 276 0zM444 761q-70 0 -105 41t-29 104l11 2q6 -102 123 -102t123 102l11 -2q6 -63 -29 -104t-105 -41z" />
    <glyph glyph-name="abreve" unicode="&#x103;" horiz-adv-x="526" 
d="M386 282v-184q0 -76 41 -76q62 0 49 133l27 2q16 -166 -89 -166q-88 0 -88 95v13q-46 -108 -156 -108q-60 0 -100 29.5t-40 92.5q0 45 25 75.5t71.5 46.5t92 22.5t107.5 9.5v13q0 41 -4 67t-15.5 49t-35 33t-60.5 10q-81 0 -116 -48q6 2 12 2q25 0 37.5 -13t12.5 -34
t-14 -34.5t-38 -13.5q-52 0 -52 57q0 45 47 77.5t121 32.5q97 0 131 -45t34 -138zM185 26q65 0 102 47t39 134v39q-115 -5 -170 -36.5t-55 -95.5q0 -40 22 -64t62 -24zM241 526q-70 0 -105 41t-29 104l11 2q6 -102 123 -102t123 102l11 -2q6 -63 -29 -104t-105 -41z" />
    <glyph glyph-name="Aogonek" unicode="&#x104;" horiz-adv-x="861" 
d="M777 -84q-2 -50 -35.5 -86t-84.5 -36q-50 0 -75.5 24t-24.5 62q2 39 32 70.5t81 49.5h-2l-161 -2l1 36h50q43 0 55 18.5t-3 59.5l-42 120q-155 4 -298 0q-44 -110 -46 -120q-14 -44 -2.5 -61t60.5 -17h54v-36q-97 2 -152 2l-152 -2v36h46q45 0 66.5 15t40.5 60
q3 8 115 289t119 300q11 -1 25 -1l27 1q80 -240 215 -588q17 -46 36.5 -61t63.5 -15h43v-36q-70 2 -127 2q-96 -35 -99 -108q-3 -34 15.5 -49.5t46.5 -15.5q37 0 62.5 26.5t31.5 66.5zM558 263q-41 117 -132 363l-144 -363q134 -2 276 0z" />
    <glyph glyph-name="aogonek" unicode="&#x105;" horiz-adv-x="526" 
d="M577 -84q-4 -51 -37.5 -86.5t-86.5 -35.5q-51 0 -75 24.5t-21 63.5q6 63 79 111q-14 -2 -22 -2q-89 0 -89 95v10q-46 -105 -155 -105q-60 0 -100 29.5t-40 92.5q0 45 25 75.5t71 46.5t92 22.5t107 9.5v13q0 41 -3.5 66.5t-15 49t-35 33.5t-60.5 10q-83 0 -117 -48
q8 2 12 2q25 0 38 -13t13 -34t-14 -34.5t-38 -13.5q-53 0 -53 57q0 44 47.5 77t120.5 33q98 0 132 -45t34 -138v-184q0 -76 41 -76q60 0 49 133l27 2q5 -60 -1.5 -91t-31.5 -60q-3 -4 -15.5 -17.5t-16.5 -18.5t-12.5 -17t-12 -19.5t-7.5 -19t-5 -22.5q-3 -34 15 -49.5
t46 -15.5q37 0 62.5 26.5t34.5 66.5zM185 26q64 0 101 47t39 134v39q-114 -5 -169 -36.5t-55 -95.5q0 -40 22 -64t62 -24z" />
    <glyph glyph-name="Cacute" unicode="&#x106;" horiz-adv-x="720" 
d="M352 751l-7 9q11 11 44.5 46t53.5 54.5t34 31.5q14 9 27.5 3.5t15 -18t-10.5 -23.5q-49 -36 -157 -103zM574 655q25 -17 38.5 -8.5t19.5 50.5h33q-17 -124 -6 -236q-5 1 -18 1t-18 -1q-6 98 -63 156t-174 58q-258 0 -258 -329q0 -175 65 -253t187 -78q70 0 119 17
t75.5 51t38.5 74t16 96q4 -1 20 -1t20 1q-6 -146 -73.5 -208.5t-216.5 -62.5q-157 0 -243 89t-86 275q0 184 91 273t242 89q112 0 191 -53z" />
    <glyph glyph-name="cacute" unicode="&#x107;" horiz-adv-x="484" 
d="M234 514l-7 9q11 11 44.5 46t53.5 54.5t34 31.5q14 9 27.5 3.5t15 -18t-10.5 -23.5q-49 -36 -157 -103zM405 125l31 -7q-12 -58 -55.5 -96.5t-125.5 -38.5q-101 0 -154.5 60t-53.5 177q0 111 58.5 178t160.5 67q76 0 120 -33t44 -77q0 -57 -56 -57q-23 0 -36 13t-13 34
q0 47 53 48q-34 44 -113 44q-151 0 -151 -220q0 -110 36 -156t109 -46q120 0 146 110z" />
    <glyph glyph-name="Ccircumflex" unicode="&#x108;" horiz-adv-x="720" 
d="M499 757l-7 -9q-71 65 -126 124q-58 -62 -126 -124l-7 9q24 41 116 152h34q25 -25 62 -73.5t54 -78.5zM574 655q25 -17 38.5 -8.5t19.5 50.5h33q-17 -124 -6 -236q-5 1 -18 1t-18 -1q-6 98 -63 156t-174 58q-258 0 -258 -329q0 -175 65 -253t187 -78q70 0 119 17t75.5 51
t38.5 74t16 96q4 -1 20 -1t20 1q-6 -146 -73.5 -208.5t-216.5 -62.5q-157 0 -243 89t-86 275q0 184 91 273t242 89q112 0 191 -53z" />
    <glyph glyph-name="ccircumflex" unicode="&#x109;" horiz-adv-x="484" 
d="M399 523l-7 -9q-71 65 -126 124q-58 -62 -126 -124l-7 9q24 41 116 152h34q25 -25 62 -73.5t54 -78.5zM405 125l31 -7q-12 -58 -55.5 -96.5t-125.5 -38.5q-101 0 -154.5 60t-53.5 177q0 111 58.5 178t160.5 67q76 0 120 -33t44 -77q0 -57 -56 -57q-23 0 -36 13t-13 34
q0 47 53 48q-34 44 -113 44q-151 0 -151 -220q0 -110 36 -156t109 -46q120 0 146 110z" />
    <glyph glyph-name="Cdotaccent" unicode="&#x10a;" horiz-adv-x="720" 
d="M574 655q25 -17 38.5 -8.5t19.5 50.5h33q-17 -124 -6 -236q-5 1 -18 1t-18 -1q-6 98 -63 156t-174 58q-258 0 -258 -329q0 -175 65 -253t187 -78q70 0 119 17t75.5 51t38.5 74t16 96q4 -1 20 -1t20 1q-6 -146 -73.5 -208.5t-216.5 -62.5q-157 0 -243 89t-86 275
q0 184 91 273t242 89q112 0 191 -53zM425 818q0 -19 -13 -32t-32 -13t-31.5 13t-12.5 32t12.5 32t31.5 13t32 -13t13 -32z" />
    <glyph glyph-name="cdotaccent" unicode="&#x10b;" horiz-adv-x="484" 
d="M405 125l31 -7q-12 -58 -55.5 -96.5t-125.5 -38.5q-101 0 -154.5 60t-53.5 177q0 111 58.5 178t160.5 67q76 0 120 -33t44 -77q0 -57 -56 -57q-23 0 -36 13t-13 34q0 47 53 48q-34 44 -113 44q-151 0 -151 -220q0 -110 36 -156t109 -46q120 0 146 110zM308 588
q0 -19 -13 -32t-32 -13t-31.5 13t-12.5 32t12.5 32t31.5 13t32 -13t13 -32z" />
    <glyph glyph-name="Ccaron" unicode="&#x10c;" horiz-adv-x="720" 
d="M247 911l7 9q62 -57 126 -123q52 55 126 123l7 -9q-28 -48 -116 -151h-34q-25 24 -62 72t-54 79zM574 655q25 -17 38.5 -8.5t19.5 50.5h33q-17 -124 -6 -236q-5 1 -18 1t-18 -1q-6 98 -63 156t-174 58q-258 0 -258 -329q0 -175 65 -253t187 -78q70 0 119 17t75.5 51
t38.5 74t16 96q4 -1 20 -1t20 1q-6 -146 -73.5 -208.5t-216.5 -62.5q-157 0 -243 89t-86 275q0 184 91 273t242 89q112 0 191 -53z" />
    <glyph glyph-name="ccaron" unicode="&#x10d;" horiz-adv-x="484" 
d="M140 674l7 9q62 -57 126 -123q52 55 126 123l7 -9q-28 -48 -116 -151h-34q-25 24 -62 72t-54 79zM405 125l31 -7q-12 -58 -55.5 -96.5t-125.5 -38.5q-101 0 -154.5 60t-53.5 177q0 111 58.5 178t160.5 67q76 0 120 -33t44 -77q0 -57 -56 -57q-23 0 -36 13t-13 34
q0 47 53 48q-34 44 -113 44q-151 0 -151 -220q0 -110 36 -156t109 -46q120 0 146 110z" />
    <glyph glyph-name="Dcaron" unicode="&#x10e;" horiz-adv-x="787" 
d="M241 911l7 9q62 -57 126 -123q52 55 126 123l7 -9q-28 -48 -116 -151h-34q-25 24 -62 72t-54 79zM376 689q181 0 269.5 -82.5t90.5 -256.5q1 -76 -18 -136t-51.5 -100t-79.5 -66t-99.5 -37.5t-112.5 -11.5q-128 1 -167 1l-169 -2v36h74q36 0 47.5 8t11.5 34q1 16 1 271
t-1 268q0 25 -9 32.5t-36 7.5h-88v35q4 0 75 -1t97 -1q22 0 87.5 0.5t77.5 0.5zM238 77q2 -46 44 -46h82q72 0 124 15t92.5 50t60.5 98.5t20 155.5q0 164 -72.5 235.5t-223.5 71.5h-90q-19 0 -27.5 -8.5t-9.5 -29.5q-1 -32 -1 -270.5t1 -271.5z" />
    <glyph glyph-name="dcaron" unicode="&#x10f;" horiz-adv-x="682" 
d="M538 507q93 36 92 125q-10 -20 -38 -20q-17 0 -27.5 11t-10.5 30t12.5 32t33.5 13q27 0 39.5 -18.5t12.5 -46.5q0 -46 -26.5 -84t-80.5 -57zM239 465q123 0 163 -113v267q0 23 -11 31.5t-33 8.5h-57v31q122 0 161 3q1 -129 1 -621q0 -41 44 -41h51v-31q-98 0 -156 -3v104
q-40 -118 -165 -118q-89 0 -138.5 59.5t-49.5 179.5t49.5 181.5t140.5 61.5zM402 224q0 206 -143 206q-71 0 -107 -45.5t-36 -162.5q0 -96 29.5 -149.5t110.5 -53.5q70 0 108 52t38 153z" />
    <glyph glyph-name="Dcroat" unicode="&#x110;" horiz-adv-x="787" 
d="M376 689q181 0 269.5 -82.5t90.5 -256.5q1 -76 -18 -136t-51.5 -100t-79.5 -66t-99.5 -37.5t-112.5 -11.5q-128 1 -167 1l-169 -2v36h74q36 0 47.5 8t11.5 34v40.5t0.5 101t0.5 116.5q-71 0 -94 -1v38q46 -2 94 -2q0 53 -0.5 112t-0.5 96v38q0 25 -9 32.5t-36 7.5h-88v35
q4 0 75 -1t97 -1q22 0 87.5 0.5t77.5 0.5zM238 77q2 -46 44 -46h82q72 0 124 15t92.5 50t60.5 98.5t20 155.5q0 164 -72.5 235.5t-223.5 71.5h-90q-19 0 -27.5 -8.5t-9.5 -29.5q-1 -20 -1 -250q53 0 103 2v-38q-25 1 -103 1q0 -236 1 -257z" />
    <glyph glyph-name="dcroat" unicode="&#x111;" horiz-adv-x="588" 
d="M239 465q123 0 163 -113v184q-70 0 -94 -1v31q48 -2 94 -2v55q0 23 -11 31.5t-33 8.5h-57v31q122 0 161 3v-129q45 0 93 2v-31q-24 1 -93 1q1 -165 1 -464q0 -41 44 -41h51v-31q-98 0 -156 -3v104q-40 -118 -165 -118q-89 0 -138.5 59.5t-49.5 179.5t49.5 181.5
t140.5 61.5zM402 224q0 206 -143 206q-71 0 -107 -45.5t-36 -162.5q0 -96 29.5 -149.5t110.5 -53.5q70 0 108 52t38 153z" />
    <glyph glyph-name="Emacron" unicode="&#x112;" horiz-adv-x="726" 
d="M450 492v15h33q0 -12 -1.5 -62t-1.5 -93q0 -109 3 -160h-33v17q-2 72 -26 100t-94 28h-94q0 -53 0.5 -112.5t1 -99.5t0.5 -45q0 -46 37 -46h228q80 0 110 40t32 156h35q-7 -102 -7 -234q-47 4 -202 4h-266l-173 -2v36h88q31 0 41 10t11 37q1 30 1 268t-1 267
q-1 23 -9.5 31t-35.5 8h-95v35q7 0 80.5 -1t88.5 -1h299q108 0 163 7q-4 -116 2 -228h-34q0 114 -24.5 150.5t-109.5 36.5h-224q-19 0 -27 -8.5t-8 -29.5q0 -5 -0.5 -43.5t-1 -96.5t-0.5 -110h96q70 0 93.5 25.5t24.5 100.5zM260 778q1 21 0 44q135 -4 270 0q-1 -22 0 -44
q-135 4 -270 0z" />
    <glyph glyph-name="emacron" unicode="&#x113;" horiz-adv-x="512" 
d="M431 124l32 -7q-48 -135 -196 -135q-109 0 -164.5 65t-55.5 179q0 115 61.5 177t155.5 62q102 0 152 -71t42 -183l-344 -1q3 -107 44 -151.5t115 -44.5q121 0 158 110zM262 436q-145 0 -148 -201h249q15 0 20.5 6.5t5.5 22.5q0 85 -34 128.5t-93 43.5zM132 552q1 21 0 44
q135 -4 270 0q-1 -22 0 -44q-135 4 -270 0z" />
    <glyph glyph-name="Ebreve" unicode="&#x114;" horiz-adv-x="726" 
d="M450 492v15h33q0 -12 -1.5 -62t-1.5 -93q0 -109 3 -160h-33v17q-2 72 -26 100t-94 28h-94q0 -53 0.5 -112.5t1 -99.5t0.5 -45q0 -46 37 -46h228q80 0 110 40t32 156h35q-7 -102 -7 -234q-47 4 -202 4h-266l-173 -2v36h88q31 0 41 10t11 37q1 30 1 268t-1 267
q-1 23 -9.5 31t-35.5 8h-95v35q7 0 80.5 -1t88.5 -1h299q108 0 163 7q-4 -116 2 -228h-34q0 114 -24.5 150.5t-109.5 36.5h-224q-19 0 -27 -8.5t-8 -29.5q0 -5 -0.5 -43.5t-1 -96.5t-0.5 -110h96q70 0 93.5 25.5t24.5 100.5zM382 761q-70 0 -105 41t-29 104l11 2
q6 -102 123 -102t123 102l11 -2q6 -63 -29 -104t-105 -41z" />
    <glyph glyph-name="ebreve" unicode="&#x115;" horiz-adv-x="512" 
d="M431 124l32 -7q-48 -135 -196 -135q-109 0 -164.5 65t-55.5 179q0 115 61.5 177t155.5 62q102 0 152 -71t42 -183l-344 -1q3 -107 44 -151.5t115 -44.5q121 0 158 110zM262 436q-145 0 -148 -201h249q15 0 20.5 6.5t5.5 22.5q0 85 -34 128.5t-93 43.5zM260 526
q-70 0 -105 41t-29 104l11 2q6 -102 123 -102t123 102l11 -2q6 -63 -29 -104t-105 -41z" />
    <glyph glyph-name="Edotaccent" unicode="&#x116;" horiz-adv-x="726" 
d="M450 492v15h33q0 -12 -1.5 -62t-1.5 -93q0 -109 3 -160h-33v17q-2 72 -26 100t-94 28h-94q0 -53 0.5 -112.5t1 -99.5t0.5 -45q0 -46 37 -46h228q80 0 110 40t32 156h35q-7 -102 -7 -234q-47 4 -202 4h-266l-173 -2v36h88q31 0 41 10t11 37q1 30 1 268t-1 267
q-1 23 -9.5 31t-35.5 8h-95v35q7 0 80.5 -1t88.5 -1h299q108 0 163 7q-4 -116 2 -228h-34q0 114 -24.5 150.5t-109.5 36.5h-224q-19 0 -27 -8.5t-8 -29.5q0 -5 -0.5 -43.5t-1 -96.5t-0.5 -110h96q70 0 93.5 25.5t24.5 100.5zM428 818q0 -19 -13 -32t-32 -13t-31.5 13
t-12.5 32t12.5 32t31.5 13t32 -13t13 -32z" />
    <glyph glyph-name="edotaccent" unicode="&#x117;" horiz-adv-x="512" 
d="M431 124l32 -7q-48 -135 -196 -135q-109 0 -164.5 65t-55.5 179q0 115 61.5 177t155.5 62q102 0 152 -71t42 -183l-344 -1q3 -107 44 -151.5t115 -44.5q121 0 158 110zM262 436q-145 0 -148 -201h249q15 0 20.5 6.5t5.5 22.5q0 85 -34 128.5t-93 43.5zM311 588
q0 -19 -13 -32t-32 -13t-31.5 13t-12.5 32t12.5 32t31.5 13t32 -13t13 -32z" />
    <glyph glyph-name="Eogonek" unicode="&#x118;" horiz-adv-x="726" 
d="M450 492v15h33q0 -12 -1.5 -62t-1.5 -93q0 -109 3 -160h-33v17q-2 72 -26 100t-94 28h-94q0 -53 0.5 -112.5t1 -99.5t0.5 -45q0 -46 37 -46h228q80 0 110 40t32 156h35q-7 -102 -7 -234q-24 3 -63 3q-91 -34 -96 -107q-2 -34 16 -49.5t46 -15.5q37 0 62.5 26.5t31.5 66.5
l18 -4q-2 -50 -35.5 -86t-84.5 -36q-50 0 -76 24t-24 62q3 79 112 120h-375l-173 -2v36h88q31 0 41 10t11 37q1 30 1 268t-1 267q-1 23 -9.5 31t-35.5 8h-95v35q7 0 80.5 -1t88.5 -1h299q108 0 163 7q-4 -116 2 -228h-34q0 114 -24.5 150.5t-109.5 36.5h-224q-19 0 -27 -8.5
t-8 -29.5q0 -5 -0.5 -43.5t-1 -96.5t-0.5 -110h96q70 0 93.5 25.5t24.5 100.5z" />
    <glyph glyph-name="eogonek" unicode="&#x119;" horiz-adv-x="512" 
d="M486 -84q-4 -51 -37.5 -86.5t-85.5 -35.5t-76 24.5t-21 63.5q6 59 77 109q-31 -9 -76 -9q-109 0 -164.5 65t-55.5 179q0 115 61.5 177t155.5 62q102 0 152 -71t42 -183l-344 -1q3 -107 44 -151.5t115 -44.5q120 0 155 110l35 -7q-18 -49 -77 -105q-72 -67 -76 -118
q-2 -34 16 -50.5t45 -16.5q37 0 62.5 26.5t34.5 66.5zM262 436q-145 0 -148 -201h249q15 0 20.5 6.5t5.5 22.5q0 85 -34 128.5t-93 43.5z" />
    <glyph glyph-name="Ecaron" unicode="&#x11a;" horiz-adv-x="726" 
d="M249 911l7 9q62 -57 126 -123q52 55 126 123l7 -9q-28 -48 -116 -151h-34q-25 24 -62 72t-54 79zM450 492v15h33q0 -12 -1.5 -62t-1.5 -93q0 -109 3 -160h-33v17q-2 72 -26 100t-94 28h-94q0 -53 0.5 -112.5t1 -99.5t0.5 -45q0 -46 37 -46h228q80 0 110 40t32 156h35
q-7 -102 -7 -234q-47 4 -202 4h-266l-173 -2v36h88q31 0 41 10t11 37q1 30 1 268t-1 267q-1 23 -9.5 31t-35.5 8h-95v35q7 0 80.5 -1t88.5 -1h299q108 0 163 7q-4 -116 2 -228h-34q0 114 -24.5 150.5t-109.5 36.5h-224q-19 0 -27 -8.5t-8 -29.5q0 -5 -0.5 -43.5t-1 -96.5
t-0.5 -110h96q70 0 93.5 25.5t24.5 100.5z" />
    <glyph glyph-name="ecaron" unicode="&#x11b;" horiz-adv-x="512" 
d="M126 674l7 9q62 -57 126 -123q52 55 126 123l7 -9q-28 -48 -116 -151h-34q-25 24 -62 72t-54 79zM431 124l32 -7q-48 -135 -196 -135q-109 0 -164.5 65t-55.5 179q0 115 61.5 177t155.5 62q102 0 152 -71t42 -183l-344 -1q3 -107 44 -151.5t115 -44.5q121 0 158 110z
M262 436q-145 0 -148 -201h249q15 0 20.5 6.5t5.5 22.5q0 85 -34 128.5t-93 43.5z" />
    <glyph glyph-name="Gcircumflex" unicode="&#x11c;" horiz-adv-x="799" 
d="M513 750l-7 -9q-71 65 -126 124q-58 -62 -126 -124l-7 9q24 41 116 152h34q25 -25 62 -73.5t54 -78.5zM383 708q103 0 191 -53q25 -17 38.5 -8.5t19.5 50.5h33q-17 -124 -6 -236q-5 1 -18 1t-18 -1q-6 98 -63 156t-174 58q-258 0 -258 -329q0 -331 252 -331
q99 0 163 58.5t64 155.5q0 48 -12 64t-47 16h-64v35q92 -2 143 -2l142 2v-35h-50q-26 0 -37 -13.5t-11 -53.5q0 -186 5 -259h-37q-1 3 -3 25t-6 55.5t-8 58.5q-29 -60 -92.5 -100t-150.5 -40q-157 0 -243 89t-86 275q0 184 91 273t242 89z" />
    <glyph glyph-name="gcircumflex" unicode="&#x11d;" horiz-adv-x="573" 
d="M398 523l-7 -9q-71 65 -126 124q-58 -62 -126 -124l-7 9q24 41 116 152h34q25 -25 62 -73.5t54 -78.5zM246 465q71 0 116 -27q10 43 36.5 66.5t63.5 23.5q38 0 57 -17.5t19 -44.5q0 -54 -47 -54q-22 0 -34 12t-12 33q0 30 26 41q-69 5 -93 -71q60 -45 60 -130
q0 -77 -52.5 -121.5t-140.5 -44.5q-123 0 -123 -43q0 -13 11.5 -21t49.5 -14.5t106 -7.5q121 -2 168.5 -26.5t47.5 -83.5q0 -64 -66.5 -102.5t-189.5 -38.5q-115 0 -173.5 25.5t-58.5 82.5q0 36 33 61.5t87 35.5q-61 17 -61 69q0 57 95 73q-54 16 -85 56.5t-31 99.5
q0 77 53.5 122.5t137.5 45.5zM247 439q-55 0 -90.5 -34.5t-35.5 -107.5q0 -139 126 -139q125 0 125 139q0 142 -125 142zM264 -16q-50 1 -85 6q-112 -15 -112 -81q0 -86 182 -86q107 0 163 26t56 70q0 37 -39 49.5t-165 15.5z" />
    <glyph glyph-name="Gbreve" unicode="&#x11e;" horiz-adv-x="799" 
d="M383 708q103 0 191 -53q25 -17 38.5 -8.5t19.5 50.5h33q-17 -124 -6 -236q-5 1 -18 1t-18 -1q-6 98 -63 156t-174 58q-258 0 -258 -329q0 -331 252 -331q99 0 163 58.5t64 155.5q0 48 -12 64t-47 16h-64v35q92 -2 143 -2l142 2v-35h-50q-26 0 -37 -13.5t-11 -53.5
q0 -186 5 -259h-37q-1 3 -3 25t-6 55.5t-8 58.5q-29 -60 -92.5 -100t-150.5 -40q-157 0 -243 89t-86 275q0 184 91 273t242 89zM373 761q-70 0 -105 41t-29 104l11 2q6 -102 123 -102t123 102l11 -2q6 -63 -29 -104t-105 -41z" />
    <glyph glyph-name="gbreve" unicode="&#x11f;" horiz-adv-x="573" 
d="M246 465q71 0 116 -27q10 43 36.5 66.5t63.5 23.5q38 0 57 -17.5t19 -44.5q0 -54 -47 -54q-22 0 -34 12t-12 33q0 30 26 41q-69 5 -93 -71q60 -45 60 -130q0 -77 -52.5 -121.5t-140.5 -44.5q-123 0 -123 -43q0 -13 11.5 -21t49.5 -14.5t106 -7.5q121 -2 168.5 -26.5
t47.5 -83.5q0 -64 -66.5 -102.5t-189.5 -38.5q-115 0 -173.5 25.5t-58.5 82.5q0 36 33 61.5t87 35.5q-61 17 -61 69q0 57 95 73q-54 16 -85 56.5t-31 99.5q0 77 53.5 122.5t137.5 45.5zM247 439q-55 0 -90.5 -34.5t-35.5 -107.5q0 -139 126 -139q125 0 125 139
q0 142 -125 142zM264 -16q-50 1 -85 6q-112 -15 -112 -81q0 -86 182 -86q107 0 163 26t56 70q0 37 -39 49.5t-165 15.5zM264 526q-70 0 -105 41t-29 104l11 2q6 -102 123 -102t123 102l11 -2q6 -63 -29 -104t-105 -41z" />
    <glyph glyph-name="Gdotaccent" unicode="&#x120;" horiz-adv-x="799" 
d="M383 708q103 0 191 -53q25 -17 38.5 -8.5t19.5 50.5h33q-17 -124 -6 -236q-5 1 -18 1t-18 -1q-6 98 -63 156t-174 58q-258 0 -258 -329q0 -331 252 -331q99 0 163 58.5t64 155.5q0 48 -12 64t-47 16h-64v35q92 -2 143 -2l142 2v-35h-50q-26 0 -37 -13.5t-11 -53.5
q0 -186 5 -259h-37q-1 3 -3 25t-6 55.5t-8 58.5q-29 -60 -92.5 -100t-150.5 -40q-157 0 -243 89t-86 275q0 184 91 273t242 89zM425 818q0 -19 -13 -32t-32 -13t-31.5 13t-12.5 32t12.5 32t31.5 13t32 -13t13 -32z" />
    <glyph glyph-name="gdotaccent" unicode="&#x121;" horiz-adv-x="573" 
d="M246 465q71 0 116 -27q10 43 36.5 66.5t63.5 23.5q38 0 57 -17.5t19 -44.5q0 -54 -47 -54q-22 0 -34 12t-12 33q0 30 26 41q-69 5 -93 -71q60 -45 60 -130q0 -77 -52.5 -121.5t-140.5 -44.5q-123 0 -123 -43q0 -13 11.5 -21t49.5 -14.5t106 -7.5q121 -2 168.5 -26.5
t47.5 -83.5q0 -64 -66.5 -102.5t-189.5 -38.5q-115 0 -173.5 25.5t-58.5 82.5q0 36 33 61.5t87 35.5q-61 17 -61 69q0 57 95 73q-54 16 -85 56.5t-31 99.5q0 77 53.5 122.5t137.5 45.5zM247 439q-55 0 -90.5 -34.5t-35.5 -107.5q0 -139 126 -139q125 0 125 139
q0 142 -125 142zM264 -16q-50 1 -85 6q-112 -15 -112 -81q0 -86 182 -86q107 0 163 26t56 70q0 37 -39 49.5t-165 15.5zM296 588q0 -19 -13 -32t-32 -13t-31.5 13t-12.5 32t12.5 32t31.5 13t32 -13t13 -32z" />
    <glyph glyph-name="Gcommaaccent" unicode="&#x122;" horiz-adv-x="799" 
d="M315 -255q93 36 92 125q-10 -20 -38 -20q-17 0 -27.5 11t-10.5 30t12.5 32t33.5 13q27 0 39.5 -18.5t12.5 -46.5q0 -46 -26.5 -84t-80.5 -57zM383 708q103 0 191 -53q25 -17 38.5 -8.5t19.5 50.5h33q-17 -124 -6 -236q-5 1 -18 1t-18 -1q-6 98 -63 156t-174 58
q-258 0 -258 -329q0 -331 252 -331q99 0 163 58.5t64 155.5q0 48 -12 64t-47 16h-64v35q92 -2 143 -2l142 2v-35h-50q-26 0 -37 -13.5t-11 -53.5q0 -186 5 -259h-37q-1 3 -3 25t-6 55.5t-8 58.5q-29 -60 -92.5 -100t-150.5 -40q-157 0 -243 89t-86 275q0 184 91 273t242 89z
" />
    <glyph glyph-name="gcommaaccent" unicode="&#x123;" horiz-adv-x="573" 
d="M323 734q-93 -36 -92 -125q10 20 38 20q17 0 27.5 -11t10.5 -30t-12.5 -32t-33.5 -13q-27 0 -39.5 18.5t-12.5 46.5q0 46 26.5 84t80.5 57zM246 465q71 0 116 -27q10 43 36.5 66.5t63.5 23.5q38 0 57 -17.5t19 -44.5q0 -54 -47 -54q-22 0 -34 12t-12 33q0 30 26 41
q-69 5 -93 -71q60 -45 60 -130q0 -77 -52.5 -121.5t-140.5 -44.5q-123 0 -123 -43q0 -13 11.5 -21t49.5 -14.5t106 -7.5q121 -2 168.5 -26.5t47.5 -83.5q0 -64 -66.5 -102.5t-189.5 -38.5q-115 0 -173.5 25.5t-58.5 82.5q0 36 33 61.5t87 35.5q-61 17 -61 69q0 57 95 73
q-54 16 -85 56.5t-31 99.5q0 77 53.5 122.5t137.5 45.5zM247 439q-55 0 -90.5 -34.5t-35.5 -107.5q0 -139 126 -139q125 0 125 139q0 142 -125 142zM264 -16q-50 1 -85 6q-112 -15 -112 -81q0 -86 182 -86q107 0 163 26t56 70q0 37 -39 49.5t-165 15.5z" />
    <glyph glyph-name="Hcircumflex" unicode="&#x124;" horiz-adv-x="867" 
d="M571 757l-7 -9q-71 65 -126 124q-58 -62 -126 -124l-7 9q24 41 116 152h34q25 -25 62 -73.5t54 -78.5zM49 -2v36h64q36 0 47.5 7t11.5 32q1 35 1 266.5t-1 265.5q0 28 -12 39t-40 11h-70v35q100 -2 156 -2q32 0 92 1t63 1v-35h-70q-28 0 -40 -11t-12 -39q0 -6 -0.5 -44.5
t-0.5 -95v-106.5q192 -2 391 0q0 50 -0.5 106.5t-0.5 95v44.5q-1 29 -12.5 39.5t-39.5 10.5h-70v35q100 -2 155 -2q33 0 93 1t63 1v-35h-70q-28 0 -40 -11t-12 -39q-1 -34 -1 -265.5t1 -266.5q0 -25 11.5 -32t47.5 -7h63v-36q-100 2 -156 2l-155 -2v36h63q36 0 47.5 7
t11.5 32v47t0.5 98t0.5 109q-199 4 -391 0v-109t0.5 -98t0.5 -47q0 -25 11 -32t47 -7h64v-36q-100 2 -156 2z" />
    <glyph glyph-name="hcircumflex" unicode="&#x125;" horiz-adv-x="642" 
d="M258 746l-7 -9q-71 65 -126 124q-58 -62 -126 -124l-7 9q24 41 116 152h34q25 -25 62 -73.5t54 -78.5zM517 277q-3 -100 0 -182q1 -44 10 -54t49 -10h33v-32q-4 0 -51 1t-73 1q-27 0 -77 -1l-49 -1v32h33q41 0 52 10.5t12 52.5q1 12 1 88.5t-1 90.5q-2 77 -31 116.5
t-92 39.5q-71 0 -106.5 -50.5t-40.5 -150.5v-136q0 -42 10 -51.5t52 -9.5h33v-32q-5 0 -52 1t-73 1q-27 0 -79 -1t-53 -1v32h41q42 1 50.5 10t9.5 50q1 7 1 250.5t-1 251.5q-2 43 -11 54.5t-48 11.5h-39v31q121 0 161 3q-2 -31 -2 -137v-221q18 63 60 96.5t103 33.5
q173 0 168 -188z" />
    <glyph glyph-name="Hbar" unicode="&#x126;" horiz-adv-x="867" 
d="M49 -2v36h64q36 0 47.5 7t11.5 32v83v176.5v156.5q-16 0 -35.5 -0.5t-21.5 -0.5v32q9 -1 57 -1v86q0 28 -12 39t-40 11h-70v35q100 -2 156 -2q32 0 92 1t63 1v-35h-70q-28 0 -40 -11t-12 -39q0 -1 -0.5 -31.5t-0.5 -55.5q283 0 390 1v86q-1 29 -12.5 39.5t-39.5 10.5h-70
v35q100 -2 155 -2q33 0 93 1t63 1v-35h-70q-28 0 -40 -11t-12 -39q0 -1 -0.5 -33t-0.5 -53q47 0 57 1v-32h-57q0 -380 1 -415q0 -25 11.5 -32t47.5 -7h63v-36q-100 2 -156 2l-155 -2v36h63q36 0 47.5 7t11.5 32v47t0.5 98t0.5 109q-199 4 -391 0v-109t0.5 -98t0.5 -47
q0 -25 11 -32t47 -7h64v-36q-100 2 -156 2zM629 489h-116.5h-152.5h-122v-130q192 -2 391 0v130z" />
    <glyph glyph-name="hbar" unicode="&#x127;" horiz-adv-x="642" 
d="M34 535v31q46 -2 91 -2v29q-2 43 -11 54.5t-48 11.5h-39v31q121 0 161 3q-2 -29 -2 -129q47 0 95 2v-31q-24 1 -95 1v-201q18 63 60 96.5t103 33.5q173 0 168 -188q-3 -100 0 -182q1 -44 10 -54t49 -10h33v-32q-4 0 -51 1t-73 1q-27 0 -77 -1l-49 -1v32h33q41 0 52 10.5
t12 52.5q1 12 1 88.5t-1 90.5q-2 77 -31 116.5t-92 39.5q-71 0 -106.5 -50.5t-40.5 -150.5v-136q0 -42 10 -51.5t52 -9.5h33v-32q-5 0 -52 1t-73 1q-27 0 -79 -1t-53 -1v32h41q42 1 49.5 9.5t10.5 50.5q1 6 1 181.5t-1 263.5q-68 0 -91 -1z" />
    <glyph glyph-name="Itilde" unicode="&#x128;" horiz-adv-x="412" 
d="M50 -2v36h63q34 0 46.5 10.5t12.5 36.5q1 34 1 262t-1 262q0 28 -12 39t-40 11h-69v35q100 -2 156 -2q32 0 92 1t63 1v-35h-70q-28 0 -39.5 -10.5t-12.5 -39.5q-1 -34 -1 -262t1 -262q0 -26 12.5 -36.5t46.5 -10.5h63v-36q-100 2 -156 2zM329 897l18 3
q21 -69 -3.5 -105.5t-71.5 -36.5q-31 0 -51.5 15t-40.5 46q-16 25 -23.5 34.5t-20.5 18t-28 8.5q-26 0 -36 -26t2 -84l-18 -3q-21 69 3 105.5t72 36.5q52 0 91 -61q17 -24 24.5 -34t20.5 -18.5t28 -8.5q26 0 36 27.5t-2 82.5z" />
    <glyph glyph-name="itilde" unicode="&#x129;" horiz-adv-x="311" 
d="M186 454v-369q0 -35 10 -44.5t41 -9.5h46v-32q-5 0 -53 1t-75 1q-28 0 -79 -1l-51 -1v32h56q26 0 34.5 10t9.5 43t1 146t-1 139q-1 28 -10.5 40t-39.5 12h-47v30q119 0 158 3zM259 660l18 3q21 -69 -3.5 -105.5t-71.5 -36.5q-31 0 -51.5 15t-40.5 46q-16 25 -23.5 34.5
t-20.5 18t-28 8.5q-26 0 -36 -25.5t2 -84.5l-18 -3q-21 69 3 105.5t72 36.5q52 0 91 -61q17 -24 24.5 -34t20.5 -18.5t28 -8.5q26 0 36 27t-2 83z" />
    <glyph glyph-name="Imacron" unicode="&#x12a;" horiz-adv-x="412" 
d="M50 -2v36h63q34 0 46.5 10.5t12.5 36.5q1 34 1 262t-1 262q0 28 -12 39t-40 11h-69v35q100 -2 156 -2q32 0 92 1t63 1v-35h-70q-28 0 -39.5 -10.5t-12.5 -39.5q-1 -34 -1 -262t1 -262q0 -26 12.5 -36.5t46.5 -10.5h63v-36q-100 2 -156 2zM72 778q1 21 0 44q135 -4 270 0
q-1 -22 0 -44q-135 4 -270 0z" />
    <glyph glyph-name="imacron" unicode="&#x12b;" horiz-adv-x="311" 
d="M186 454v-369q0 -35 10 -44.5t41 -9.5h46v-32q-5 0 -53 1t-75 1q-28 0 -79 -1l-51 -1v32h56q26 0 34.5 10t9.5 43t1 146t-1 139q-1 28 -10.5 40t-39.5 12h-47v30q119 0 158 3zM-1 552q1 21 0 44q135 -4 270 0q-1 -22 0 -44q-135 4 -270 0z" />
    <glyph glyph-name="Ibreve" unicode="&#x12c;" horiz-adv-x="412" 
d="M50 -2v36h63q34 0 46.5 10.5t12.5 36.5q1 34 1 262t-1 262q0 28 -12 39t-40 11h-69v35q100 -2 156 -2q32 0 92 1t63 1v-35h-70q-28 0 -39.5 -10.5t-12.5 -39.5q-1 -34 -1 -262t1 -262q0 -26 12.5 -36.5t46.5 -10.5h63v-36q-100 2 -156 2zM206 761q-70 0 -105 41t-29 104
l11 2q6 -102 123 -102t123 102l11 -2q6 -63 -29 -104t-105 -41z" />
    <glyph glyph-name="ibreve" unicode="&#x12d;" horiz-adv-x="311" 
d="M186 454v-369q0 -35 10 -44.5t41 -9.5h46v-32q-5 0 -53 1t-75 1q-28 0 -79 -1l-51 -1v32h56q26 0 34.5 10t9.5 43t1 146t-1 139q-1 28 -10.5 40t-39.5 12h-47v30q119 0 158 3zM129 526q-70 0 -105 41t-29 104l11 2q6 -102 123 -102t123 102l11 -2q6 -63 -29 -104
t-105 -41z" />
    <glyph glyph-name="Iogonek" unicode="&#x12e;" horiz-adv-x="412" 
d="M320 -84q-2 -50 -35.5 -86t-84.5 -36q-50 0 -76 24t-24 62q1 39 31 70.5t82 49.5h-7l-156 -2v36h63q34 0 46.5 10.5t12.5 36.5q1 34 1 262t-1 262q0 28 -12 39t-40 11h-69v35q100 -2 156 -2q32 0 92 1t63 1v-35h-70q-28 0 -39.5 -10.5t-12.5 -39.5q-1 -34 -1 -262t1 -262
q0 -26 12.5 -36.5t46.5 -10.5h63v-36q-64 2 -117 2q-94 -34 -99 -108q-2 -34 16 -49.5t46 -15.5q37 0 62.5 26.5t31.5 66.5z" />
    <glyph glyph-name="iogonek" unicode="&#x12f;" horiz-adv-x="311" 
d="M270 -84q-2 -50 -35.5 -86t-84.5 -36q-50 0 -75.5 24t-24.5 62q2 40 32.5 71.5t82.5 49.5h-10q-28 0 -79 -1l-51 -1v32h56q26 0 34.5 10t9.5 43t1 146t-1 139q-1 28 -10.5 40t-39.5 12h-47v30q119 0 158 3q-1 -323 0 -369q1 -35 10.5 -44.5t40.5 -9.5h46v-32q-12 0 -86 2
q-98 -35 -101 -109q-3 -34 15.5 -49.5t46.5 -15.5q37 0 62.5 26.5t31.5 66.5zM195 611q0 -22 -15 -37.5t-37 -15.5t-37.5 15.5t-15.5 37.5t15.5 37t37.5 15t37 -15t15 -37z" />
    <glyph glyph-name="Idotaccent" unicode="&#x130;" horiz-adv-x="412" 
d="M50 -2v36h63q34 0 46.5 10.5t12.5 36.5q1 34 1 262t-1 262q0 28 -12 39t-40 11h-69v35q100 -2 156 -2q32 0 92 1t63 1v-35h-70q-28 0 -39.5 -10.5t-12.5 -39.5q-1 -34 -1 -262t1 -262q0 -26 12.5 -36.5t46.5 -10.5h63v-36q-100 2 -156 2zM251 818q0 -19 -13 -32t-32 -13
t-31.5 13t-12.5 32t12.5 32t31.5 13t32 -13t13 -32z" />
    <glyph glyph-name="dotlessi" unicode="&#x131;" horiz-adv-x="311" 
d="M186 454v-369q0 -35 10 -44.5t41 -9.5h46v-32q-5 0 -53 1t-75 1q-28 0 -79 -1l-51 -1v32h56q26 0 34.5 10t9.5 43t1 146t-1 139q-1 28 -10.5 40t-39.5 12h-47v30q119 0 158 3z" />
    <glyph glyph-name="IJ" unicode="&#x132;" horiz-adv-x="968" 
d="M50 -2v36h63q34 0 46.5 10.5t12.5 36.5q1 34 1 262t-1 262q0 28 -12 39t-40 11h-69v35q100 -2 156 -2q32 0 92 1t63 1v-35h-70q-28 0 -39.5 -10.5t-12.5 -39.5q-1 -34 -1 -262t1 -262q0 -26 12.5 -36.5t46.5 -10.5h63v-36q-100 2 -156 2zM475 103q-15 0 -27 5
q21 -94 134 -94q78 0 113 47t36 160q1 47 1 198.5t-1 185.5q0 28 -12 39t-40 11h-66v35q98 -2 153 -2q32 0 90.5 1t61.5 1v-35h-66q-28 0 -39.5 -10.5t-12.5 -39.5v-76v-123v-122v-64q1 -238 -216 -238q-81 0 -126 45.5t-45 104.5q0 35 17.5 55.5t47.5 20.5q25 0 39.5 -14.5
t14.5 -38.5t-16.5 -38t-40.5 -14z" />
    <glyph glyph-name="ij" unicode="&#x133;" horiz-adv-x="570" 
d="M186 454q-1 -323 0 -369q1 -35 10.5 -44.5t40.5 -9.5h46v-32q-5 0 -53 1t-75 1q-28 0 -79 -1l-51 -1v32h56q26 0 34.5 10t9.5 43t1 146t-1 139q-1 28 -10.5 40t-39.5 12h-47v30q119 0 158 3zM195 611q0 -22 -15 -37.5t-37 -15.5t-37.5 15.5t-15.5 37.5t15.5 37t37.5 15
t37 -15t15 -37zM321 -116q0 -17 -14 -29.5t-36 -11.5q18 -11 48 -11q47 0 70 33t23 122v107v158v118q0 26 -10.5 38.5t-37.5 12.5h-49v30q122 0 161 3q-3 -38 -3 -141v-317q0 -96 -37.5 -143t-105.5 -47q-49 0 -77.5 20t-28.5 53q0 24 14 37.5t36 13.5q47 0 47 -46zM482 611
q0 -22 -15 -37.5t-37 -15.5t-37.5 15.5t-15.5 37.5t15.5 37t37.5 15t37 -15t15 -37z" />
    <glyph glyph-name="Jcircumflex" unicode="&#x134;" 
d="M526 750l-7 -9q-71 65 -126 124q-58 -62 -126 -124l-7 9q24 41 116 152h34q25 -25 62 -73.5t54 -78.5zM107 103q-15 0 -27 5q21 -94 134 -94q78 0 113 47t36 160q1 47 1 198.5t-1 185.5q0 28 -12 39t-40 11h-66v35q98 -2 153 -2q32 0 90.5 1t61.5 1v-35h-66
q-28 0 -39.5 -10.5t-12.5 -39.5v-76v-123v-122v-64q1 -238 -216 -238q-81 0 -126 45.5t-45 104.5q0 35 17.5 55.5t47.5 20.5q25 0 39.5 -14.5t14.5 -38.5t-16.5 -38t-40.5 -14z" />
    <glyph glyph-name="jcircumflex" unicode="&#x135;" horiz-adv-x="287" 
d="M37 -116q0 -18 -13.5 -30t-35.5 -11q18 -11 48 -11q47 0 70 33t23 122v383q0 26 -10.5 38.5t-37.5 12.5h-49v30q119 0 158 3v-111.5v-222v-124.5q0 -96 -37.5 -143t-105.5 -47q-49 0 -77.5 20t-28.5 53q0 23 14 36t36 13q46 0 46 -44zM277 523l-7 -9q-71 65 -126 124
q-58 -62 -126 -124l-7 9q24 41 116 152h34q25 -25 62 -73.5t54 -78.5z" />
    <glyph glyph-name="Kcommaaccent" unicode="&#x136;" horiz-adv-x="835" 
d="M359 -252q93 36 92 125q-10 -20 -38 -20q-17 0 -27.5 11t-10.5 30t12.5 32t33.5 13q27 0 39.5 -18.5t12.5 -46.5q0 -46 -26.5 -84t-80.5 -57zM49 -2v36h64q34 0 46 11t13 39q1 32 1 259.5t-1 261.5q0 28 -12 39t-40 11h-70v35q100 -2 156 -2q32 0 92 1t63 1v-35h-70
q-28 0 -40 -11t-12 -39q0 -7 -0.5 -53.5t-0.5 -113v-123.5l320 286q20 16 12.5 35t-42.5 19h-51v35q100 -2 156 -2q32 0 90.5 1t61.5 1v-35h-40q-45 0 -77.5 -15.5t-75.5 -52.5l-199 -176q103 -144 248 -320q26 -31 50 -44t61 -13h36v-35q-100 2 -155 2l-157 -2v35h40
q38 0 46 17t-10 42q-71 107 -209 273l-105 -93v-81.5t0.5 -73t0.5 -34.5q0 -28 11.5 -39t44.5 -11h66v-36q-100 2 -156 2z" />
    <glyph glyph-name="kcommaaccent" unicode="&#x137;" horiz-adv-x="615" 
d="M243 -252q93 36 92 125q-10 -20 -38 -20q-17 0 -27.5 11t-10.5 30t12.5 32t33.5 13q27 0 39.5 -18.5t12.5 -46.5q0 -46 -26.5 -84t-80.5 -57zM186 693v-471l161 128q20 16 27.5 32.5t0.5 27.5t-27 11h-38v31q84 -2 131 -2q29 0 81 1l51 1v-31h-24q-43 0 -79.5 -18
t-107.5 -73l-56 -43q36 -50 148 -198q23 -31 46.5 -44t65.5 -13h20v-33q-4 0 -53.5 1t-76.5 1q-28 0 -79 -1t-52 -1v32h31q30 0 38 15.5t-14 46.5l-120 159l-74 -57v-89q0 -45 15.5 -60t51.5 -15h36v-32q-5 0 -54.5 1t-76.5 1q-28 0 -80 -1h-52v31h47q32 0 41 13.5t11 60.5
q1 10 1 246.5t-1 246.5q-1 38 -12 49.5t-42 11.5h-42v31q118 0 157 3z" />
    <glyph glyph-name="kgreenlandic" unicode="&#x138;" horiz-adv-x="615" 
d="M186 454v-232l161 128q20 16 27.5 32.5t0.5 27.5t-27 11h-38v31q84 -2 131 -2q29 0 81 1l51 1v-31h-24q-43 0 -79.5 -18t-107.5 -73l-56 -43q36 -50 148 -198q23 -31 46.5 -44t65.5 -13h20v-33q-4 0 -53.5 1t-76.5 1q-28 0 -79 -1t-52 -1v32h31q30 0 38 15.5t-14 46.5
l-120 159l-74 -57v-89q0 -45 15.5 -60t51.5 -15h36v-32q-5 0 -54.5 1t-76.5 1q-28 0 -80 -1h-52v31h47q32 0 41 13.5t11 60.5q1 10 1 127.5t-1 126.5q-2 38 -12.5 49.5t-41.5 11.5h-42v31q99 0 157 3z" />
    <glyph glyph-name="Lacute" unicode="&#x139;" horiz-adv-x="663" 
d="M187 751l-7 9q11 11 44.5 46t53.5 54.5t34 31.5q14 9 27.5 3.5t15 -18t-10.5 -23.5q-49 -36 -157 -103zM361 690v-35h-70q-28 0 -40 -11t-12 -39q-1 -34 -1 -262t1 -262q0 -25 12 -36t44 -11h111q40 0 63.5 2t45.5 9.5t32.5 20t19.5 37t12 56t5 81.5h35q-10 -143 -8 -244
q-47 4 -200 4h-202q-23 0 -61 -0.5t-67.5 -1t-31.5 -0.5v36h64q34 0 46.5 10.5t12.5 36.5q1 34 1 262t-1 262q0 28 -12 39t-40 11h-70v35q100 -2 156 -2q37 0 155 2z" />
    <glyph glyph-name="lacute" unicode="&#x13a;" horiz-adv-x="311" 
d="M136 728l-7 9q11 11 44.5 46t53.5 54.5t34 31.5q14 9 27.5 3.5t15 -18t-10.5 -23.5q-49 -36 -157 -103zM186 693q-1 -582 0 -598q3 -44 12.5 -54t49.5 -10h36v-32q-1 0 -24 0.5t-54 1t-51 0.5q-21 0 -52.5 -0.5t-54.5 -0.5l-24 -1v32h41q41 1 49.5 11t10.5 52
q1 12 1 248.5t-1 246.5q-1 24 -2.5 33.5t-7 20t-17 13.5t-32.5 3h-39v31q120 0 159 3z" />
    <glyph glyph-name="Lcommaaccent" unicode="&#x13b;" horiz-adv-x="663" 
d="M292 -252q93 36 92 125q-10 -20 -38 -20q-17 0 -27.5 11t-10.5 30t12.5 32t33.5 13q27 0 39.5 -18.5t12.5 -46.5q0 -46 -26.5 -84t-80.5 -57zM361 690v-35h-70q-28 0 -40 -11t-12 -39q-1 -34 -1 -262t1 -262q0 -25 12 -36t44 -11h111q40 0 63.5 2t45.5 9.5t32.5 20
t19.5 37t12 56t5 81.5h35q-10 -143 -8 -244q-47 4 -200 4h-202q-23 0 -61 -0.5t-67.5 -1t-31.5 -0.5v36h64q34 0 46.5 10.5t12.5 36.5q1 34 1 262t-1 262q0 28 -12 39t-40 11h-70v35q100 -2 156 -2q37 0 155 2z" />
    <glyph glyph-name="lcommaaccent" unicode="&#x13c;" horiz-adv-x="311" 
d="M94 -252q93 36 92 125q-10 -20 -38 -20q-17 0 -27.5 11t-10.5 30t12.5 32t33.5 13q27 0 39.5 -18.5t12.5 -46.5q0 -46 -26.5 -84t-80.5 -57zM186 693q-1 -582 0 -598q3 -44 12.5 -54t49.5 -10h36v-32q-1 0 -24 0.5t-54 1t-51 0.5q-21 0 -52.5 -0.5t-54.5 -0.5l-24 -1v32
h41q41 0 49.5 10.5t10.5 52.5q1 12 1 248.5t-1 246.5q-1 24 -2.5 33.5t-7 20t-17 13.5t-32.5 3h-39v31q120 0 159 3z" />
    <glyph glyph-name="Lcaron" unicode="&#x13d;" horiz-adv-x="663" 
d="M460 519q93 36 92 125q-10 -20 -38 -20q-17 0 -27.5 11t-10.5 30t12.5 32t33.5 13q27 0 39.5 -18.5t12.5 -46.5q0 -46 -26.5 -84t-80.5 -57zM361 690v-35h-70q-28 0 -40 -11t-12 -39q-1 -34 -1 -262t1 -262q0 -25 12 -36t44 -11h111q40 0 63.5 2t45.5 9.5t32.5 20
t19.5 37t12 56t5 81.5h35q-10 -143 -8 -244q-47 4 -200 4h-202q-23 0 -61 -0.5t-67.5 -1t-31.5 -0.5v36h64q34 0 46.5 10.5t12.5 36.5q1 34 1 262t-1 262q0 28 -12 39t-40 11h-70v35q100 -2 156 -2q37 0 155 2z" />
    <glyph glyph-name="lcaron" unicode="&#x13e;" horiz-adv-x="388" 
d="M250 499q93 36 92 125q-10 -20 -38 -20q-17 0 -27.5 11t-10.5 30t12.5 32t33.5 13q27 0 39.5 -18.5t12.5 -46.5q0 -46 -26.5 -84t-80.5 -57zM186 693q-1 -582 0 -598q3 -44 12.5 -54t49.5 -10h36v-32q-1 0 -24 0.5t-54 1t-51 0.5q-21 0 -52.5 -0.5t-54.5 -0.5l-24 -1v32
h41q41 1 49.5 11t10.5 52q1 12 1 248.5t-1 246.5q-1 24 -2.5 33.5t-7 20t-17 13.5t-32.5 3h-39v31q120 0 159 3z" />
    <glyph glyph-name="Ldot" unicode="&#x13f;" horiz-adv-x="663" 
d="M361 690v-35h-70q-28 0 -40 -11t-12 -39q-1 -34 -1 -262t1 -262q0 -25 12 -36t44 -11h111q40 0 63.5 2t45.5 9.5t32.5 20t19.5 37t12 56t5 81.5h35q-10 -143 -8 -244q-47 4 -200 4h-202q-23 0 -61 -0.5t-67.5 -1t-31.5 -0.5v36h64q34 0 46.5 10.5t12.5 36.5q1 34 1 262
t-1 262q0 28 -12 39t-40 11h-70v35q100 -2 156 -2q37 0 155 2zM498 365q0 -19 -13 -32t-32 -13t-31.5 13t-12.5 32t12.5 32t31.5 13t32 -13t13 -32z" />
    <glyph glyph-name="ldot" unicode="&#x140;" horiz-adv-x="367" 
d="M186 693q-1 -582 0 -598q3 -44 12.5 -54t49.5 -10h36v-32q-1 0 -24 0.5t-54 1t-51 0.5q-21 0 -52.5 -0.5t-54.5 -0.5l-24 -1v32h41q41 1 49.5 11t10.5 52q1 12 1 248.5t-1 246.5q-1 24 -2.5 33.5t-7 20t-17 13.5t-32.5 3h-39v31q120 0 159 3zM377 312q0 -19 -13 -32
t-32 -13t-31.5 13t-12.5 32t12.5 32t31.5 13t32 -13t13 -32z" />
    <glyph glyph-name="Lslash" unicode="&#x141;" horiz-adv-x="663" 
d="M361 690v-35h-70q-28 0 -40 -11t-12 -39q0 -6 -0.5 -40t-0.5 -83.5v-93.5q54 29 89 50l15 -28q-44 -22 -104 -55v-117t0.5 -106.5t0.5 -50.5q0 -25 12 -36t44 -11h111q40 0 63.5 2t45.5 9.5t32.5 20t19.5 37t12 56t5 81.5h35q-10 -143 -8 -244q-47 4 -200 4h-202
q-23 0 -61 -0.5t-67.5 -1t-31.5 -0.5v36h64q34 0 46.5 10.5t12.5 36.5v43.5t0.5 92.5t0.5 103q-13 -7 -33 -18t-25 -14l-15 27l73 38q0 50 -0.5 108t-0.5 97.5v46.5q0 28 -12 39t-40 11h-70v35q100 -2 156 -2q37 0 155 2z" />
    <glyph glyph-name="lslash" unicode="&#x142;" horiz-adv-x="311" 
d="M186 693q-1 -148 -1 -305l66 39l15 -27l-81 -44q0 -254 1 -261q3 -44 12.5 -54t49.5 -10h36v-32q-1 0 -24 0.5t-54 1t-51 0.5q-21 0 -52.5 -0.5t-54.5 -0.5l-24 -1v32h41q41 1 49.5 11t10.5 52l1 34v89.5v103.5l-14 -8t-15 -9t-12 -7l-16 27l57 31v67v63t-0.5 51.5
t-0.5 37.5v15q-1 24 -2.5 33.5t-7 20t-17 13.5t-32.5 3h-39v31q120 0 159 3z" />
    <glyph glyph-name="Nacute" unicode="&#x143;" horiz-adv-x="848" 
d="M409 751l-7 9q11 11 44.5 46t53.5 54.5t34 31.5q14 9 27.5 3.5t15 -18t-10.5 -23.5q-49 -36 -157 -103zM238 690q127 -197 398 -591v498q0 58 -60 58h-69v35q3 0 60.5 -1t89.5 -1t90 1l58 1v-35h-70q-30 0 -44.5 -13.5t-14.5 -44.5v-600q-4 1 -26 1t-27 -1
q-179 273 -411 608q0 -477 1 -516q0 -55 60 -55h69v-36q-96 2 -150 2l-149 -2v36h70q33 0 46 14t13 41v516q0 28 -12 39t-40 11h-76v35q97 -4 194 0z" />
    <glyph glyph-name="nacute" unicode="&#x144;" horiz-adv-x="642" 
d="M301 514l-7 9q11 11 44.5 46t53.5 54.5t34 31.5q14 9 27.5 3.5t15 -18t-10.5 -23.5q-49 -36 -157 -103zM517 277q-2 -119 0 -182q2 -44 10.5 -54t48.5 -10h33v-32q-4 0 -51 1t-73 1q-27 0 -77 -1l-49 -1v32h33q41 0 52 10.5t12 52.5q2 90 0 179q-2 156 -123 156
q-71 0 -106.5 -50.5t-40.5 -150.5v-133q0 -43 10.5 -53.5t51.5 -10.5h33v-32q-5 0 -53.5 1t-74.5 1q-27 0 -77.5 -1t-51.5 -1v32h41q41 0 50 10.5t10 52.5q2 134 0 256q-1 30 -3.5 42.5t-15 20t-40.5 7.5h-39v31q120 0 159 3v-119q18 63 60 96.5t103 33.5q171 0 168 -188z
" />
    <glyph glyph-name="Ncommaaccent" unicode="&#x145;" horiz-adv-x="848" 
d="M374 -252q93 36 92 125q-10 -20 -38 -20q-17 0 -27.5 11t-10.5 30t12.5 32t33.5 13q27 0 39.5 -18.5t12.5 -46.5q0 -46 -26.5 -84t-80.5 -57zM238 690q127 -197 398 -591v498q0 58 -60 58h-69v35q3 0 60.5 -1t89.5 -1t90 1l58 1v-35h-70q-30 0 -44.5 -13.5t-14.5 -44.5
v-600q-4 1 -26 1t-27 -1q-179 273 -411 608q0 -477 1 -516q0 -55 60 -55h69v-36q-96 2 -150 2l-149 -2v36h70q33 0 46 14t13 41v516q0 28 -12 39t-40 11h-76v35q97 -4 194 0z" />
    <glyph glyph-name="ncommaaccent" unicode="&#x146;" horiz-adv-x="642" 
d="M257 -252q93 36 92 125q-10 -20 -38 -20q-17 0 -27.5 11t-10.5 30t12.5 32t33.5 13q27 0 39.5 -18.5t12.5 -46.5q0 -46 -26.5 -84t-80.5 -57zM517 277q-2 -119 0 -182q2 -44 10.5 -54t48.5 -10h33v-32q-4 0 -51 1t-73 1q-27 0 -77 -1l-49 -1v32h33q41 0 52 10.5t12 52.5
q2 90 0 179q-2 156 -123 156q-71 0 -106.5 -50.5t-40.5 -150.5v-133q0 -43 10.5 -53.5t51.5 -10.5h33v-32q-5 0 -53.5 1t-74.5 1q-27 0 -77.5 -1t-51.5 -1v32h41q41 0 50 10.5t10 52.5q2 134 0 256q-1 30 -3.5 42.5t-15 20t-40.5 7.5h-39v31q120 0 159 3v-119q18 63 60 96.5
t103 33.5q171 0 168 -188z" />
    <glyph glyph-name="Ncaron" unicode="&#x147;" horiz-adv-x="848" 
d="M297 911l7 9q62 -57 126 -123q52 55 126 123l7 -9q-28 -48 -116 -151h-34q-25 24 -62 72t-54 79zM238 690q127 -197 398 -591v498q0 58 -60 58h-69v35q3 0 60.5 -1t89.5 -1t90 1l58 1v-35h-70q-30 0 -44.5 -13.5t-14.5 -44.5v-600q-4 1 -26 1t-27 -1q-179 273 -411 608
q0 -477 1 -516q0 -55 60 -55h69v-36q-96 2 -150 2l-149 -2v36h70q33 0 46 14t13 41v516q0 28 -12 39t-40 11h-76v35q97 -4 194 0z" />
    <glyph glyph-name="ncaron" unicode="&#x148;" horiz-adv-x="642" 
d="M180 674l7 9q62 -57 126 -123q52 55 126 123l7 -9q-28 -48 -116 -151h-34q-25 24 -62 72t-54 79zM517 277q-2 -119 0 -182q2 -44 10.5 -54t48.5 -10h33v-32q-4 0 -51 1t-73 1q-27 0 -77 -1l-49 -1v32h33q41 0 52 10.5t12 52.5q2 90 0 179q-2 156 -123 156
q-71 0 -106.5 -50.5t-40.5 -150.5v-133q0 -43 10.5 -53.5t51.5 -10.5h33v-32q-5 0 -53.5 1t-74.5 1q-27 0 -77.5 -1t-51.5 -1v32h41q41 0 50 10.5t10 52.5q2 134 0 256q-1 30 -3.5 42.5t-15 20t-40.5 7.5h-39v31q120 0 159 3v-119q18 63 60 96.5t103 33.5q171 0 168 -188z
" />
    <glyph glyph-name="napostrophe" unicode="&#x149;" horiz-adv-x="642" 
d="M42 507q93 36 92 125q-10 -20 -38 -20q-17 0 -27.5 11t-10.5 30t12.5 32t33.5 13q27 0 39.5 -18.5t12.5 -46.5q0 -46 -26.5 -84t-80.5 -57zM517 277q-2 -119 0 -182q2 -44 10.5 -54t48.5 -10h33v-32q-4 0 -51 1t-73 1q-27 0 -77 -1l-49 -1v32h33q41 0 52 10.5t12 52.5
q2 90 0 179q-2 156 -123 156q-71 0 -106.5 -50.5t-40.5 -150.5v-133q0 -43 10.5 -53.5t51.5 -10.5h33v-32q-5 0 -53.5 1t-74.5 1q-27 0 -77.5 -1t-51.5 -1v32h41q41 0 50 10.5t10 52.5q2 134 0 256q-1 30 -3.5 42.5t-15 20t-40.5 7.5h-39v31q120 0 159 3v-119q18 63 60 96.5
t103 33.5q171 0 168 -188z" />
    <glyph glyph-name="Eng" unicode="&#x14a;" horiz-adv-x="848" 
d="M238 690q127 -197 398 -591v498q0 58 -60 58h-69v35q3 0 60.5 -1t89.5 -1t90 1l58 1v-35h-70q-30 0 -44.5 -13.5t-14.5 -44.5v-600q1 -191 -150 -191q-47 0 -76 20t-29 53q0 24 14 37.5t36 13.5q47 0 47 -46q0 -18 -13.5 -30t-36.5 -11q21 -11 53 -11q102 0 103 123v42
h-1q-179 273 -411 608q0 -477 1 -516q0 -55 60 -55h69v-36q-96 2 -150 2l-149 -2v36h70q33 0 46 14t13 41v516q0 28 -12 39t-40 11h-76v35q97 -4 194 0z" />
    <glyph glyph-name="eng" unicode="&#x14b;" horiz-adv-x="605" 
d="M517 277v-281q0 -96 -37.5 -143t-105.5 -47q-48 0 -77 20t-29 53q0 24 14 37.5t36 13.5q47 0 47 -46q0 -18 -13.5 -30t-36.5 -11q21 -11 53 -11q41 0 65 30.5t24 124.5q0 69 -0.5 134t-0.5 104.5v47.5q0 156 -123 156q-71 0 -106.5 -50.5t-40.5 -150.5v-133
q0 -43 10.5 -53.5t51.5 -10.5h33v-32q-5 0 -53.5 1t-74.5 1q-27 0 -77.5 -1t-51.5 -1v32h41q41 0 50 10.5t10 52.5q2 134 0 256q-1 30 -3.5 42.5t-15 20t-40.5 7.5h-39v31q120 0 159 3v-119q18 63 60 96.5t103 33.5q168 0 168 -188z" />
    <glyph glyph-name="Omacron" unicode="&#x14c;" horiz-adv-x="776" 
d="M254 778q1 21 0 44q135 -4 270 0q-1 -22 0 -44q-135 4 -270 0zM388 15q122 0 192 80.5t70 249.5q0 163 -69 247t-193 84q-118 0 -190 -82.5t-72 -249.5q0 -174 70.5 -251.5t191.5 -77.5zM388 -18q-158 0 -248 95t-90 267q0 173 93 268.5t245 95.5q163 0 250.5 -98.5
t87.5 -264.5q0 -174 -94 -268.5t-244 -94.5z" />
    <glyph glyph-name="omacron" unicode="&#x14d;" horiz-adv-x="531" 
d="M135 552q1 21 0 44q135 -4 270 0q-1 -22 0 -44q-135 4 -270 0zM47 223q0 118 58 180t161 62t160.5 -62.5t57.5 -178.5q0 -119 -57.5 -180.5t-160.5 -61.5q-105 0 -162 61t-57 180zM116 224q0 -65 12.5 -109t35.5 -66t47 -30.5t55 -8.5q150 0 150 214t-151 214
q-31 0 -55 -8.5t-46.5 -30t-35 -66t-12.5 -109.5z" />
    <glyph glyph-name="Obreve" unicode="&#x14e;" horiz-adv-x="776" 
d="M388 15q122 0 192 80.5t70 249.5q0 163 -69 247t-193 84q-118 0 -190 -82.5t-72 -249.5q0 -174 70.5 -251.5t191.5 -77.5zM388 -18q-158 0 -248 95t-90 267q0 173 93 268.5t245 95.5q163 0 250.5 -98.5t87.5 -264.5q0 -174 -94 -268.5t-244 -94.5zM391 761q-70 0 -105 41
t-29 104l11 2q6 -102 123 -102t123 102l11 -2q6 -63 -29 -104t-105 -41z" />
    <glyph glyph-name="obreve" unicode="&#x14f;" horiz-adv-x="531" 
d="M47 223q0 118 58 180t161 62t160.5 -62.5t57.5 -178.5q0 -119 -57.5 -180.5t-160.5 -61.5q-105 0 -162 61t-57 180zM116 224q0 -65 12.5 -109t35.5 -66t47 -30.5t55 -8.5q150 0 150 214t-151 214q-31 0 -55 -8.5t-46.5 -30t-35 -66t-12.5 -109.5zM268 526q-70 0 -105 41
t-29 104l11 2q6 -102 123 -102t123 102l11 -2q6 -63 -29 -104t-105 -41z" />
    <glyph glyph-name="Ohungarumlaut" unicode="&#x150;" horiz-adv-x="776" 
d="M293 760l-8 8q94 127 112 149q11 12 25.5 8t17.5 -16.5t-7 -25.5q-42 -42 -140 -123zM456 760l-8 8q13 17 38.5 52t43.5 59t31 38q11 12 25.5 8t17.5 -16.5t-7 -25.5q-47 -45 -141 -123zM388 15q122 0 192 80.5t70 249.5q0 163 -69 247t-193 84q-118 0 -190 -82.5
t-72 -249.5q0 -174 70.5 -251.5t191.5 -77.5zM388 -18q-158 0 -248 95t-90 267q0 173 93 268.5t245 95.5q163 0 250.5 -98.5t87.5 -264.5q0 -174 -94 -268.5t-244 -94.5z" />
    <glyph glyph-name="ohungarumlaut" unicode="&#x151;" horiz-adv-x="531" 
d="M186 520l-8 8q94 127 112 149q11 12 25.5 8t17.5 -16.5t-7 -25.5q-42 -42 -140 -123zM349 520l-8 8q13 17 38.5 52t43.5 59t31 38q11 12 25.5 8t17.5 -16.5t-7 -25.5q-47 -45 -141 -123zM47 223q0 118 58 180t161 62t160.5 -62.5t57.5 -178.5q0 -119 -57.5 -180.5
t-160.5 -61.5q-105 0 -162 61t-57 180zM116 224q0 -65 12.5 -109t35.5 -66t47 -30.5t55 -8.5q150 0 150 214t-151 214q-31 0 -55 -8.5t-46.5 -30t-35 -66t-12.5 -109.5z" />
    <glyph glyph-name="OE" unicode="&#x152;" horiz-adv-x="1092" 
d="M817 492v15h34q0 -12 -1.5 -62t-1.5 -93q0 -109 3 -160h-34v17q-2 75 -28 101.5t-107 26.5h-71q0 -236 1 -255q2 -47 37 -47h222q75 0 107.5 36t32.5 129v24h36q-8 -95 -6 -228q-47 4 -202 4q-205 1 -225 1q-2 0 -43.5 -0.5t-62.5 -0.5q-56 -18 -120 -18q-158 0 -248 94
t-90 270q0 171 91.5 266.5t246.5 95.5q73 0 138 -19h342q116 0 163 6q-4 -74 1 -214l-33 -1v29q0 81 -28 113t-106 32h-218q-18 0 -26 -8.5t-9 -29.5q-1 -18 -1 -250h74q80 0 106 24.5t26 101.5zM388 15q63 0 109 18t49 55q2 26 2 264t-2 264q-4 59 -158 59
q-120 0 -191 -80.5t-71 -248.5q0 -331 262 -331z" />
    <glyph glyph-name="oe" unicode="&#x153;" horiz-adv-x="880" 
d="M830 118q-48 -136 -196 -136q-132 0 -184 93q-53 -93 -183 -93q-105 0 -162.5 61t-57.5 181q0 116 58 178.5t162 62.5q127 0 183 -96q57 96 181 96q102 0 152 -71t42 -183l-338 -1q2 -108 40.5 -151.5t112.5 -43.5q120 0 155 110zM116 225q0 -215 151 -215q149 0 149 215
q0 66 -13 110.5t-36.5 65.5t-46.5 29t-53 8q-31 0 -55 -8.5t-47 -30t-36 -65.5t-13 -109zM629 438q-139 0 -142 -204h240q15 0 21 7t6 23q0 83 -34 128.5t-91 45.5z" />
    <glyph glyph-name="Racute" unicode="&#x154;" horiz-adv-x="747" 
d="M360 751l-7 9q11 11 44.5 46t53.5 54.5t34 31.5q14 9 27.5 3.5t15 -18t-10.5 -23.5q-49 -36 -157 -103zM566 179q8 -99 24 -130.5t45 -31.5q35 0 48 43.5t-5 147.5l30 4q13 -63 12.5 -114t-26 -83.5t-73.5 -32.5q-63 0 -91 38t-35 135q-7 105 -37.5 138t-120.5 33h-99
q0 -230 1 -247q1 -26 13.5 -36t46.5 -10h59v-35q-117 2 -154 2l-155 -2v36h61q36 0 49 10.5t13 35.5q1 26 1 260.5t-1 264.5q0 27 -11 38.5t-41 11.5h-70v35q8 0 77 -1t79 -1q23 0 82.5 1t80.5 1q134 0 194.5 -44t60.5 -134q0 -72 -48 -120t-119 -58q54 -12 78.5 -50.5
t30.5 -104.5zM239 620q0 -5 -0.5 -45t-0.5 -101.5v-117.5h114q98 0 148 34t50 121q0 76 -39.5 111t-144.5 35h-95q-20 0 -25.5 -9t-6.5 -28z" />
    <glyph glyph-name="racute" unicode="&#x155;" horiz-adv-x="441" 
d="M204 514l-7 9q11 11 44.5 46t53.5 54.5t34 31.5q14 9 27.5 3.5t15 -18t-10.5 -23.5q-49 -36 -157 -103zM305 437q-54 0 -86 -49t-33 -145v-150q0 -42 10.5 -52t51.5 -10h50v-32q-4 0 -56 1t-81 1t-83 -1l-54 -1v32h41q42 1 50.5 10.5t9.5 50.5q2 132 0 260
q0 22 -1.5 32.5t-7.5 20t-17.5 12.5t-32.5 3h-39v31q120 0 159 3l-6 -118q27 129 130 129q57 0 80.5 -30t23.5 -70q0 -33 -15 -50t-40 -17q-49 0 -49 48q0 27 22 39.5t48 4.5q-15 47 -75 47z" />
    <glyph glyph-name="Rcommaaccent" unicode="&#x156;" horiz-adv-x="747" 
d="M348 -252q93 36 92 125q-10 -20 -38 -20q-17 0 -27.5 11t-10.5 30t12.5 32t33.5 13q27 0 39.5 -18.5t12.5 -46.5q0 -46 -26.5 -84t-80.5 -57zM566 179q8 -99 24 -130.5t45 -31.5q35 0 48 43.5t-5 147.5l30 4q13 -63 12.5 -114t-26 -83.5t-73.5 -32.5q-63 0 -91 38
t-35 135q-7 105 -37.5 138t-120.5 33h-99q0 -230 1 -247q1 -26 13.5 -36t46.5 -10h59v-35q-117 2 -154 2l-155 -2v36h61q36 0 49 10.5t13 35.5q1 26 1 260.5t-1 264.5q0 27 -11 38.5t-41 11.5h-70v35q8 0 77 -1t79 -1q23 0 82.5 1t80.5 1q134 0 194.5 -44t60.5 -134
q0 -72 -48 -120t-119 -58q54 -12 78.5 -50.5t30.5 -104.5zM239 620q0 -5 -0.5 -45t-0.5 -101.5v-117.5h114q98 0 148 34t50 121q0 76 -39.5 111t-144.5 35h-95q-20 0 -25.5 -9t-6.5 -28z" />
    <glyph glyph-name="rcommaaccent" unicode="&#x157;" horiz-adv-x="441" 
d="M90 -252q93 36 92 125q-10 -20 -38 -20q-17 0 -27.5 11t-10.5 30t12.5 32t33.5 13q27 0 39.5 -18.5t12.5 -46.5q0 -46 -26.5 -84t-80.5 -57zM305 437q-54 0 -86 -49t-33 -145v-150q0 -42 10.5 -52t51.5 -10h50v-32q-4 0 -56 1t-81 1t-83 -1l-54 -1v32h41q42 1 50.5 10.5
t9.5 50.5q2 132 0 260q0 22 -1.5 32.5t-7.5 20t-17.5 12.5t-32.5 3h-39v31q120 0 159 3l-6 -118q27 129 130 129q57 0 80.5 -30t23.5 -70q0 -33 -15 -50t-40 -17q-49 0 -49 48q0 27 22 39.5t48 4.5q-15 47 -75 47z" />
    <glyph glyph-name="Rcaron" unicode="&#x158;" horiz-adv-x="747" 
d="M231 911l7 9q62 -57 126 -123q52 55 126 123l7 -9q-28 -48 -116 -151h-34q-25 24 -62 72t-54 79zM566 179q8 -99 24 -130.5t45 -31.5q35 0 48 43.5t-5 147.5l30 4q13 -63 12.5 -114t-26 -83.5t-73.5 -32.5q-63 0 -91 38t-35 135q-7 105 -37.5 138t-120.5 33h-99
q0 -230 1 -247q1 -26 13.5 -36t46.5 -10h59v-35q-117 2 -154 2l-155 -2v36h61q36 0 49 10.5t13 35.5q1 26 1 260.5t-1 264.5q0 27 -11 38.5t-41 11.5h-70v35q8 0 77 -1t79 -1q23 0 82.5 1t80.5 1q134 0 194.5 -44t60.5 -134q0 -72 -48 -120t-119 -58q54 -12 78.5 -50.5
t30.5 -104.5zM239 620q0 -5 -0.5 -45t-0.5 -101.5v-117.5h114q98 0 148 34t50 121q0 76 -39.5 111t-144.5 35h-95q-20 0 -25.5 -9t-6.5 -28z" />
    <glyph glyph-name="rcaron" unicode="&#x159;" horiz-adv-x="441" 
d="M82 674l7 9q62 -57 126 -123q52 55 126 123l7 -9q-28 -48 -116 -151h-34q-25 24 -62 72t-54 79zM305 437q-54 0 -86 -49t-33 -145v-150q0 -42 10.5 -52t51.5 -10h50v-32q-4 0 -56 1t-81 1t-83 -1l-54 -1v32h41q42 1 50.5 10.5t9.5 50.5q2 132 0 260q0 22 -1.5 32.5
t-7.5 20t-17.5 12.5t-32.5 3h-39v31q120 0 159 3l-6 -118q27 129 130 129q57 0 80.5 -30t23.5 -70q0 -33 -15 -50t-40 -17q-49 0 -49 48q0 27 22 39.5t48 4.5q-15 47 -75 47z" />
    <glyph glyph-name="Sacute" unicode="&#x15a;" horiz-adv-x="612" 
d="M285 737l-7 9q11 11 44.5 46t53.5 54.5t34 31.5q14 9 27.5 3.5t15 -18t-10.5 -23.5q-49 -36 -157 -103zM303 675q-83 0 -126.5 -37t-43.5 -99q0 -59 43.5 -91.5t152.5 -55.5q126 -25 181.5 -72.5t55.5 -137.5t-61.5 -145t-173.5 -55q-104 0 -177 45q-38 20 -50 11.5
t-17 -47.5h-32q21 105 13 233h31q18 -211 231 -210q92 1 139.5 40t47.5 102q0 68 -47.5 102t-172.5 60q-110 22 -160.5 69t-50.5 125q0 89 58.5 142.5t160.5 53.5q82 0 151 -44q30 -17 40.5 -10.5t15.5 43.5h31q-18 -107 -6 -227h-30q-8 96 -60 150.5t-144 54.5z" />
    <glyph glyph-name="sacute" unicode="&#x15b;" horiz-adv-x="449" 
d="M208 514l-7 9q11 11 44.5 46t53.5 54.5t34 31.5q14 9 27.5 3.5t15 -18t-10.5 -23.5q-49 -36 -157 -103zM223 433q-54 0 -83 -22.5t-29 -56.5q0 -40 30 -60t112 -35q81 -15 116.5 -49t35.5 -88q0 -68 -40.5 -104t-118.5 -36q-70 0 -132 43q-40 28 -46 -33h-24q14 89 6 169
h24q18 -70 62.5 -108.5t109.5 -38.5q56 0 85.5 22.5t29.5 61.5q1 40 -30 61.5t-114 35.5q-80 14 -115.5 47.5t-35.5 88.5q0 61 44 97.5t116 36.5q58 0 107 -33q14 -11 23.5 -3.5t14.5 37.5q1 -1 11 -1t11 1q-12 -80 -6 -163h-23q-12 66 -45.5 98t-95.5 32z" />
    <glyph glyph-name="Scircumflex" unicode="&#x15c;" horiz-adv-x="612" 
d="M437 757l-7 -9q-71 65 -126 124q-58 -62 -126 -124l-7 9q24 41 116 152h34q25 -25 62 -73.5t54 -78.5zM303 675q-83 0 -126.5 -37t-43.5 -99q0 -59 43.5 -91.5t152.5 -55.5q126 -25 181.5 -72.5t55.5 -137.5t-61.5 -145t-173.5 -55q-104 0 -177 45q-38 20 -50 11.5
t-17 -47.5h-32q21 105 13 233h31q18 -211 231 -210q92 1 139.5 40t47.5 102q0 68 -47.5 102t-172.5 60q-110 22 -160.5 69t-50.5 125q0 89 58.5 142.5t160.5 53.5q82 0 151 -44q30 -17 40.5 -10.5t15.5 43.5h31q-18 -107 -6 -227h-30q-8 96 -60 150.5t-144 54.5z" />
    <glyph glyph-name="scircumflex" unicode="&#x15d;" horiz-adv-x="449" 
d="M366 523l-7 -9q-71 65 -126 124q-58 -62 -126 -124l-7 9q24 41 116 152h34q25 -25 62 -73.5t54 -78.5zM223 433q-54 0 -83 -22.5t-29 -56.5q0 -40 30 -60t112 -35q81 -15 116.5 -49t35.5 -88q0 -68 -40.5 -104t-118.5 -36q-70 0 -132 43q-40 28 -46 -33h-24q14 89 6 169
h24q18 -70 62.5 -108.5t109.5 -38.5q56 0 85.5 22.5t29.5 61.5q1 40 -30 61.5t-114 35.5q-80 14 -115.5 47.5t-35.5 88.5q0 61 44 97.5t116 36.5q58 0 107 -33q14 -11 23.5 -3.5t14.5 37.5q1 -1 11 -1t11 1q-12 -80 -6 -163h-23q-12 66 -45.5 98t-95.5 32z" />
    <glyph glyph-name="Scedilla" unicode="&#x15e;" horiz-adv-x="612" 
d="M260 -109l-9 18q61 28 69 73q-98 3 -166 45q-38 20 -50 11.5t-17 -47.5h-32q21 105 13 233h31q18 -211 231 -210q92 1 139.5 40t47.5 102q0 68 -47.5 102t-172.5 60q-110 22 -160.5 69t-50.5 125q0 89 58.5 142.5t160.5 53.5q82 0 151 -44q30 -17 40.5 -10.5t15.5 43.5
h31q-18 -107 -6 -227h-30q-8 96 -60 150.5t-144 54.5q-83 0 -126.5 -37t-43.5 -99q0 -59 43.5 -91.5t152.5 -55.5q126 -25 181.5 -72.5t55.5 -137.5q0 -87 -58.5 -142t-165.5 -58q-3 -36 -32 -59q45 7 80 -13t35 -63q0 -40 -29.5 -64t-81.5 -24q-71 0 -107 50l16 13
q30 -35 78 -35q71 0 71 61q0 33 -29 47.5t-83 -4.5z" />
    <glyph glyph-name="scedilla" unicode="&#x15f;" horiz-adv-x="449" 
d="M166 -109l-9 18q33 15 48.5 32.5t20.5 41.5q-58 4 -112 42q-40 28 -46 -33h-24q14 89 6 169h24q18 -70 62.5 -108.5t109.5 -38.5q56 0 85.5 22.5t29.5 61.5q1 40 -30 61.5t-114 35.5q-80 14 -115.5 47.5t-35.5 88.5q0 61 44 97.5t116 36.5q58 0 107 -33q14 -11 23.5 -3.5
t14.5 37.5q1 -1 11 -1t11 1q-12 -80 -6 -163h-23q-12 66 -45.5 98t-95.5 32q-54 0 -83 -22.5t-29 -56.5q0 -40 30 -60t112 -35q81 -15 116.5 -49t35.5 -88q0 -138 -157 -140q-3 -36 -32 -59q45 7 80 -13t35 -63q0 -40 -29.5 -64t-81.5 -24q-71 0 -107 50l16 13
q30 -35 78 -35q71 0 71 61q0 33 -29 47.5t-83 -4.5z" />
    <glyph glyph-name="Scaron" unicode="&#x160;" horiz-adv-x="612" 
d="M174 911l7 9q62 -57 126 -123q52 55 126 123l7 -9q-28 -48 -116 -151h-34q-25 24 -62 72t-54 79zM303 675q-83 0 -126.5 -37t-43.5 -99q0 -59 43.5 -91.5t152.5 -55.5q126 -25 181.5 -72.5t55.5 -137.5t-61.5 -145t-173.5 -55q-104 0 -177 45q-38 20 -50 11.5t-17 -47.5
h-32q21 105 13 233h31q18 -211 231 -210q92 1 139.5 40t47.5 102q0 68 -47.5 102t-172.5 60q-110 22 -160.5 69t-50.5 125q0 89 58.5 142.5t160.5 53.5q82 0 151 -44q30 -17 40.5 -10.5t15.5 43.5h31q-18 -107 -6 -227h-30q-8 96 -60 150.5t-144 54.5z" />
    <glyph glyph-name="scaron" unicode="&#x161;" horiz-adv-x="449" 
d="M88 674l7 9q62 -57 126 -123q52 55 126 123l7 -9q-28 -48 -116 -151h-34q-25 24 -62 72t-54 79zM223 433q-54 0 -83 -22.5t-29 -56.5q0 -40 30 -60t112 -35q81 -15 116.5 -49t35.5 -88q0 -68 -40.5 -104t-118.5 -36q-70 0 -132 43q-40 28 -46 -33h-24q14 89 6 169h24
q18 -70 62.5 -108.5t109.5 -38.5q56 0 85.5 22.5t29.5 61.5q1 40 -30 61t-114 36q-79 13 -115 47t-36 89q0 61 44.5 98.5t115.5 35.5q58 0 107 -33q14 -11 23.5 -3.5t14.5 37.5q1 -1 11 -1t11 1q-12 -80 -6 -163h-23q-12 66 -45.5 98t-95.5 32z" />
    <glyph glyph-name="Tcommaaccent" unicode="&#x162;" horiz-adv-x="724" 
d="M294 -109l-9 18q39 18 54 38.5t17 52.5l-151 -2v36h64q34 0 47 10.5t13 36.5q1 29 1 268t-1 304h-153q-43 0 -62.5 -18.5t-22.5 -61.5q-6 -56 -3 -108h-37q4 105 -5 228q32 -4 122 -4h388q29 0 121 4q-9 -123 -5 -228h-37q3 52 -3 108q-3 44 -21.5 62t-61.5 18h-155
q-1 -66 -0.5 -304t1.5 -268q0 -27 11.5 -37t45.5 -10h65v-36q-85 2 -142 2q7 -46 -31 -77q45 7 80 -13t35 -63q0 -40 -29.5 -64t-81.5 -24q-71 0 -107 50l16 13q30 -35 78 -35q71 0 71 61q0 33 -29 47.5t-83 -4.5z" />
    <glyph glyph-name="tcommaaccent" unicode="&#x163;" horiz-adv-x="364" 
d="M128 -109l-9 18q36 17 51.5 35t18.5 46q-103 10 -103 152v280h-77v26q68 3 90 42.5t32 148.5h26q-5 -59 -9 -188l145 5v-36l-145 1v-278q0 -68 17 -95t53 -27q43 0 60.5 31t12.5 99l26 2q8 -78 -18.5 -120.5t-88.5 -43.5q0 -40 -32 -66q45 7 80 -13t35 -63
q0 -40 -29.5 -64t-81.5 -24q-71 0 -107 50l16 13q30 -35 78 -35q71 0 71 61q0 33 -29 47.5t-83 -4.5z" />
    <glyph glyph-name="Tcaron" unicode="&#x164;" horiz-adv-x="724" 
d="M228 911l7 9q62 -57 126 -123q52 55 126 123l7 -9q-28 -48 -116 -151h-34q-25 24 -62 72t-54 79zM549 653h-155q-1 -66 -0.5 -304t1.5 -268q0 -27 11.5 -37t45.5 -10h65v-36q-99 2 -155 2l-157 -2v36h64q34 0 47 10.5t13 36.5q1 29 1 268t-1 304h-153q-43 0 -62.5 -18.5
t-22.5 -61.5q-6 -56 -3 -108h-37q4 105 -5 228q32 -4 122 -4h388q29 0 121 4q-9 -123 -5 -228h-37q3 52 -3 108q-3 44 -21.5 62t-61.5 18z" />
    <glyph glyph-name="tcaron" unicode="&#x165;" horiz-adv-x="397" 
d="M291 151l26 2q18 -164 -109 -164q-122 0 -122 153v280h-77v26q68 3 90 42.5t32 148.5h26q-5 -59 -9 -188l145 5v-36l-145 1v-278q0 -68 17 -95t53 -27q43 0 60.5 31t12.5 99zM254 505q93 36 92 125q-10 -20 -38 -20q-17 0 -27.5 11t-10.5 30t12.5 32t33.5 13
q27 0 39.5 -18.5t12.5 -46.5q0 -46 -26.5 -84t-80.5 -57z" />
    <glyph glyph-name="Tbar" unicode="&#x166;" horiz-adv-x="724" 
d="M549 653h-155q-1 -49 -1 -348l140 6v-39q-107 4 -140 6q0 -36 0.5 -87t1 -77t0.5 -33q0 -27 11.5 -37t45.5 -10h65v-36q-99 2 -155 2l-157 -2v36h64q34 0 47 10.5t13 36.5q0 4 0.5 34.5t0.5 76v86.5q-98 -6 -138 -6v39q42 0 138 -6q0 82 -0.5 208.5t-0.5 139.5h-153
q-43 0 -62.5 -18.5t-22.5 -61.5q-6 -56 -3 -108h-37q4 105 -5 228q32 -4 122 -4h388q29 0 121 4q-9 -123 -5 -228h-37q3 52 -3 108q-3 44 -21.5 62t-61.5 18z" />
    <glyph glyph-name="tbar" unicode="&#x167;" horiz-adv-x="364" 
d="M291 151l26 2q18 -164 -109 -164q-122 0 -122 153v135q-58 -4 -73 -4v37q11 -2 73 -4v116h-77v26q68 3 90 42.5t32 148.5h26q-5 -59 -9 -188l145 5v-36l-145 1v-117q132 6 135 6v-37q-17 0 -135 5v-135q0 -68 17 -95t53 -27q43 0 60.5 31t12.5 99z" />
    <glyph glyph-name="Utilde" unicode="&#x168;" horiz-adv-x="881" 
d="M167 285v318q0 30 -11.5 41t-39.5 11h-66v35q98 -2 152 -2q120 0 152 2v-35h-61q-33 0 -45.5 -11t-12.5 -41v-328q0 -138 54 -197.5t161 -59.5q109 0 163.5 57t54.5 200v323q0 32 -13 44.5t-45 12.5h-59v35q89 -2 139 -2q105 0 137 2v-35h-54q-32 0 -45.5 -13t-13.5 -44
v-314q0 -151 -63.5 -227t-203.5 -76q-143 0 -211.5 72.5t-68.5 231.5zM571 897l18 3q21 -69 -3.5 -105.5t-71.5 -36.5q-31 0 -51.5 15t-40.5 46q-16 25 -23.5 34.5t-20.5 18t-28 8.5q-26 0 -36 -26t2 -84l-18 -3q-21 69 3 105.5t72 36.5q52 0 91 -61q17 -24 24.5 -34
t20.5 -18.5t28 -8.5q26 0 36 27.5t-2 82.5z" />
    <glyph glyph-name="utilde" unicode="&#x169;" horiz-adv-x="603" 
d="M481 452q-3 -54 -3 -137v-217q0 -44 13 -55.5t57 -11.5h29v-31q-120 0 -159 -3v112q-17 -58 -56.5 -91.5t-100.5 -33.5q-75 0 -117.5 42t-42.5 147v186q0 40 -9.5 51t-50.5 11h-35v30h74q7 0 44.5 0.5t39.5 0.5q-3 -57 -3 -135v-140q0 -46 11 -78.5t23 -47.5t33 -23
t28.5 -8.5t21.5 -0.5q73 0 106.5 56t33.5 181v103q0 41 -12 51.5t-57 10.5h-30v30h86q70 0 76 1zM412 660l18 3q21 -69 -3.5 -105.5t-71.5 -36.5q-31 0 -51.5 15t-40.5 46q-16 25 -23.5 34.5t-20.5 18t-28 8.5q-26 0 -36 -25.5t2 -84.5l-18 -3q-21 69 3 105.5t72 36.5
q52 0 91 -61q17 -24 24.5 -34t20.5 -18.5t28 -8.5q26 0 36 27t-2 83z" />
    <glyph glyph-name="Umacron" unicode="&#x16a;" horiz-adv-x="881" 
d="M167 285v318q0 30 -11.5 41t-39.5 11h-66v35q98 -2 152 -2q120 0 152 2v-35h-61q-33 0 -45.5 -11t-12.5 -41v-328q0 -138 54 -197.5t161 -59.5q109 0 163.5 57t54.5 200v323q0 32 -13 44.5t-45 12.5h-59v35q89 -2 139 -2q105 0 137 2v-35h-54q-32 0 -45.5 -13t-13.5 -44
v-314q0 -151 -63.5 -227t-203.5 -76q-143 0 -211.5 72.5t-68.5 231.5zM319 778q1 21 0 44q135 -4 270 0q-1 -22 0 -44q-135 4 -270 0z" />
    <glyph glyph-name="umacron" unicode="&#x16b;" horiz-adv-x="603" 
d="M481 452q-3 -54 -3 -137v-217q0 -44 13 -55.5t57 -11.5h29v-31q-120 0 -159 -3v112q-17 -58 -56.5 -91.5t-100.5 -33.5q-75 0 -117.5 42t-42.5 147v186q0 40 -9.5 51t-50.5 11h-35v30h74q7 0 44.5 0.5t39.5 0.5q-3 -57 -3 -135v-140q0 -46 11 -78.5t23 -47.5t33 -23
t28.5 -8.5t21.5 -0.5q73 0 106.5 56t33.5 181v103q0 41 -12 51.5t-57 10.5h-30v30h86q70 0 76 1zM137 552q1 21 0 44q135 -4 270 0q-1 -22 0 -44q-135 4 -270 0z" />
    <glyph glyph-name="Ubreve" unicode="&#x16c;" horiz-adv-x="881" 
d="M167 285v318q0 30 -11.5 41t-39.5 11h-66v35q98 -2 152 -2q120 0 152 2v-35h-61q-33 0 -45.5 -11t-12.5 -41v-328q0 -138 54 -197.5t161 -59.5q109 0 163.5 57t54.5 200v323q0 32 -13 44.5t-45 12.5h-59v35q89 -2 139 -2q105 0 137 2v-35h-54q-32 0 -45.5 -13t-13.5 -44
v-314q0 -151 -63.5 -227t-203.5 -76q-143 0 -211.5 72.5t-68.5 231.5zM460 761q-70 0 -105 41t-29 104l11 2q6 -102 123 -102t123 102l11 -2q6 -63 -29 -104t-105 -41z" />
    <glyph glyph-name="ubreve" unicode="&#x16d;" horiz-adv-x="603" 
d="M481 452q-3 -54 -3 -137v-217q0 -44 13 -55.5t57 -11.5h29v-31q-120 0 -159 -3v112q-17 -58 -56.5 -91.5t-100.5 -33.5q-75 0 -117.5 42t-42.5 147v186q0 40 -9.5 51t-50.5 11h-35v30h74q7 0 44.5 0.5t39.5 0.5q-3 -57 -3 -135v-140q0 -46 11 -78.5t23 -47.5t33 -23
t28.5 -8.5t21.5 -0.5q73 0 106.5 56t33.5 181v103q0 41 -12 51.5t-57 10.5h-30v30h86q70 0 76 1zM282 526q-70 0 -105 41t-29 104l11 2q6 -102 123 -102t123 102l11 -2q6 -63 -29 -104t-105 -41z" />
    <glyph glyph-name="Uring" unicode="&#x16e;" horiz-adv-x="881" 
d="M509 839q0 25 -13.5 39t-35.5 14q-23 0 -36 -14t-13 -39t13 -39.5t36 -14.5q22 0 35.5 14.5t13.5 39.5zM539 839q0 -35 -22 -56t-57 -21t-57 21t-22 56t22 55.5t57 20.5t57 -20.5t22 -55.5zM167 285v318q0 30 -11.5 41t-39.5 11h-66v35q98 -2 152 -2q120 0 152 2v-35h-61
q-33 0 -45.5 -11t-12.5 -41v-328q0 -138 54 -197.5t161 -59.5q109 0 163.5 57t54.5 200v323q0 32 -13 44.5t-45 12.5h-59v35q89 -2 139 -2q105 0 137 2v-35h-54q-32 0 -45.5 -13t-13.5 -44v-314q0 -151 -63.5 -227t-203.5 -76q-143 0 -211.5 72.5t-68.5 231.5z" />
    <glyph glyph-name="uring" unicode="&#x16f;" horiz-adv-x="603" 
d="M328 604q0 25 -13.5 39t-35.5 14q-23 0 -36 -14t-13 -39t13 -39.5t36 -14.5q22 0 35.5 14.5t13.5 39.5zM358 604q0 -35 -22 -56t-57 -21t-57 21t-22 56t22 55.5t57 20.5t57 -20.5t22 -55.5zM481 452q-3 -54 -3 -137v-217q0 -44 13 -55.5t57 -11.5h29v-31q-120 0 -159 -3
v112q-17 -58 -56.5 -91.5t-100.5 -33.5q-75 0 -117.5 42t-42.5 147v186q0 40 -9.5 51t-50.5 11h-35v30h74q7 0 44.5 0.5t39.5 0.5q-3 -57 -3 -135v-140q0 -46 11 -78.5t23 -47.5t33 -23t28.5 -8.5t21.5 -0.5q73 0 106.5 56t33.5 181v103q0 41 -12 51.5t-57 10.5h-30v30h86
q70 0 76 1z" />
    <glyph glyph-name="Uhungarumlaut" unicode="&#x170;" horiz-adv-x="881" 
d="M167 285v318q0 30 -11.5 41t-39.5 11h-66v35q98 -2 152 -2q120 0 152 2v-35h-61q-33 0 -45.5 -11t-12.5 -41v-328q0 -138 54 -197.5t161 -59.5q109 0 163.5 57t54.5 200v323q0 32 -13 44.5t-45 12.5h-59v35q89 -2 139 -2q105 0 137 2v-35h-54q-32 0 -45.5 -13t-13.5 -44
v-314q0 -151 -63.5 -227t-203.5 -76q-143 0 -211.5 72.5t-68.5 231.5zM382 760l-8 8q94 127 112 149q11 12 25.5 8t17.5 -16.5t-7 -25.5q-42 -42 -140 -123zM545 760l-8 8q13 17 38.5 52t43.5 59t31 38q11 12 25.5 8t17.5 -16.5t-7 -25.5q-47 -45 -141 -123z" />
    <glyph glyph-name="uhungarumlaut" unicode="&#x171;" horiz-adv-x="603" 
d="M481 452q-3 -54 -3 -137v-217q0 -44 13 -55.5t57 -11.5h29v-31q-120 0 -159 -3v112q-17 -58 -56.5 -91.5t-100.5 -33.5q-75 0 -117.5 42t-42.5 147v186q0 40 -9.5 51t-50.5 11h-35v30h74q7 0 44.5 0.5t39.5 0.5q-3 -57 -3 -135v-140q0 -46 11 -78.5t23 -47.5t33 -23
t28.5 -8.5t21.5 -0.5q73 0 106.5 56t33.5 181v103q0 41 -12 51.5t-57 10.5h-30v30h86q70 0 76 1zM182 520l-8 8q94 127 112 149q11 12 25.5 8t17.5 -16.5t-7 -25.5q-42 -42 -140 -123zM345 520l-8 8q13 17 38.5 52t43.5 59t31 38q11 12 25.5 8t17.5 -16.5t-7 -25.5
q-47 -45 -141 -123z" />
    <glyph glyph-name="Uogonek" unicode="&#x172;" horiz-adv-x="881" 
d="M167 285v318q0 30 -11.5 41t-39.5 11h-66v35q98 -2 152 -2q120 0 152 2v-35h-61q-33 0 -45.5 -11t-12.5 -41v-328q0 -138 54 -197.5t161 -59.5q109 0 163.5 57t54.5 200v323q0 32 -13 44.5t-45 12.5h-59v35q89 -2 139 -2q105 0 137 2v-35h-54q-32 0 -45.5 -13t-13.5 -44
v-314q0 -146 -58.5 -221.5t-188.5 -80.5q-57 -34 -60 -90q-3 -34 15.5 -49.5t46.5 -15.5q37 0 62.5 26.5t31.5 66.5l18 -4q-2 -50 -35.5 -86t-84.5 -36q-50 0 -75.5 24t-24.5 62q3 61 71 101q-135 4 -200 76.5t-65 227.5z" />
    <glyph glyph-name="uogonek" unicode="&#x173;" horiz-adv-x="603" 
d="M481 452q-3 -54 -3 -137v-217q0 -44 13 -55.5t57 -11.5h29v-31h-51q-96 -35 -99 -108q-3 -34 15.5 -49.5t46.5 -15.5q37 0 62.5 26.5t31.5 66.5l18 -4q-2 -50 -35.5 -86t-84.5 -36q-50 0 -75.5 24t-24.5 62q2 39 31.5 70.5t80.5 49.5q-47 0 -75 -3v112
q-17 -58 -56.5 -91.5t-100.5 -33.5q-75 0 -117.5 42t-42.5 147v186q0 40 -9.5 51t-50.5 11h-35v30h74q7 0 44.5 0.5t39.5 0.5q-3 -57 -3 -135v-140q0 -46 11 -78.5t23 -47.5t33 -23t28.5 -8.5t21.5 -0.5q73 0 106.5 56t33.5 181v103q0 41 -12 51.5t-57 10.5h-30v30h86
q70 0 76 1z" />
    <glyph glyph-name="Wcircumflex" unicode="&#x174;" horiz-adv-x="1094" 
d="M696 760l-7 -9q-71 65 -126 124q-58 -62 -126 -124l-7 9q24 41 116 152h34q25 -25 62 -73.5t54 -78.5zM758 -6h-56q-61 242 -158 572q-119 -389 -169 -572h-55q-87 331 -165 589q-12 40 -27 56t-48 16h-53v35q94 -2 146 -2q23 0 58.5 0.5t61.5 1.5h26v-35h-48
q-34 0 -45 -16.5t-1 -55.5q43 -173 142 -509q126 429 146 510q11 39 1.5 55t-47.5 16h-34v35q83 -2 129 -2q20 0 51 0.5t53 1.5h23v-35h-43q-55 0 -39 -65q41 -166 142 -514q102 342 135 492q10 47 -3 67t-56 20h-32v35q90 -2 139 -2q22 0 54.5 0.5t57.5 1.5h24v-35h-50
q-34 0 -54 -20.5t-35 -67.5q-22 -67 -90.5 -298t-80.5 -275z" />
    <glyph glyph-name="wcircumflex" unicode="&#x175;" horiz-adv-x="862" 
d="M571 523l-7 -9q-71 65 -126 124q-58 -62 -126 -124l-7 9q24 41 116 152h34q25 -25 62 -73.5t54 -78.5zM550 -12q-49 150 -129 360q-132 -341 -137 -360h-35q-50 153 -137 382q-7 19 -12.5 27.5t-19.5 15.5t-38 7h-29v31q76 -2 119 -2l119 2v-31h-19q-36 0 -48 -12.5
t-4 -40.5q26 -93 105 -305q103 264 115 302q2 11 3 23.5t-11.5 22.5t-38.5 10h-11v31q62 -2 99 -2l100 2v-31h-12q-67 0 -49 -53q60 -186 104 -304q105 277 108 285q14 31 4.5 51.5t-43.5 20.5h-26v31q72 -2 111 -2l111 2v-31h-32q-35 0 -56 -15t-37 -57q-1 -3 -37 -93.5
t-68 -172.5t-35 -94h-34z" />
    <glyph glyph-name="Ycircumflex" unicode="&#x176;" horiz-adv-x="802" 
d="M607 585q-98 -178 -179 -341v-160q0 -28 12 -39t47 -11h76v-36q-107 2 -168 2l-169 -2v36h76q36 0 48 11t12 39v155q-108 216 -181 348q-20 37 -46 52.5t-72 15.5h-35v35q108 -2 168 -2l167 2v-35h-51q-85 0 -55 -69q45 -104 156 -305q116 220 154 305q16 28 7 48.5
t-55 20.5h-59v35q103 -2 160 -2l159 2v-35h-42q-54 0 -81 -14t-49 -56zM552 760l-7 -9q-71 65 -126 124q-58 -62 -126 -124l-7 9q24 41 116 152h34q25 -25 62 -73.5t54 -78.5z" />
    <glyph glyph-name="ycircumflex" unicode="&#x177;" horiz-adv-x="550" 
d="M384 363q21 57 -28 57h-40v31q70 -2 116 -2l105 2v-31h-43q-30 0 -45 -11.5t-30 -46.5q-13 -30 -68 -175t-74 -192q-18 -46 -31 -72t-34.5 -56.5t-50 -44t-65.5 -13.5q-47 0 -71.5 20.5t-24.5 51.5q0 25 15.5 39t37.5 14t35.5 -12t13.5 -35q0 -19 -14.5 -32t-37.5 -13
q19 -8 47 -8q49 0 84 35.5t73 140.5h-16q-75 223 -130 360q-11 25 -26.5 37.5t-44.5 12.5h-27v31q72 -2 121 -2l122 2v-31h-45q-49 0 -34 -51q46 -146 103 -297q13 36 39 106t45 121t23 64zM421 523l-7 -9q-71 65 -126 124q-58 -62 -126 -124l-7 9q24 41 116 152h34
q25 -25 62 -73.5t54 -78.5z" />
    <glyph glyph-name="Ydieresis" unicode="&#x178;" horiz-adv-x="802" 
d="M607 585q-98 -178 -179 -341v-160q0 -28 12 -39t47 -11h76v-36q-107 2 -168 2l-169 -2v36h76q36 0 48 11t12 39v155q-108 216 -181 348q-20 37 -46 52.5t-72 15.5h-35v35q108 -2 168 -2l167 2v-35h-51q-85 0 -55 -69q45 -104 156 -305q116 220 154 305q16 28 7 48.5
t-55 20.5h-59v35q103 -2 160 -2l159 2v-35h-42q-54 0 -81 -14t-49 -56zM368 821q0 -19 -12.5 -31.5t-31.5 -12.5q-20 0 -33 12.5t-13 31.5t13 31.5t33 12.5q19 0 31.5 -12.5t12.5 -31.5zM546 821q0 -19 -13 -31.5t-32 -12.5t-32 12.5t-13 31.5t13 31.5t32 12.5t32 -12.5
t13 -31.5z" />
    <glyph glyph-name="Zacute" unicode="&#x179;" horiz-adv-x="646" 
d="M302 751l-7 9q11 11 44.5 46t53.5 54.5t34 31.5q14 9 27.5 3.5t15 -18t-10.5 -23.5q-49 -36 -157 -103zM46 0v35q186 243 461 618h-238q-39 0 -61 -1.5t-42 -9t-28.5 -18t-15.5 -34t-8.5 -51t-2.5 -74.5h-37q7 121 5 226q62 -2 213 -2h301v-34q-184 -237 -466 -620h303
q82 0 106 35t27 156h36q-7 -138 -4 -228q-30 2 -159 2h-390z" />
    <glyph glyph-name="zacute" unicode="&#x17a;" horiz-adv-x="477" 
d="M220 514l-7 9q11 11 44.5 46t53.5 54.5t34 31.5q14 9 27.5 3.5t15 -18t-10.5 -23.5q-49 -36 -157 -103zM295 0h-266v27q206 247 321 395h-150q-64 0 -89 -29t-31 -118h-27q8 95 3 180q50 -4 144 -4h223v-26q-272 -331 -323 -396h195q56 0 84.5 34t29.5 125h26
q-10 -95 -4 -191q-55 3 -136 3z" />
    <glyph glyph-name="Zdotaccent" unicode="&#x17b;" horiz-adv-x="646" 
d="M46 0v35q186 243 461 618h-238q-39 0 -61 -1.5t-42 -9t-28.5 -18t-15.5 -34t-8.5 -51t-2.5 -74.5h-37q7 121 5 226q62 -2 213 -2h301v-34q-184 -237 -466 -620h303q82 0 106 35t27 156h36q-7 -138 -4 -228q-30 2 -159 2h-390zM388 818q0 -19 -13 -32t-32 -13t-31.5 13
t-12.5 32t12.5 32t31.5 13t32 -13t13 -32z" />
    <glyph glyph-name="zdotaccent" unicode="&#x17c;" horiz-adv-x="477" 
d="M295 0h-266v27q206 247 321 395h-150q-64 0 -89 -29t-31 -118h-27q8 95 3 180q50 -4 144 -4h223v-26q-272 -331 -323 -396h195q56 0 84.5 34t29.5 125h26q-10 -95 -4 -191q-55 3 -136 3zM287 588q0 -19 -13 -32t-32 -13t-31.5 13t-12.5 32t12.5 32t31.5 13t32 -13t13 -32
z" />
    <glyph glyph-name="Zcaron" unicode="&#x17d;" horiz-adv-x="646" 
d="M203 911l7 9q62 -57 126 -123q52 55 126 123l7 -9q-28 -48 -116 -151h-34q-25 24 -62 72t-54 79zM46 0v35q186 243 461 618h-238q-39 0 -61 -1.5t-42 -9t-28.5 -18t-15.5 -34t-8.5 -51t-2.5 -74.5h-37q7 121 5 226q62 -2 213 -2h301v-34q-184 -237 -466 -620h303
q82 0 106 35t27 156h36q-7 -138 -4 -228q-30 2 -159 2h-390z" />
    <glyph glyph-name="zcaron" unicode="&#x17e;" horiz-adv-x="477" 
d="M119 674l7 9q62 -57 126 -123q52 55 126 123l7 -9q-28 -48 -116 -151h-34q-25 24 -62 72t-54 79zM295 0h-266v27q206 247 321 395h-150q-64 0 -89 -29t-31 -118h-27q8 95 3 180q50 -4 144 -4h223v-26q-272 -331 -323 -396h195q56 0 84.5 34t29.5 125h26q-10 -95 -4 -191
q-55 3 -136 3z" />
    <glyph glyph-name="longs" unicode="&#x17f;" horiz-adv-x="356" 
d="M301 31v-32q-4 0 -57.5 1t-82.5 1q-22 0 -54.5 -0.5t-57 -1t-27.5 -0.5v32h67q39 0 39 42q2 375 0 415q-3 107 42.5 155.5t120.5 48.5q58 0 91.5 -27.5t33.5 -63.5q0 -51 -51 -51q-20 0 -32 11.5t-12 31.5t12.5 31.5t34.5 11.5q9 0 13 -1q-30 33 -85 33q-57 0 -82 -36.5
t-25 -123.5v-435q0 -22 9 -32t35 -10h68z" />
    <glyph glyph-name="florin" unicode="&#x192;" horiz-adv-x="543" 
d="M131 386v31l110 -3q3 91 19 152t43.5 90t55 39.5t64.5 10.5q55 0 83 -28.5t26 -73.5q0 -59 -53 -59q-22 0 -35 12t-13 32q0 22 13.5 34.5t37.5 12.5q12 0 20 -4q-15 46 -73 46q-29 0 -47 -7.5t-36.5 -32t-26.5 -80.5t-7 -143l116 4v-33l-116 4q1 -155 -22.5 -248
t-64 -128t-102.5 -35q-55 0 -83 29t-28 68q0 25 14.5 40t38.5 15q21 0 33.5 -11.5t12.5 -32.5q0 -20 -13 -32t-35 -12q-12 0 -17 2q18 -40 79 -40q70 0 93 73t23 274v37z" />
    <glyph glyph-name="uni01B5" unicode="&#x1b5;" horiz-adv-x="646" 
d="M46 0v35q158 208 202 268q-114 -7 -122 -7v39q10 0 32 -1.5t55 -3.5t53 -3q70 94 241 326h-238q-39 0 -61 -1.5t-42 -9t-28.5 -18t-15.5 -34t-8.5 -51t-2.5 -74.5h-37q7 121 5 226q62 -2 213 -2h301v-34q-46 -58 -248 -326l117 6v-39q-18 1 -65.5 3.5t-70.5 3.5
l-199 -268h303q82 0 106 35t27 156h36q-7 -138 -4 -228q-30 2 -159 2h-390z" />
    <glyph glyph-name="uni01B6" unicode="&#x1b6;" horiz-adv-x="477" 
d="M295 0h-266v27l135 163q-71 -18 -86 -20l-5 32q10 1 48.5 5.5t62.5 7.5q114 141 166 207h-150q-64 0 -89 -29t-31 -118h-27q8 95 3 180q50 -4 144 -4h223v-26q-20 -25 -75.5 -91.5t-83.5 -100.5l99 24l6 -32l-126 -18q-85 -104 -143 -178h195q56 0 84.5 34t29.5 125h26
q-10 -95 -4 -191q-55 3 -136 3z" />
    <glyph glyph-name="uni01FA" unicode="&#x1fa;" horiz-adv-x="861" 
d="M610 112l-42 120q-155 4 -298 0q-44 -110 -46 -120q-14 -44 -2.5 -61t60.5 -17h54v-36q-97 2 -152 2l-152 -2v36h46q45 0 66.5 15t40.5 60q3 8 115 289t119 300q11 -1 25 -1l27 1q80 -240 215 -588q17 -46 36.5 -61t63.5 -15h43v-36q-103 2 -161 2l-161 -2l1 36h50
q43 0 55 18.5t-3 59.5zM558 263q-41 117 -132 363l-144 -363q134 -2 276 0zM386 946l-7 9q11 11 44.5 46t53.5 54.5t34 31.5q14 9 27.5 3.5t15 -18t-10.5 -23.5q-49 -36 -157 -103zM493 839q0 25 -13.5 39t-35.5 14q-23 0 -36 -14t-13 -39t13 -39.5t36 -14.5q22 0 35.5 14.5
t13.5 39.5zM523 839q0 -35 -22 -56t-57 -21t-57 21t-22 56t22 55.5t57 20.5t57 -20.5t22 -55.5z" />
    <glyph glyph-name="aringacute" unicode="&#x1fb;" horiz-adv-x="526" 
d="M385 282v-184q0 -76 41 -76q62 0 49 133l27 2q16 -166 -89 -166q-88 0 -88 95v13q-46 -108 -156 -108q-60 0 -100 29.5t-40 92.5q0 45 25 75.5t71.5 46.5t92 22.5t107.5 9.5v13q0 41 -4 67t-15.5 49t-35 33t-60.5 10q-82 0 -116 -48q6 2 12 2q25 0 37.5 -13t12.5 -34
t-14 -34.5t-38 -13.5q-52 0 -52 57q0 45 47 77.5t121 32.5q97 0 131 -45t34 -138zM184 26q65 0 102 47t39 134v39q-115 -5 -170 -36.5t-55 -95.5q0 -40 22 -64t62 -24zM186 716l-7 9q11 11 44.5 46t53.5 54.5t34 31.5q14 9 27.5 3.5t15 -18t-10.5 -23.5q-49 -36 -157 -103z
M282 604q0 25 -13.5 39t-35.5 14q-23 0 -36 -14t-13 -39t13 -39.5t36 -14.5q22 0 35.5 14.5t13.5 39.5zM312 604q0 -35 -22 -56t-57 -21t-57 21t-22 56t22 55.5t57 20.5t57 -20.5t22 -55.5z" />
    <glyph glyph-name="AEacute" unicode="&#x1fc;" horiz-adv-x="1058" 
d="M624 751l-7 9q11 11 44.5 46t53.5 54.5t34 31.5q14 9 27.5 3.5t15 -18t-10.5 -23.5q-49 -36 -157 -103zM1012 224q-8 -114 -6 -228q-47 4 -202 4q-246 1 -267 1q-148 0 -172 -2v36h88q30 0 41 10.5t11 36.5v114q-126 2 -220 -1q-12 -22 -40 -79q-22 -42 -13 -61.5
t57 -19.5h47v-36q-97 2 -152 2l-152 -2v36h50q43 0 64.5 15.5t48.5 62.5q61 106 157 282t119 223q8 18 0 28.5t-31 10.5h-55v34q39 -3 149 -3q9 0 113 0.5t186 0.5q116 0 163 6q-4 -106 2 -214l-34 -1v29q0 82 -28 113.5t-106 31.5h-224q-19 0 -27 -8.5t-8 -29.5
q0 -5 -0.5 -43.5t-1 -97t-0.5 -110.5h96q70 1 93.5 26.5t24.5 100.5v15h33q0 -12 -1.5 -62t-1.5 -93q0 -109 3 -160h-33v17q-2 75 -28.5 102t-107.5 27h-78q0 -53 0.5 -112t1 -99t0.5 -45q0 -47 37 -47h228q75 0 108 36t33 129v24h35zM300 225q103 -2 205 0v392
q-75 -139 -205 -392z" />
    <glyph glyph-name="aeacute" unicode="&#x1fd;" horiz-adv-x="784" 
d="M353 514l-7 9q11 11 44.5 46t53.5 54.5t34 31.5q14 9 27.5 3.5t15 -18t-10.5 -23.5q-49 -36 -157 -103zM734 118q-48 -135 -195 -135q-165 0 -203 132q-41 -124 -167 -124q-60 0 -100 29.5t-40 92.5q0 44 25 75t71.5 46.5t91.5 22.5t107 10v13q0 80 -23 119.5t-90 39.5
q-79 0 -117 -47q2 0 6 0.5t6 0.5q50 0 50 -47q0 -22 -14 -35t-37 -13q-24 0 -38.5 14.5t-14.5 42.5q0 45 47 77.5t119 32.5q119 0 150 -80q56 80 167 80q103 0 153 -71t42 -183l-338 -1q2 -108 40 -151.5t112 -43.5q67 0 102.5 29t53.5 81zM533 438q-138 0 -141 -204h240
q15 0 20.5 7t5.5 23q0 83 -34 128.5t-91 45.5zM183 27q67 0 104 49t37 141v29q-114 -5 -169 -36.5t-55 -95.5q0 -40 22 -63.5t61 -23.5z" />
    <glyph glyph-name="Oslashacute" unicode="&#x1fe;" horiz-adv-x="776" 
d="M388 -18q-130 0 -214 64l-87 -96l-16 13l78 104q-99 96 -99 277q0 173 93 268.5t245 95.5q138 0 225 -74l93 101l15 -12l-83 -113q88 -97 88 -265q0 -174 -94 -268.5t-244 -94.5zM126 344q0 -153 58 -235l201 238l195 246q-69 83 -192 83q-118 0 -190 -82.5t-72 -249.5z
M388 15q122 0 192 80.5t70 249.5q0 137 -51 219l-195 -228l-200 -252q66 -69 184 -69zM364 751l-7 9q11 11 44.5 46t53.5 54.5t34 31.5q14 9 27.5 3.5t15 -18t-10.5 -23.5q-49 -36 -157 -103z" />
    <glyph glyph-name="oslashacute" unicode="&#x1ff;" horiz-adv-x="531" 
d="M47 223q0 118 58 180t161 62q83 0 136 -41l70 78l13 -10l-60 -88q59 -64 59 -180q0 -119 -57.5 -180.5t-160.5 -61.5q-90 0 -145 45l-60 -66l-14 11l54 75q-54 62 -54 176zM416 224q0 86 -25 139l-119 -139l-121 -159q36 -55 115 -55q150 0 150 214zM116 224
q0 -81 21 -133l124 147l114 151q-38 49 -110 49q-31 0 -55 -8.5t-46.5 -30t-35 -66t-12.5 -109.5zM235 514l-7 9q11 11 44.5 46t53.5 54.5t34 31.5q14 9 27.5 3.5t15 -18t-10.5 -23.5q-49 -36 -157 -103z" />
    <glyph glyph-name="Scommaaccent" unicode="&#x218;" horiz-adv-x="612" 
d="M265 -252q93 36 92 125q-10 -20 -38 -20q-17 0 -27.5 11t-10.5 30t12.5 32t33.5 13q27 0 39.5 -18.5t12.5 -46.5q0 -46 -26.5 -84t-80.5 -57zM303 675q-83 0 -126.5 -37t-43.5 -99q0 -59 43.5 -91.5t152.5 -55.5q126 -25 181.5 -72.5t55.5 -137.5t-61.5 -145t-173.5 -55
q-104 0 -177 45q-38 20 -50 11.5t-17 -47.5h-32q21 105 13 233h31q18 -211 231 -210q92 1 139.5 40t47.5 102q0 68 -47.5 102t-172.5 60q-110 22 -160.5 69t-50.5 125q0 89 58.5 142.5t160.5 53.5q82 0 151 -44q30 -17 40.5 -10.5t15.5 43.5h31q-18 -107 -6 -227h-30
q-8 96 -60 150.5t-144 54.5z" />
    <glyph glyph-name="scommaaccent" unicode="&#x219;" horiz-adv-x="449" 
d="M166 -252q93 36 92 125q-10 -20 -38 -20q-17 0 -27.5 11t-10.5 30t12.5 32t33.5 13q27 0 39.5 -18.5t12.5 -46.5q0 -46 -26.5 -84t-80.5 -57zM223 433q-54 0 -83 -22.5t-29 -56.5q0 -40 30 -60t112 -35q81 -15 116.5 -49t35.5 -88q0 -68 -40.5 -104t-118.5 -36
q-70 0 -132 43q-40 28 -46 -33h-24q14 89 6 169h24q18 -70 62.5 -108.5t109.5 -38.5q56 0 85.5 22.5t29.5 61.5q1 40 -30 61.5t-114 35.5q-80 14 -115.5 47.5t-35.5 88.5q0 61 44 97.5t116 36.5q58 0 107 -33q14 -11 23.5 -3.5t14.5 37.5q1 -1 11 -1t11 1q-12 -80 -6 -163
h-23q-12 66 -45.5 98t-95.5 32z" />
    <glyph glyph-name="uni021A" unicode="&#x21a;" horiz-adv-x="724" 
d="M296 -249q93 36 92 125q-10 -20 -38 -20q-17 0 -27.5 11t-10.5 30t12.5 32t33.5 13q27 0 39.5 -18.5t12.5 -46.5q0 -46 -26.5 -84t-80.5 -57zM549 653h-155q-1 -66 -0.5 -304t1.5 -268q0 -27 11.5 -37t45.5 -10h65v-36q-99 2 -155 2l-157 -2v36h64q34 0 47 10.5t13 36.5
q1 29 1 268t-1 304h-153q-43 0 -62.5 -18.5t-22.5 -61.5q-6 -56 -3 -108h-37q4 105 -5 228q32 -4 122 -4h388q29 0 121 4q-9 -123 -5 -228h-37q3 52 -3 108q-3 44 -21.5 62t-61.5 18z" />
    <glyph glyph-name="uni021B" unicode="&#x21b;" horiz-adv-x="364" 
d="M291 151l26 2q18 -164 -109 -164q-122 0 -122 153v280h-77v26q68 3 90 42.5t32 148.5h26q-5 -59 -9 -188l145 5v-36l-145 1v-278q0 -68 17 -95t53 -27q43 0 60.5 31t12.5 99zM117 -252q93 36 92 125q-10 -20 -38 -20q-17 0 -27.5 11t-10.5 30t12.5 32t33.5 13
q27 0 39.5 -18.5t12.5 -46.5q0 -46 -26.5 -84t-80.5 -57z" />
    <glyph glyph-name="uni0237" unicode="&#x237;" horiz-adv-x="291" 
d="M37 -116q0 -18 -13.5 -30t-35.5 -11q18 -11 48 -11q47 0 70 33t23 122v383q0 26 -10.5 38.5t-37.5 12.5h-49v30q119 0 158 3v-111.5v-222v-124.5q0 -96 -37.5 -143t-105.5 -47q-49 0 -77.5 20t-28.5 53q0 23 14 36t36 13q46 0 46 -44z" />
    <glyph glyph-name="circumflex" unicode="&#x2c6;" horiz-adv-x="532" 
d="M387 523l-7 -9q-71 65 -126 124q-58 -62 -126 -124l-7 9q24 41 116 152h34q25 -25 62 -73.5t54 -78.5z" />
    <glyph glyph-name="caron" unicode="&#x2c7;" horiz-adv-x="532" 
d="M121 674l7 9q62 -57 126 -123q52 55 126 123l7 -9q-28 -48 -116 -151h-34q-25 24 -62 72t-54 79z" />
    <glyph glyph-name="breve" unicode="&#x2d8;" horiz-adv-x="532" 
d="M257 526q-70 0 -105 41t-29 104l11 2q6 -102 123 -102t123 102l11 -2q6 -63 -29 -104t-105 -41z" />
    <glyph glyph-name="dotaccent" unicode="&#x2d9;" horiz-adv-x="532" 
d="M318 602q0 -19 -13 -32t-32 -13t-31.5 13t-12.5 32t12.5 32t31.5 13t32 -13t13 -32z" />
    <glyph glyph-name="ring" unicode="&#x2da;" horiz-adv-x="532" 
d="M321 602q0 25 -13.5 39t-35.5 14q-23 0 -36 -14t-13 -39t13 -39.5t36 -14.5q22 0 35.5 14.5t13.5 39.5zM351 602q0 -35 -22 -56t-57 -21t-57 21t-22 56t22 55.5t57 20.5t57 -20.5t22 -55.5z" />
    <glyph glyph-name="ogonek" unicode="&#x2db;" horiz-adv-x="532" 
d="M392 -84q-2 -50 -35.5 -86t-84.5 -36q-50 0 -75.5 24t-24.5 62q3 49 48 85t120 50l6 -6q-123 -33 -128 -117q-3 -34 15.5 -49.5t46.5 -15.5q37 0 62.5 26.5t31.5 66.5z" />
    <glyph glyph-name="tilde" unicode="&#x2dc;" horiz-adv-x="532" 
d="M387 660l18 3q21 -69 -3.5 -105.5t-71.5 -36.5q-31 0 -51.5 15t-40.5 46q-16 25 -23.5 34.5t-20.5 18t-28 8.5q-26 0 -36 -25.5t2 -84.5l-18 -3q-21 69 3 105.5t72 36.5q52 0 91 -61q17 -24 24.5 -34t20.5 -18.5t28 -8.5q26 0 36 27t-2 83z" />
    <glyph glyph-name="hungarumlaut" unicode="&#x2dd;" horiz-adv-x="532" 
d="M116 520l-8 8q94 127 112 149q11 12 25.5 8t17.5 -16.5t-7 -25.5q-42 -42 -140 -123zM279 520l-8 8q13 17 38.5 52t43.5 59t31 38q11 12 25.5 8t17.5 -16.5t-7 -25.5q-47 -45 -141 -123z" />
    <glyph glyph-name="Wgrave" unicode="&#x1e80;" horiz-adv-x="1094" 
d="M758 -6h-56q-61 242 -158 572q-119 -389 -169 -572h-55q-87 331 -165 589q-12 40 -27 56t-48 16h-53v35q94 -2 146 -2q23 0 58.5 0.5t61.5 1.5h26v-35h-48q-34 0 -45 -16.5t-1 -55.5q43 -173 142 -509q126 429 146 510q11 39 1.5 55t-47.5 16h-34v35q83 -2 129 -2
q20 0 51 0.5t53 1.5h23v-35h-43q-55 0 -39 -65q41 -166 142 -514q102 342 135 492q10 47 -3 67t-56 20h-32v35q90 -2 139 -2q22 0 54.5 0.5t57.5 1.5h24v-35h-50q-34 0 -54 -20.5t-35 -67.5q-22 -67 -90.5 -298t-80.5 -275zM607 762l-7 -9q-108 67 -157 103q-13 9 -10 23
t15.5 18.5t26.5 -3.5q14 -12 34 -31.5t53.5 -54.5t44.5 -46z" />
    <glyph glyph-name="wgrave" unicode="&#x1e81;" horiz-adv-x="862" 
d="M550 -12q-49 150 -129 360q-132 -341 -137 -360h-35q-50 153 -137 382q-7 19 -12.5 27.5t-19.5 15.5t-38 7h-29v31q76 -2 119 -2l119 2v-31h-19q-36 0 -48 -12.5t-4 -40.5q26 -93 105 -305q103 264 115 302q2 11 3 23.5t-11.5 22.5t-38.5 10h-11v31q62 -2 99 -2l100 2
v-31h-12q-67 0 -49 -53q60 -186 104 -304q105 277 108 285q14 31 4.5 51.5t-43.5 20.5h-26v31q72 -2 111 -2l111 2v-31h-32q-35 0 -56 -15t-37 -57q-1 -3 -37 -93.5t-68 -172.5t-35 -94h-34zM490 523l-7 -9q-108 67 -157 103q-13 9 -10 23t15.5 18.5t26.5 -3.5
q14 -12 34 -31.5t53.5 -54.5t44.5 -46z" />
    <glyph glyph-name="Wacute" unicode="&#x1e82;" horiz-adv-x="1094" 
d="M532 753l-7 9q11 11 44.5 46t53.5 54.5t34 31.5q14 9 27.5 3.5t15 -18t-10.5 -23.5q-49 -36 -157 -103zM758 -6h-56q-61 242 -158 572q-119 -389 -169 -572h-55q-87 331 -165 589q-12 40 -27 56t-48 16h-53v35q94 -2 146 -2q23 0 58.5 0.5t61.5 1.5h26v-35h-48
q-34 0 -45 -16.5t-1 -55.5q43 -173 142 -509q126 429 146 510q11 39 1.5 55t-47.5 16h-34v35q83 -2 129 -2q20 0 51 0.5t53 1.5h23v-35h-43q-55 0 -39 -65q41 -166 142 -514q102 342 135 492q10 47 -3 67t-56 20h-32v35q90 -2 139 -2q22 0 54.5 0.5t57.5 1.5h24v-35h-50
q-34 0 -54 -20.5t-35 -67.5q-22 -67 -90.5 -298t-80.5 -275z" />
    <glyph glyph-name="wacute" unicode="&#x1e83;" horiz-adv-x="862" 
d="M413 514l-7 9q11 11 44.5 46t53.5 54.5t34 31.5q14 9 27.5 3.5t15 -18t-10.5 -23.5q-49 -36 -157 -103zM550 -12q-49 150 -129 360q-132 -341 -137 -360h-35q-50 153 -137 382q-7 19 -12.5 27.5t-19.5 15.5t-38 7h-29v31q76 -2 119 -2l119 2v-31h-19q-36 0 -48 -12.5
t-4 -40.5q26 -93 105 -305q103 264 115 302q2 11 3 23.5t-11.5 22.5t-38.5 10h-11v31q62 -2 99 -2l100 2v-31h-12q-67 0 -49 -53q60 -186 104 -304q105 277 108 285q14 31 4.5 51.5t-43.5 20.5h-26v31q72 -2 111 -2l111 2v-31h-32q-35 0 -56 -15t-37 -57q-1 -3 -37 -93.5
t-68 -172.5t-35 -94h-34z" />
    <glyph glyph-name="Wdieresis" unicode="&#x1e84;" horiz-adv-x="1094" 
d="M516 821q0 -19 -12.5 -31.5t-31.5 -12.5q-20 0 -33 12.5t-13 31.5t13 31.5t33 12.5q19 0 31.5 -12.5t12.5 -31.5zM694 821q0 -19 -13 -31.5t-32 -12.5t-32 12.5t-13 31.5t13 31.5t32 12.5t32 -12.5t13 -31.5zM758 -6h-56q-61 242 -158 572q-119 -389 -169 -572h-55
q-87 331 -165 589q-12 40 -27 56t-48 16h-53v35q94 -2 146 -2q23 0 58.5 0.5t61.5 1.5h26v-35h-48q-34 0 -45 -16.5t-1 -55.5q43 -173 142 -509q126 429 146 510q11 39 1.5 55t-47.5 16h-34v35q83 -2 129 -2q20 0 51 0.5t53 1.5h23v-35h-43q-55 0 -39 -65q41 -166 142 -514
q102 342 135 492q10 47 -3 67t-56 20h-32v35q90 -2 139 -2q22 0 54.5 0.5t57.5 1.5h24v-35h-50q-34 0 -54 -20.5t-35 -67.5q-22 -67 -90.5 -298t-80.5 -275z" />
    <glyph glyph-name="wdieresis" unicode="&#x1e85;" horiz-adv-x="862" 
d="M398 584q0 -19 -12.5 -31.5t-31.5 -12.5q-20 0 -33 12.5t-13 31.5t13 31.5t33 12.5q19 0 31.5 -12.5t12.5 -31.5zM576 584q0 -19 -13 -31.5t-32 -12.5t-32 12.5t-13 31.5t13 31.5t32 12.5t32 -12.5t13 -31.5zM550 -12q-49 150 -129 360q-132 -341 -137 -360h-35
q-50 153 -137 382q-7 19 -12.5 27.5t-19.5 15.5t-38 7h-29v31q76 -2 119 -2l119 2v-31h-19q-36 0 -48 -12.5t-4 -40.5q26 -93 105 -305q103 264 115 302q2 11 3 23.5t-11.5 22.5t-38.5 10h-11v31q62 -2 99 -2l100 2v-31h-12q-67 0 -49 -53q60 -186 104 -304q105 277 108 285
q14 31 4.5 51.5t-43.5 20.5h-26v31q72 -2 111 -2l111 2v-31h-32q-35 0 -56 -15t-37 -57q-1 -3 -37 -93.5t-68 -172.5t-35 -94h-34z" />
    <glyph glyph-name="uni1E8A" unicode="&#x1e8a;" horiz-adv-x="854" 
d="M562 112q-49 71 -145 202q-50 -66 -142 -201q-23 -30 -13 -54.5t50 -24.5h54v-36q-104 2 -161 2l-159 -2v36h37q52 0 85.5 21t64.5 62q123 162 166 223l-181 245q-28 38 -52 54t-67 16h-49v35q111 -2 170 -2l162 2v-35h-40q-44 0 -53.5 -22.5t10.5 -48.5q45 -66 145 -203
q90 117 143 203q19 26 9.5 48.5t-53.5 22.5h-50v35q100 -2 156 -2l156 2v-35h-41q-50 0 -73.5 -14t-57.5 -58q-129 -168 -170 -227q107 -147 183 -246q30 -40 58 -58t64 -18h39v-36q-107 2 -167 2l-165 -2v36h47q44 0 54.5 22.5t-14.5 55.5zM482 825q0 -19 -13 -32t-32 -13
t-31.5 13t-12.5 32t12.5 32t31.5 13t32 -13t13 -32z" />
    <glyph glyph-name="uni1E8B" unicode="&#x1e8b;" horiz-adv-x="586" 
d="M370 85q-41 54 -89 113l-89 -113q-17 -19 -7.5 -36.5t42.5 -17.5h36v-32q-76 2 -117 2l-119 -2v32h21q34 0 57.5 13t52.5 42l110 128q-21 26 -45 55.5t-47 57.5t-31 38q-27 34 -44 44.5t-48 10.5h-23v31q78 -2 122 -2l127 2v-31h-43q-34 0 -39.5 -14.5t11.5 -32.5
q33 -43 94 -118q9 11 34 41.5t42.5 52t19.5 24.5q14 14 6.5 30.5t-36.5 16.5h-45v31q73 -2 114 -2l120 2v-31h-29q-33 0 -53.5 -10.5t-50.5 -44.5q-17 -17 -109 -126q79 -100 130 -160q41 -48 82 -48h32v-32q-81 2 -125 2l-127 -2v32h30q32 0 41.5 12.5t-8.5 41.5zM350 588
q0 -19 -13 -32t-32 -13t-31.5 13t-12.5 32t12.5 32t31.5 13t32 -13t13 -32z" />
    <glyph glyph-name="Ygrave" unicode="&#x1ef2;" horiz-adv-x="802" 
d="M607 585q-98 -178 -179 -341v-160q0 -28 12 -39t47 -11h76v-36q-107 2 -168 2l-169 -2v36h76q36 0 48 11t12 39v155q-108 216 -181 348q-20 37 -46 52.5t-72 15.5h-35v35q108 -2 168 -2l167 2v-35h-51q-85 0 -55 -69q45 -104 156 -305q116 220 154 305q16 28 7 48.5
t-55 20.5h-59v35q103 -2 160 -2l159 2v-35h-42q-54 0 -81 -14t-49 -56zM466 760l-7 -9q-108 67 -157 103q-13 9 -10 23t15.5 18.5t26.5 -3.5q14 -12 34 -31.5t53.5 -54.5t44.5 -46z" />
    <glyph glyph-name="ygrave" unicode="&#x1ef3;" horiz-adv-x="550" 
d="M384 363q21 57 -28 57h-40v31q70 -2 116 -2l105 2v-31h-43q-30 0 -45 -11.5t-30 -46.5q-13 -30 -68 -175t-74 -192q-18 -46 -31 -72t-34.5 -56.5t-50 -44t-65.5 -13.5q-47 0 -71.5 20.5t-24.5 51.5q0 25 15.5 39t37.5 14t35.5 -12t13.5 -35q0 -19 -14.5 -32t-37.5 -13
q19 -8 47 -8q49 0 84 35.5t73 140.5h-16q-75 223 -130 360q-11 25 -26.5 37.5t-44.5 12.5h-27v31q72 -2 121 -2l122 2v-31h-45q-49 0 -34 -51q46 -146 103 -297q13 36 39 106t45 121t23 64zM336 523l-7 -9q-108 67 -157 103q-13 9 -10 23t15.5 18.5t26.5 -3.5
q14 -12 34 -31.5t53.5 -54.5t44.5 -46z" />
    <glyph glyph-name="uni2009" unicode="&#x2009;" horiz-adv-x="112" 
 />
    <glyph glyph-name="endash" unicode="&#x2013;" horiz-adv-x="500" 
d="M30 225v47q220 -4 440 0v-47q-220 4 -440 0z" />
    <glyph glyph-name="emdash" unicode="&#x2014;" horiz-adv-x="1000" 
d="M30 225v47q470 -4 940 0v-47q-470 4 -940 0z" />
    <glyph glyph-name="quoteleft" unicode="&#x2018;" horiz-adv-x="235" 
d="M215 673q-62 -12 -101 -50.5t-38 -99.5q11 13 34 13q43 0 43 -44q0 -20 -13 -33t-35 -13q-55 0 -55 74q0 58 40.5 108t120.5 64z" />
    <glyph glyph-name="quoteright" unicode="&#x2019;" horiz-adv-x="235" 
d="M20 465q63 14 102 52t36 97q-13 -11 -32 -11q-20 0 -32 11.5t-12 31.5q0 21 13 34t36 13q54 0 54 -74q0 -58 -39.5 -107.5t-121.5 -64.5z" />
    <glyph glyph-name="quotesinglbase" unicode="&#x201a;" horiz-adv-x="235" 
d="M20 -122q63 14 102 52t36 97q-13 -11 -32 -11q-20 0 -32 11.5t-12 31.5q0 21 13 34t36 13q54 0 54 -74q0 -58 -39.5 -107.5t-121.5 -64.5z" />
    <glyph glyph-name="quotedblleft" unicode="&#x201c;" horiz-adv-x="403" 
d="M215 673q-62 -12 -101 -50.5t-38 -99.5q11 13 34 13q43 0 43 -44q0 -20 -13 -33t-35 -13q-55 0 -55 74q0 58 40.5 108t120.5 64zM383 673q-62 -12 -101 -50.5t-38 -99.5q11 13 34 13q43 0 43 -44q0 -20 -13 -33t-35 -13q-55 0 -55 74q0 58 40.5 108t120.5 64z" />
    <glyph glyph-name="quotedblright" unicode="&#x201d;" horiz-adv-x="403" 
d="M20 468q63 14 102 52t36 97q-13 -11 -32 -11q-20 0 -32 11.5t-12 31.5q0 21 13 34t36 13q54 0 54 -74q0 -58 -39.5 -107.5t-121.5 -64.5zM188 468q63 14 102 52t36 97q-13 -11 -32 -11q-20 0 -32 11.5t-12 31.5q0 21 13 34t36 13q54 0 54 -74q0 -58 -39.5 -107.5
t-121.5 -64.5z" />
    <glyph glyph-name="quotedblbase" unicode="&#x201e;" horiz-adv-x="403" 
d="M20 -122q63 14 102 52t36 97q-13 -11 -32 -11q-20 0 -32 11.5t-12 31.5q0 21 13 34t36 13q54 0 54 -74q0 -58 -39.5 -107.5t-121.5 -64.5zM188 -122q63 14 102 52t36 97q-13 -11 -32 -11q-20 0 -32 11.5t-12 31.5q0 21 13 34t36 13q54 0 54 -74q0 -58 -39.5 -107.5
t-121.5 -64.5z" />
    <glyph glyph-name="dagger" unicode="&#x2020;" 
d="M239 341q28 3 39.5 31.5t12.5 106.5q-18 5 -21 21q-35 -3 -82 -12q-24 -10 -55.5 -8.5t-31.5 28.5t31.5 28.5t55.5 -8.5q57 -11 82 -13q3 16 20 21q-2 51 -11 92q-29 131 19 131t19 -131q-10 -41 -12 -92q16 -5 21 -21q21 2 80 13q24 10 55.5 8.5t31.5 -28.5t-31.5 -28.5
t-55.5 8.5q-48 9 -80 12q-5 -17 -21 -20q1 -79 12 -107.5t40 -31.5v-20q-30 -4 -40.5 -38t-10.5 -132q0 -66 11 -116q30 -132 -19 -132q-29 0 -31 41.5t12 90.5q11 48 11 116q0 99 -10 132.5t-41 37.5v20z" />
    <glyph glyph-name="daggerdbl" unicode="&#x2021;" 
d="M189 134q-24 -10 -55.5 -8.5t-31.5 28.5t31.5 28.5t55.5 -7.5q42 -10 81 -14q4 18 21 21q-1 79 -12.5 107t-39.5 32v20q28 3 39.5 31.5t12.5 106.5q-18 5 -21 21q-35 -3 -82 -12q-24 -9 -55.5 -8t-31.5 28t31.5 28t55.5 -8q57 -11 82 -13q3 16 20 21q-2 51 -11 92
q-29 131 19 131t19 -131q-10 -41 -12 -92q16 -5 21 -21q21 2 80 13q24 9 55.5 8t31.5 -28t-31.5 -28.5t-55.5 8.5q-48 9 -80 12q-5 -17 -21 -20q1 -79 12 -107.5t40 -31.5v-20q-28 -4 -39.5 -32.5t-12.5 -106.5q16 -5 21 -21q40 4 81 14q23 9 55 7.5t32 -28.5t-32 -28.5
t-55 8.5q-38 9 -81 13q-5 -18 -21 -21q3 -55 12 -91q31 -132 -19 -132q-29 0 -30.5 41.5t11.5 90.5q9 43 11 91q-17 3 -20 21q-46 -4 -81 -13z" />
    <glyph glyph-name="bullet" unicode="&#x2022;" horiz-adv-x="449" 
d="M355 241q0 -59 -35.5 -92.5t-95.5 -33.5q-58 0 -94 33.5t-36 95.5q0 58 36.5 93t93.5 35q60 0 95.5 -36t35.5 -95z" />
    <glyph glyph-name="ellipsis" unicode="&#x2026;" horiz-adv-x="692" 
d="M174 48q0 -27 -16.5 -42.5t-42.5 -15.5q-25 0 -41.5 15.5t-16.5 42.5q0 26 16.5 42t41.5 16t42 -16t17 -42zM405 48q0 -27 -16.5 -42.5t-42.5 -15.5q-25 0 -41.5 15.5t-16.5 42.5q0 26 16.5 42t41.5 16t42 -16t17 -42zM635 48q0 -27 -16.5 -42.5t-42.5 -15.5
q-25 0 -41.5 15.5t-16.5 42.5q0 26 16.5 42t41.5 16t42 -16t17 -42z" />
    <glyph glyph-name="perthousand" unicode="&#x2030;" horiz-adv-x="903" 
d="M94 87q0 7 7 7t7 -7t-7 -7t-7 7zM131 140q0 11 11 11t11 -11q0 -12 -11 -12t-11 12zM168 193q0 6 4.5 10.5t11.5 4.5q6 0 10.5 -4.5t4.5 -10.5q0 -7 -4.5 -11.5t-10.5 -4.5q-16 0 -16 16zM206 245q0 8 5.5 13.5t12.5 5.5q8 0 14 -5.5t6 -13.5q0 -7 -6 -12.5t-14 -5.5
t-13 5.5t-5 12.5zM245 298q0 8 6.5 14t14.5 6t14 -6t6 -14t-6 -14.5t-14 -6.5t-14.5 6.5t-6.5 14.5zM285 351q0 8 6.5 14t15.5 6t15.5 -6t6.5 -14q0 -9 -6.5 -15.5t-15.5 -6.5t-15.5 6.5t-6.5 15.5zM328 403q0 8 6 14.5t14 6.5t14.5 -6.5t6.5 -14.5t-6.5 -14t-14.5 -6t-14 6
t-6 14zM370 456q0 7 6 12.5t14 5.5t13 -5t5 -13t-5.5 -13.5t-12.5 -5.5q-8 0 -14 5.5t-6 13.5zM415 508q0 7 4.5 11.5t10.5 4.5q16 0 16 -16q0 -6 -4.5 -10.5t-11.5 -4.5q-6 0 -10.5 4.5t-4.5 10.5zM461 561q0 11 11 11t11 -11t-11 -11t-11 11zM506 614q0 7 7 7t7 -7
q0 -8 -7 -8t-7 8zM416 -11q42 0 60.5 30.5t18.5 110.5q0 84 -18.5 113t-60.5 29q-39 0 -58.5 -31t-19.5 -111q0 -84 18 -112.5t60 -28.5zM416 -29q-59 0 -92 40t-33 119q0 78 35.5 119t89.5 41q60 0 93 -40.5t33 -119.5q0 -77 -36 -118t-90 -41zM719 -11q42 0 60.5 30.5
t18.5 110.5q0 84 -18.5 113t-60.5 29q-39 0 -58.5 -31t-19.5 -111q0 -84 18 -112.5t60 -28.5zM719 -29q-59 0 -92 40t-33 119q0 78 35.5 119t89.5 41q60 0 93 -40.5t33 -119.5q0 -77 -36 -118t-90 -41zM187 410q42 0 60.5 30.5t18.5 109.5q0 84 -18.5 113t-60.5 29
q-39 0 -58.5 -31t-19.5 -111q0 -84 18 -112t60 -28zM187 391q-59 0 -92 40t-33 119q0 78 35.5 119t89.5 41q60 0 93 -40.5t33 -119.5q0 -77 -36 -118t-90 -41z" />
    <glyph glyph-name="guilsinglleft" unicode="&#x2039;" horiz-adv-x="309" 
d="M240 411l10 -9q-58 -71 -146 -152q76 -71 146 -151l-10 -9q-61 50 -185 144v33q124 94 185 144z" />
    <glyph glyph-name="guilsinglright" unicode="&#x203a;" horiz-adv-x="309" 
d="M58 402l11 9q25 -20 184 -144v-33q-129 -98 -184 -144l-11 9q57 62 146 151q-94 94 -146 152z" />
    <glyph glyph-name="fraction" unicode="&#x2044;" horiz-adv-x="150" 
d="M-218 -32q0 7 7 7t7 -7t-7 -7t-7 7zM-178 24q0 11 11 11t11 -11t-11 -11t-11 11zM-137 80q0 14 14 14t14 -14t-14 -14t-14 14zM-95 136q0 17 16 17t16 -17q0 -16 -16 -16t-16 16zM-54 192q0 19 19 19t19 -19q0 -8 -5.5 -13.5t-13.5 -5.5t-13.5 5.5t-5.5 13.5zM-12 248
q0 9 6.5 15t14.5 6t14.5 -6t6.5 -15q0 -8 -6.5 -14t-14.5 -6t-14.5 6t-6.5 14zM31 304q0 9 6.5 15.5t15.5 6.5t15.5 -6.5t6.5 -15.5q0 -8 -6.5 -14.5t-15.5 -6.5t-15.5 6.5t-6.5 14.5zM75 361q0 8 6.5 14.5t15.5 6.5t15.5 -6.5t6.5 -14.5q0 -9 -6.5 -15.5t-15.5 -6.5
t-15.5 6.5t-6.5 15.5zM120 417q0 8 6.5 14t14.5 6t14.5 -6t6.5 -14q0 -9 -6.5 -15t-14.5 -6t-14.5 6t-6.5 15zM166 473q0 8 5.5 13.5t13.5 5.5t13.5 -5.5t5.5 -13.5q0 -19 -19 -19t-19 19zM213 529q0 16 16 16t16 -16q0 -17 -16 -17t-16 17zM259 585q0 14 14 14t14 -14
t-14 -14t-14 14zM306 641q0 11 11 11t11 -11t-11 -11t-11 11zM354 697q0 7 7 7t7 -7t-7 -7t-7 7z" />
    <glyph glyph-name="Euro" unicode="&#x20ac;" horiz-adv-x="611" 
d="M27 429l48 -3q20 127 96 193t194 66q99 0 156 -35.5t57 -88.5q0 -63 -56 -63q-24 0 -38 13t-14 35q0 24 14.5 37.5t40.5 13.5q10 0 14 -1q-19 27 -64 42.5t-100 15.5q-204 0 -232 -230l241 5v-36l-244 4q-2 -38 -2 -61q0 -36 3 -67l242 6l1 -37l-240 4q31 -232 238 -232
q119 0 161 63q-5 -1 -14 -1q-26 0 -39 13.5t-13 35.5q0 23 14 36.5t40 13.5q54 0 54 -61q0 -54 -56 -92.5t-157 -38.5q-257 0 -297 261l-48 -2v37l45 -3q-3 30 -3 64q0 30 3 59l-45 -2v36z" />
    <glyph glyph-name="uni2116" unicode="&#x2116;" horiz-adv-x="1122" 
d="M1002 48q0 -27 -16.5 -42.5t-42.5 -15.5q-25 0 -41.5 15.5t-16.5 42.5q0 26 16.5 42t41.5 16t42 -16t17 -42zM943 273q93 0 93 135q0 137 -93 137q-41 0 -67 -33t-26 -104q0 -75 24 -105t69 -30zM943 249q-61 0 -95 40t-34 119t36.5 119.5t92.5 40.5q129 0 129 -160
q0 -78 -36.5 -118.5t-92.5 -40.5zM238 690q127 -197 398 -591v498q0 58 -60 58h-69v35q3 0 60.5 -1t89.5 -1t90 1l58 1v-35h-70q-30 0 -44.5 -13.5t-14.5 -44.5v-600q-4 1 -26 1t-27 -1q-179 273 -411 608q0 -477 1 -516q0 -55 60 -55h69v-36q-96 2 -150 2l-149 -2v36h70
q33 0 46 14t13 41v516q0 28 -12 39t-40 11h-76v35q97 -4 194 0z" />
    <glyph glyph-name="trademark" unicode="&#x2122;" horiz-adv-x="723" 
d="M693 662h-25q-21 0 -22 -22q-1 -13 -1 -82t1 -83q1 -12 6 -18t18 -6h23v-26q-45 1 -71 1l-70 -1v26h21q23 0 25 24v160q-43 -81 -94 -193h-14q-46 98 -94 191q0 -135 1 -157q0 -25 25 -25h23v-26q-38 1 -59 1l-61 -1v26h21q22 0 24 25q1 11 1 82t-1 83q-1 21 -22 21h-22
v27q49 -2 100 0q29 -65 88 -178q71 145 84 178q48 -2 95 0v-27zM93 688h135q42 0 62 3q-5 -59 -1 -101h-28l-1 29q-1 42 -39 42h-38q-1 -43 -0.5 -109.5t1.5 -78.5t5.5 -17t17.5 -5h25v-26q-46 1 -72 1l-71 -1v26h24q22 0 24 22q2 44 0 188h-37q-20 0 -29 -9.5t-10 -32.5
l-1 -29h-28q4 49 -2 101q18 -3 63 -3z" />
    <glyph glyph-name="onethird" unicode="&#x2153;" horiz-adv-x="378" 
d="M17 344q0 14 15 14q5 0 9.5 -4.5t4.5 -9.5q0 -15 -14 -15q-15 0 -15 15zM80 344q0 14 15 14q5 0 9.5 -4.5t4.5 -9.5q0 -15 -14 -15q-15 0 -15 15zM144 344q0 13 14 13q13 0 13 -13q0 -14 -13 -14q-14 0 -14 14zM207 344q0 13 14 13q13 0 13 -13q0 -14 -13 -14
q-14 0 -14 14zM269 344q0 14 15 14q5 0 9.5 -4.5t4.5 -9.5q0 -15 -14 -15q-15 0 -15 15zM332 344q0 14 15 14q5 0 9.5 -4.5t4.5 -9.5q0 -15 -14 -15q-15 0 -15 15zM137 420q30 0 30 22v192q-35 -12 -66 -5v22h17q36 0 52.5 15.5t20.5 43.5h24q-4 -45 -4 -102v-166
q0 -12 6 -17t23 -5h39v-22q-58 2 -90 2l-90 -2v22h38zM293 213q0 -60 -69 -73q41 -5 64 -26.5t23 -52.5q0 -90 -131 -90q-55 0 -84 21.5t-29 52.5q0 40 38 40q34 0 34 -32q0 -31 -34 -31q-10 0 -14 2q19 -34 83 -34q48 0 68 17.5t20 53.5q0 35 -20.5 50.5t-70.5 15.5h-17v20
h17q42 0 59.5 15.5t17.5 49.5q0 26 -17.5 42t-50.5 16q-59 0 -77 -34q10 4 17 4q14 0 23 -8.5t9 -21.5q0 -33 -35 -33q-15 0 -25 9.5t-10 27.5q0 34 29 55t76 21q48 0 77 -20t29 -57z" />
    <glyph glyph-name="twothirds" unicode="&#x2154;" horiz-adv-x="378" 
d="M17 344q0 14 15 14q5 0 9.5 -4.5t4.5 -9.5q0 -15 -14 -15q-15 0 -15 15zM80 344q0 14 15 14q5 0 9.5 -4.5t4.5 -9.5q0 -15 -14 -15q-15 0 -15 15zM144 344q0 13 14 13q13 0 13 -13q0 -14 -13 -14q-14 0 -14 14zM207 344q0 13 14 13q13 0 13 -13q0 -14 -13 -14
q-14 0 -14 14zM269 344q0 14 15 14q5 0 9.5 -4.5t4.5 -9.5q0 -15 -14 -15q-15 0 -15 15zM332 344q0 14 15 14q5 0 9.5 -4.5t4.5 -9.5q0 -15 -14 -15q-15 0 -15 15zM297 483q14 -40 -1 -66.5t-56 -26.5q-9 0 -17.5 1.5t-14 3t-12.5 5t-11 6t-12 8t-13 8.5q-24 15 -45 14.5
t-27 -14.5q10 2 18 -2.5t8 -12.5q0 -17 -16 -17q-24 0 -24 30q0 42 22 69.5t74 50.5q45 20 63.5 39.5t18.5 50.5q0 61 -72 61q-26 0 -47.5 -10t-28.5 -30q8 4 19 4q33 0 33 -30q0 -14 -10 -23t-26 -9q-37 0 -37 40q0 35 30.5 56t72.5 21q109 0 109 -79q0 -72 -97 -102
q-95 -29 -109 -87q13 15 40.5 17.5t55.5 -7.5q42 -13 65 -12q43 2 33 42zM293 213q0 -60 -69 -73q41 -5 64 -26.5t23 -52.5q0 -90 -131 -90q-55 0 -84 21.5t-29 52.5q0 40 38 40q34 0 34 -32q0 -31 -34 -31q-10 0 -14 2q19 -34 83 -34q48 0 68 17.5t20 53.5q0 35 -20.5 50.5
t-70.5 15.5h-17v20h17q42 0 59.5 15.5t17.5 49.5q0 26 -17.5 42t-50.5 16q-59 0 -77 -34q10 4 17 4q14 0 23 -8.5t9 -21.5q0 -33 -35 -33q-15 0 -25 9.5t-10 27.5q0 34 29 55t76 21q48 0 77 -20t29 -57z" />
    <glyph glyph-name="oneeighth" unicode="&#x215b;" horiz-adv-x="378" 
d="M17 344q0 14 15 14q5 0 9.5 -4.5t4.5 -9.5q0 -15 -14 -15q-15 0 -15 15zM80 344q0 14 15 14q5 0 9.5 -4.5t4.5 -9.5q0 -15 -14 -15q-15 0 -15 15zM144 344q0 13 14 13q13 0 13 -13q0 -14 -13 -14q-14 0 -14 14zM207 344q0 13 14 13q13 0 13 -13q0 -14 -13 -14
q-14 0 -14 14zM269 344q0 14 15 14q5 0 9.5 -4.5t4.5 -9.5q0 -15 -14 -15q-15 0 -15 15zM332 344q0 14 15 14q5 0 9.5 -4.5t4.5 -9.5q0 -15 -14 -15q-15 0 -15 15zM137 420q30 0 30 22v192q-35 -12 -66 -5v22h17q36 0 52.5 15.5t20.5 43.5h24q-4 -45 -4 -102v-166
q0 -12 6 -17t23 -5h39v-22q-58 2 -90 2l-90 -2v22h38zM297 217q0 -42 -51 -70q70 -24 70 -83q0 -44 -36.5 -68.5t-89.5 -24.5q-67 0 -96 19.5t-29 58.5q0 52 64 75q-45 25 -45 76q0 42 30.5 66t77.5 24q53 0 79 -20t26 -53zM183 106q-26 5 -40 11q-50 -20 -50 -67
q0 -58 97 -58q45 0 70.5 15.5t25.5 39.5t-21.5 36t-81.5 23zM192 271q-38 0 -58.5 -15t-20.5 -38q0 -24 22.5 -38.5t72.5 -23.5l22 -4q40 26 40 65q0 54 -78 54z" />
    <glyph glyph-name="threeeighths" unicode="&#x215c;" horiz-adv-x="378" 
d="M17 344q0 14 15 14q5 0 9.5 -4.5t4.5 -9.5q0 -15 -14 -15q-15 0 -15 15zM80 344q0 14 15 14q5 0 9.5 -4.5t4.5 -9.5q0 -15 -14 -15q-15 0 -15 15zM144 344q0 13 14 13q13 0 13 -13q0 -14 -13 -14q-14 0 -14 14zM207 344q0 13 14 13q13 0 13 -13q0 -14 -13 -14
q-14 0 -14 14zM269 344q0 14 15 14q5 0 9.5 -4.5t4.5 -9.5q0 -15 -14 -15q-15 0 -15 15zM332 344q0 14 15 14q5 0 9.5 -4.5t4.5 -9.5q0 -15 -14 -15q-15 0 -15 15zM293 633q0 -28 -17.5 -47t-48.5 -26q39 -5 62 -26.5t23 -51.5q0 -91 -132 -91q-55 0 -84 21.5t-29 53.5
q0 19 10.5 29t27.5 10q35 0 35 -31q0 -14 -9 -23t-25 -9q-10 0 -14 1q20 -33 83 -33q48 0 68 17.5t20 53.5q0 35 -20.5 51t-70.5 16h-17v19h16q42 0 59.5 16t17.5 49q0 58 -68 58q-59 0 -77 -33q8 3 17 3q15 0 24 -8t9 -22q0 -33 -36 -33q-15 0 -25 10t-10 28q0 33 29.5 54
t76.5 21q48 0 76.5 -20t28.5 -57zM297 217q0 -42 -51 -70q70 -24 70 -83q0 -44 -36.5 -68.5t-89.5 -24.5q-67 0 -96 19.5t-29 58.5q0 52 64 75q-45 25 -45 76q0 42 30.5 66t77.5 24q53 0 79 -20t26 -53zM183 106q-26 5 -40 11q-50 -20 -50 -67q0 -58 97 -58q45 0 70.5 15.5
t25.5 39.5t-21.5 36t-81.5 23zM192 271q-38 0 -58.5 -15t-20.5 -38q0 -24 22.5 -38.5t72.5 -23.5l22 -4q40 26 40 65q0 54 -78 54z" />
    <glyph glyph-name="fiveeighths" unicode="&#x215d;" horiz-adv-x="378" 
d="M17 344q0 14 15 14q5 0 9.5 -4.5t4.5 -9.5q0 -15 -14 -15q-15 0 -15 15zM80 344q0 14 15 14q5 0 9.5 -4.5t4.5 -9.5q0 -15 -14 -15q-15 0 -15 15zM144 344q0 13 14 13q13 0 13 -13q0 -14 -13 -14q-14 0 -14 14zM207 344q0 13 14 13q13 0 13 -13q0 -14 -13 -14
q-14 0 -14 14zM269 344q0 14 15 14q5 0 9.5 -4.5t4.5 -9.5q0 -15 -14 -15q-15 0 -15 15zM332 344q0 14 15 14q5 0 9.5 -4.5t4.5 -9.5q0 -15 -14 -15q-15 0 -15 15zM181 571q-47 0 -82 -27l-10 9q19 44 19 147q32 -10 91 -10q57 0 96 15l8 -9q-30 -51 -105 -51q-46 0 -74 15
q-2 -57 -14 -92q37 22 85 22q115 0 115 -97q0 -46 -36.5 -74t-95.5 -28q-54 0 -81 20.5t-27 51.5q0 18 11 28t27 10q15 0 23.5 -9t8.5 -22q0 -32 -34 -32q-5 0 -8 1q21 -29 76 -29q86 0 86 82q0 79 -79 79zM297 217q0 -42 -51 -70q70 -24 70 -83q0 -44 -36.5 -68.5
t-89.5 -24.5q-67 0 -96 19.5t-29 58.5q0 52 64 75q-45 25 -45 76q0 42 30.5 66t77.5 24q53 0 79 -20t26 -53zM183 106q-26 5 -40 11q-50 -20 -50 -67q0 -58 97 -58q45 0 70.5 15.5t25.5 39.5t-21.5 36t-81.5 23zM192 271q-38 0 -58.5 -15t-20.5 -38q0 -24 22.5 -38.5
t72.5 -23.5l22 -4q40 26 40 65q0 54 -78 54z" />
    <glyph glyph-name="seveneighths" unicode="&#x215e;" horiz-adv-x="378" 
d="M17 344q0 14 15 14q5 0 9.5 -4.5t4.5 -9.5q0 -15 -14 -15q-15 0 -15 15zM80 344q0 14 15 14q5 0 9.5 -4.5t4.5 -9.5q0 -15 -14 -15q-15 0 -15 15zM144 344q0 13 14 13q13 0 13 -13q0 -14 -13 -14q-14 0 -14 14zM207 344q0 13 14 13q13 0 13 -13q0 -14 -13 -14
q-14 0 -14 14zM269 344q0 14 15 14q5 0 9.5 -4.5t4.5 -9.5q0 -15 -14 -15q-15 0 -15 15zM332 344q0 14 15 14q5 0 9.5 -4.5t4.5 -9.5q0 -15 -14 -15q-15 0 -15 15zM90 713l4 -30q15 28 53 28q27 0 64 -24q25 -15 48.5 -17.5t31.5 9.5q-10 -3 -17.5 2t-7.5 14q0 19 18 19
q21 0 21 -25q0 -28 -33 -59l-19 -19t-17 -18t-15.5 -20.5t-12.5 -21.5t-10.5 -26t-5.5 -29.5t-2.5 -35.5t3.5 -41q2 -14 -5.5 -22.5t-20.5 -8.5q-27 0 -27 30q0 114 102 203q4 3 14 11t17 14.5t12 13.5q-21 -18 -55 -19t-65 16q-19 10 -38 10q-37 -2 -33 -42q-11 2 -20 0
q5 42 -2 88q9 -1 18 0zM297 217q0 -42 -51 -70q70 -24 70 -83q0 -44 -36.5 -68.5t-89.5 -24.5q-67 0 -96 19.5t-29 58.5q0 52 64 75q-45 25 -45 76q0 42 30.5 66t77.5 24q53 0 79 -20t26 -53zM183 106q-26 5 -40 11q-50 -20 -50 -67q0 -58 97 -58q45 0 70.5 15.5t25.5 39.5
t-21.5 36t-81.5 23zM192 271q-38 0 -58.5 -15t-20.5 -38q0 -24 22.5 -38.5t72.5 -23.5l22 -4q40 26 40 65q0 54 -78 54z" />
    <glyph glyph-name="minus" unicode="&#x2212;" 
d="M80 228v47q221 -4 440 0v-47q-219 4 -440 0z" />
    <glyph glyph-name="notequal" unicode="&#x2260;" 
d="M80 308v42q114 -2 237 -2l44 142q15 -4 29 0l-47 -142q89 0 177 2v-42q-47 1 -189 1q-25 -76 -37 -117q116 0 226 2v-42q-58 1 -239 1l-47 -153q-14 4 -29 0l50 153q-131 0 -175 -1v42q94 -2 188 -2q12 41 37 117q-170 0 -225 -1z" />
    <glyph glyph-name="lessequal" unicode="&#x2264;" 
d="M135 237v24q148 96 281 195l25 -35q-36 -21 -140 -86.5t-137 -85.5q33 -20 137 -85.5t140 -86.5l-25 -35q-122 92 -281 195zM80 0v42q221 -4 440 0v-42q-219 4 -440 0z" />
    <glyph glyph-name="greaterequal" unicode="&#x2265;" 
d="M440 261v-24q-161 -103 -281 -195l-26 35q36 21 140 86.5t137 85.5q-33 20 -137 85.5t-140 86.5l26 35q46 -35 137.5 -98.5t143.5 -96.5zM80 0v42q221 -4 440 0v-42q-219 4 -440 0z" />
    <glyph glyph-name="space_uni0326" horiz-adv-x="225" 
d="M77 123q93 36 92 125q-10 -20 -38 -20q-17 0 -27.5 11t-10.5 30t12.5 32t33.5 13q27 0 39.5 -18.5t12.5 -46.5q0 -46 -26.5 -84t-80.5 -57z" />
    <glyph glyph-name="dotlessI" horiz-adv-x="411" 
d="M49 -2v36h63q34 0 46.5 10.5t12.5 36.5q1 34 1 262t-1 262q0 28 -12 39t-40 11h-69v35q100 -2 156 -2q32 0 92 1t63 1v-35h-70q-28 0 -39.5 -10.5t-12.5 -39.5q-1 -34 -1 -262t1 -262q0 -26 12.5 -36.5t46.5 -10.5h63v-36q-100 2 -156 2z" />
    <glyph glyph-name="Jacute" 
d="M367 751l-7 9q11 11 44.5 46t53.5 54.5t34 31.5q14 9 27.5 3.5t15 -18t-10.5 -23.5q-49 -36 -157 -103zM107 103q-15 0 -27 5q21 -94 134 -94q78 0 113 47t36 160q1 47 1 198.5t-1 185.5q0 28 -12 39t-40 11h-66v35q98 -2 153 -2q32 0 90.5 1t61.5 1v-35h-66
q-28 0 -39.5 -10.5t-12.5 -39.5v-76v-123v-122v-64q1 -238 -216 -238q-81 0 -126 45.5t-45 104.5q0 35 17.5 55.5t47.5 20.5q25 0 39.5 -14.5t14.5 -38.5t-16.5 -38t-40.5 -14z" />
    <glyph glyph-name="idotaccent" horiz-adv-x="311" 
d="M186 454q-1 -323 0 -369q1 -35 10.5 -44.5t40.5 -9.5h46v-32q-5 0 -53 1t-75 1q-28 0 -79 -1l-51 -1v32h56q26 0 34.5 10t9.5 43t1 146t-1 139q-1 28 -10.5 40t-39.5 12h-47v30q119 0 158 3zM195 611q0 -22 -15 -37.5t-37 -15.5t-37.5 15.5t-15.5 37.5t15.5 37t37.5 15
t37 -15t15 -37z" />
    <glyph glyph-name="jacute" horiz-adv-x="287" 
d="M37 -116q0 -18 -13.5 -30t-35.5 -11q18 -11 48 -11q47 0 70 33t23 122v383q0 26 -10.5 38.5t-37.5 12.5h-49v30q119 0 158 3v-111.5v-222v-124.5q0 -96 -37.5 -143t-105.5 -47q-49 0 -77.5 20t-28.5 53q0 23 14 36t36 13q46 0 46 -44zM130 514l-7 9q11 11 44.5 46
t53.5 54.5t34 31.5q14 9 27.5 3.5t15 -18t-10.5 -23.5q-49 -36 -157 -103z" />
    <glyph glyph-name="C.round" horiz-adv-x="720" 
d="M382 708q89 0 149.5 -35.5t84.5 -92.5q8 50 15 117h33q-12 -114 -10 -236q-18 2 -35 0q-30 214 -233 214q-258 0 -258 -329q0 -174 65 -252.5t186 -78.5q71 0 120 17t75.5 51.5t38.5 74t16 95.5q4 -1 20 -1t20 1q-6 -146 -73.5 -208.5t-216.5 -62.5q-157 0 -243 89
t-86 275q0 184 91 273t241 89z" />
    <glyph glyph-name="G.round" horiz-adv-x="799" 
d="M379 15q100 -1 164 57.5t64 156.5q0 48 -12 64t-47 16h-64v35q92 -2 143 -2l142 2v-35h-50q-26 0 -37 -13.5t-11 -53.5q0 -186 5 -259h-37q-1 3 -3.5 26.5t-6.5 58t-8 60.5q-27 -62 -90 -104t-152 -42q-157 0 -243 89t-86 275q0 184 90.5 273t241.5 89q90 0 150.5 -35.5
t85.5 -92.5q3 17 13 117h33q-10 -98 -8 -236q-18 2 -35 0q-13 96 -69.5 155t-165.5 59q-125 0 -191.5 -78t-66.5 -251t64 -251.5t187 -79.5z" />
    <glyph glyph-name="S.round" horiz-adv-x="612" 
d="M302 675q-85 0 -127 -37t-42 -99q0 -59 43 -91t153 -56q126 -26 179.5 -75t53.5 -134q0 -98 -61 -149.5t-170 -51.5q-154 0 -220 97q-21 -51 -27 -88h-32q25 124 16 233h31q18 -211 231 -210q91 1 139 38.5t48 103.5q0 68 -47.5 102t-172.5 60q-109 22 -159 71.5
t-50 129.5q0 84 56.5 136.5t159.5 52.5q136 0 186 -94q16 38 21 83h33q-17 -89 -9 -227h-28q-8 99 -60.5 152t-144.5 53z" />
    <glyph glyph-name="s.round" horiz-adv-x="449" 
d="M359 303q-21 130 -141 130q-51 0 -81.5 -22.5t-30.5 -56.5q0 -40 30.5 -60t112.5 -35q86 -16 120.5 -49.5t34.5 -89.5q0 -67 -41 -102.5t-120 -35.5q-101 0 -151 76q-16 -29 -22 -70h-23q14 90 5 168q2 -1 12.5 -1t12.5 1q37 -142 166 -142q56 0 86.5 22t30.5 61
q0 41 -31 62t-117 36q-79 13 -115 47t-36 89q0 61 42.5 97.5t114.5 36.5q91 0 126 -59q15 26 23 60q2 -1 11.5 -1t11.5 1q-9 -53 -9.5 -83t3.5 -80h-25z" />
    <glyph glyph-name="Cacute.round" horiz-adv-x="720" 
d="M351 751l-7 9q11 11 44.5 46t53.5 54.5t34 31.5q14 9 27.5 3.5t15 -18t-10.5 -23.5q-49 -36 -157 -103zM382 708q89 0 149.5 -35.5t84.5 -92.5q8 50 15 117h33q-12 -114 -10 -236q-18 2 -35 0q-30 214 -233 214q-258 0 -258 -329q0 -174 65 -252.5t186 -78.5q71 0 120 17
t75.5 51.5t38.5 74t16 95.5q4 -1 20 -1t20 1q-6 -146 -73.5 -208.5t-216.5 -62.5q-157 0 -243 89t-86 275q0 184 91 273t241 89z" />
    <glyph glyph-name="Ccaron.round" horiz-adv-x="720" 
d="M247 911l7 9q62 -57 126 -123q52 55 126 123l7 -9q-28 -48 -116 -151h-34q-25 24 -62 72t-54 79zM382 708q89 0 149.5 -35.5t84.5 -92.5q8 50 15 117h33q-12 -114 -10 -236q-18 2 -35 0q-30 214 -233 214q-258 0 -258 -329q0 -174 65 -252.5t186 -78.5q71 0 120 17
t75.5 51.5t38.5 74t16 95.5q4 -1 20 -1t20 1q-6 -146 -73.5 -208.5t-216.5 -62.5q-157 0 -243 89t-86 275q0 184 91 273t241 89z" />
    <glyph glyph-name="Ccedilla.round" horiz-adv-x="720" 
d="M382 708q89 0 149.5 -35.5t84.5 -92.5q8 50 15 117h33q-12 -114 -10 -236q-18 2 -35 0q-30 214 -233 214q-258 0 -258 -329q0 -174 65 -252.5t186 -78.5q71 0 120 17t75.5 51.5t38.5 74t16 95.5q4 -1 20 -1t20 1q-6 -142 -70 -204.5t-203 -66.5q-3 -36 -32 -59
q45 7 80 -13t35 -63q0 -40 -29.5 -64t-81.5 -24q-71 0 -107 50l16 13q30 -35 78 -35q71 0 71 61q0 33 -29 47.5t-83 -4.5l-9 18q61 28 69 73q-155 2 -239.5 90.5t-84.5 273.5q0 184 91 273t241 89z" />
    <glyph glyph-name="Ccircumflex.round" horiz-adv-x="720" 
d="M513 757l-7 -9q-71 65 -126 124q-58 -62 -126 -124l-7 9q24 41 116 152h34q25 -25 62 -73.5t54 -78.5zM382 708q89 0 149.5 -35.5t84.5 -92.5q8 50 15 117h33q-12 -114 -10 -236q-18 2 -35 0q-30 214 -233 214q-258 0 -258 -329q0 -174 65 -252.5t186 -78.5q71 0 120 17
t75.5 51.5t38.5 74t16 95.5q4 -1 20 -1t20 1q-6 -146 -73.5 -208.5t-216.5 -62.5q-157 0 -243 89t-86 275q0 184 91 273t241 89z" />
    <glyph glyph-name="Cdotaccent.round" horiz-adv-x="720" 
d="M382 708q89 0 149.5 -35.5t84.5 -92.5q8 50 15 117h33q-12 -114 -10 -236q-18 2 -35 0q-30 214 -233 214q-258 0 -258 -329q0 -174 65 -252.5t186 -78.5q71 0 120 17t75.5 51.5t38.5 74t16 95.5q4 -1 20 -1t20 1q-6 -146 -73.5 -208.5t-216.5 -62.5q-157 0 -243 89
t-86 275q0 184 91 273t241 89zM425 818q0 -19 -13 -32t-32 -13t-31.5 13t-12.5 32t12.5 32t31.5 13t32 -13t13 -32z" />
    <glyph glyph-name="Gbreve.round" horiz-adv-x="799" 
d="M379 15q100 -1 164 57.5t64 156.5q0 48 -12 64t-47 16h-64v35q92 -2 143 -2l142 2v-35h-50q-26 0 -37 -13.5t-11 -53.5q0 -186 5 -259h-37q-1 3 -3.5 26.5t-6.5 58t-8 60.5q-27 -62 -90 -104t-152 -42q-157 0 -243 89t-86 275q0 184 90.5 273t241.5 89q90 0 150.5 -35.5
t85.5 -92.5q3 17 13 117h33q-10 -98 -8 -236q-18 2 -35 0q-13 96 -69.5 155t-165.5 59q-125 0 -191.5 -78t-66.5 -251t64 -251.5t187 -79.5zM383 761q-70 0 -105 41t-29 104l11 2q6 -102 123 -102t123 102l11 -2q6 -63 -29 -104t-105 -41z" />
    <glyph glyph-name="Gcircumflex.round" horiz-adv-x="799" 
d="M513 757l-7 -9q-71 65 -126 124q-58 -62 -126 -124l-7 9q24 41 116 152h34q25 -25 62 -73.5t54 -78.5zM379 15q100 -1 164 57.5t64 156.5q0 48 -12 64t-47 16h-64v35q92 -2 143 -2l142 2v-35h-50q-26 0 -37 -13.5t-11 -53.5q0 -186 5 -259h-37q-1 3 -3.5 26.5t-6.5 58
t-8 60.5q-27 -62 -90 -104t-152 -42q-157 0 -243 89t-86 275q0 184 90.5 273t241.5 89q90 0 150.5 -35.5t85.5 -92.5q3 17 13 117h33q-10 -98 -8 -236q-18 2 -35 0q-13 96 -69.5 155t-165.5 59q-125 0 -191.5 -78t-66.5 -251t64 -251.5t187 -79.5z" />
    <glyph glyph-name="Gcommaaccent.round" horiz-adv-x="799" 
d="M308 -255q93 36 92 125q-10 -20 -38 -20q-17 0 -27.5 11t-10.5 30t12.5 32t33.5 13q27 0 39.5 -18.5t12.5 -46.5q0 -46 -26.5 -84t-80.5 -57zM379 15q100 -1 164 57.5t64 156.5q0 48 -12 64t-47 16h-64v35q92 -2 143 -2l142 2v-35h-50q-26 0 -37 -13.5t-11 -53.5
q0 -186 5 -259h-37q-1 3 -3.5 26.5t-6.5 58t-8 60.5q-27 -62 -90 -104t-152 -42q-157 0 -243 89t-86 275q0 184 90.5 273t241.5 89q90 0 150.5 -35.5t85.5 -92.5q3 17 13 117h33q-10 -98 -8 -236q-18 2 -35 0q-13 96 -69.5 155t-165.5 59q-125 0 -191.5 -78t-66.5 -251
t64 -251.5t187 -79.5z" />
    <glyph glyph-name="Gdotaccent.round" horiz-adv-x="799" 
d="M379 15q100 -1 164 57.5t64 156.5q0 48 -12 64t-47 16h-64v35q92 -2 143 -2l142 2v-35h-50q-26 0 -37 -13.5t-11 -53.5q0 -186 5 -259h-37q-1 3 -3.5 26.5t-6.5 58t-8 60.5q-27 -62 -90 -104t-152 -42q-157 0 -243 89t-86 275q0 184 90.5 273t241.5 89q90 0 150.5 -35.5
t85.5 -92.5q3 17 13 117h33q-10 -98 -8 -236q-18 2 -35 0q-13 96 -69.5 155t-165.5 59q-125 0 -191.5 -78t-66.5 -251t64 -251.5t187 -79.5zM428 818q0 -19 -13 -32t-32 -13t-31.5 13t-12.5 32t12.5 32t31.5 13t32 -13t13 -32z" />
    <glyph glyph-name="Sacute.round" horiz-adv-x="612" 
d="M292 751l-7 9q11 11 44.5 46t53.5 54.5t34 31.5q14 9 27.5 3.5t15 -18t-10.5 -23.5q-49 -36 -157 -103zM302 675q-85 0 -127 -37t-42 -99q0 -59 43 -91t153 -56q126 -26 179.5 -75t53.5 -134q0 -98 -61 -149.5t-170 -51.5q-154 0 -220 97q-21 -51 -27 -88h-32
q25 124 16 233h31q18 -211 231 -210q91 1 139 38.5t48 103.5q0 68 -47.5 102t-172.5 60q-109 22 -159 71.5t-50 129.5q0 84 56.5 136.5t159.5 52.5q136 0 186 -94q16 38 21 83h33q-17 -89 -9 -227h-28q-8 99 -60.5 152t-144.5 53z" />
    <glyph glyph-name="Scaron.round" horiz-adv-x="612" 
d="M174 911l7 9q62 -57 126 -123q52 55 126 123l7 -9q-28 -48 -116 -151h-34q-25 24 -62 72t-54 79zM302 675q-85 0 -127 -37t-42 -99q0 -59 43 -91t153 -56q126 -26 179.5 -75t53.5 -134q0 -98 -61 -149.5t-170 -51.5q-154 0 -220 97q-21 -51 -27 -88h-32q25 124 16 233h31
q18 -211 231 -210q91 1 139 38.5t48 103.5q0 68 -47.5 102t-172.5 60q-109 22 -159 71.5t-50 129.5q0 84 56.5 136.5t159.5 52.5q136 0 186 -94q16 38 21 83h33q-17 -89 -9 -227h-28q-8 99 -60.5 152t-144.5 53z" />
    <glyph glyph-name="Scedilla.round" horiz-adv-x="612" 
d="M302 675q-85 0 -127 -37t-42 -99q0 -59 43 -91t153 -56q126 -26 179.5 -75t53.5 -134q0 -94 -56 -145t-157 -55q-3 -37 -32 -60q45 7 80 -13t35 -63q0 -40 -29.5 -64t-81.5 -24q-71 0 -107 50l16 13q30 -35 78 -35q71 0 71 61q0 33 -29 47.5t-83 -4.5l-9 18q61 28 69 73
q-152 1 -216 97q-21 -51 -27 -88h-32q25 124 16 233h31q18 -211 231 -210q91 1 139 38.5t48 103.5q0 68 -47.5 102t-172.5 60q-109 22 -159 71.5t-50 129.5q0 84 56.5 136.5t159.5 52.5q136 0 186 -94q16 38 21 83h33q-17 -89 -9 -227h-28q-8 99 -60.5 152t-144.5 53z" />
    <glyph glyph-name="Scircumflex.round" horiz-adv-x="612" 
d="M444 757l-7 -9q-71 65 -126 124q-58 -62 -126 -124l-7 9q24 41 116 152h34q25 -25 62 -73.5t54 -78.5zM302 675q-85 0 -127 -37t-42 -99q0 -59 43 -91t153 -56q126 -26 179.5 -75t53.5 -134q0 -98 -61 -149.5t-170 -51.5q-154 0 -220 97q-21 -51 -27 -88h-32
q25 124 16 233h31q18 -211 231 -210q91 1 139 38.5t48 103.5q0 68 -47.5 102t-172.5 60q-109 22 -159 71.5t-50 129.5q0 84 56.5 136.5t159.5 52.5q136 0 186 -94q16 38 21 83h33q-17 -89 -9 -227h-28q-8 99 -60.5 152t-144.5 53z" />
    <glyph glyph-name="Scommaaccent.round" horiz-adv-x="612" 
d="M264 -252q93 36 92 125q-10 -20 -38 -20q-17 0 -27.5 11t-10.5 30t12.5 32t33.5 13q27 0 39.5 -18.5t12.5 -46.5q0 -46 -26.5 -84t-80.5 -57zM302 675q-85 0 -127 -37t-42 -99q0 -59 43 -91t153 -56q126 -26 179.5 -75t53.5 -134q0 -98 -61 -149.5t-170 -51.5
q-154 0 -220 97q-21 -51 -27 -88h-32q25 124 16 233h31q18 -211 231 -210q91 1 139 38.5t48 103.5q0 68 -47.5 102t-172.5 60q-109 22 -159 71.5t-50 129.5q0 84 56.5 136.5t159.5 52.5q136 0 186 -94q16 38 21 83h33q-17 -89 -9 -227h-28q-8 99 -60.5 152t-144.5 53z" />
    <glyph glyph-name="sacute.round" horiz-adv-x="449" 
d="M206 514l-7 9q11 11 44.5 46t53.5 54.5t34 31.5q14 9 27.5 3.5t15 -18t-10.5 -23.5q-49 -36 -157 -103zM359 303q-21 130 -141 130q-51 0 -81.5 -22.5t-30.5 -56.5q0 -40 30.5 -60t112.5 -35q86 -16 120.5 -49.5t34.5 -89.5q0 -67 -41 -102.5t-120 -35.5q-101 0 -151 76
q-16 -29 -22 -70h-23q14 90 5 168q2 -1 12.5 -1t12.5 1q37 -142 166 -142q56 0 86.5 22t30.5 61q0 41 -31 62t-117 36q-79 13 -115 47t-36 89q0 61 42.5 97.5t114.5 36.5q91 0 126 -59q15 26 23 60q2 -1 11.5 -1t11.5 1q-9 -53 -9.5 -83t3.5 -80h-25z" />
    <glyph glyph-name="scaron.round" horiz-adv-x="449" 
d="M87 674l7 9q62 -57 126 -123q52 55 126 123l7 -9q-28 -48 -116 -151h-34q-25 24 -62 72t-54 79zM359 303q-21 130 -141 130q-51 0 -81.5 -22.5t-30.5 -56.5q0 -40 30.5 -60t112.5 -35q86 -16 120.5 -49.5t34.5 -89.5q0 -67 -41 -102.5t-120 -35.5q-101 0 -151 76
q-16 -29 -22 -70h-23q14 90 5 168q2 -1 12.5 -1t12.5 1q37 -142 166 -142q56 0 86.5 22t30.5 61q0 41 -30.5 62t-117.5 36q-151 24 -151 136q0 61 42.5 97.5t114.5 36.5q91 0 126 -59q15 26 23 60q2 -1 11.5 -1t11.5 1q-9 -53 -9.5 -83t3.5 -80h-25z" />
    <glyph glyph-name="scedilla.round" horiz-adv-x="449" 
d="M359 303q-21 130 -141 130q-51 0 -81.5 -22.5t-30.5 -56.5q0 -40 30.5 -60t112.5 -35q86 -16 120.5 -49.5t34.5 -89.5q0 -66 -39.5 -101.5t-115.5 -36.5q-3 -36 -32 -59q45 7 80 -13t35 -63q0 -40 -29.5 -64t-81.5 -24q-71 0 -107 50l16 13q30 -35 78 -35q71 0 71 61
q0 33 -29 47.5t-83 -4.5l-9 18q33 15 48.5 32.5t20.5 41.5q-90 6 -135 75q-16 -29 -22 -70h-23q14 90 5 168q2 -1 12.5 -1t12.5 1q37 -142 166 -142q56 0 86.5 22t30.5 61q0 41 -31 62t-117 36q-79 13 -115 47t-36 89q0 61 42.5 97.5t114.5 36.5q91 0 126 -59q15 26 23 60
q2 -1 11.5 -1t11.5 1q-9 -53 -9.5 -83t3.5 -80h-25z" />
    <glyph glyph-name="scircumflex.round" horiz-adv-x="449" 
d="M365 523l-7 -9q-71 65 -126 124q-58 -62 -126 -124l-7 9q24 41 116 152h34q25 -25 62 -73.5t54 -78.5zM359 303q-21 130 -141 130q-51 0 -81.5 -22.5t-30.5 -56.5q0 -40 30.5 -60t112.5 -35q86 -16 120.5 -49.5t34.5 -89.5q0 -67 -41 -102.5t-120 -35.5q-101 0 -151 76
q-16 -29 -22 -70h-23q14 90 5 168q2 -1 12.5 -1t12.5 1q37 -142 166 -142q56 0 86.5 22t30.5 61q0 41 -31 62t-117 36q-79 13 -115 47t-36 89q0 61 42.5 97.5t114.5 36.5q91 0 126 -59q15 26 23 60q2 -1 11.5 -1t11.5 1q-9 -53 -9.5 -83t3.5 -80h-25z" />
    <glyph glyph-name="scommaaccent.round" horiz-adv-x="449" 
d="M174 -252q93 36 92 125q-10 -20 -38 -20q-17 0 -27.5 11t-10.5 30t12.5 32t33.5 13q27 0 39.5 -18.5t12.5 -46.5q0 -46 -26.5 -84t-80.5 -57zM359 303q-21 130 -141 130q-51 0 -81.5 -22.5t-30.5 -56.5q0 -40 30.5 -60t112.5 -35q86 -16 120.5 -49.5t34.5 -89.5
q0 -67 -41 -102.5t-120 -35.5q-101 0 -151 76q-16 -29 -22 -70h-23q14 90 5 168q2 -1 12.5 -1t12.5 1q37 -142 166 -142q56 0 86.5 22t30.5 61q0 41 -31 62t-117 36q-79 13 -115 47t-36 89q0 61 42.5 97.5t114.5 36.5q91 0 126 -59q15 26 23 60q2 -1 11.5 -1t11.5 1
q-9 -53 -9.5 -83t3.5 -80h-25z" />
    <glyph glyph-name="f.shy" horiz-adv-x="334" 
d="M27 451l101 -3v61q0 97 34 140t100 43q49 0 70.5 -26t21.5 -59q0 -57 -50 -57q-20 0 -32 11.5t-12 31.5q0 25 20 36.5t46 2.5q-19 36 -61 36q-44 0 -61.5 -35.5t-15.5 -120.5l1 -64l112 3v-31l-112 2v-348q0 -22 10.5 -32t36.5 -10h65v-34q-90 2 -140 2l-139 -2v34h67
q39 0 39 42q2 74 0 348l-101 -2v31z" />
    <glyph glyph-name="j.shy" horiz-adv-x="287" 
d="M69 -124q0 -16 -13 -27.5t-30 -9.5q14 -7 34 -7q36 0 52.5 29t16.5 109v400q0 26 -10.5 38.5t-37.5 12.5h-49v30q119 0 158 3v-117.5v-235v-130.5q0 -85 -33.5 -125t-92.5 -40q-40 0 -59.5 18t-19.5 46q0 22 12.5 34t30.5 12q41 0 41 -40zM199 611q0 -22 -15 -37.5
t-37 -15.5t-37.5 15.5t-15.5 37.5t15.5 37t37.5 15t37 -15t15 -37z" />
    <glyph glyph-name="f_f.shy" horiz-adv-x="658" 
d="M625 32v-34q-89 2 -139 2l-140 -2v34h68q39 0 39 42q2 74 0 349h-264v-350q0 -22 10.5 -32t36.5 -10h65v-33q-90 2 -140 2l-139 -2v33h67q39 0 39 42q2 85 0 349l-101 -2v31l101 -3v26q0 218 164 218q58 0 84 -26t26 -59q0 -57 -50 -57q-20 0 -32 11.5t-12 31.5
q0 25 18 36t44 5q-25 34 -76 34q-59 0 -83.5 -43.5t-22.5 -147.5l1 -29h264v61q-1 183 134 183q49 0 70.5 -25.5t21.5 -59.5q0 -57 -50 -57q-21 0 -33 11.5t-12 31.5q0 25 20 36.5t46 3.5q-20 35 -60 35q-41 0 -61 -35.5t-17 -120.5l2 -64l112 3v-31l-113 2q-2 -207 1 -348
q0 -22 10.5 -32t36.5 -10h64z" />
    <glyph glyph-name="f_idieresis" horiz-adv-x="666" 
d="M540 454v-369q0 -35 10 -44.5t41 -9.5h46v-32q-2 0 -51.5 1t-76.5 1q-21 0 -51.5 -0.5t-53.5 -1t-25 -0.5v32h55q27 0 35.5 10t9.5 43t1 146t-1 139q-1 28 -10.5 40t-39.5 12h-240v-348q0 -22 9 -32t35 -10h68v-32q-1 0 -55.5 1t-84.5 1q-22 0 -55 -0.5t-57.5 -1
t-26.5 -0.5v32h67q39 0 39 42q2 237 0 349l-101 -2v31l101 -3v33q-1 211 166 211q61 0 97 -28.5t36 -64.5q0 -23 -13 -36t-36 -13q-20 0 -32 11.5t-12 31.5q0 21 15 34t39 8q-31 33 -84 33q-61 0 -87.5 -39t-27.5 -142v-36q313 0 351 3zM624 594q0 -20 -11.5 -31.5
t-30.5 -11.5q-20 0 -32 11.5t-12 31.5t12 31.5t32 11.5q19 0 30.5 -11.5t11.5 -31.5z" />
    <glyph glyph-name="dollar.single" 
d="M316 787l-2 -113q86 -4 137 -39t51 -88q0 -25 -14.5 -39t-36.5 -14q-51 0 -51 48q0 20 13.5 33t37.5 13h2q-40 54 -140 59l-4 -255q2 -1 7 -1q119 -23 173 -68t54 -118q0 -88 -60 -137.5t-168 -52.5q0 -21 0.5 -59t0.5 -55q-3 1 -17.5 1t-16.5 -1l1 114q-104 3 -165 42
t-61 92q0 25 15 40t39 15q51 0 51 -50q0 -17 -13 -30.5t-35 -14.5q46 -60 170 -65l3 274q-1 0 -1 0.5t-1 0.5q-197 40 -197 181q0 77 54 124.5t142 50.5q-2 78 -2 112q2 -1 16.5 -1t17.5 1zM309 314q0 -25 2 -119.5t3 -150.5q86 2 134.5 38t48.5 94q0 50 -43 82.5t-145 55.5
zM287 397l-3 251q-75 -2 -113.5 -37t-38.5 -87q0 -51 32.5 -79t122.5 -48z" />
    <glyph glyph-name="two.alt" horiz-adv-x="523" 
d="M183 106l-91 -52h292q68 0 70 78v32h26q-4 -83 0 -166q-71 2 -98 2h-346v41l130 85q55 36 89 61t70.5 59.5t53.5 69.5t17 73q0 65 -35 104.5t-109 39.5q-60 0 -106.5 -25.5t-52.5 -81.5q13 10 34 10q49 0 49 -49q0 -20 -13.5 -33t-38.5 -13q-58 0 -58 72q0 61 52.5 105.5
t143.5 44.5q92 0 145 -43.5t53 -130.5q0 -41 -20.5 -79.5t-62 -74t-85.5 -64.5t-109 -65z" />
    <glyph glyph-name="seven.alt" horiz-adv-x="515" 
d="M224 -139h-23q-27 0 -27 65q0 142 50 269.5t180 272.5l28 32l-284 1q-37 0 -52.5 -14t-15.5 -46v-23h-25q5 87 3 154q21 -9 104 -9h251q37 0 52 16l15 -10q-18 -38 -24 -72l-31 -35q-68 -77 -104.5 -143t-56 -165t-12.5 -236q3 -57 -28 -57z" />
    </font>
</defs>
</svg>
