<?xml version="1.0" standalone="no"?>
<!DOCTYPE svg PUBLIC "-//W3C//DTD SVG 1.1//EN" "http://www.w3.org/Graphics/SVG/1.1/DTD/svg11.dtd" >
<svg>
<metadata>
Created by FontForge 20110222 at Mon Apr 21 12:35:57 2014
 By Orthosie Webhosting
(C)2010 House Industries/Brand Design Co., Inc. All Rights Reserved.
</metadata>
<defs>
<font id="EamesCenturyModernLightItalic" horiz-adv-x="600" >
  <font-face 
    font-family="EamesCenturyModernLightItalic"
    font-weight="300"
    font-style="italic"
    font-stretch="normal"
    units-per-em="1000"
    panose-1="2 0 4 3 7 7 5 2 2 3"
    ascent="820"
    descent="-180"
    x-height="465"
    cap-height="690"
    bbox="-218 -263 1160 1098.45"
    underline-thickness="50"
    underline-position="-50"
    slope="-10.54"
    unicode-range="U+0020-FB04"
  />
<missing-glyph horiz-adv-x="500" 
 />
    <glyph glyph-name="f_f" unicode="ff" horiz-adv-x="591" 
d="M602 682q-51 0 -85 -52.5t-55 -170.5l113 2l-5 -31l-113 2l-9 -73q-27 -222 -65 -347.5t-80.5 -168t-105.5 -42.5q-53 0 -75.5 26t-11.5 62q12 39 51 39q20 0 30 -13t6 -32q-5 -19 -25 -26t-36 1q7 -34 57 -34q39 0 66.5 21t46.5 67t30 105.5t21 151.5q15 150 43 264
h-220q-4 -25 -10 -74q-18 -168 -43 -280t-58 -171.5t-68 -83t-82 -23.5q-53 0 -75.5 26t-11.5 62q12 39 51 39q20 0 30 -13t6 -32q-5 -19 -25 -26t-36 1q7 -34 57 -34q39 0 66.5 21t46.5 67t30 105.5t21 151.5q15 149 43 263l-83 -2l4 32l86 -2q38 141 89.5 193.5
t110.5 52.5q45 0 67.5 -27t18.5 -69q-7 -66 -57 -66q-21 0 -33 11.5t-9 31.5q4 23 25 32.5t43 0.5q3 62 -60 62q-51 0 -85 -52.5t-55 -170.5h223q20 74 45 125t51.5 76.5t51 35.5t52.5 10q45 0 67.5 -27t18.5 -69q-7 -66 -57 -66q-21 0 -33 11.5t-9 31.5q4 23 25 32.5
t43 0.5q3 62 -60 62z" />
    <glyph glyph-name="f_i" unicode="fi" horiz-adv-x="539" 
d="M345 682q-61 0 -100 -52.5t-61 -170.5q98 1 271 1q-47 -186 -67 -301q-15 -82 -11 -112t34 -30q57 0 87 139l23 -2q-9 -69 -40.5 -120t-84.5 -51q-58 0 -72 43.5t6 120.5l59 283l-209 3q-4 -25 -10 -74q-18 -168 -43 -280t-58 -171.5t-68 -83t-82 -23.5q-53 0 -75.5 26
t-11.5 62q12 39 51 39q20 0 30.5 -13t5.5 -32t-25 -26.5t-36 0.5q7 -33 57 -33q39 0 66.5 21t46.5 67t30 105.5t21 151.5q15 149 43 263l-83 -2l4 32l86 -2q21 74 46.5 124.5t55.5 76t58.5 35.5t62.5 10q49 0 74.5 -27.5t21.5 -68.5q-7 -66 -57 -66q-21 0 -32.5 11.5
t-8.5 31.5q4 23 24.5 32t42.5 1q1 29 -16.5 45.5t-55.5 16.5z" />
    <glyph glyph-name="f_l" unicode="fl" horiz-adv-x="544" 
d="M345 682q-61 0 -100 -52.5t-61 -170.5l110 2l-6 -31l-109 2l-9 -73q-27 -222 -65 -347.5t-80.5 -168t-105.5 -42.5q-53 0 -75.5 26t-11.5 62q12 39 51 39q20 0 30.5 -13t5.5 -32t-25 -26.5t-36 0.5q7 -33 57 -33q39 0 66.5 21t46.5 67t30 105.5t21 151.5q15 149 43 263
l-83 -2l4 32l86 -2q21 74 46.5 124.5t55.5 76t58.5 35.5t62.5 10q60 0 85 -41l2 25h46q0 -49 -11 -95q-23 -103 -56 -285.5t-37 -222.5t2.5 -54t28.5 -14q57 0 85 137l23 -2q-10 -71 -41 -120.5t-87 -49.5q-42 0 -57.5 23.5t-10.5 73.5q2 18 89 467q-9 -4 -22 -4
q-21 0 -32.5 11.5t-8.5 31.5q4 23 24.5 32t42.5 1q1 29 -16.5 45.5t-55.5 16.5z" />
    <glyph glyph-name="f_f_i" unicode="ffi" horiz-adv-x="830" 
d="M624 682q-61 0 -100 -52.5t-61 -170.5q71 0 171 0.5t104 0.5q-48 -193 -70 -312q-6 -35 -8.5 -57t-0.5 -40t10.5 -26t24.5 -8q57 0 87 139l23 -2q-9 -69 -40.5 -120t-84.5 -51q-32 0 -50.5 13t-23 38t-2.5 51t10 62l59 283l-214 2l-9 -73q-27 -222 -65 -347.5t-80.5 -168
t-105.5 -42.5q-53 0 -75.5 26t-11.5 62q12 39 51 39q20 0 30.5 -13t5.5 -32t-25 -26.5t-36 0.5q7 -33 57 -33q39 0 66.5 21t46.5 67t30 105.5t21 151.5q15 149 43 263l-222 -1l-9 -72q-28 -222 -65.5 -347t-80 -168t-105.5 -43q-53 0 -75.5 26t-11.5 62q12 39 51 39
q20 0 30 -13t6 -32q-5 -19 -25 -26t-36 1q7 -34 57 -34q39 0 66.5 21t46.5 67t30 105.5t21 151.5q16 156 42 261h-82l4 30l86 -1q38 141 89 194t111 53q45 0 67.5 -27t18.5 -69q-7 -66 -57 -66q-21 0 -33 11.5t-9 31.5q4 23 25 32.5t43 0.5q3 62 -60 62q-51 0 -85 -52.5
t-55 -170.5h224q39 142 94.5 194.5t128.5 52.5q49 0 74.5 -27.5t21.5 -68.5q-7 -66 -57 -66q-21 0 -32.5 11.5t-8.5 31.5q4 23 24.5 32t42.5 1q1 29 -16.5 45.5t-55.5 16.5z" />
    <glyph glyph-name="f_f_l" unicode="ffl" horiz-adv-x="812" 
d="M324 682q-51 0 -85 -52t-55 -169h223q39 141 94.5 193t128.5 52q52 0 78 -32q0 3 0.5 8.5t0.5 7.5h46q2 -41 -10 -95q-23 -102 -56.5 -284.5t-37.5 -223.5q-4 -40 3 -54t28 -14q33 0 52.5 35.5t32.5 101.5l24 -2q-11 -71 -42 -120.5t-87 -49.5q-42 0 -57.5 23.5
t-9.5 73.5q3 30 87 464q-4 -1 -13 -1q-21 0 -32.5 11.5t-8.5 31.5q4 23 24.5 32t42.5 1q1 29 -16.5 45.5t-55.5 16.5q-61 0 -100 -52t-61 -169h104l-5 -31l-104 1l-9 -72q-28 -222 -65.5 -347t-80 -168t-105.5 -43q-53 0 -75.5 26t-11.5 62q12 39 51 39q20 0 30.5 -13
t5.5 -32t-25 -26.5t-36 0.5q7 -33 57 -33q39 0 66.5 21t46.5 67t30 105.5t21 151.5q15 149 43 263h-221l-9 -73q-27 -222 -65 -347.5t-80.5 -168t-105.5 -42.5q-53 0 -75.5 26t-11.5 62q12 39 51 39q20 0 30 -13t6 -32q-5 -19 -25 -26t-36 1q7 -34 57 -34q39 0 66.5 21
t46.5 67t30 105.5t21 151.5q15 150 43 262l-83 -1l4 32l86 -1q38 140 89.5 192.5t110.5 52.5q45 0 67.5 -27t18.5 -69q-7 -66 -57 -66q-21 0 -33 11.5t-9 31.5q4 23 25 32.5t43 0.5q3 62 -60 62z" />
    <glyph glyph-name="f_j" unicode="fj" horiz-adv-x="523" 
d="M345 682q-61 0 -100 -52.5t-61 -170.5q99 1 276 1q0 -2 -16.5 -94.5t-37.5 -204.5t-31 -160q-41 -207 -179 -207q-55 0 -78 25.5t-12 63.5q12 40 51 40q19 0 28.5 -11.5t4.5 -30.5q-6 -20 -25 -26.5t-37 1.5q2 -39 58 -39q54 0 82.5 42.5t47.5 145.5l81 425l-217 3
q-4 -25 -10 -74q-18 -168 -43 -280t-58 -171.5t-68 -83t-82 -23.5q-53 0 -75.5 26t-11.5 62q12 39 51 39q20 0 30.5 -13t5.5 -32t-25 -26.5t-36 0.5q7 -33 57 -33q39 0 66.5 21t46.5 67t30 105.5t21 151.5q15 149 43 263l-83 -2l4 32l86 -2q21 74 46.5 124.5t55.5 76
t58.5 35.5t62.5 10q49 0 74.5 -27.5t21.5 -68.5q-7 -66 -57 -66q-21 0 -32.5 11.5t-8.5 31.5q4 23 24.5 32t42.5 1q1 29 -16.5 45.5t-55.5 16.5z" />
    <glyph glyph-name="f_t" unicode="ft" horiz-adv-x="595" 
d="M39 430l4 32l86 -2q38 141 89.5 193.5t110.5 52.5q45 0 67.5 -27t18.5 -69q-7 -66 -57 -66q-21 0 -33 11.5t-9 31.5q4 23 25 32.5t43 0.5q3 62 -60 62q-51 0 -85 -52.5t-55 -170.5h150q64 5 94 37.5t43 102.5h25q-4 -16 -18 -70.5t-17 -70.5l106 3l-6 -31l-106 1
l-58 -292q-13 -78 -6.5 -100t33.5 -22q62 0 85 139l24 -2q-22 -171 -129 -171q-54 0 -70 41t2 115q7 33 30 142t31 149l-218 2l-9 -73q-27 -222 -65 -347.5t-80.5 -168t-105.5 -42.5q-53 0 -75.5 26.5t-11.5 61.5q10 39 51 39q20 0 30 -13t6 -32q-5 -19 -25 -26t-36 1
q7 -34 57 -34q39 0 66.5 21t46.5 67t30 105.5t21 151.5q15 149 43 263z" />
    <glyph glyph-name="t_t" unicode="tt" horiz-adv-x="597" 
d="M511 156l24 -2q-22 -171 -129 -171q-54 0 -70 41t2 115l61 292h-222l-58 -292q-14 -78 -7.5 -100t33.5 -22q63 0 86 139l23 -2q-22 -171 -129 -171q-54 0 -70 41t2 115q5 21 18 82.5t25 117.5t19 91h-80l4 28q75 1 99.5 30t53.5 127q3 9 4 13h25q-5 -21 -21.5 -84.5
t-19.5 -79.5l-2 -7h126q85 1 111.5 28.5t54.5 120.5q5 14 7 22h25q-4 -17 -14.5 -56t-18 -67.5t-9.5 -40.5l-1 -6l106 3l-6 -31l-106 1l-58 -292q-13 -78 -6.5 -100t33.5 -22q62 0 85 139z" />
    <glyph glyph-name=".notdef" horiz-adv-x="500" 
 />
    <glyph glyph-name=".null" horiz-adv-x="0" 
 />
    <glyph glyph-name="nonmarkingreturn" horiz-adv-x="333" 
 />
    <glyph glyph-name="space" unicode=" " horiz-adv-x="188" 
 />
    <glyph glyph-name="exclam" unicode="!" horiz-adv-x="277" 
d="M156 48q-1 -27 -18.5 -42.5t-42.5 -15.5t-41 15.5t-15 42.5q1 26 18.5 42t41.5 16q25 0 41.5 -16t15.5 -42zM133 205q-1 -10 -13 -10q-13 2 -10 14q24 131 33 207.5t6 163.5q-2 75 15 101.5t46 26.5q19 0 30.5 -13.5t10 -47t-22.5 -81.5q-35 -81 -54 -155.5t-41 -205.5z
" />
    <glyph glyph-name="quotedbl" unicode="&#x22;" horiz-adv-x="373" 
d="M96 436q-4 -13 -14 -13t-7 14q45 140 40 184q-3 36 10 55t36 19q15 0 22 -11.5t2 -32t-22 -42.5q-8 -10 -14 -20.5t-12 -24t-9.5 -22t-9 -26.5t-7.5 -24.5t-8 -28.5t-7 -27zM246 436q-4 -13 -14 -13t-7 14q45 140 40 184q-3 36 10 55t36 19q15 0 22 -11.5t2 -32
t-22 -42.5q-8 -10 -14 -20.5t-12 -24t-9.5 -22t-9 -26.5t-7.5 -24.5t-8 -28.5t-7 -27z" />
    <glyph glyph-name="numbersign" unicode="#" horiz-adv-x="597" 
d="M118 0h-26q24 74 71 233q-27 0 -69 -0.5t-57 -0.5q0 1 3.5 14t4.5 14q64 -2 125 -2q23 80 47 167q-28 0 -72 -0.5t-59 -0.5l4 13q3 13 3 14q68 -2 131 -2q46 173 63 239h28q-21 -63 -74 -239h177q44 171 60 239h27q-27 -86 -70 -239q61 0 127 2q0 -1 -4 -14l-3 -13
q-15 0 -57.5 0.5t-68.5 0.5l-46 -167q57 0 121 2q-1 -1 -4.5 -14t-3.5 -14q-14 0 -54 0.5t-65 0.5q-34 -126 -59 -233h-25q30 98 67 233h-180q-38 -130 -62 -233zM234 425q-23 -80 -47 -167h180l45 167h-178z" />
    <glyph glyph-name="dollar" unicode="$" 
d="M187 -99h-27l23 118q-75 11 -109 47.5t-25 82.5q9 49 61 49q23 0 35 -13.5t8 -32.5q-3 -18 -18 -30t-37 -12h-11q22 -51 102 -62l56 283q-149 53 -109 200q14 52 58.5 89.5t109.5 50.5l20 116h27l-22 -113q18 3 37 3q13 0 19 -1l19 111h27l-22 -113q66 -9 96.5 -44
t23.5 -83q-8 -50 -60 -50q-24 0 -35 13t-8 33q2 18 17 29.5t37 11.5q6 0 18 -2q-20 53 -94 64l-51 -262q104 -27 143 -74.5t26 -126.5q-11 -71 -73 -115.5t-162 -51.5l-20 -115h-27l23 114h-13q-15 0 -43 2zM469 174q5 50 -24 81.5t-106 51.5l-47 -262q82 7 127 41t50 88z
M182 533q-10 -46 7 -74.5t70 -48.5l40 232q-49 -12 -79 -41.5t-38 -67.5zM253 44h16l53 268q-40 8 -60 14l-50 -281q13 -1 41 -1zM276 403q27 -8 60 -15l44 260q-6 1 -19 1q-20 0 -38 -3z" />
    <glyph glyph-name="percent" unicode="%" 
d="M106 87q0 7 7 7t7 -7t-7 -7t-7 7zM143 140q0 11 11 11t11 -11t-11 -11t-11 11zM180 193q0 6 4.5 10.5t11.5 4.5q6 0 10.5 -4.5t4.5 -10.5q0 -7 -4.5 -11.5t-10.5 -4.5q-16 0 -16 16zM218 245q0 7 5.5 13t12.5 6q8 0 14 -5.5t6 -13.5q0 -7 -6 -12.5t-14 -5.5
q-7 0 -12.5 5.5t-5.5 12.5zM257 298q0 8 6.5 14t14.5 6t14 -6t6 -14t-6 -14.5t-14 -6.5t-14.5 6.5t-6.5 14.5zM298 351q0 8 6 14t15 6t15.5 -6t6.5 -14q0 -9 -6.5 -15.5t-15.5 -6.5t-15 6.5t-6 15.5zM340 403q0 8 6 14.5t14 6.5t14.5 -6.5t6.5 -14.5t-6.5 -14t-14.5 -6
t-14 6t-6 14zM382 456q0 7 6 12.5t14 5.5t13 -5t5 -13t-5.5 -13.5t-12.5 -5.5q-8 0 -14 5.5t-6 13.5zM427 508q0 7 4.5 11.5t10.5 4.5q16 0 16 -16q0 -6 -4.5 -10.5t-11.5 -4.5q-6 0 -10.5 4.5t-4.5 10.5zM473 561q0 11 11 11t11 -11t-11 -11t-11 11zM518 614q0 7 7 7t7 -7
q0 -8 -7 -8t-7 8zM367 -18q39 0 66.5 31.5t45.5 109.5q16 83 3.5 113t-50.5 30q-39 0 -66 -32t-45 -111q-16 -83 -4 -112t50 -29zM366 -36q-60 0 -85 40t-9 119q17 81 60.5 120.5t101.5 39.5q62 0 86 -41.5t7 -118.5q-17 -80 -59.5 -119.5t-101.5 -39.5zM194 414
q40 0 67.5 31.5t45.5 109.5q16 83 3.5 113t-50.5 30q-40 0 -67 -31.5t-44 -111.5q-16 -83 -4 -112t49 -29zM193 396q-59 0 -84 40t-9 119q17 81 60 120.5t102 39.5q61 0 85.5 -41.5t7.5 -118.5q-16 -80 -59.5 -119.5t-102.5 -39.5z" />
    <glyph glyph-name="ampersand" unicode="&#x26;" horiz-adv-x="716" 
d="M671 107q-13 -52 -49 -84.5t-98 -32.5q-81 0 -139 59q-88 -67 -199 -67q-99 0 -140 51t-30 126q22 129 196 191q-41 114 -27 199q11 70 58.5 110.5t117.5 40.5t102 -40.5t24 -99.5q-19 -133 -206 -212q18 -40 42 -87q54 -104 93 -151q76 69 100 165q12 42 -25 42h-48
l2 33q70 -2 109 -2l110 2l-3 -33h-51q-20 0 -30.5 -9.5t-17.5 -30.5q-38 -111 -127 -188q53 -53 117 -53q72 0 98 75zM210 19q86 2 156 50q-44 54 -103 168q-23 43 -42 89q-64 -29 -97 -62t-43 -84q-13 -65 20 -113t109 -48zM243 551q-11 -76 30 -181q76 34 112 77.5
t46 110.5q16 114 -72 114q-97 0 -116 -121z" />
    <glyph glyph-name="quotesingle" unicode="'" horiz-adv-x="223" 
d="M96 436q-4 -13 -14 -13t-7 14q45 140 40 184q-3 36 10 55t36 19q15 0 22 -11.5t2 -32t-22 -42.5q-8 -10 -14 -20.5t-12 -24t-9.5 -22t-9 -26.5t-7.5 -24.5t-8 -28.5t-7 -27z" />
    <glyph glyph-name="parenleft" unicode="(" horiz-adv-x="270" 
d="M115 331q-52 -362 43 -530l-15 -11q-65 88 -91 230.5t-2 310.5q46 328 243 520l12 -11q-74 -87 -120 -210.5t-70 -298.5z" />
    <glyph glyph-name="parenright" unicode=")" horiz-adv-x="270" 
d="M157 331q49 346 -44 509l15 11q66 -89 91.5 -222t2.5 -298q-26 -177 -89.5 -318.5t-153.5 -229.5l-12 11q77 91 120 220.5t70 316.5z" />
    <glyph glyph-name="asterisk" unicode="*" horiz-adv-x="500" 
d="M340 597q-8 -16 -15 -62l14 -12q33 14 58 30q8 5 25.5 21.5t31.5 22.5q18 6 31 0.5t18 -18.5t-1.5 -26t-24.5 -19q-14 -5 -36.5 -4t-35.5 0q-24 -3 -63 -19l-3 -17q34 -26 56 -36q7 -3 31 -10.5t36 -16.5q15 -11 17 -26.5t-8 -25.5q-22 -25 -52 1q-11 9 -23.5 31.5
t-16.5 28.5q-13 16 -46 44l-17 -7q-5 -37 -4 -65q1 -10 6.5 -33t3.5 -38q-3 -19 -14.5 -27.5t-25.5 -6.5t-22 14t-4 31q3 14 16 36t16 29q12 30 16 62l-16 11q-32 -12 -57 -28q-6 -4 -24.5 -21.5t-32.5 -22.5q-18 -7 -31 -1.5t-18 18.5q-11 32 26 45q14 5 36.5 4t35.5 0
q24 3 62 18l3 19q-28 21 -55 35q-5 2 -30 10.5t-37 17.5q-31 25 -9 51q21 25 52 0q11 -10 23 -32t17 -28q12 -17 47 -46l16 8q6 31 4 65q-1 9 -6 32.5t-3 38.5q2 19 13.5 27.5t25.5 6.5t22 -14t4 -31q-3 -15 -16.5 -37t-15.5 -28z" />
    <glyph glyph-name="plus" unicode="+" 
d="M275 26h-43q41 174 56 215q-52 -7 -216 -12l9 43q163 -5 211 -13q2 54 31 214h43q-43 -176 -56 -214q53 8 217 13l-9 -43q-172 5 -212 12q-2 -43 -31 -215z" />
    <glyph glyph-name="comma" unicode="," horiz-adv-x="242" 
d="M81 17q-19 0 -28.5 11t-7.5 31t16 33.5t36 13.5q54 0 49 -71q-5 -60 -51.5 -109t-123.5 -67l-7 18q65 17 109 56.5t47 102.5q-12 -19 -39 -19z" />
    <glyph glyph-name="hyphen" unicode="-" horiz-adv-x="323" 
d="M31 211q2 22 2 48q131 -4 263 0q-2 -12 -2 -48q-132 4 -263 0z" />
    <glyph glyph-name="period" unicode="." horiz-adv-x="231" 
d="M139 48q-3 -27 -21 -42.5t-43 -15.5q-24 0 -39 15.5t-13 42.5q2 26 20 42t43 16t40 -16t13 -42z" />
    <glyph glyph-name="slash" unicode="/" horiz-adv-x="378" 
d="M365 691q-63 -157 -166.5 -433.5t-157.5 -432.5q-8 1 -23.5 1t-23.5 -1q62 154 165.5 431t158.5 435q7 -1 23.5 -1t23.5 1z" />
    <glyph glyph-name="zero" unicode="0" horiz-adv-x="528" 
d="M211 14q91 0 139.5 68.5t70.5 219.5q32 234 -107 234q-166 0 -208 -289q-18 -126 9 -179.5t96 -53.5zM209 -13q-103 0 -148 69t-26 200q9 60 29 112.5t52.5 97.5t83.5 71t114 26q101 0 147 -70.5t29 -195.5q-9 -65 -28.5 -118.5t-52.5 -97.5t-84 -69t-116 -25z" />
    <glyph glyph-name="one" unicode="1" horiz-adv-x="406" 
d="M138 78q36 171 64 345q-60 -4 -124 -4q7 14 7 32h25q74 0 108 30t54 97q4 -1 17.5 -1t16.5 1q-27 -82 -50 -209l-53 -291q-4 -25 6.5 -34.5t45.5 -9.5h62q-3 -6 -3 -36q-97 2 -153 2l-153 -2l3 36h61q34 0 47.5 9t18.5 35z" />
    <glyph glyph-name="two" unicode="2" horiz-adv-x="511" 
d="M457 183q14 -84 -22.5 -144t-115.5 -60q-43 0 -72 15.5t-64 49.5q-26 27 -45.5 37t-46.5 9q-50 0 -56 -46q14 7 23 7q37 0 35 -37q0 -16 -10.5 -25.5t-27.5 -9.5q-22 0 -33 20.5t-4 56.5q12 57 65.5 99t156.5 81q142 53 160 146q14 71 -16.5 112.5t-99.5 41.5
q-58 0 -103 -26.5t-58 -83.5q12 6 28 6q23 0 35 -13.5t10 -35.5q-5 -45 -56 -45q-28 0 -42.5 22t-4.5 66q13 59 66.5 99.5t133.5 40.5q101 0 145.5 -52t27.5 -131q-13 -65 -64.5 -104.5t-152.5 -69.5q-141 -41 -182 -98q21 11 45 12q55 1 108 -32q65 -40 124 -40
q97 0 91 131z" />
    <glyph glyph-name="three" unicode="3" horiz-adv-x="562" 
d="M496 387q-12 -65 -56.5 -110t-114.5 -57q80 -5 120 -55.5t26 -127.5q-17 -96 -93.5 -147.5t-197.5 -51.5q-105 0 -150 45.5t-34 105.5q13 71 74 71q25 0 38 -13.5t10 -35.5q-6 -45 -54 -45q-26 0 -38 14q-7 -58 36.5 -86t118.5 -28q184 0 215 164q32 171 -161 171h-30
l6 32h31q86 0 128 36.5t57 117.5q13 69 -20.5 109t-100.5 40q-55 0 -105.5 -26t-66.5 -83q13 5 29 5q22 0 34 -13.5t10 -35.5q-4 -45 -56 -45q-26 0 -42 17.5t-7 59.5q13 67 71.5 109t147.5 42q93 0 141.5 -48t33.5 -131z" />
    <glyph glyph-name="four" unicode="4" horiz-adv-x="552" 
d="M264 -58q1 8 9.5 50t13.5 69q-115 1 -290 -1l7 33q250 285 410 476h33q-29 -131 -92 -478l136 3l-3 -37l-139 2l-20 -117q-4 -24 6 -31.5t40 -7.5h51l-2 -33q-80 2 -137 2l-142 -2l2 33h51q36 0 49 7.5t17 31.5zM363 470q-167 -194 -319 -380q120 -2 249 0z" />
    <glyph glyph-name="five" unicode="5" horiz-adv-x="553" 
d="M274 262q-41 0 -78 -11t-57 -22.5t-46 -30.5l-17 16q91 159 102 359q70 -27 166 -27q87 0 164 38l11 -15q-36 -51 -79.5 -71.5t-110.5 -20.5q-87 0 -132 30q-25 -155 -80 -267q80 54 179 54q219 0 179 -225q-19 -104 -98.5 -168t-192.5 -64q-100 0 -146 44t-33 110
q6 34 27 52t45 18t37 -12t12 -35q-1 -22 -15.5 -35t-37.5 -13q-25 0 -38 15q-7 -56 33.5 -85t116.5 -29q178 0 214 202q36 193 -125 193z" />
    <glyph glyph-name="six" unicode="6" horiz-adv-x="574" 
d="M399 683q-101 0 -162.5 -81.5t-93.5 -258.5q31 44 85.5 69.5t117.5 25.5q103 0 150 -59.5t29 -157.5q-21 -113 -90 -175t-180 -62q-249 0 -189 337q35 192 126 290.5t211 98.5q88 0 126 -44t27 -104q-12 -72 -75 -72q-23 0 -36 14.5t-9 35.5q3 19 18.5 31.5t39.5 12.5
q18 0 31 -9q6 54 -27 81t-99 27zM124 221q-15 -100 20 -153t119 -53q158 0 194 203q16 89 -16 140t-109 51q-82 0 -138 -46.5t-70 -141.5z" />
    <glyph glyph-name="seven" unicode="7" horiz-adv-x="530" 
d="M133 580l-10 -65q40 52 111 52q57 0 114 -48q46 -40 65 -47q16 -6 35 -6q17 0 30 11t15 31q-4 -2 -15 -2q-16 0 -25.5 10t-8.5 26q1 17 12 26.5t26 9.5q17 0 27.5 -13t8.5 -38q-3 -37 -21.5 -69t-58.5 -71q-65 -63 -105 -109t-76.5 -104.5t-50.5 -121.5t-9 -137
q4 -64 -35 -64q-45 0 -45 69q0 221 283 465q4 4 17 14.5t20 16.5t16.5 16.5t16.5 19.5q-28 -23 -74 -23q-23 0 -45.5 7t-37.5 15t-40 24q-50 33 -84 33q-73 0 -93 -115h-30q31 110 37 187q2 -1 14.5 -1t15.5 1z" />
    <glyph glyph-name="eight" unicode="8" horiz-adv-x="588" 
d="M247 -15q-119 0 -171.5 47.5t-40.5 132.5q10 64 59.5 115t119.5 73q-92 64 -70 181q15 80 79.5 128t152.5 48q95 0 141.5 -48t33.5 -119q-19 -110 -149 -180q138 -66 116 -192q-16 -85 -91 -135.5t-180 -50.5zM293 316q-39 13 -60 26q-132 -54 -148 -178
q-10 -69 33.5 -108.5t133.5 -39.5q89 0 148 37t69 89q11 63 -25.5 100t-150.5 74zM346 386q22 -8 33 -13q109 73 126 170q10 58 -22.5 98t-112.5 40q-77 0 -126 -38t-58 -92q-10 -59 24.5 -95t135.5 -70z" />
    <glyph glyph-name="nine" unicode="9" horiz-adv-x="624" 
d="M203 -133q107 0 166 74t91 253q-68 -92 -200 -92q-108 0 -151.5 60t-25.5 162q19 107 94 173t183 66q114 0 162.5 -82t18.5 -254q-68 -389 -339 -389q-98 0 -145 42.5t-35 106.5q7 39 27.5 56.5t45.5 17.5q23 0 36 -14t10 -36q-8 -48 -60 -45q-21 3 -31 12
q-7 -54 36.5 -82.5t116.5 -28.5zM484 323q16 93 -16 152t-114 59q-83 0 -134.5 -57t-67.5 -150q-17 -93 15 -144t108 -51q81 0 136.5 47t72.5 144z" />
    <glyph glyph-name="colon" unicode=":" horiz-adv-x="230" 
d="M189 344q-3 -24 -19.5 -38t-39.5 -14t-36.5 14t-9.5 38q3 24 19.5 38t39.5 14t36 -14t10 -38zM146 109q-3 -25 -19.5 -38.5t-39.5 -13.5t-36 13.5t-10 38.5q4 24 20.5 38t38.5 14q23 0 36.5 -14.5t9.5 -37.5z" />
    <glyph glyph-name="semicolon" unicode=";" horiz-adv-x="230" 
d="M77 54q-18 0 -28 11t-8 32q2 19 16 32.5t36 13.5q54 0 49 -71q-5 -60 -51.5 -109t-123.5 -66l-7 17q66 17 109 56.5t47 102.5q-12 -19 -39 -19zM192 344q-3 -24 -19.5 -38t-39.5 -14t-36.5 14t-9.5 38q3 24 20 38t40 14t35.5 -14t9.5 -38z" />
    <glyph glyph-name="less" unicode="&#x3c;" 
d="M134 238l4 22q184 100 319 196l21 -36q-58 -42 -152.5 -92.5t-162.5 -78.5q53 -26 123.5 -76.5t118.5 -96.5l-32 -34q-40 41 -118 105.5t-121 90.5z" />
    <glyph glyph-name="equal" unicode="=" 
d="M59 152l9 42q219 -4 440 0l-9 -42q-217 4 -440 0zM91 308l9 42q219 -4 440 0l-9 -42q-218 4 -440 0z" />
    <glyph glyph-name="greater" unicode="&#x3e;" 
d="M438 260l-4 -22q-176 -95 -319 -196l-21 35q57 41 154 93.5t162 79.5q-50 24 -124.5 77t-117.5 97l31 32q38 -41 116 -105t123 -91z" />
    <glyph glyph-name="question" unicode="?" horiz-adv-x="515" 
d="M342 281l12 -19q-64 -77 -139 -75q-53 2 -55 47q0 28 25.5 51t95.5 58q81 39 119 82t42 107q7 144 -139 144q-62 0 -115 -27t-67 -84q18 13 42 13q22 -1 33.5 -15t8.5 -35q-3 -23 -19 -35.5t-40 -12.5q-27 0 -43.5 18t-10.5 58q10 65 73.5 108.5t155.5 43.5
q102 0 148 -46t39 -119q-6 -72 -57.5 -122.5t-147.5 -94.5q-65 -30 -90 -49t-24 -39q2 -25 32 -25q57 -2 121 68zM275 48q-1 -27 -18.5 -42.5t-42.5 -15.5t-41 15.5t-15 42.5q1 26 18.5 42t42.5 16t41 -16t15 -42z" />
    <glyph glyph-name="at" unicode="@" horiz-adv-x="820" 
d="M603 437q-34 -133 -54 -233q-29 -132 58 -132q50 0 83.5 43t49.5 109q40 170 -30.5 269t-227.5 99q-147 0 -245 -82.5t-131 -240.5q-41 -196 38.5 -292.5t240.5 -96.5q59 0 119 15.5t87 34.5l12 -15q-37 -28 -97.5 -44t-119.5 -16q-190 0 -282 111t-50 304
q35 164 152 255.5t275 91.5q174 0 250.5 -108t34.5 -287q-41 -178 -179 -178q-52 0 -81 27t-26 79q-23 -46 -60 -71.5t-75 -25.5q-58 0 -88 40.5t-18 122.5q17 107 71.5 168.5t121.5 61.5q43 0 69 -23.5t28 -64.5q22 42 36 79q3 -1 19 -1t19 1zM366 86q44 0 82 49.5
t57 147.5q14 66 -4 98t-59 32q-45 0 -83 -47.5t-56 -145.5q-22 -134 63 -134z" />
    <glyph glyph-name="A" unicode="A" horiz-adv-x="835" 
d="M548 230q-158 4 -301 0q-59 -100 -68 -118q-24 -39 -13.5 -58t60.5 -19h51l-3 -37q-93 2 -145 2l-146 -2l3 37h34q47 0 69.5 12.5t49.5 61.5q1 2 165.5 280.5t175.5 302.5h12q11 -1 16 -1l27 1q53 -325 105 -583q9 -47 23.5 -60.5t62.5 -13.5h43l-3 -37q-101 2 -158 2
l-158 -2l3 37h46q51 0 63 15.5t5 62.5q-18 109 -19 117zM265 261q134 -2 278 0q-33 207 -63 367z" />
    <glyph glyph-name="B" unicode="B" horiz-adv-x="707" 
d="M632 179q-15 -89 -90 -134.5t-227 -45.5q-135 1 -172 1l-153 -2l2 37h61q39 0 50.5 7t17.5 33q8 35 51.5 270t46.5 262t-6.5 37.5t-37.5 10.5h-72q1 1 2 17t1 18q8 0 80.5 -1t82.5 -1q24 0 88.5 0.5t83.5 0.5q119 0 176 -48.5t43 -133.5q-10 -57 -57.5 -97.5
t-114.5 -55.5q76 -13 115.5 -59t28.5 -116zM365 338h-132q-45 -242 -46 -266q-2 -25 7 -32t39 -7h82q119 0 175.5 36.5t70.5 113.5q14 75 -31.5 115t-164.5 40zM286 611q-8 -31 -48 -245h124q206 0 230 149q11 66 -29.5 104.5t-130.5 38.5h-90q-25 0 -37 -10.5t-19 -36.5z
" />
    <glyph glyph-name="C" unicode="C" horiz-adv-x="727" 
d="M456 708q102 0 175 -47q48 -31 62 29q3 -1 19 -1t19 1q-46 -103 -55 -228h-33q18 106 -25 159.5t-159 53.5q-125 0 -213 -80t-119 -249q-16 -77 -12 -133.5t19 -94.5t45.5 -60.5t66.5 -32.5t83 -10q70 0 121 17t83 52t50.5 74t32.5 96q1 0 9 -0.5t13 -0.5t13 0.5t9 0.5
q-34 -149 -113.5 -211t-228.5 -62q-157 0 -226 89t-35 276q34 185 140.5 273.5t258.5 88.5z" />
    <glyph glyph-name="D" unicode="D" horiz-adv-x="781" 
d="M438 689q358 0 300 -348q-59 -342 -427 -342q-14 0 -81.5 0.5t-85.5 0.5q-19 0 -81 -0.5t-73 -0.5l2 36h62q35 0 47 7.5t19 32.5q7 33 51 268t48 263q4 30 -4.5 39.5t-39.5 9.5h-72l3 35l32 -1q31 -1 70.5 -1.5t60.5 -0.5q22 0 85.5 1t83.5 1zM187 82q-4 -29 4.5 -39
t35.5 -10h79q73 0 127.5 13.5t102.5 47t80.5 95t50.5 152.5q14 91 9 152t-39.5 97.5t-85.5 51.5t-128 15h-81q-25 0 -38 -10.5t-19 -37.5q-7 -28 -50 -259.5t-48 -267.5z" />
    <glyph glyph-name="E" unicode="E" horiz-adv-x="716" 
d="M478 492l2 15h34q-23 -89 -36 -155q-13 -69 -22 -160h-33l2 16q13 78 -8 103.5t-102 25.5h-83q-45 -237 -46 -260q-2 -25 8 -33.5t41 -8.5h206q94 0 123.5 31t50.5 146l3 16h37q-18 -76 -46 -232q-44 4 -199 4h-249q-107 0 -171 -2l3 37h63q31 0 45 10t21 36
q5 22 49 259.5t48 265.5q4 29 -5.5 39t-37.5 10h-72l3 35q8 0 77.5 -1t79.5 -1h304q97 0 153 7q-35 -181 -41 -227h-33l6 29q23 89 5.5 123t-99.5 34h-213q-29 0 -42 -9t-20 -39q-8 -35 -46 -240h84q86 0 113 22.5t43 103.5z" />
    <glyph glyph-name="F" unicode="F" horiz-adv-x="698" 
d="M480 507h34q-20 -78 -36 -156q-13 -63 -22 -159h-33l3 19q12 74 -6.5 100t-92.5 26h-95q-41 -217 -46 -263q-2 -25 7 -32t43 -7h78l-2 -37q-101 2 -158 2q-98 0 -164 -2l3 37h62q33 0 46 7.5t20 32.5q6 26 51 265t48 266q4 29 -6 39t-37 10h-73l3 35q5 0 70 -1t88 -1h274
q127 0 182 7q-2 -10 -19.5 -103t-21.5 -124h-33l6 32q9 45 10 71.5t-3.5 44.5t-23 25.5t-41 10t-65.5 2.5h-184q-29 0 -42 -9.5t-20 -38.5q-10 -41 -46 -240h80q90 0 117 22t42 102z" />
    <glyph glyph-name="G" unicode="G" horiz-adv-x="805" 
d="M327 14q94 -2 169.5 57.5t93.5 155.5q9 48 0.5 65t-43.5 17h-63l2 34q92 -2 143 -2l143 2l-2 -34h-49q-26 0 -38 -11.5t-20 -41.5q-32 -118 -38 -257h-38l1 129q-37 -62 -109.5 -104.5t-161.5 -42.5q-325 0 -260 365q17 94 55.5 165t93 113.5t118 63t135.5 20.5
q102 0 175 -47q20 -15 38.5 -8.5t25.5 37.5q3 -1 19 -1t19 1q-47 -102 -56 -228h-33q18 107 -24 160t-163 53q-126 0 -213.5 -79.5t-119.5 -249.5q-32 -176 20 -253t180 -79z" />
    <glyph glyph-name="H" unicode="H" horiz-adv-x="845" 
d="M-10 -2l2 37h63q35 0 47 7t19 33q7 28 52 266t47 265q2 29 -7 39t-36 10h-72l2 35q101 -2 156 -2q33 0 93.5 1t63.5 1l-3 -35h-72q-27 0 -40 -10t-20 -39q-8 -29 -49 -251q193 -2 393 0q43 229 45 251q3 29 -6.5 39t-36.5 10h-73l3 35q100 -2 157 -2q33 0 93.5 1t63.5 1
l-3 -35h-73q-28 0 -41 -10t-20 -39q-8 -32 -53 -269.5t-46 -261.5q-1 -25 8 -32.5t44 -7.5h67l-2 -37q-100 2 -156 2l-158 -2l3 37h64q35 0 47 7.5t19 32.5q8 30 48 249q-199 4 -393 0q-43 -232 -44 -249q-2 -25 7.5 -32.5t44.5 -7.5h65l-2 -37q-100 2 -156 2z" />
    <glyph glyph-name="I" unicode="I" horiz-adv-x="390" 
d="M-11 -2l2 37h63q36 0 48.5 7t17.5 33q7 25 51.5 263t48.5 268q3 29 -6.5 39t-37.5 10h-72l3 35q100 -2 156 -2q34 0 93.5 1t62.5 1l-2 -35h-72q-28 0 -41 -10t-20 -39t-51.5 -267t-47.5 -264q-2 -25 7.5 -32.5t44.5 -7.5h65l-2 -37q-99 2 -155 2z" />
    <glyph glyph-name="J" unicode="J" horiz-adv-x="579" 
d="M66 109q-21 0 -33 12q-4 -50 26 -80.5t92 -30.5q80 0 122.5 47t64.5 157q69 352 72 392q3 29 -6.5 39t-36.5 10h-69l3 35q28 -2 153 -2q24 0 58.5 0.5t63 1t32.5 0.5l-3 -35h-70q-27 0 -40 -10t-20 -39l-73 -391q-23 -122 -81.5 -180t-169.5 -58q-84 0 -121 46.5
t-25 106.5q6 34 25 54t46 20q25 0 37 -14t8 -36q-7 -45 -55 -45z" />
    <glyph glyph-name="K" unicode="K" horiz-adv-x="806" 
d="M-10 -2l3 37h60q38 0 49 7.5t19 35.5q8 30 52 265.5t46 261.5q3 28 -7 39t-37 11h-71l2 35q138 -2 157 -2q25 0 60 0.5t63.5 1t32.5 0.5l-3 -35h-72q-26 0 -39.5 -11t-20.5 -39q-7 -25 -59 -303l364 298q28 24 21.5 39.5t-44.5 15.5h-48l3 35q100 -2 157 -2q33 0 93 1
t63 1l-3 -35h-40q-51 0 -83 -12t-86 -56l-225 -181q126 -206 198 -314q25 -37 39 -47t51 -10h49l-3 -37q-100 2 -157 2l-157 -2l3 37h46q43 0 56 11.5t-3 41.5q-92 159 -172 278l-129 -104q-31 -169 -32 -184q-2 -26 7.5 -34.5t46.5 -8.5h64l-3 -37q-99 2 -155 2z" />
    <glyph glyph-name="L" unicode="L" horiz-adv-x="641" 
d="M420 690l-3 -35h-71q-28 0 -41 -10t-20 -39q-8 -28 -52.5 -266.5t-46.5 -264.5q-2 -25 7.5 -32.5t41.5 -7.5h134q90 1 124.5 28.5t53.5 114.5l12 58h36q0 -2 -24.5 -115t-26.5 -125q-47 4 -199 4h-200l-155 -2l2 37h64q35 0 47 7.5t18 32.5q7 30 51.5 267t47.5 264
q3 29 -6.5 39t-36.5 10h-72l2 35q105 -2 157 -2q25 0 62.5 0.5t65 1t28.5 0.5z" />
    <glyph glyph-name="M" unicode="M" horiz-adv-x="972" 
d="M414 55q-59 221 -156 557q-72 -360 -95 -516q-9 -61 48 -61h64l-2 -37q-89 2 -142 2l-139 -2l3 37h48q42 0 58.5 13.5t24.5 47.5q7 31 49 257t45 252q4 28 -6.5 39t-37.5 11h-69l3 35q13 -1 98.5 -1t99.5 1q46 -189 150 -545q302 460 354 545q35 -2 100 -2t87 2l-2 -35
h-71q-27 0 -41 -11t-21 -40t-50.5 -263t-46.5 -261q-3 -26 7 -35.5t44 -9.5h67l-2 -37q-138 2 -157 2l-155 -2l3 37h62q34 0 48 10.5t20 37.5q25 109 99 535q-345 -529 -366 -563h-23z" />
    <glyph glyph-name="N" unicode="N" horiz-adv-x="828" 
d="M301 690q24 -54 286 -592q87 438 95 507q3 29 -6.5 39.5t-37.5 10.5h-72l2 35q3 0 60 -1t88 -1q32 0 87 1l55 1l-3 -35h-71q-28 0 -41 -10.5t-20 -39.5q-8 -28 -51 -258t-64 -350h-48q-29 65 -300 621q-24 -116 -59 -305t-39 -221q-8 -57 53 -57h62l-2 -37q-129 2 -145 2
l-140 -2l3 37h55q35 0 52.5 13t24.5 44q8 33 50.5 260.5t44.5 253.5q3 29 -6.5 39t-37.5 10h-72l2 35q12 -1 97.5 -1t97.5 1z" />
    <glyph glyph-name="O" unicode="O" horiz-adv-x="779" 
d="M332 10q123 0 211.5 83.5t120.5 253.5q62 329 -205 329q-123 0 -210.5 -79.5t-119.5 -250.5q-35 -180 17.5 -258t185.5 -78zM326 -23q-164 0 -232.5 94.5t-36.5 274.5q32 172 142 267t266 95q160 0 231 -92.5t39 -268.5q-33 -177 -145.5 -273.5t-263.5 -96.5z" />
    <glyph glyph-name="P" unicode="P" horiz-adv-x="665" 
d="M325 248q-6 0 -49 0.5t-59 0.5q-29 -155 -30 -170q-2 -27 8 -35.5t46 -8.5h63l-3 -37q-93 2 -154 2l-156 -2l3 37h60q35 0 48.5 8.5t19.5 33.5q6 27 50.5 264t48.5 265q3 29 -6.5 39t-37.5 10h-72l2 35q1 0 28 -0.5t64.5 -1t63.5 -0.5h149q145 0 208.5 -57.5t41.5 -178.5
q-37 -204 -337 -204zM286 603q-9 -35 -63 -319h109q121 0 182.5 40t78.5 129q20 108 -22 155t-161 47h-64q-26 0 -39 -11t-21 -41z" />
    <glyph glyph-name="Q" unicode="Q" horiz-adv-x="779" 
d="M326 -23q-164 0 -233 94.5t-36 274.5q31 172 141 267t267 95q160 0 231 -92.5t39 -268.5q-26 -141 -105 -232.5t-191 -122.5q-8 -95 5.5 -135t65.5 -40q49 0 75.5 38.5t30.5 108.5l28 -2q-14 -184 -157 -184q-82 0 -106 49t-5 153q-26 -3 -50 -3zM332 216q125 0 111 -187
q81 31 138.5 110.5t82.5 207.5q62 329 -205 329q-123 0 -210 -79.5t-120 -250.5q-51 -267 97 -321q-31 31 -22 89q7 44 41 73t87 29zM332 10q29 0 50 4q17 98 2 138t-62 40q-78 0 -94 -83q-7 -44 17 -71.5t85 -27.5h2z" />
    <glyph glyph-name="R" unicode="R" horiz-adv-x="754" 
d="M544 181q-9 -92 -1.5 -127t37.5 -35q31 0 55.5 46.5t27.5 144.5l31 2q2 -100 -29 -164t-101 -64q-66 0 -86.5 42.5t-5.5 147.5q12 90 -19.5 120.5t-127.5 30.5h-96q-41 -222 -43 -248q-1 -25 9 -33.5t43 -8.5h65l-3 -37q-136 2 -154 2l-156 -2l2 37h62q36 0 48.5 7
t18.5 33q7 27 51.5 265t47.5 266q4 29 -5.5 39t-37.5 10h-73q3 9 3 35q1 0 29 -0.5t66 -1t62 -0.5h177q124 0 179 -49t39 -138q-12 -68 -72.5 -114.5t-135.5 -53.5q57 -15 78.5 -50.5t14.5 -101.5zM284 607q-3 -11 -50 -253h100q113 0 177.5 33t78.5 114q15 83 -23.5 119.5
t-149.5 36.5h-69q-29 0 -42.5 -10.5t-21.5 -39.5z" />
    <glyph glyph-name="S" unicode="S" horiz-adv-x="613" 
d="M351 675q-79 0 -127 -32t-59 -88q-12 -63 26.5 -100.5t143.5 -61.5q117 -27 169 -85.5t30 -159.5q-35 -166 -241 -166q-105 0 -182 48q-27 21 -44.5 16t-30.5 -47q-3 1 -17.5 1t-18.5 -1q26 62 37.5 111.5t13.5 126.5h36q-15 -109 42 -165t165 -56q171 0 191 134
q9 64 -38 104t-148 63q-221 52 -182 231q17 79 81 120.5t158 39.5q84 -1 151 -46q48 -31 62 28q3 -1 18 -1t18 1q-25 -57 -36 -103.5t-16 -117.5h-33q35 206 -169 206z" />
    <glyph glyph-name="T" unicode="T" horiz-adv-x="723" 
d="M615 653h-161q-100 -510 -107 -578q-3 -24 7.5 -32t44.5 -8h65l-2 -37q-136 2 -155 2l-156 -2l2 37h64q35 0 47.5 7t17.5 33q7 30 47 248t59 330h-157q-39 0 -62 -20t-33 -64l-23 -101q-4 1 -16 1t-17 -1q30 141 37 225q38 -5 119 -5h385q59 0 119 5q-24 -85 -46 -225
q-4 1 -16 1t-16 -1l14 101q6 44 -8 64t-53 20z" />
    <glyph glyph-name="U" unicode="U" horiz-adv-x="866" 
d="M155 285q10 44 32.5 166.5t26.5 151.5q3 30 -6 41t-37 11h-67l3 35q109 -2 153 -2q33 0 91.5 1t61.5 1l-3 -35h-66q-28 0 -41.5 -11t-21.5 -41q-7 -25 -32 -160t-30 -168q-26 -137 18 -195t151 -58t173.5 58.5t92.5 194.5q52 255 61 328q3 29 -7.5 40.5t-37.5 11.5h-66
l3 35q87 -2 140 -2q32 0 88 1t59 1l-3 -35h-65q-27 0 -40.5 -11.5t-20.5 -40.5l-59 -319q-58 -303 -328 -303q-144 0 -199 72.5t-24 231.5z" />
    <glyph glyph-name="V" unicode="V" horiz-adv-x="788" 
d="M269 582q27 -180 92 -517q198 344 283 504q27 52 19.5 69t-54.5 17h-43l2 35q87 -2 135 -2q29 0 80 1t55 1l-2 -35h-34q-45 0 -66 -14.5t-54 -72.5q-2 -3 -141.5 -247t-185.5 -327q-5 1 -23.5 1t-23.5 -1q-53 315 -110 591q-9 45 -22 57.5t-51 12.5h-41l2 35
q96 -2 149 -2q31 0 88 1t60 1l-2 -35h-52q-43 0 -55 -14t-5 -59z" />
    <glyph glyph-name="W" unicode="W" horiz-adv-x="1110" 
d="M722 -6q-6 1 -29 1t-28 -1q-4 39 -17.5 161.5t-26 230.5t-20.5 180q-142 -279 -281 -572q-5 1 -28.5 1t-28.5 -1q-30 307 -68 589q-6 44 -19 58t-51 14h-43l3 35q131 -2 148 -2q31 0 88 1t60 1l-2 -35h-52q-43 0 -55 -13.5t-8 -58.5q11 -120 56 -521q74 146 256 522
q20 39 11 55t-50 16h-36l3 35q78 -2 130 -2q29 0 82 1t56 1l-3 -35h-50q-33 0 -45 -15t-9 -50q29 -304 58 -525q194 396 244 504q23 52 13 69t-57 17h-32l3 35q119 -2 133 -2q28 0 79 1t54 1l-2 -35h-38q-44 0 -65.5 -15t-51.5 -72q-117 -226 -281 -574z" />
    <glyph glyph-name="X" unicode="X" horiz-adv-x="800" 
d="M501 112q-37 75 -103 198q-185 -195 -187 -198q-62 -77 16 -77h55l-2 -37q-97 2 -153 2l-152 -2l3 37h29q48 0 81.5 16.5t84.5 67.5q132 132 212 217l-133 249q-24 44 -43 57t-72 13h-45l2 35q110 -2 171 -2l163 2l-3 -35h-47q-44 0 -56.5 -20t4.5 -51q5 -10 106 -205
q156 163 190 203q31 36 19.5 54.5t-58.5 18.5h-38l2 35q93 -2 149 -2l151 2l-2 -35h-34q-29 0 -45.5 -2t-36 -15t-27 -20t-37.5 -37q-3 -4 -99 -102.5t-120 -124.5q85 -162 132 -244q27 -46 48 -60.5t61 -14.5h55l-3 -37q-107 2 -168 2l-169 -2l3 37h54q45 0 54 17.5
t-12 59.5z" />
    <glyph glyph-name="Y" unicode="Y" horiz-adv-x="765" 
d="M643 586q-149 -204 -248 -349l-26 -152q-3 -18 -2.5 -29.5t12 -16t39.5 -4.5h71l-3 -37q-102 2 -159 2l-159 -2l2 37h67q37 0 49 9.5t18 40.5l27 152q-17 55 -59.5 187.5t-51.5 162.5q-13 41 -35.5 54.5t-70.5 13.5h-32l2 35q105 -2 165 -2l164 2l-3 -35h-50
q-54 0 -67 -13t-2 -56q38 -136 97 -310q142 201 213 310q25 33 17.5 51t-59.5 18h-41l3 35q96 -2 150 -2l149 2l-3 -35h-31q-58 0 -84.5 -12t-58.5 -57z" />
    <glyph glyph-name="Z" unicode="Z" horiz-adv-x="690" 
d="M11 0l2 35q190 190 587 619l-270 -1q-91 0 -122.5 -23t-50.5 -107l-13 -55q-3 1 -17.5 1t-17.5 -1q29 120 45 223q41 -3 172 -3h360l-2 -34q-157 -158 -586 -619h324q78 0 107.5 25t44.5 105l15 78q3 -1 18.5 -1t18.5 1q-22 -93 -48 -246q-67 3 -159 3h-408z" />
    <glyph glyph-name="bracketleft" unicode="[" horiz-adv-x="244" 
d="M27 78l94 481q11 57 20.5 117.5t13.5 91.5l4 32q77 -4 157 0l-3 -34h-47q-27 0 -40.5 -10t-22.5 -39q-8 -27 -82.5 -411.5t-77.5 -411.5t7 -38t43 -11h35l-3 -34q-26 1 -81 1t-81 -1q36 118 64 267z" />
    <glyph glyph-name="backslash" unicode="\" horiz-adv-x="378" 
d="M307 -175q-99 412 -230 866q22 -4 44 0q99 -412 230 -866q-22 4 -44 0z" />
    <glyph glyph-name="bracketright" unicode="]" horiz-adv-x="254" 
d="M212 550l-93 -473q-13 -68 -23 -134.5t-14 -98.5l-4 -33q-76 4 -152 0l2 34h38q32 0 45.5 11t20.5 38q8 26 83 410.5t78 412.5q3 29 -6 39t-36 10h-42l3 34q26 -2 81 -2t82 2q-36 -106 -63 -250z" />
    <glyph glyph-name="asciicircum" unicode="^" 
d="M358 708h18q20 -49 72.5 -147.5t78.5 -132.5l-33 -24q-24 26 -70 128.5t-60 157.5q-32 -57 -107 -155t-113 -131l-28 25q49 48 130 140.5t112 138.5z" />
    <glyph glyph-name="underscore" unicode="_" horiz-adv-x="500" 
d="M-2 -197q4 40 4 48q79 -1 249.5 -1t250.5 1q-4 -42 -4 -48q-80 1 -250 1t-250 -1z" />
    <glyph glyph-name="grave" unicode="`" horiz-adv-x="532" 
d="M366 535l-6 -8q-55 39 -157 108q-13 9 -10.5 22.5t14 18t25.5 -4.5q10 -10 134 -136z" />
    <glyph glyph-name="a" unicode="a" horiz-adv-x="549" 
d="M530 154q-11 -77 -43 -124t-82 -47q-49 0 -67.5 29.5t-4.5 101.5q-30 -62 -74.5 -96.5t-93.5 -34.5q-69 0 -101 50t-17 154q20 131 82 204.5t144 73.5q52 0 83 -29t34 -82q37 84 45 107h34q-34 -124 -79 -332q-13 -61 -6 -87t36 -26q59 0 87 140zM180 12q59 0 111 66.5
t76 191.5q17 85 -7 125.5t-80 40.5q-59 0 -104 -58.5t-67 -186.5q-30 -179 71 -179z" />
    <glyph glyph-name="b" unicode="b" horiz-adv-x="508" 
d="M119 659h-48l2 31q73 -4 149 0q-1 -20 -16 -95l-55 -276q30 70 76.5 108t98.5 38q150 0 120 -201q-21 -137 -81 -209t-145 -72q-57 0 -89 37t-29 102q-34 -66 -51 -122h-18q64 292 120 604q5 30 -2 42.5t-32 12.5zM312 436q-60 0 -111 -63.5t-75 -187.5
q-17 -86 7.5 -129.5t79.5 -43.5q128 0 171 249q15 87 -1.5 131t-70.5 44z" />
    <glyph glyph-name="c" unicode="c" horiz-adv-x="462" 
d="M201 -17q-102 0 -137 61.5t-12 179.5q23 116 89.5 178.5t152.5 62.5q65 0 97.5 -26t27.5 -74q-2 -32 -17.5 -48t-39.5 -16q-43 0 -38 43q3 23 24.5 33t42.5 1q-5 60 -98 60q-64 0 -109 -48.5t-68 -165.5q-24 -122 0.5 -168t93.5 -46q102 0 148 114l30 -7
q-30 -66 -74 -100t-113 -34z" />
    <glyph glyph-name="d" unicode="d" horiz-adv-x="551" 
d="M485 595q-49 -224 -87 -448q-12 -65 -8 -98t31 -33q58 0 86 140l23 -2q-10 -73 -41.5 -122t-83.5 -49q-48 0 -63.5 33t-4.5 100q-31 -63 -76 -98t-93 -35q-70 0 -103 50t-18 154q20 131 82.5 204.5t144.5 73.5q45 0 75 -22.5t39 -63.5l44 225q5 29 -2 42t-32 13h-62l2 31
q26 -2 81 -2t81 2q-4 -47 -15 -95zM182 12q59 0 110.5 66.5t76.5 191.5q17 85 -7.5 125.5t-80.5 40.5q-59 0 -104.5 -59t-67.5 -186q-30 -179 73 -179z" />
    <glyph glyph-name="e" unicode="e" horiz-adv-x="466" 
d="M359 124l30 -7q-31 -68 -73 -101t-113 -33q-103 0 -138.5 61.5t-12.5 179.5q23 117 88 179t151 62q74 0 100.5 -38.5t14.5 -101.5q-29 -146 -296 -134q-16 -100 9 -140.5t89 -40.5q106 0 151 114zM116 224l-3 -15q126 -3 173 22t62 91q12 52 -3 84t-60 32
q-61 0 -103.5 -48.5t-65.5 -165.5z" />
    <glyph glyph-name="f" unicode="f" horiz-adv-x="313" 
d="M324 682q-51 0 -85 -52.5t-55 -170.5l110 2l-6 -31l-109 2l-9 -73q-27 -222 -65 -347.5t-80.5 -168t-105.5 -42.5q-53 0 -75.5 26.5t-11.5 61.5q10 39 51 39q20 0 30 -13t6 -32q-5 -19 -25 -26t-36 1q7 -34 57 -34q39 0 66.5 21t46.5 67t30 105.5t21 151.5q15 149 43 263
l-83 -2l4 32l86 -2q38 141 89.5 193.5t110.5 52.5q45 0 67.5 -27t18.5 -69q-7 -66 -57 -66q-21 0 -33 11.5t-9 31.5q4 23 25 32.5t43 0.5q3 62 -60 62z" />
    <glyph glyph-name="g" unicode="g" horiz-adv-x="500" 
d="M318 32l18 91q-30 -67 -75.5 -103.5t-95.5 -36.5q-69 0 -101.5 50t-17.5 154q19 131 81 204.5t145 73.5q48 0 78 -25t37 -71q15 22 22.5 34t18 39t16.5 60h20q-45 -201 -87 -444q-44 -257 -246 -257q-76 0 -105.5 29t-16.5 68q12 40 54 40q21 0 32 -13t7 -33
q-6 -22 -28 -29.5t-40 3.5q10 -42 98 -42q78 0 121.5 50.5t64.5 157.5zM179 12q59 0 111 66.5t76 191.5q17 85 -7.5 125.5t-80.5 40.5q-59 0 -104 -59t-66 -186q-32 -179 71 -179z" />
    <glyph glyph-name="h" unicode="h" horiz-adv-x="544" 
d="M493 156l23 -2q-10 -72 -41 -121.5t-87 -49.5q-104 0 -64 157l31 120q24 97 13.5 136.5t-55.5 39.5q-60 0 -108.5 -64.5t-87.5 -224.5l-1 -7l-28 -141q-18 1 -28 1l-28 -1q73 332 120 605q5 30 -2 42.5t-32 12.5h-48l2 31q73 -4 149 0q-2 -23 -16 -95l-58 -297
q62 167 183 167q70 0 90.5 -45.5t-6.5 -160.5l-30 -118q-17 -61 -12.5 -93t35.5 -32q58 0 86 140z" />
    <glyph glyph-name="i" unicode="i" horiz-adv-x="321" 
d="M252 627q-1 -20 -15.5 -34t-34.5 -14t-33.5 14t-12.5 35q1 20 15.5 34t35.5 14q20 0 33 -14t12 -35zM204 298l-47 -164q-34 -116 29 -117q58 0 86 139l23 -2q-10 -71 -41 -121t-89 -50q-52 0 -70.5 39t2.5 110l50 170q39 134 -21 134q-31 0 -55.5 -41.5t-38.5 -105.5
l-24 1q9 70 43 122.5t83 52.5q119 0 70 -167z" />
    <glyph glyph-name="j" unicode="j" horiz-adv-x="288" 
d="M253 628q-1 -20 -15.5 -34.5t-35.5 -14.5q-20 0 -33 14.5t-12 34.5t15 34t36 14q20 0 33 -14t12 -34zM196 293l-54 -275q-43 -217 -194 -217q-51 0 -73.5 24t-14.5 58q9 45 52 45q19 0 29.5 -12t6.5 -30q-4 -21 -24.5 -29t-36.5 1q7 -34 58 -34q50 0 83 40.5t52 140.5
l57 292q16 71 15 105t-29 34q-31 0 -55 -41.5t-38 -105.5l-24 1q10 72 44 123.5t84 51.5q57 0 69.5 -47.5t-7.5 -124.5z" />
    <glyph glyph-name="k" unicode="k" horiz-adv-x="498" 
d="M442 156l24 -2q-2 -75 -29 -123t-86 -48q-88 0 -74 103q5 40 5 68t-35.5 40.5t-115.5 3.5q-8 -26 -19 -76l-24 -123q-18 2 -28 2l-28 -2q75 342 120 605q5 30 -2 42.5t-32 12.5h-48l2 31q73 -4 149 0q-2 -26 -16 -95l-58 -296q32 84 79.5 125t101.5 41q57 0 82 -29.5
t14 -84.5q-9 -46 -60.5 -83t-114.5 -53q101 -5 88 -124q-9 -74 34 -75q33 0 51 40t20 100zM311 433q-53 0 -96.5 -49.5t-78.5 -168.5q98 2 157 38t73 95q8 37 -6.5 61t-48.5 24z" />
    <glyph glyph-name="l" unicode="l" horiz-adv-x="274" 
d="M207 595q-50 -242 -89 -454q-12 -70 -6.5 -97t35.5 -28q58 0 86 140l23 -2q-8 -72 -40 -121.5t-86 -49.5q-102 0 -68 157q18 84 51 251.5t40 212.5q4 30 -3 42.5t-32 12.5h-48l2 31q75 -4 150 0q-2 -27 -15 -95z" />
    <glyph glyph-name="m" unicode="m" horiz-adv-x="857" 
d="M28 289l-24 1q8 65 41.5 120t87.5 55q94 0 66 -146q65 146 175 146q58 0 81 -34t13 -112q33 74 79 110t97 36q70 0 91 -46t-6 -160l-31 -118q-17 -61 -12.5 -93t35.5 -32q58 0 85 140l24 -2q-11 -72 -42 -121.5t-87 -49.5q-102 0 -62 157l31 120q23 97 12.5 136.5
t-55.5 39.5q-123 0 -192 -271l-10 -43l-29 -123q-19 2 -29 2l-30 -2q54 208 65 261q19 98 8.5 137t-53.5 39q-122 0 -192 -274l-35 -163q-19 2 -29 2l-30 -2q45 183 67 291q17 79 14.5 112.5t-32.5 33.5q-28 0 -53 -40t-39 -107z" />
    <glyph glyph-name="n" unicode="n" horiz-adv-x="590" 
d="M28 289l-24 1q8 65 41.5 120t87.5 55q50 0 64.5 -37t1.5 -109q64 146 175 146q70 0 92 -46t-6 -160l-31 -118q-17 -61 -12 -93t36 -32q59 0 85 140l24 -2q-11 -72 -42 -121.5t-87 -49.5q-106 0 -64 157l33 120q47 176 -45 176q-124 0 -192 -279l-34 -158q-19 2 -30 2
l-29 -2q65 287 66 291q18 78 15 112t-33 34q-27 0 -52.5 -39.5t-39.5 -107.5z" />
    <glyph glyph-name="o" unicode="o" horiz-adv-x="483" 
d="M189 9q63 0 109.5 67.5t66.5 196.5q28 167 -84 167q-60 0 -109 -67.5t-69 -191.5q-27 -172 86 -172zM186 -17q-80 0 -120 51.5t-23 156.5q18 117 83.5 195.5t155.5 78.5q79 0 118.5 -47.5t25.5 -147.5q-18 -124 -83.5 -205.5t-156.5 -81.5z" />
    <glyph glyph-name="p" unicode="p" horiz-adv-x="551" 
d="M127 465q51 0 65.5 -34t4.5 -98q30 63 75.5 97.5t95.5 34.5q70 0 102.5 -48t16.5 -150q-21 -138 -80.5 -211t-143.5 -73q-47 0 -77.5 24t-39.5 67q-29 -147 -31 -162q-6 -33 4.5 -44t46.5 -11h41l-3 -33q-82 2 -128 2l-128 -2l3 33h41q34 1 46 12t20 45q38 161 76 376
q16 82 14 114t-31 32q-30 0 -54 -42t-38 -105l-24 1q9 69 43 122t83 53zM354 436q-60 0 -111.5 -63.5t-75.5 -187.5q-17 -86 7.5 -129.5t81.5 -43.5q128 0 170 251q30 173 -72 173z" />
    <glyph glyph-name="q" unicode="q" horiz-adv-x="498" 
d="M467 509q-24 -105 -70 -336.5t-52 -277.5q-3 -21 3.5 -29.5t32.5 -8.5h57q0 -1 -2 -16t-2 -17q-84 2 -130 2l-131 -2q0 24 3 33h64q24 0 35 8.5t15 30.5l44 222q-31 -64 -75.5 -99.5t-93.5 -35.5q-69 0 -101.5 50t-17.5 154q20 131 82 204.5t144 73.5q48 0 78 -25t37 -70
q48 68 60 139h20zM179 12q59 0 110.5 66.5t76.5 191.5q17 85 -7.5 125.5t-80.5 40.5q-59 0 -103.5 -59t-66.5 -186q-15 -89 1 -134t70 -45z" />
    <glyph glyph-name="r" unicode="r" horiz-adv-x="429" 
d="M295 346q4 23 28 32t43 -2q3 63 -52 63q-38 0 -71 -34t-47 -99l-66 -307q-19 2 -29 2l-29 -2q31 127 65 291q17 79 14.5 112.5t-31.5 33.5q-31 0 -55.5 -41.5t-38.5 -105.5l-24 1q9 69 42.5 122t83.5 53q75 0 77 -83q41 83 114 83q42 0 61 -26t12 -72q-10 -66 -61 -66
q-19 0 -29 12t-7 33z" />
    <glyph glyph-name="s" unicode="s" horiz-adv-x="421" 
d="M259 441q-52 0 -88 -21t-45 -53q-11 -41 12.5 -66.5t93.5 -44.5q85 -23 112.5 -62.5t13.5 -97.5q-12 -51 -61 -82t-124 -31q-76 0 -120 30.5t-35 85.5q4 20 18 32t35 12t30 -12t6 -30q-4 -22 -23 -30.5t-39 -0.5q5 -28 41 -44.5t88 -16.5q56 0 94 20t47 55
q10 44 -13 69.5t-102 47.5q-146 40 -117 153q13 51 60 81t116 30q64 0 103.5 -26.5t33.5 -77.5q-3 -26 -19 -38.5t-35 -12.5t-29 11.5t-8 29.5q4 21 22.5 29.5t41.5 2.5q-7 28 -36.5 43t-73.5 15z" />
    <glyph glyph-name="t" unicode="t" horiz-adv-x="317" 
d="M231 156l23 -2q-22 -171 -128 -171q-55 0 -71 41t2 115q5 21 18 82.5t25 117.5t19 91h-80l4 28q75 1 99.5 30t53.5 127q3 9 4 13h25q-5 -20 -14.5 -57t-17 -66t-9.5 -41l-1 -6l106 3l-5 -31l-107 1l-58 -292q-13 -78 -6.5 -100t33.5 -22q62 0 85 139z" />
    <glyph glyph-name="u" unicode="u" horiz-adv-x="584" 
d="M542 156l23 -2q-9 -69 -40.5 -120t-84.5 -51q-57 0 -71.5 40.5t3.5 114.5q-65 -155 -176 -155q-69 0 -88 46t7 161l29 118q16 64 12.5 96t-31.5 32q-31 0 -55.5 -42t-37.5 -105l-24 1q9 68 41.5 121.5t86.5 53.5q105 0 67 -158l-29 -118q-16 -65 -17 -103.5t12.5 -56
t43.5 -17.5q124 0 194 293l33 155q19 -1 29 -1l30 1q-40 -159 -67 -301q-15 -82 -11 -112.5t34 -30.5q33 0 52.5 36.5t34.5 103.5z" />
    <glyph glyph-name="v" unicode="v" horiz-adv-x="512" 
d="M38 289l-25 1q9 68 41.5 121.5t86.5 53.5t71.5 -43.5t-5.5 -117.5l-36 -118q-53 -174 47 -174q45 0 87 47.5t67 107.5t38 122q12 54 12 99q-8 -3 -18 -3q-21 0 -33.5 12t-6.5 35q7 33 45 33q32 0 42.5 -27.5t-0.5 -95.5q-5 -35 -17.5 -77.5t-35 -93.5t-50.5 -92
t-68.5 -68.5t-85.5 -27.5q-142 0 -81 204l37 121q39 128 -19 128q-31 0 -55.5 -42t-37.5 -105z" />
    <glyph glyph-name="w" unicode="w" horiz-adv-x="769" 
d="M190 -17q-146 0 -78 207l39 118q42 128 -18 128q-31 0 -55.5 -42t-37.5 -105l-25 1q9 68 41.5 121.5t86.5 53.5q55 0 73 -44t-6 -114l-38 -118q-57 -177 34 -177q106 0 172 216l55 233q20 -1 31 -1l29 1l-66 -270q-23 -101 -11.5 -140t58.5 -39q44 0 86.5 47.5t68 108
t38.5 121.5q12 62 12 99q-7 -3 -18 -3q-21 0 -33.5 12t-7.5 35q8 33 46 33q31 0 42 -27.5t0 -95.5q-5 -35 -17 -77.5t-34.5 -93.5t-50.5 -92t-69 -68.5t-86 -27.5q-54 0 -78.5 32t-15.5 108q-63 -140 -167 -140z" />
    <glyph glyph-name="x" unicode="x" horiz-adv-x="573" 
d="M490 155q-3 -74 -37 -123t-105 -49q-100 0 -117 99q-17 -45 -50.5 -72t-80.5 -27q-54 0 -75 31.5t-9 78.5q13 50 57 50q19 0 29.5 -12t6.5 -31q-4 -22 -26.5 -30t-42.5 4q-4 -26 10 -45.5t53 -19.5q25 0 46 12.5t34.5 29.5t26 46t18.5 49t14 51q30 99 24.5 169t-62.5 70
q-51 0 -71.5 -44t-9.5 -104l-25 2q-14 68 15.5 121.5t100.5 53.5q100 0 112 -103q46 103 137 103q48 0 68.5 -26t12.5 -72q-10 -66 -60 -66q-20 0 -30 12t-6 33q4 24 28 32.5t43 -2.5q4 63 -59 63q-60 0 -93 -51.5t-58 -148.5q-26 -91 -14.5 -159t63.5 -68q91 0 106 143h26z
" />
    <glyph glyph-name="y" unicode="y" horiz-adv-x="540" 
d="M32 289l-24 1q9 68 41.5 121.5t86.5 53.5q107 0 67 -158l-30 -118q-24 -97 -14.5 -137t53.5 -40q123 0 192 277l35 172q19 -1 29 -1l30 1q-48 -194 -90 -417q-45 -243 -245 -243q-75 0 -105 29t-17 68q13 40 55 40q20 0 31 -13t7 -33q-5 -22 -27 -29.5t-41 3.5
q11 -42 98 -42q78 0 121.5 50.5t65.5 157.5l22 110q-32 -80 -78.5 -119.5t-99.5 -39.5q-69 0 -87.5 45.5t7.5 161.5l28 118q17 64 13.5 96t-31.5 32q-32 0 -56 -41.5t-37 -105.5z" />
    <glyph glyph-name="z" unicode="z" horiz-adv-x="473" 
d="M96 289l-23 1q-6 96 27 138t88 42q32 0 56 -14t53 -45q32 -35 61 -44.5t47 9.5q-21 16 -21 46q0 43 30 43q29 0 29 -38q0 -32 -22.5 -62.5t-97.5 -84.5q-9 -7 -42.5 -30t-58.5 -41t-58.5 -44t-57.5 -48q31 13 62.5 7t54.5 -30q34 -36 54 -49.5t45 -13.5q91 2 83 125
l23 -2q5 -88 -28 -129.5t-88 -41.5q-41 0 -67 14t-56 51q-33 41 -69.5 45t-57.5 -22q19 -15 19 -46q-2 -41 -31 -41q-28 0 -28 40q0 33 25.5 65t94.5 88q36 30 114.5 83.5t103.5 73.5q-54 -16 -113 40q-30 28 -46 39t-35 11q-41 0 -56.5 -32.5t-13.5 -102.5z" />
    <glyph glyph-name="braceleft" unicode="{" horiz-adv-x="298" 
d="M50 325l1 23h8q92 0 67 211q-15 118 37.5 191.5t173.5 86.5l1 -21q-46 -9 -70.5 -20t-45 -38t-29.5 -72.5t-14 -122.5q-3 -107 -16 -149q-23 -72 -80 -77q30 -3 43 -24t10.5 -54.5t-9.5 -63.5t-17 -63q-4 -13 -6 -19q-21 -71 -28.5 -112t-2 -73.5t29 -48t68.5 -23.5
l-5 -20q-106 7 -140 78.5t24 199.5q10 20 17 37t17.5 44t14 47.5t3 40.5t-12 31t-33.5 11h-6z" />
    <glyph glyph-name="bar" unicode="|" horiz-adv-x="300" 
d="M57 -144q0 3 3 6t6 3t6 -3t3 -6t-3 -6t-6 -3t-6 3t-3 6zM67 -57q0 13 14 13t14 -13t-14 -13q-5 0 -9.5 4t-4.5 9zM79 31q0 7 5 12t12 5t12.5 -5t5.5 -12q0 -18 -18 -18q-17 0 -17 18zM90 118q0 9 6.5 15t15.5 6q8 0 14.5 -6t6.5 -15t-6.5 -15.5t-14.5 -6.5
q-9 0 -15.5 6.5t-6.5 15.5zM103 205q0 10 7 17t17 7t17 -7t7 -17t-7 -17t-17 -7t-17 7t-7 17zM116 292q0 10 8 18t18 8t18 -8t8 -18t-7.5 -17.5t-18.5 -7.5t-18.5 7.5t-7.5 17.5zM131 379q0 11 7.5 18.5t18.5 7.5t18.5 -7.5t7.5 -18.5q0 -10 -8 -17.5t-18 -7.5t-18 7.5
t-8 17.5zM148 467q0 10 7 17t17 7t17 -7t7 -17q0 -11 -7 -18t-17 -7t-17 7.5t-7 17.5zM166 554q0 9 6.5 15.5t14.5 6.5q9 0 15.5 -6.5t6.5 -15.5t-6.5 -15.5t-15.5 -6.5q-8 0 -14.5 6.5t-6.5 15.5zM185 641q0 7 5.5 12.5t12.5 5.5t12.5 -5.5t5.5 -12.5t-5.5 -12t-12.5 -5
q-18 0 -18 17zM204 728q0 14 14 14q5 0 9.5 -4t4.5 -10q0 -5 -4.5 -9t-9.5 -4q-14 0 -14 13zM225 816q0 8 8 8q9 0 9 -8q0 -9 -9 -9q-8 0 -8 9z" />
    <glyph glyph-name="braceright" unicode="}" horiz-adv-x="298" 
d="M257 348l-2 -23h-8q-32 0 -51 -22t-22.5 -58.5t-2 -67.5t7.5 -63q19 -125 -37 -195.5t-169 -82.5l-3 20q91 15 121 66.5t35 190.5q3 114 20 159q24 61 78 65q-20 2 -32.5 11t-16.5 26.5t-5 33t4 41.5t8.5 40.5t11 41t9.5 32.5q29 102 30 153t-20.5 70.5t-76.5 30.5l3 20
q110 -8 140.5 -88.5t-24.5 -189.5q-9 -18 -17 -36.5t-17.5 -44.5t-13 -47t-3 -41t12 -31t33.5 -11h7z" />
    <glyph glyph-name="asciitilde" unicode="~" horiz-adv-x="532" 
d="M480 685l22 4q13 -83 -19.5 -125t-87.5 -40q-36 1 -59.5 18t-43.5 56q-21 44 -35.5 59t-41.5 15q-30 0 -47.5 -32t-11.5 -96l-22 -4q-13 83 19.5 125t87.5 41q39 -1 60.5 -18t41.5 -58q24 -44 38.5 -59t38.5 -15q32 0 49 32.5t11 96.5z" />
    <glyph glyph-name="exclamdown" unicode="&#xa1;" horiz-adv-x="277" 
d="M87 408q0 27 18 42t44 15q24 0 39.5 -14t15.5 -39q0 -28 -17 -45t-43 -17t-41.5 15.5t-15.5 42.5zM111 251q1 10 12 10q10 -1 10 -14q-35 -198 -39 -273q-2 -48 0 -98q6 -128 -61 -128q-19 0 -30.5 13t-10.5 46.5t23 82.5q25 57 43 117.5t27 104.5t26 139z" />
    <glyph glyph-name="cent" unicode="&#xa2;" horiz-adv-x="565" 
d="M296 356l-83 -232q23 -8 60 -8q85 0 129 44h-6q-25 0 -35.5 14.5t-7.5 33.5q7 47 59 47q24 0 35.5 -15t6.5 -43q-6 -43 -60 -78t-131 -35q-33 0 -62 6l-53 -149h-28l60 155q-124 44 -91 231q20 114 92.5 176.5t168.5 62.5h3l49 142h27l-54 -143q61 -6 93.5 -38t26.5 -71
q-4 -26 -21 -41t-41 -15t-35 13t-8 34q3 20 19 34t40 14h4q-24 37 -89 41zM159 327q-28 -154 35 -193l86 222l62 180q-70 -2 -116 -50t-67 -159z" />
    <glyph glyph-name="sterling" unicode="&#xa3;" 
d="M149 252l2 31q17 -1 91 -1q0 6 -2.5 46.5t-3 58t1 50.5t5.5 62q14 93 77.5 150t159.5 57q74 0 109.5 -38.5t25.5 -97.5q-6 -41 -27.5 -61.5t-51.5 -20.5q-23 0 -37 14t-10 36q3 21 19 33.5t39 12.5q25 0 35 -17l2 6q9 42 -18 72.5t-79 30.5q-70 0 -111.5 -42t-59.5 -135
q-7 -42 -12.5 -118t-7.5 -98l107 6l-2 -31q-65 0 -108 -1q-12 -79 -40 -140l-3 -7l22.5 -15t24 -15.5t23 -12.5t26 -11.5t26 -6.5t31.5 -3q57 0 86.5 28t42.5 85l28 -5q-5 -75 -46 -123t-130 -48q-58 0 -96 18.5t-73 50.5q-53 -67 -137 -67q-45 0 -69 23.5t-19 61.5
q6 39 40.5 61.5t85.5 22.5q55 0 110 -30q20 47 18 132zM86 12q69 0 110 57q-18 17 -30.5 26.5t-31.5 17.5t-39 8q-30 0 -51 -14t-24 -38q-3 -26 14 -41.5t52 -15.5z" />
    <glyph glyph-name="yen" unicode="&#xa5;" 
d="M116 339l126 -5q-29 129 -61 253q-10 37 -27 52.5t-54 15.5h-27l3 35q83 -2 132 -2l134 2l-3 -35h-34q-39 0 -51 -15.5t-6 -53.5q20 -109 67 -304q92 162 164 304q18 28 14.5 48.5t-39.5 20.5h-40l3 35q84 -2 130 -2l125 2l-2 -35h-32q-43 0 -67 -14t-48 -55l-146 -251
l119 4q0 -1 -1.5 -19t-1.5 -19l-132 4l-37 -65l-6 -42l163 5q-3 -6 -3 -36l-165 4l-13 -86q-5 -28 3 -39t38 -11h56l-2 -35q-84 2 -137 2l-137 -2l2 35h56q31 0 43 11t17 39l13 86l-153 -4q3 6 3 36l155 -5l6 39l-15 68l-134 -4q0 1 1 19t1 19z" />
    <glyph glyph-name="brokenbar" unicode="&#xa6;" horiz-adv-x="300" 
d="M57 -144q0 3 3 6t6 3t6 -3t3 -6t-3 -6t-6 -3t-6 3t-3 6zM67 -57q0 13 14 13t14 -13t-14 -13q-5 0 -9.5 4t-4.5 9zM79 31q0 7 5 12t12 5t12.5 -5t5.5 -12q0 -18 -18 -18q-17 0 -17 18zM90 118q0 9 6.5 15t15.5 6q8 0 14.5 -6t6.5 -15t-6.5 -15.5t-14.5 -6.5
q-9 0 -15.5 6.5t-6.5 15.5zM103 205q0 10 7 17t17 7t17 -7t7 -17t-7 -17t-17 -7t-17 7t-7 17zM148 467q0 10 7 17t17 7t17 -7t7 -17q0 -11 -7 -18t-17 -7t-17 7.5t-7 17.5zM166 554q0 9 6.5 15.5t14.5 6.5q9 0 15.5 -6.5t6.5 -15.5t-6.5 -15.5t-15.5 -6.5q-8 0 -14.5 6.5
t-6.5 15.5zM185 641q0 7 5.5 12.5t12.5 5.5t12.5 -5.5t5.5 -12.5t-5.5 -12t-12.5 -5q-18 0 -18 17zM204 728q0 14 14 14q5 0 9.5 -4t4.5 -10q0 -5 -4.5 -9t-9.5 -4q-14 0 -14 13zM225 816q0 8 8 8q9 0 9 -8q0 -9 -9 -9q-8 0 -8 9z" />
    <glyph glyph-name="section" unicode="&#xa7;" horiz-adv-x="570" 
d="M383 658l5 -8q-40 -31 -61.5 -61t-44 -110t-38.5 -220q-16 -139 -40 -232.5t-55.5 -140.5t-63 -65.5t-72.5 -18.5q-47 0 -68.5 29.5t-17.5 70.5q2 29 18.5 46t40.5 17q20 0 31 -11.5t8 -32.5q-4 -26 -27 -33.5t-41 2.5q-4 -64 62 -64q68 0 106 87.5t62 302.5
q21 192 69 297t127 145zM176 -149l-5 7q41 32 63 62t44 110t38 219q13 112 31.5 194.5t40 132.5t48.5 79.5t52.5 40t57.5 10.5q47 0 68.5 -29t17.5 -70q-7 -63 -57 -63q-20 0 -32 12t-9 31q4 23 25 32.5t43 0.5q2 28 -13 45t-48 17q-68 0 -106 -86.5t-63 -302.5
q-21 -194 -68.5 -298.5t-127.5 -143.5z" />
    <glyph glyph-name="dieresis" unicode="&#xa8;" horiz-adv-x="532" 
d="M211 583q-1 -19 -14.5 -31.5t-32.5 -12.5q-18 0 -29 12t-9 30q1 20 14.5 31.5t32.5 11.5q18 0 28.5 -11.5t9.5 -29.5zM386 582q-2 -19 -16 -31t-31 -12q-19 0 -30 12t-9 31q1 18 15 30t32 12t29 -11t10 -31z" />
    <glyph glyph-name="copyright" unicode="&#xa9;" horiz-adv-x="842" 
d="M377 -16q-165 0 -248 85.5t-78 232.5q7 177 124 290t291 113q159 0 244.5 -87t80.5 -233q-7 -180 -117 -290.5t-297 -110.5zM381 14q174 0 268 105.5t100 267.5q5 131 -64.5 209.5t-222.5 78.5q-169 0 -266 -107t-103 -267q-5 -131 64.5 -209t223.5 -78zM466 569
q53 0 97 -27q19 -12 30 -7t18 32h26q-25 -61 -39 -148h-22q8 54 -17 89t-89 35q-75 0 -127 -48t-71 -149q-21 -108 11 -153t107 -45q78 0 114.5 37t53.5 107h2q3 0 6.5 -0.5t6.5 -0.5t6.5 0.5t6.5 0.5h3q-22 -90 -71 -130t-138 -40q-94 0 -136 56t-22 168q21 111 88 167
t156 56z" />
    <glyph glyph-name="ordfeminine" unicode="&#xaa;" horiz-adv-x="485" 
d="M77 229q0 1 2.5 12t4.5 20.5t2 11.5q171 -3 343 0q0 -1 -2.5 -12t-4.5 -20.5t-2 -11.5q-171 3 -343 0zM462 484q-7 -59 -30 -92.5t-60 -33.5q-33 0 -47 19.5t-7 65.5q-45 -85 -115 -85q-103 0 -82 143q13 94 56.5 146t101.5 52q36 0 57.5 -20.5t23.5 -56.5q21 38 34 71
h27q-6 -21 -54 -227q-8 -44 -4 -61t23 -18q40 0 58 98zM217 386q40 0 74.5 44.5t51.5 128.5q23 111 -56 111q-88 0 -116 -167q-11 -60 -0.5 -88.5t46.5 -28.5z" />
    <glyph glyph-name="guillemotleft" unicode="&#xab;" horiz-adv-x="439" 
d="M259 411l9 -9q-87 -87 -174 -151q56 -63 116 -152l-12 -9q-77 77 -157 147l6 33q122 76 212 141zM412 411l9 -9q-87 -87 -174 -151q56 -63 116 -152l-12 -9q-77 77 -157 147l6 33q122 76 212 141z" />
    <glyph glyph-name="registered" unicode="&#xae;" horiz-adv-x="842" 
d="M381 14q174 0 268.5 105.5t99.5 267.5q6 131 -64 209.5t-223 78.5q-169 0 -266 -107t-103 -267q-5 -131 64.5 -209t223.5 -78zM377 -16q-165 0 -248.5 85.5t-77.5 232.5q6 176 123 289.5t292 113.5q159 0 245 -87t80 -233q-6 -180 -116.5 -290.5t-297.5 -110.5zM535 256
q-4 -52 0.5 -71.5t21.5 -19.5q18 0 32 28t16 81l20 2q2 -60 -17.5 -99t-64.5 -39q-41 0 -53.5 26t-4.5 89q7 51 -12 69.5t-73 18.5h-54q-21 -110 -25 -139q-1 -16 5.5 -22t27.5 -6h35l-2 -28q-61 2 -96 2l-96 -2l2 28h34q22 0 29.5 5t13.5 20q4 15 30 152t27 153
q1 18 -3.5 25.5t-21.5 7.5h-41q2 6 2 27q48 -2 100 -2h104q75 0 109 -29t24 -83q-8 -42 -42.5 -69.5t-80.5 -32.5q60 -14 54 -92zM379 506q-4 -12 -29 -143h57q68 0 103.5 19.5t44.5 66.5t-12.5 68t-83.5 21h-41q-30 0 -39 -32z" />
    <glyph glyph-name="macron" unicode="&#xaf;" horiz-adv-x="532" 
d="M136 544q6 12 6 41q121 -4 242 0q-8 -24 -6 -41q-121 4 -242 0z" />
    <glyph glyph-name="degree" unicode="&#xb0;" horiz-adv-x="326" 
d="M196 395q93 0 112 135q19 137 -74 137q-41 0 -71.5 -33t-40.5 -104q-11 -74 9 -104.5t65 -30.5zM192 371q-62 0 -90 40t-16 119q11 79 53 119.5t98 40.5q62 0 90.5 -40t16.5 -120q-11 -78 -53.5 -118.5t-98.5 -40.5z" />
    <glyph glyph-name="plusminus" unicode="&#xb1;" 
d="M34 0l9 42q94 -2 192 -2q33 148 53 201q-52 -7 -216 -12l9 43q163 -5 211 -13q2 54 31 214h43q-43 -176 -56 -214q53 8 217 13l-9 -43q-172 5 -212 12q-3 -57 -29 -201q104 0 206 2q-9 -23 -9 -42q-219 4 -440 0z" />
    <glyph glyph-name="acute" unicode="&#xb4;" horiz-adv-x="532" 
d="M184 526l-6 8q110 115 134 136q12 10 25 4.5t14 -18t-11 -22.5q-10 -7 -40 -27.5t-61 -41.5t-55 -39z" />
    <glyph glyph-name="paragraph" unicode="&#xb6;" horiz-adv-x="512" 
d="M266 8l56 271h-8q-113 0 -162.5 57.5t-28.5 160.5q40 193 289 193h144l-6 -32h-40q-28 0 -42 -10.5t-20 -38.5l-124 -603q-22 -111 -64 -163.5t-120 -52.5q-56 0 -82 30.5t-24 66.5q2 31 18.5 45t38.5 14q21 0 29.5 -13t5.5 -28q-10 -44 -60 -33q-2 -24 16.5 -41.5
t51.5 -17.5q53 0 79.5 38.5t52.5 156.5z" />
    <glyph glyph-name="periodcentered" unicode="&#xb7;" horiz-adv-x="237" 
d="M153 247q-3 -27 -21 -42.5t-43 -15.5q-24 0 -39 15.5t-13 42.5q2 26 20 42t43 16t40 -16t13 -42z" />
    <glyph glyph-name="cedilla" unicode="&#xb8;" horiz-adv-x="532" 
d="M225 -109l-9 18q40 17 57.5 40t24.5 55l16 -2q2 -49 -39 -80q44 6 76 -13.5t31 -61.5q-1 -40 -31.5 -64t-82.5 -24q-71 0 -104 50l15 13q30 -35 78 -35q70 0 72 61q1 32 -27 46t-77 -3z" />
    <glyph glyph-name="ordmasculine" unicode="&#xba;" horiz-adv-x="396" 
d="M205 358q-122 0 -102 148q12 74 57 133.5t117 59.5q117 0 100 -138q-11 -84 -57.5 -143.5t-114.5 -59.5zM209 382q42 0 73.5 49t45.5 137q8 56 -4 81t-49 25q-42 0 -74.5 -47t-47.5 -135q-8 -57 5 -83.5t51 -26.5zM39 231q3 6 10 41q144 -3 289 0l-10 -41q-142 3 -289 0z
" />
    <glyph glyph-name="guillemotright" unicode="&#xbb;" horiz-adv-x="439" 
d="M78 402l12 9q65 -69 157 -147l-6 -33q-122 -76 -212 -141l-9 9q80 80 174 151q-56 62 -116 152zM231 402l12 9q65 -69 157 -147l-6 -33q-122 -76 -212 -141l-9 9q80 80 174 151q-56 62 -116 152z" />
    <glyph glyph-name="onequarter" unicode="&#xbc;" horiz-adv-x="378" 
d="M209 447q15 65 33 188q-34 -2 -67 -2l3 23h18q38 0 56.5 15t27.5 43h24q-14 -52 -24 -102l-29 -165q-2 -12 3.5 -17t23.5 -5h37l-3 -22q-58 1 -90 1l-89 -1l3 22h39q28 0 34 22zM156 19l6 35q-83 2 -143 0l2 18l210 214h24q-24 -109 -42 -214l62 2l-1 -21l-65 1l-5 -35
q-1 -11 4 -14.5t21 -3.5h37l-2 -23q-65 1 -95 1l-78 -1l2 23h30q18 0 24.5 3.5t8.5 14.5zM166 72q3 16 14 71t15 79l-149 -149q35 -1 120 -1zM17 344q0 14 15 14q5 0 9.5 -4.5t4.5 -9.5q0 -15 -14 -15q-15 0 -15 15zM81 344q0 14 14 14q5 0 9.5 -4.5t4.5 -9.5q0 -14 -14 -14
t-14 14zM144 344q0 13 14 13q13 0 13 -13q0 -14 -13 -14q-14 0 -14 14zM207 344q0 13 14 13q13 0 13 -13q0 -14 -13 -14q-14 0 -14 14zM270 344q0 14 14 14q5 0 9.5 -4.5t4.5 -9.5q0 -14 -14 -14t-14 14zM332 344q0 14 15 14q5 0 9.5 -4.5t4.5 -9.5q0 -15 -14 -15
q-15 0 -15 15z" />
    <glyph glyph-name="onehalf" unicode="&#xbd;" horiz-adv-x="378" 
d="M262 63q9 -37 -10 -65t-61 -28q-35 0 -75 31q-24 21 -45 21q-15 0 -19.5 -7t2.5 -14q10 -13 7 -22t-13 -9q-19 0 -16 28q7 51 90 90q64 30 88.5 53.5t30.5 56.5q6 32 -8.5 52t-51.5 20q-68 0 -86 -43q10 4 17 4q28 0 24 -28q-1 -11 -10.5 -18t-22.5 -7q-15 0 -23.5 10
t-5.5 27q6 31 39 53t82 22q53 0 75 -24.5t14 -66.5q-7 -38 -43 -68t-111 -58q-40 -14 -60 -34q9 4 18.5 5.5t21 -0.5t18 -4t20 -7t17.5 -6q23 -7 38 -7q20 0 32.5 10.5t11.5 31.5zM209 447q15 65 33 188q-34 -2 -67 -2l3 23h18q38 0 56.5 15t27.5 43h24q-14 -52 -24 -102
l-29 -165q-2 -12 3.5 -17t23.5 -5h37l-3 -22q-58 1 -90 1l-89 -1l3 22h39q28 0 34 22zM17 344q0 14 15 14q5 0 9.5 -4.5t4.5 -9.5q0 -15 -14 -15q-15 0 -15 15zM81 344q0 14 14 14q5 0 9.5 -4.5t4.5 -9.5q0 -14 -14 -14t-14 14zM144 344q0 13 14 13q13 0 13 -13
q0 -14 -13 -14q-14 0 -14 14zM207 344q0 13 14 13q13 0 13 -13q0 -14 -13 -14q-14 0 -14 14zM270 344q0 14 14 14q5 0 9.5 -4.5t4.5 -9.5q0 -14 -14 -14t-14 14zM332 344q0 14 15 14q5 0 9.5 -4.5t4.5 -9.5q0 -15 -14 -15q-15 0 -15 15z" />
    <glyph glyph-name="threequarters" unicode="&#xbe;" horiz-adv-x="378" 
d="M368 636q-12 -58 -83 -71q39 -4 57.5 -26t11.5 -55q-19 -88 -150 -88q-51 0 -77 21t-19 51q4 18 16 28t27 10q27 0 27 -26q0 -12 -8.5 -20t-22.5 -8t-22 8q0 -22 22 -34t55 -12q89 0 105 70q7 34 -9.5 51.5t-67.5 17.5h-18l4 19h17q42 0 62.5 15t28.5 49q6 28 -9.5 43.5
t-47.5 15.5q-64 0 -86 -40q10 4 18 4q13 0 19 -8t4 -19q-3 -26 -33 -26q-14 0 -22.5 9t-5.5 28q5 29 38 50.5t78 21.5q50 0 74.5 -21t16.5 -58zM156 19l6 35q-83 2 -143 0l2 18l210 214h24q-24 -109 -42 -214l62 2l-1 -21l-65 1l-5 -35q-1 -11 4 -14.5t21 -3.5h37l-2 -23
q-65 1 -95 1l-78 -1l2 23h30q18 0 24.5 3.5t8.5 14.5zM166 72q3 16 14 71t15 79l-149 -149q35 -1 120 -1zM17 344q0 14 15 14q5 0 9.5 -4.5t4.5 -9.5q0 -15 -14 -15q-15 0 -15 15zM81 344q0 14 14 14q5 0 9.5 -4.5t4.5 -9.5q0 -14 -14 -14t-14 14zM144 344q0 13 14 13
q13 0 13 -13q0 -14 -13 -14q-14 0 -14 14zM207 344q0 13 14 13q13 0 13 -13q0 -14 -13 -14q-14 0 -14 14zM270 344q0 14 14 14q5 0 9.5 -4.5t4.5 -9.5q0 -14 -14 -14t-14 14zM332 344q0 14 15 14q5 0 9.5 -4.5t4.5 -9.5q0 -15 -14 -15q-15 0 -15 15z" />
    <glyph glyph-name="questiondown" unicode="&#xbf;" horiz-adv-x="515" 
d="M188 175l-12 19q61 75 139 75q52 -2 54 -47q1 -28 -24.5 -51t-96.5 -58q-80 -39 -118 -82t-42 -107q-7 -144 138 -144q62 0 115 27t67 84q-18 -13 -42 -13q-21 0 -33 14.5t-9 35.5q4 22 20 35t40 13q27 0 43 -18t10 -58q-10 -65 -73.5 -108.5t-155.5 -43.5
q-102 0 -148 46t-39 119t58.5 123.5t147.5 93.5q65 30 89.5 49t23.5 39q-2 25 -32 25q-58 0 -120 -68zM254 408q1 27 18.5 42t43.5 15q25 0 40.5 -15t14.5 -42q-1 -26 -18.5 -42t-41.5 -16q-26 0 -42 16t-15 42z" />
    <glyph glyph-name="Agrave" unicode="&#xc0;" horiz-adv-x="835" 
d="M548 230q-158 4 -301 0q-59 -100 -68 -118q-24 -39 -13.5 -58t60.5 -19h51l-3 -37q-93 2 -145 2l-146 -2l3 37h34q47 0 69.5 12.5t49.5 61.5q1 2 165.5 280.5t175.5 302.5h12q11 -1 16 -1l27 1q53 -325 105 -583q9 -47 23.5 -60.5t62.5 -13.5h43l-3 -37q-101 2 -158 2
l-158 -2l3 37h46q51 0 63 15.5t5 62.5q-18 109 -19 117zM265 261q134 -2 278 0q-33 207 -63 367zM528 765l-6 -8q-55 39 -157 108q-13 9 -10.5 22.5t14 18t25.5 -4.5q10 -10 134 -136z" />
    <glyph glyph-name="Aacute" unicode="&#xc1;" horiz-adv-x="835" 
d="M548 230q-158 4 -301 0q-59 -100 -68 -118q-24 -39 -13.5 -58t60.5 -19h51l-3 -37q-93 2 -145 2l-146 -2l3 37h34q47 0 69.5 12.5t49.5 61.5q1 2 165.5 280.5t175.5 302.5h12q11 -1 16 -1l27 1q53 -325 105 -583q9 -47 23.5 -60.5t62.5 -13.5h43l-3 -37q-101 2 -158 2
l-158 -2l3 37h46q51 0 63 15.5t5 62.5q-18 109 -19 117zM265 261q134 -2 278 0q-33 207 -63 367zM512 756l-6 8q110 115 134 136q12 10 25 4.5t14 -18t-11 -22.5q-10 -7 -40 -27.5t-61 -41.5t-55 -39z" />
    <glyph glyph-name="Acircumflex" unicode="&#xc2;" horiz-adv-x="835" 
d="M548 230q-158 4 -301 0q-59 -100 -68 -118q-24 -39 -13.5 -58t60.5 -19h51l-3 -37q-93 2 -145 2l-146 -2l3 37h34q47 0 69.5 12.5t49.5 61.5q1 2 165.5 280.5t175.5 302.5h12q11 -1 16 -1l27 1q53 -325 105 -583q9 -47 23.5 -60.5t62.5 -13.5h43l-3 -37q-101 2 -158 2
l-158 -2l3 37h46q51 0 63 15.5t5 62.5q-18 109 -19 117zM265 261q134 -2 278 0q-33 207 -63 367zM641 763l-9 -6q-23 22 -94 109q-52 -49 -141 -109l-6 7q62 80 135 140h35q41 -53 80 -141z" />
    <glyph glyph-name="Atilde" unicode="&#xc3;" horiz-adv-x="835" 
d="M548 230q-158 4 -301 0q-59 -100 -68 -118q-24 -39 -13.5 -58t60.5 -19h51l-3 -37q-93 2 -145 2l-146 -2l3 37h34q47 0 69.5 12.5t49.5 61.5q1 2 165.5 280.5t175.5 302.5h12q11 -1 16 -1l27 1q53 -325 105 -583q9 -47 23.5 -60.5t62.5 -13.5h43l-3 -37q-101 2 -158 2
l-158 -2l3 37h46q51 0 63 15.5t5 62.5q-18 109 -19 117zM265 261q134 -2 278 0q-33 207 -63 367zM647 883l19 3q11 -70 -16.5 -105.5t-73.5 -33.5q-31 1 -50.5 15.5t-36.5 47.5q-18 37 -30 49.5t-35 12.5q-25 0 -40 -26.5t-10 -81.5l-18 -3q-11 70 16 105.5t74 34.5
q33 -1 51 -15.5t35 -48.5q20 -37 32.5 -50t32.5 -13q27 0 41 28t9 81z" />
    <glyph glyph-name="Adieresis" unicode="&#xc4;" horiz-adv-x="835" 
d="M548 230q-158 4 -301 0q-59 -100 -68 -118q-24 -39 -13.5 -58t60.5 -19h51l-3 -37q-93 2 -145 2l-146 -2l3 37h34q47 0 69.5 12.5t49.5 61.5q1 2 165.5 280.5t175.5 302.5h12q11 -1 16 -1l27 1q53 -325 105 -583q9 -47 23.5 -60.5t62.5 -13.5h43l-3 -37q-101 2 -158 2
l-158 -2l3 37h46q51 0 63 15.5t5 62.5q-18 109 -19 117zM265 261q134 -2 278 0q-33 207 -63 367zM473 813q-1 -19 -14.5 -31.5t-32.5 -12.5q-18 0 -29 12t-9 30q1 20 14.5 31.5t32.5 11.5q18 0 28.5 -11.5t9.5 -29.5zM648 812q-2 -19 -16 -31t-31 -12q-19 0 -30 12t-9 31
q1 18 15 30t32 12t29 -11t10 -31z" />
    <glyph glyph-name="Aring" unicode="&#xc5;" horiz-adv-x="835" 
d="M548 230q-158 4 -301 0q-59 -100 -68 -118q-24 -39 -13.5 -58t60.5 -19h51l-3 -37q-93 2 -145 2l-146 -2l3 37h34q47 0 69.5 12.5t49.5 61.5q1 2 165.5 280.5t175.5 302.5h12q11 -1 16 -1l27 1q53 -325 105 -583q9 -47 23.5 -60.5t62.5 -13.5h43l-3 -37q-101 2 -158 2
l-158 -2l3 37h46q51 0 63 15.5t5 62.5q-18 109 -19 117zM265 261q134 -2 278 0q-33 207 -63 367zM478 838q-3 -26 9 -41t35 -15q24 0 39 15t18 41q2 26 -11 40.5t-35 14.5q-50 0 -55 -55zM450 838q4 36 27 56t57 20q35 0 55 -21t16 -55q-3 -36 -26.5 -56.5t-58.5 -20.5
q-34 0 -54 21.5t-16 55.5z" />
    <glyph glyph-name="AE" unicode="&#xc6;" horiz-adv-x="1062" 
d="M1000 228q-23 -88 -46 -232q-46 4 -206 4h-264l-141 -2l3 37h59q31 0 43.5 9t17.5 35l25 128q-122 2 -216 -1q-59 -81 -66 -93q-55 -78 32 -78h47l-3 -37q-99 2 -153 2l-149 -2l2 37h47q45 0 72.5 15.5t60.5 60.5q331 450 367 506q12 18 6.5 29t-27.5 11h-40l2 34
q26 -3 136 -3h293q109 0 166 7q-24 -101 -42 -228h-33l8 40q18 93 0 120t-102 27h-217q-42 0 -52 -43q-4 -16 -47 -245h97q74 0 101 24.5t43 101.5l2 15h34q-24 -87 -37 -155q-13 -69 -22 -160h-34l4 17q13 74 -9.5 101t-105.5 27h-78l-47 -255q-9 -47 29 -47h228
q51 0 80.5 7t47.5 29.5t26 49.5t17 83l4 24h37zM297 237q100 -2 200 0q70 367 70 369q-132 -178 -270 -369z" />
    <glyph glyph-name="Ccedilla" unicode="&#xc7;" horiz-adv-x="727" 
d="M232 -109l-9 18q58 26 76 73q-307 10 -242 364q34 185 140.5 273.5t258.5 88.5q102 0 175 -47q48 -31 62 29q3 -1 19 -1t19 1q-46 -103 -55 -228h-33q18 106 -25 159.5t-159 53.5q-125 0 -213 -80t-119 -249q-16 -77 -12 -133.5t19 -94.5t45.5 -60.5t66.5 -32.5t83 -10
q70 0 121 17t83 52t50.5 74t32.5 96q1 0 9 -0.5t13 -0.5t13 0.5t9 0.5q-34 -149 -113 -211t-228 -62q-7 -36 -37 -59q44 6 76 -13.5t31 -61.5q-1 -40 -31.5 -64t-82.5 -24q-71 0 -104 50l15 13q30 -35 78 -35q70 0 72 61q1 32 -27 46t-77 -3z" />
    <glyph glyph-name="Egrave" unicode="&#xc8;" horiz-adv-x="716" 
d="M478 492l2 15h34q-23 -89 -36 -155q-13 -69 -22 -160h-33l2 16q13 78 -8 103.5t-102 25.5h-83q-45 -237 -46 -260q-2 -25 8 -33.5t41 -8.5h206q94 0 123.5 31t50.5 146l3 16h37q-18 -76 -46 -232q-44 4 -199 4h-249q-107 0 -171 -2l3 37h63q31 0 45 10t21 36
q5 22 49 259.5t48 265.5q4 29 -5.5 39t-37.5 10h-72l3 35q8 0 77.5 -1t79.5 -1h304q97 0 153 7q-35 -181 -41 -227h-33l6 29q23 89 5.5 123t-99.5 34h-213q-29 0 -42 -9t-20 -39q-8 -35 -46 -240h84q86 0 113 22.5t43 103.5zM512 765l-6 -8q-55 39 -157 108
q-13 9 -10.5 22.5t14 18t25.5 -4.5q10 -10 134 -136z" />
    <glyph glyph-name="Eacute" unicode="&#xc9;" horiz-adv-x="716" 
d="M413 756l-6 8q110 115 134 136q12 10 25 4.5t14 -18t-11 -22.5q-10 -7 -40 -27.5t-61 -41.5t-55 -39zM478 492l2 15h34q-23 -89 -36 -155q-13 -69 -22 -160h-33l2 16q13 78 -8 103.5t-102 25.5h-83q-45 -237 -46 -260q-2 -25 8 -33.5t41 -8.5h206q94 0 123.5 31t50.5 146
l3 16h37q-18 -76 -46 -232q-44 4 -199 4h-249q-107 0 -171 -2l3 37h63q31 0 45 10t21 36q5 22 49 259.5t48 265.5q4 29 -5.5 39t-37.5 10h-72l3 35q8 0 77.5 -1t79.5 -1h304q97 0 153 7q-35 -181 -41 -227h-33l6 29q23 89 5.5 123t-99.5 34h-213q-29 0 -42 -9t-20 -39
q-8 -35 -46 -240h84q86 0 113 22.5t43 103.5z" />
    <glyph glyph-name="Ecircumflex" unicode="&#xca;" horiz-adv-x="716" 
d="M600 763l-9 -6q-23 22 -94 109q-52 -49 -141 -109l-6 7q62 80 135 140h35q41 -53 80 -141zM478 492l2 15h34q-23 -89 -36 -155q-13 -69 -22 -160h-33l2 16q13 78 -8 103.5t-102 25.5h-83q-45 -237 -46 -260q-2 -25 8 -33.5t41 -8.5h206q94 0 123.5 31t50.5 146l3 16h37
q-18 -76 -46 -232q-44 4 -199 4h-249q-107 0 -171 -2l3 37h63q31 0 45 10t21 36q5 22 49 259.5t48 265.5q4 29 -5.5 39t-37.5 10h-72l3 35q8 0 77.5 -1t79.5 -1h304q97 0 153 7q-35 -181 -41 -227h-33l6 29q23 89 5.5 123t-99.5 34h-213q-29 0 -42 -9t-20 -39
q-8 -35 -46 -240h84q86 0 113 22.5t43 103.5z" />
    <glyph glyph-name="Edieresis" unicode="&#xcb;" horiz-adv-x="716" 
d="M436 813q-1 -19 -14.5 -31.5t-32.5 -12.5q-18 0 -29 12t-9 30q1 20 14.5 31.5t32.5 11.5q18 0 28.5 -11.5t9.5 -29.5zM611 812q-2 -19 -16 -31t-31 -12q-19 0 -30 12t-9 31q1 18 15 30t32 12t29 -11t10 -31zM478 492l2 15h34q-23 -89 -36 -155q-13 -69 -22 -160h-33l2 16
q13 78 -8 103.5t-102 25.5h-83q-45 -237 -46 -260q-2 -25 8 -33.5t41 -8.5h206q94 0 123.5 31t50.5 146l3 16h37q-18 -76 -46 -232q-44 4 -199 4h-249q-107 0 -171 -2l3 37h63q31 0 45 10t21 36q5 22 49 259.5t48 265.5q4 29 -5.5 39t-37.5 10h-72l3 35q8 0 77.5 -1t79.5 -1
h304q97 0 153 7q-35 -181 -41 -227h-33l6 29q23 89 5.5 123t-99.5 34h-213q-29 0 -42 -9t-20 -39q-8 -35 -46 -240h84q86 0 113 22.5t43 103.5z" />
    <glyph glyph-name="Igrave" unicode="&#xcc;" horiz-adv-x="390" 
d="M-11 -2l2 37h63q36 0 48.5 7t17.5 33q7 25 51.5 263t48.5 268q3 29 -6.5 39t-37.5 10h-72l3 35q100 -2 156 -2q34 0 93.5 1t62.5 1l-2 -35h-72q-28 0 -41 -10t-20 -39t-51.5 -267t-47.5 -264q-2 -25 7.5 -32.5t44.5 -7.5h65l-2 -37q-99 2 -155 2zM326 765l-6 -8
q-55 39 -157 108q-13 9 -10.5 22.5t14 18t25.5 -4.5q10 -10 134 -136z" />
    <glyph glyph-name="Iacute" unicode="&#xcd;" horiz-adv-x="390" 
d="M-11 -2l2 37h63q36 0 48.5 7t17.5 33q7 25 51.5 263t48.5 268q3 29 -6.5 39t-37.5 10h-72l3 35q100 -2 156 -2q34 0 93.5 1t62.5 1l-2 -35h-72q-28 0 -41 -10t-20 -39t-51.5 -267t-47.5 -264q-2 -25 7.5 -32.5t44.5 -7.5h65l-2 -37q-99 2 -155 2zM251 756l-6 8
q110 115 134 136q12 10 25 4.5t14 -18t-11 -22.5q-10 -7 -40 -27.5t-61 -41.5t-55 -39z" />
    <glyph glyph-name="Icircumflex" unicode="&#xce;" horiz-adv-x="390" 
d="M-11 -2l2 37h63q36 0 48.5 7t17.5 33q7 25 51.5 263t48.5 268q3 29 -6.5 39t-37.5 10h-72l3 35q100 -2 156 -2q34 0 93.5 1t62.5 1l-2 -35h-72q-28 0 -41 -10t-20 -39t-51.5 -267t-47.5 -264q-2 -25 7.5 -32.5t44.5 -7.5h65l-2 -37q-99 2 -155 2zM395 763l-9 -6
q-23 22 -94 109q-52 -49 -141 -109l-6 7q62 80 135 140h35q41 -53 80 -141z" />
    <glyph glyph-name="Idieresis" unicode="&#xcf;" horiz-adv-x="390" 
d="M-11 -2l2 37h63q36 0 48.5 7t17.5 33q7 25 51.5 263t48.5 268q3 29 -6.5 39t-37.5 10h-72l3 35q100 -2 156 -2q34 0 93.5 1t62.5 1l-2 -35h-72q-28 0 -41 -10t-20 -39t-51.5 -267t-47.5 -264q-2 -25 7.5 -32.5t44.5 -7.5h65l-2 -37q-99 2 -155 2zM236 813
q-1 -19 -14.5 -31.5t-32.5 -12.5q-18 0 -29 12t-9 30q1 20 14.5 31.5t32.5 11.5q18 0 28.5 -11.5t9.5 -29.5zM411 812q-2 -19 -16 -31t-31 -12q-19 0 -30 12t-9 31q1 18 15 30t32 12t29 -11t10 -31z" />
    <glyph glyph-name="Eth" unicode="&#xd0;" horiz-adv-x="781" 
d="M438 689q359 0 300 -348q-58 -342 -427 -342q-14 0 -81.5 0.5t-85.5 0.5q-19 0 -81 -0.5t-73 -0.5l2 36h62q36 0 48.5 7t17.5 33l50 259q-21 0 -52 -0.5t-39 -0.5q5 10 5 38q40 -2 92 -2l43 237q5 30 -3.5 39.5t-40.5 9.5h-72l3 35l32 -1q31 -1 70.5 -1.5t60.5 -0.5
q22 0 85.5 1t83.5 1zM187 82q-4 -29 4.5 -39t35.5 -10h79q73 0 128 13.5t103 47t80.5 95t49.5 152.5q16 73 11.5 126.5t-20.5 90t-50 58.5t-78.5 31.5t-106.5 9.5h-81q-25 0 -38 -10.5t-19 -37.5q-8 -32 -46 -240q89 0 149 2q-7 -21 -5 -38q-31 1 -151 1q-39 -204 -45 -252z
" />
    <glyph glyph-name="Ntilde" unicode="&#xd1;" horiz-adv-x="828" 
d="M301 690q24 -54 286 -592q87 438 95 507q3 29 -6.5 39.5t-37.5 10.5h-72l2 35q3 0 60 -1t88 -1q32 0 87 1l55 1l-3 -35h-71q-28 0 -41 -10.5t-20 -39.5q-8 -28 -51 -258t-64 -350h-48q-29 65 -300 621q-24 -116 -59 -305t-39 -221q-8 -57 53 -57h62l-2 -37q-129 2 -145 2
l-140 -2l3 37h55q35 0 52.5 13t24.5 44q8 33 50.5 260.5t44.5 253.5q3 29 -6.5 39t-37.5 10h-72l2 35q12 -1 97.5 -1t97.5 1zM650 886l19 3q11 -70 -16.5 -105.5t-73.5 -33.5q-31 1 -50.5 15.5t-36.5 47.5q-18 37 -30 49.5t-35 12.5q-25 0 -40 -26.5t-10 -81.5l-18 -3
q-11 70 16 105.5t74 34.5q33 -1 51 -15.5t35 -48.5q20 -37 32.5 -50t32.5 -13q27 0 41 28t9 81z" />
    <glyph glyph-name="Ograve" unicode="&#xd2;" horiz-adv-x="779" 
d="M332 10q123 0 211.5 83.5t120.5 253.5q62 329 -205 329q-123 0 -210.5 -79.5t-119.5 -250.5q-35 -180 17.5 -258t185.5 -78zM326 -23q-164 0 -232.5 94.5t-36.5 274.5q32 172 142 267t266 95q160 0 231 -92.5t39 -268.5q-33 -177 -145.5 -273.5t-263.5 -96.5zM515 765
l-6 -8q-55 39 -157 108q-13 9 -10.5 22.5t14 18t25.5 -4.5q10 -10 134 -136z" />
    <glyph glyph-name="Oacute" unicode="&#xd3;" horiz-adv-x="779" 
d="M448 756l-6 8q110 115 134 136q12 10 25 4.5t14 -18t-11 -22.5q-10 -7 -40 -27.5t-61 -41.5t-55 -39zM332 10q123 0 211.5 83.5t120.5 253.5q62 329 -205 329q-123 0 -210.5 -79.5t-119.5 -250.5q-35 -180 17.5 -258t185.5 -78zM326 -23q-164 0 -232.5 94.5t-36.5 274.5
q32 172 142 267t266 95q160 0 231 -92.5t39 -268.5q-33 -177 -145.5 -273.5t-263.5 -96.5z" />
    <glyph glyph-name="Ocircumflex" unicode="&#xd4;" horiz-adv-x="779" 
d="M592 763l-9 -6q-23 22 -94 109q-52 -49 -141 -109l-6 7q62 80 135 140h35q41 -53 80 -141zM332 10q123 0 211.5 83.5t120.5 253.5q62 329 -205 329q-123 0 -210.5 -79.5t-119.5 -250.5q-35 -180 17.5 -258t185.5 -78zM326 -23q-164 0 -232.5 94.5t-36.5 274.5
q32 172 142 267t266 95q160 0 231 -92.5t39 -268.5q-33 -177 -145.5 -273.5t-263.5 -96.5z" />
    <glyph glyph-name="Otilde" unicode="&#xd5;" horiz-adv-x="779" 
d="M332 10q123 0 211.5 83.5t120.5 253.5q62 329 -205 329q-123 0 -210.5 -79.5t-119.5 -250.5q-35 -180 17.5 -258t185.5 -78zM326 -23q-164 0 -232.5 94.5t-36.5 274.5q32 172 142 267t266 95q160 0 231 -92.5t39 -268.5q-33 -177 -145.5 -273.5t-263.5 -96.5zM624 886
l19 3q11 -70 -16.5 -105.5t-73.5 -33.5q-31 1 -50.5 15.5t-36.5 47.5q-18 37 -30 49.5t-35 12.5q-25 0 -40 -26.5t-10 -81.5l-18 -3q-11 70 16 105.5t74 34.5q33 -1 51 -15.5t35 -48.5q20 -37 32.5 -50t32.5 -13q27 0 41 28t9 81z" />
    <glyph glyph-name="Odieresis" unicode="&#xd6;" horiz-adv-x="779" 
d="M437 813q-1 -19 -14.5 -31.5t-32.5 -12.5q-18 0 -29 12t-9 30q1 20 14.5 31.5t32.5 11.5q18 0 28.5 -11.5t9.5 -29.5zM612 812q-2 -19 -16 -31t-31 -12q-19 0 -30 12t-9 31q1 18 15 30t32 12t29 -11t10 -31zM332 10q123 0 211.5 83.5t120.5 253.5q62 329 -205 329
q-123 0 -210.5 -79.5t-119.5 -250.5q-35 -180 17.5 -258t185.5 -78zM326 -23q-164 0 -232.5 94.5t-36.5 274.5q32 172 142 267t266 95q160 0 231 -92.5t39 -268.5q-33 -177 -145.5 -273.5t-263.5 -96.5z" />
    <glyph glyph-name="multiply" unicode="&#xd7;" 
d="M444 106l-37 -30q-97 133 -111 161q-22 -23 -157 -143l-25 31q126 95 172 125q-29 25 -131 142l37 30q82 -109 109 -159q69 75 159 150l23 -30q-137 -112 -172 -134q14 -12 35.5 -34.5t38.5 -41.5t36 -41t23 -26z" />
    <glyph glyph-name="Oslash" unicode="&#xd8;" horiz-adv-x="779" 
d="M326 -23q-114 0 -184 47l-66 -74l-16 13l59 80q-100 92 -62 303q32 172 142 267t266 95q103 0 169 -39l61 66l15 -12l-52 -70q116 -90 77 -306q-33 -177 -145.5 -273.5t-263.5 -96.5zM332 10q123 0 211.5 83.5t120.5 253.5q35 186 -34 267l-6 -8l-223 -259l-229 -290
q53 -47 160 -47zM376 346l221 283l7 8q-52 39 -145 39q-123 0 -210.5 -79.5t-119.5 -250.5q-35 -183 21 -263z" />
    <glyph glyph-name="Ugrave" unicode="&#xd9;" horiz-adv-x="866" 
d="M155 285q10 44 32.5 166.5t26.5 151.5q3 30 -6 41t-37 11h-67l3 35q109 -2 153 -2q33 0 91.5 1t61.5 1l-3 -35h-66q-28 0 -41.5 -11t-21.5 -41q-7 -25 -32 -160t-30 -168q-26 -137 18 -195t151 -58t173.5 58.5t92.5 194.5q52 255 61 328q3 29 -7.5 40.5t-37.5 11.5h-66
l3 35q87 -2 140 -2q32 0 88 1t59 1l-3 -35h-65q-27 0 -40.5 -11.5t-20.5 -40.5l-59 -319q-58 -303 -328 -303q-144 0 -199 72.5t-24 231.5zM599 765l-6 -8q-55 39 -157 108q-13 9 -10.5 22.5t14 18t25.5 -4.5q10 -10 134 -136z" />
    <glyph glyph-name="Uacute" unicode="&#xda;" horiz-adv-x="866" 
d="M517 756l-6 8q110 115 134 136q12 10 25 4.5t14 -18t-11 -22.5q-10 -7 -40 -27.5t-61 -41.5t-55 -39zM155 285q10 44 32.5 166.5t26.5 151.5q3 30 -6 41t-37 11h-67l3 35q109 -2 153 -2q33 0 91.5 1t61.5 1l-3 -35h-66q-28 0 -41.5 -11t-21.5 -41q-7 -25 -32 -160
t-30 -168q-26 -137 18 -195t151 -58t173.5 58.5t92.5 194.5q52 255 61 328q3 29 -7.5 40.5t-37.5 11.5h-66l3 35q87 -2 140 -2q32 0 88 1t59 1l-3 -35h-65q-27 0 -40.5 -11.5t-20.5 -40.5l-59 -319q-58 -303 -328 -303q-144 0 -199 72.5t-24 231.5z" />
    <glyph glyph-name="Ucircumflex" unicode="&#xdb;" horiz-adv-x="866" 
d="M649 763l-9 -6q-23 22 -94 109q-52 -49 -141 -109l-6 7q62 80 135 140h35q41 -53 80 -141zM155 285q10 44 32.5 166.5t26.5 151.5q3 30 -6 41t-37 11h-67l3 35q109 -2 153 -2q33 0 91.5 1t61.5 1l-3 -35h-66q-28 0 -41.5 -11t-21.5 -41q-7 -25 -32 -160t-30 -168
q-26 -137 18 -195t151 -58t173.5 58.5t92.5 194.5q52 255 61 328q3 29 -7.5 40.5t-37.5 11.5h-66l3 35q87 -2 140 -2q32 0 88 1t59 1l-3 -35h-65q-27 0 -40.5 -11.5t-20.5 -40.5l-59 -319q-58 -303 -328 -303q-144 0 -199 72.5t-24 231.5z" />
    <glyph glyph-name="Udieresis" unicode="&#xdc;" horiz-adv-x="866" 
d="M486 813q-1 -19 -14.5 -31.5t-32.5 -12.5q-18 0 -29 12t-9 30q1 20 14.5 31.5t32.5 11.5q18 0 28.5 -11.5t9.5 -29.5zM661 812q-2 -19 -16 -31t-31 -12q-19 0 -30 12t-9 31q1 18 15 30t32 12t29 -11t10 -31zM155 285q10 44 32.5 166.5t26.5 151.5q3 30 -6 41t-37 11h-67
l3 35q109 -2 153 -2q33 0 91.5 1t61.5 1l-3 -35h-66q-28 0 -41.5 -11t-21.5 -41q-7 -25 -32 -160t-30 -168q-26 -137 18 -195t151 -58t173.5 58.5t92.5 194.5q52 255 61 328q3 29 -7.5 40.5t-37.5 11.5h-66l3 35q87 -2 140 -2q32 0 88 1t59 1l-3 -35h-65q-27 0 -40.5 -11.5
t-20.5 -40.5l-59 -319q-58 -303 -328 -303q-144 0 -199 72.5t-24 231.5z" />
    <glyph glyph-name="Yacute" unicode="&#xdd;" horiz-adv-x="765" 
d="M643 586q-149 -204 -248 -349l-26 -152q-3 -18 -2.5 -29.5t12 -16t39.5 -4.5h71l-3 -37q-102 2 -159 2l-159 -2l2 37h67q37 0 49 9.5t18 40.5l27 152q-17 55 -59.5 187.5t-51.5 162.5q-13 41 -35.5 54.5t-70.5 13.5h-32l2 35q105 -2 165 -2l164 2l-3 -35h-50
q-54 0 -67 -13t-2 -56q38 -136 97 -310q142 201 213 310q25 33 17.5 51t-59.5 18h-41l3 35q96 -2 150 -2l149 2l-3 -35h-31q-58 0 -84.5 -12t-58.5 -57zM483 756l-6 8q110 115 134 136q12 10 25 4.5t14 -18t-11 -22.5q-10 -7 -40 -27.5t-61 -41.5t-55 -39z" />
    <glyph glyph-name="Thorn" unicode="&#xde;" horiz-adv-x="650" 
d="M-10 -2l2 37h63q35 0 47.5 7t18.5 33q7 28 51.5 265.5t48.5 265.5q3 29 -6.5 39t-37.5 10h-72l3 35q100 -2 156 -2q34 0 93.5 1t62.5 1l-2 -35h-72q-28 0 -41.5 -10.5t-19.5 -38.5l-14 -65q69 13 139 13q132 0 193 -55.5t41 -169.5q-18 -102 -99.5 -147.5t-236.5 -45.5
q-61 0 -110 13q-7 -39 -12 -74q-3 -25 7 -32.5t45 -7.5h65l-2 -37q-99 2 -155 2zM395 518q-70 0 -130 -8q-37 -195 -61 -330q44 -7 109 -7q123 0 183 36t77 122q19 99 -26 143t-152 44z" />
    <glyph glyph-name="germandbls" unicode="&#xdf;" horiz-adv-x="543" 
d="M39 430l4 30l88 -1q42 142 100.5 195t131.5 53q83 0 117 -48t17 -135q-12 -60 -46.5 -103t-89.5 -59q82 -3 120.5 -53t25.5 -139q-28 -186 -199 -186q-72 0 -100.5 44t-9.5 123h27q-16 -69 2 -103t82 -34q51 0 84.5 35t46.5 121q15 95 -22.5 136t-145.5 34l6 28
q64 -1 101.5 38t53.5 118q15 77 -5 118t-74 41q-148 0 -184 -324q-24 -217 -62 -344.5t-82.5 -174t-106.5 -46.5q-50 0 -72.5 24t-12.5 64q10 39 50 39t33 -38q-4 -22 -22.5 -29t-38.5 1q2 -38 59 -38q39 0 67 23.5t46.5 72t30 108.5t20.5 148q15 148 45 262z" />
    <glyph glyph-name="agrave" unicode="&#xe0;" horiz-adv-x="549" 
d="M530 154q-11 -77 -43 -124t-82 -47q-49 0 -67.5 29.5t-4.5 101.5q-30 -62 -74.5 -96.5t-93.5 -34.5q-69 0 -101 50t-17 154q20 131 82 204.5t144 73.5q52 0 83 -29t34 -82q37 84 45 107h34q-34 -124 -79 -332q-13 -61 -6 -87t36 -26q59 0 87 140zM180 12q59 0 111 66.5
t76 191.5q17 85 -7 125.5t-80 40.5q-59 0 -104 -58.5t-67 -186.5q-30 -179 71 -179zM357 535l-6 -8q-55 39 -157 108q-13 9 -10.5 22.5t14 18t25.5 -4.5q10 -10 134 -136z" />
    <glyph glyph-name="aacute" unicode="&#xe1;" horiz-adv-x="549" 
d="M530 154q-11 -77 -43 -124t-82 -47q-49 0 -67.5 29.5t-4.5 101.5q-30 -62 -74.5 -96.5t-93.5 -34.5q-69 0 -101 50t-17 154q20 131 82 204.5t144 73.5q52 0 83 -29t34 -82q37 84 45 107h34q-34 -124 -79 -332q-13 -61 -6 -87t36 -26q59 0 87 140zM180 12q59 0 111 66.5
t76 191.5q17 85 -7 125.5t-80 40.5q-59 0 -104 -58.5t-67 -186.5q-30 -179 71 -179zM296 526l-6 8q110 115 134 136q12 10 25 4.5t14 -18t-11 -22.5q-10 -7 -40 -27.5t-61 -41.5t-55 -39z" />
    <glyph glyph-name="acircumflex" unicode="&#xe2;" horiz-adv-x="549" 
d="M530 154q-11 -77 -43 -124t-82 -47q-49 0 -67.5 29.5t-4.5 101.5q-30 -62 -74.5 -96.5t-93.5 -34.5q-69 0 -101 50t-17 154q20 131 82 204.5t144 73.5q52 0 83 -29t34 -82q37 84 45 107h34q-34 -124 -79 -332q-13 -61 -6 -87t36 -26q59 0 87 140zM180 12q59 0 111 66.5
t76 191.5q17 85 -7 125.5t-80 40.5q-59 0 -104 -58.5t-67 -186.5q-30 -179 71 -179zM457 529l-9 -6q-23 22 -94 109q-52 -49 -141 -109l-6 7q62 80 135 140h35q41 -53 80 -141z" />
    <glyph glyph-name="atilde" unicode="&#xe3;" horiz-adv-x="549" 
d="M530 154q-11 -77 -43 -124t-82 -47q-49 0 -67.5 29.5t-4.5 101.5q-30 -62 -74.5 -96.5t-93.5 -34.5q-69 0 -101 50t-17 154q20 131 82 204.5t144 73.5q52 0 83 -29t34 -82q37 84 45 107h34q-34 -124 -79 -332q-13 -61 -6 -87t36 -26q59 0 87 140zM180 12q59 0 111 66.5
t76 191.5q17 85 -7 125.5t-80 40.5q-59 0 -104 -58.5t-67 -186.5q-30 -179 71 -179zM490 656l19 3q11 -70 -16.5 -105.5t-73.5 -33.5q-31 1 -50.5 15.5t-36.5 47.5q-18 37 -30 49.5t-35 12.5q-25 0 -40 -26.5t-10 -81.5l-18 -3q-11 70 16 105.5t74 34.5q33 -1 51 -15.5
t35 -48.5q20 -37 32.5 -50t32.5 -13q27 0 41 28t9 81z" />
    <glyph glyph-name="adieresis" unicode="&#xe4;" horiz-adv-x="549" 
d="M530 154q-11 -77 -43 -124t-82 -47q-49 0 -67.5 29.5t-4.5 101.5q-30 -62 -74.5 -96.5t-93.5 -34.5q-69 0 -101 50t-17 154q20 131 82 204.5t144 73.5q52 0 83 -29t34 -82q37 84 45 107h34q-34 -124 -79 -332q-13 -61 -6 -87t36 -26q59 0 87 140zM180 12q59 0 111 66.5
t76 191.5q17 85 -7 125.5t-80 40.5q-59 0 -104 -58.5t-67 -186.5q-30 -179 71 -179zM293 583q-1 -19 -14.5 -31.5t-32.5 -12.5q-18 0 -29 12t-9 30q1 20 14.5 31.5t32.5 11.5q18 0 28.5 -11.5t9.5 -29.5zM468 582q-2 -19 -16 -31t-31 -12q-19 0 -30 12t-9 31q1 18 15 30
t32 12t29 -11t10 -31z" />
    <glyph glyph-name="aring" unicode="&#xe5;" horiz-adv-x="549" 
d="M530 154q-11 -77 -43 -124t-82 -47q-49 0 -67.5 29.5t-4.5 101.5q-30 -62 -74.5 -96.5t-93.5 -34.5q-69 0 -101 50t-17 154q20 131 82 204.5t144 73.5q52 0 83 -29t34 -82q37 84 45 107h34q-34 -124 -79 -332q-13 -61 -6 -87t36 -26q59 0 87 140zM180 12q59 0 111 66.5
t76 191.5q17 85 -7 125.5t-80 40.5q-59 0 -104 -58.5t-67 -186.5q-30 -179 71 -179zM279 603q-3 -26 9 -41t35 -15q24 0 39 15t18 41q2 26 -11 40.5t-35 14.5q-50 0 -55 -55zM251 603q4 36 27 56t57 20q35 0 55 -21t16 -55q-3 -36 -26.5 -56.5t-58.5 -20.5q-34 0 -54 21.5
t-16 55.5z" />
    <glyph glyph-name="ae" unicode="&#xe6;" horiz-adv-x="775" 
d="M668 124l26 -7q-32 -68 -73.5 -101t-112.5 -33q-86 0 -124.5 39.5t-36.5 117.5q-30 -74 -79.5 -115.5t-102.5 -41.5q-69 0 -101.5 50t-17.5 154q20 131 82 204.5t144 73.5q59 0 91 -37t27 -104q34 69 87.5 105t117.5 36q139 0 114 -139q-25 -147 -292 -135
q-17 -101 7 -141t88 -40q110 0 156 114zM179 12q59 0 110.5 66.5t76.5 191.5q17 85 -7.5 125.5t-80.5 40.5q-59 0 -103.5 -59t-66.5 -186q-15 -89 1 -134t70 -45zM423 222l-3 -13q85 -1 132.5 11t68.5 35.5t32 67.5q13 52 -2.5 83.5t-61.5 31.5q-60 0 -101.5 -49.5
t-64.5 -166.5z" />
    <glyph glyph-name="ccedilla" unicode="&#xe7;" horiz-adv-x="462" 
d="M126 -109l-9 18q60 27 76 74q-187 4 -141 241q23 116 89.5 178.5t152.5 62.5q65 0 97.5 -26t27.5 -74q-2 -32 -17.5 -48t-39.5 -16q-43 0 -38 43q3 23 24.5 33t42.5 1q-5 60 -98 60q-64 0 -109 -48.5t-68 -165.5q-24 -122 0.5 -168t93.5 -46q102 0 148 114l30 -7
q-29 -64 -70 -97t-105 -36q-5 -37 -37 -62q44 6 76 -13.5t31 -61.5q-1 -40 -31.5 -64t-82.5 -24q-71 0 -104 50l15 13q30 -35 78 -35q70 0 72 61q1 32 -27 46t-77 -3z" />
    <glyph glyph-name="egrave" unicode="&#xe8;" horiz-adv-x="466" 
d="M359 124l30 -7q-31 -68 -73 -101t-113 -33q-103 0 -138.5 61.5t-12.5 179.5q23 117 88 179t151 62q74 0 100.5 -38.5t14.5 -101.5q-29 -146 -296 -134q-16 -100 9 -140.5t89 -40.5q106 0 151 114zM116 224l-3 -15q126 -3 173 22t62 91q12 52 -3 84t-60 32
q-61 0 -103.5 -48.5t-65.5 -165.5zM358 535l-6 -8q-55 39 -157 108q-13 9 -10.5 22.5t14 18t25.5 -4.5q10 -10 134 -136z" />
    <glyph glyph-name="eacute" unicode="&#xe9;" horiz-adv-x="466" 
d="M260 526l-6 8q110 115 134 136q12 10 25 4.5t14 -18t-11 -22.5q-10 -7 -40 -27.5t-61 -41.5t-55 -39zM359 124l30 -7q-31 -68 -73 -101t-113 -33q-103 0 -138.5 61.5t-12.5 179.5q23 117 88 179t151 62q74 0 100.5 -38.5t14.5 -101.5q-29 -146 -296 -134
q-16 -100 9 -140.5t89 -40.5q106 0 151 114zM116 224l-3 -15q126 -3 173 22t62 91q12 52 -3 84t-60 32q-61 0 -103.5 -48.5t-65.5 -165.5z" />
    <glyph glyph-name="ecircumflex" unicode="&#xea;" horiz-adv-x="466" 
d="M413 529l-9 -6q-23 22 -94 109q-52 -49 -141 -109l-6 7q62 80 135 140h35q41 -53 80 -141zM359 124l30 -7q-31 -68 -73 -101t-113 -33q-103 0 -138.5 61.5t-12.5 179.5q23 117 88 179t151 62q74 0 100.5 -38.5t14.5 -101.5q-29 -146 -296 -134q-16 -100 9 -140.5
t89 -40.5q106 0 151 114zM116 224l-3 -15q126 -3 173 22t62 91q12 52 -3 84t-60 32q-61 0 -103.5 -48.5t-65.5 -165.5z" />
    <glyph glyph-name="edieresis" unicode="&#xeb;" horiz-adv-x="466" 
d="M263 583q-1 -19 -14.5 -31.5t-32.5 -12.5q-18 0 -29 12t-9 30q1 20 14.5 31.5t32.5 11.5q18 0 28.5 -11.5t9.5 -29.5zM438 582q-2 -19 -16 -31t-31 -12q-19 0 -30 12t-9 31q1 18 15 30t32 12t29 -11t10 -31zM359 124l30 -7q-31 -68 -73 -101t-113 -33q-103 0 -138.5 61.5
t-12.5 179.5q23 117 88 179t151 62q74 0 100.5 -38.5t14.5 -101.5q-29 -146 -296 -134q-16 -100 9 -140.5t89 -40.5q106 0 151 114zM116 224l-3 -15q126 -3 173 22t62 91q12 52 -3 84t-60 32q-61 0 -103.5 -48.5t-65.5 -165.5z" />
    <glyph glyph-name="igrave" unicode="&#xec;" horiz-adv-x="321" 
d="M204 298l-47 -164q-32 -115 29 -117q59 0 87 139l23 -2q-10 -71 -41 -121t-87 -50q-54 0 -73 39t2 110l50 170q39 134 -21 134q-31 0 -55.5 -41.5t-38.5 -105.5l-24 1q9 70 43 122.5t83 52.5q119 0 70 -167zM235 535l-6 -8q-55 39 -157 108q-13 9 -10.5 22.5t14 18
t25.5 -4.5q10 -10 134 -136z" />
    <glyph glyph-name="iacute" unicode="&#xed;" horiz-adv-x="321" 
d="M174 526l-6 8q110 115 134 136q12 10 25 4.5t14 -18t-11 -22.5q-10 -7 -40 -27.5t-61 -41.5t-55 -39zM204 298l-47 -164q-32 -115 29 -117q59 0 87 139l23 -2q-10 -71 -41 -121t-87 -50q-54 0 -73 39t2 110l50 170q39 134 -21 134q-31 0 -55.5 -41.5t-38.5 -105.5l-24 1
q9 70 43 122.5t83 52.5q119 0 70 -167z" />
    <glyph glyph-name="icircumflex" unicode="&#xee;" horiz-adv-x="321" 
d="M313 529l-9 -6q-23 22 -94 109q-52 -49 -141 -109l-6 7q62 80 135 140h35q41 -53 80 -141zM204 298l-47 -164q-32 -115 29 -117q59 0 87 139l23 -2q-10 -71 -41 -121t-87 -50q-54 0 -73 39t2 110l50 170q39 134 -21 134q-31 0 -55.5 -41.5t-38.5 -105.5l-24 1
q9 70 43 122.5t83 52.5q119 0 70 -167z" />
    <glyph glyph-name="idieresis" unicode="&#xef;" horiz-adv-x="321" 
d="M164 583q-1 -19 -14.5 -31.5t-32.5 -12.5q-18 0 -29 12t-9 30q1 20 14.5 31.5t32.5 11.5q18 0 28.5 -11.5t9.5 -29.5zM339 582q-2 -19 -16 -31t-31 -12q-19 0 -30 12t-9 31q1 18 15 30t32 12t29 -11t10 -31zM204 298l-47 -164q-32 -115 29 -117q59 0 87 139l23 -2
q-10 -71 -41 -121t-87 -50q-54 0 -73 39t2 110l50 170q39 134 -21 134q-31 0 -55.5 -41.5t-38.5 -105.5l-24 1q9 70 43 122.5t83 52.5q119 0 70 -167z" />
    <glyph glyph-name="eth" unicode="&#xf0;" horiz-adv-x="491" 
d="M262 541l-14 21l88 51q-52 46 -177 46l3 29q130 4 198 -59q67 51 85 62l13 -21q-11 -6 -45 -27.5t-41 -25.5q92 -100 60 -340q-19 -141 -83 -217.5t-159 -76.5q-181 0 -140 230q21 113 86.5 182.5t147.5 69.5q78 0 101 -73q10 151 -38 208q-75 -53 -85 -59zM111 199
q-19 -105 3.5 -147.5t78.5 -42.5q123 0 172 240q38 191 -79 191q-59 0 -106.5 -63t-68.5 -178z" />
    <glyph glyph-name="ntilde" unicode="&#xf1;" horiz-adv-x="590" 
d="M28 289l-24 1q8 65 41.5 120t87.5 55q50 0 64.5 -37t1.5 -109q64 146 175 146q70 0 92 -46t-6 -160l-31 -118q-17 -61 -12 -93t36 -32q59 0 85 140l24 -2q-11 -72 -42 -121.5t-87 -49.5q-106 0 -64 157l33 120q47 176 -45 176q-124 0 -192 -279l-34 -158q-19 2 -30 2
l-29 -2q65 287 66 291q18 78 15 112t-33 34q-27 0 -52.5 -39.5t-39.5 -107.5zM494 656l19 3q11 -70 -16.5 -105.5t-73.5 -33.5q-31 1 -50.5 15.5t-36.5 47.5q-18 37 -30 49.5t-35 12.5q-25 0 -40 -26.5t-10 -81.5l-18 -3q-11 70 16 105.5t74 34.5q33 -1 51 -15.5t35 -48.5
q20 -37 32.5 -50t32.5 -13q27 0 41 28t9 81z" />
    <glyph glyph-name="ograve" unicode="&#xf2;" horiz-adv-x="483" 
d="M189 9q63 0 109.5 67.5t66.5 196.5q28 167 -84 167q-60 0 -109 -67.5t-69 -191.5q-27 -172 86 -172zM186 -17q-80 0 -120 51.5t-23 156.5q18 117 83.5 195.5t155.5 78.5q79 0 118.5 -47.5t25.5 -147.5q-18 -124 -83.5 -205.5t-156.5 -81.5zM348 535l-6 -8
q-55 39 -157 108q-13 9 -10.5 22.5t14 18t25.5 -4.5q10 -10 134 -136z" />
    <glyph glyph-name="oacute" unicode="&#xf3;" horiz-adv-x="483" 
d="M262 526l-6 8q110 115 134 136q12 10 25 4.5t14 -18t-11 -22.5q-10 -7 -40 -27.5t-61 -41.5t-55 -39zM189 9q63 0 109.5 67.5t66.5 196.5q28 167 -84 167q-60 0 -109 -67.5t-69 -191.5q-27 -172 86 -172zM186 -17q-80 0 -120 51.5t-23 156.5q18 117 83.5 195.5
t155.5 78.5q79 0 118.5 -47.5t25.5 -147.5q-18 -124 -83.5 -205.5t-156.5 -81.5z" />
    <glyph glyph-name="ocircumflex" unicode="&#xf4;" horiz-adv-x="483" 
d="M432 529l-9 -6q-23 22 -94 109q-52 -49 -141 -109l-6 7q62 80 135 140h35q41 -53 80 -141zM189 9q63 0 109.5 67.5t66.5 196.5q28 167 -84 167q-60 0 -109 -67.5t-69 -191.5q-27 -172 86 -172zM186 -17q-80 0 -120 51.5t-23 156.5q18 117 83.5 195.5t155.5 78.5
q79 0 118.5 -47.5t25.5 -147.5q-18 -124 -83.5 -205.5t-156.5 -81.5z" />
    <glyph glyph-name="otilde" unicode="&#xf5;" horiz-adv-x="483" 
d="M189 9q63 0 109.5 67.5t66.5 196.5q28 167 -84 167q-60 0 -109 -67.5t-69 -191.5q-27 -172 86 -172zM186 -17q-80 0 -120 51.5t-23 156.5q18 117 83.5 195.5t155.5 78.5q79 0 118.5 -47.5t25.5 -147.5q-18 -124 -83.5 -205.5t-156.5 -81.5zM446 656l19 3
q11 -70 -16.5 -105.5t-73.5 -33.5q-31 1 -50.5 15.5t-36.5 47.5q-18 37 -30 49.5t-35 12.5q-25 0 -40 -26.5t-10 -81.5l-18 -3q-11 70 16 105.5t74 34.5q33 -1 51 -15.5t35 -48.5q20 -37 32.5 -50t32.5 -13q27 0 41 28t9 81z" />
    <glyph glyph-name="odieresis" unicode="&#xf6;" horiz-adv-x="483" 
d="M274 583q-1 -19 -14.5 -31.5t-32.5 -12.5q-18 0 -29 12t-9 30q1 20 14.5 31.5t32.5 11.5q18 0 28.5 -11.5t9.5 -29.5zM449 582q-2 -19 -16 -31t-31 -12q-19 0 -30 12t-9 31q1 18 15 30t32 12t29 -11t10 -31zM189 9q63 0 109.5 67.5t66.5 196.5q28 167 -84 167
q-60 0 -109 -67.5t-69 -191.5q-27 -172 86 -172zM186 -17q-80 0 -120 51.5t-23 156.5q18 117 83.5 195.5t155.5 78.5q79 0 118.5 -47.5t25.5 -147.5q-18 -124 -83.5 -205.5t-156.5 -81.5z" />
    <glyph glyph-name="divide" unicode="&#xf7;" 
d="M320 113q0 -22 -13.5 -34t-34.5 -12t-34 12t-13 34q0 21 13.5 34t33.5 13q21 0 34.5 -13t13.5 -34zM92 229l9 43q154 -4 200 -14q51 10 206 14l-9 -43q-154 4 -200 14q-51 -10 -206 -14zM374 387q0 -21 -13.5 -33.5t-34.5 -12.5q-20 0 -33.5 12.5t-13.5 34.5
q0 21 13.5 34t33.5 13q21 0 34.5 -13.5t13.5 -34.5z" />
    <glyph glyph-name="oslash" unicode="&#xf8;" horiz-adv-x="483" 
d="M186 -17q-37 0 -67 12l-43 -68l-13 8l36 69q-79 48 -56 187q18 117 83.5 195.5t155.5 78.5q36 0 63 -10l46 78l14 -7l-39 -80q78 -43 60 -176q-18 -124 -83.5 -205.5t-156.5 -81.5zM189 9q63 0 109.5 67.5t66.5 196.5q17 101 -17 141l-113 -201l-99 -190q20 -14 53 -14z
M118 39l114 204l98 186q-20 11 -49 11q-60 0 -109 -67.5t-69 -191.5q-15 -100 15 -142z" />
    <glyph glyph-name="ugrave" unicode="&#xf9;" horiz-adv-x="584" 
d="M542 156l23 -2q-9 -69 -40.5 -120t-84.5 -51q-57 0 -71.5 40.5t3.5 114.5q-65 -155 -176 -155q-69 0 -88 46t7 161l29 118q16 64 12.5 96t-31.5 32q-31 0 -55.5 -42t-37.5 -105l-24 1q9 68 41.5 121.5t86.5 53.5q105 0 67 -158l-29 -118q-16 -65 -17 -103.5t12.5 -56
t43.5 -17.5q124 0 194 293l33 155q19 -1 29 -1l30 1q-40 -159 -67 -301q-15 -82 -11 -112.5t34 -30.5q33 0 52.5 36.5t34.5 103.5zM371 535l-6 -8q-55 39 -157 108q-13 9 -10.5 22.5t14 18t25.5 -4.5q10 -10 134 -136z" />
    <glyph glyph-name="uacute" unicode="&#xfa;" horiz-adv-x="584" 
d="M308 526l-6 8q110 115 134 136q12 10 25 4.5t14 -18t-11 -22.5q-10 -7 -40 -27.5t-61 -41.5t-55 -39zM542 156l23 -2q-9 -69 -40.5 -120t-84.5 -51q-57 0 -71.5 40.5t3.5 114.5q-65 -155 -176 -155q-69 0 -88 46t7 161l29 118q16 64 12.5 96t-31.5 32q-31 0 -55.5 -42
t-37.5 -105l-24 1q9 68 41.5 121.5t86.5 53.5q105 0 67 -158l-29 -118q-16 -65 -17 -103.5t12.5 -56t43.5 -17.5q124 0 194 293l33 155q19 -1 29 -1l30 1q-40 -159 -67 -301q-15 -82 -11 -112.5t34 -30.5q33 0 52.5 36.5t34.5 103.5z" />
    <glyph glyph-name="ucircumflex" unicode="&#xfb;" horiz-adv-x="584" 
d="M461 529l-9 -6q-23 22 -94 109q-52 -49 -141 -109l-6 7q62 80 135 140h35q41 -53 80 -141zM542 156l23 -2q-9 -69 -40.5 -120t-84.5 -51q-57 0 -71.5 40.5t3.5 114.5q-65 -155 -176 -155q-69 0 -88 46t7 161l29 118q16 64 12.5 96t-31.5 32q-31 0 -55.5 -42t-37.5 -105
l-24 1q9 68 41.5 121.5t86.5 53.5q105 0 67 -158l-29 -118q-16 -65 -17 -103.5t12.5 -56t43.5 -17.5q124 0 194 293l33 155q19 -1 29 -1l30 1q-40 -159 -67 -301q-15 -82 -11 -112.5t34 -30.5q33 0 52.5 36.5t34.5 103.5z" />
    <glyph glyph-name="udieresis" unicode="&#xfc;" horiz-adv-x="584" 
d="M299 583q-1 -19 -14.5 -31.5t-32.5 -12.5q-18 0 -29 12t-9 30q1 20 14.5 31.5t32.5 11.5q18 0 28.5 -11.5t9.5 -29.5zM474 582q-2 -19 -16 -31t-31 -12q-19 0 -30 12t-9 31q1 18 15 30t32 12t29 -11t10 -31zM542 156l23 -2q-9 -69 -40.5 -120t-84.5 -51q-57 0 -71.5 40.5
t3.5 114.5q-65 -155 -176 -155q-69 0 -88 46t7 161l29 118q16 64 12.5 96t-31.5 32q-31 0 -55.5 -42t-37.5 -105l-24 1q9 68 41.5 121.5t86.5 53.5q105 0 67 -158l-29 -118q-16 -65 -17 -103.5t12.5 -56t43.5 -17.5q124 0 194 293l33 155q19 -1 29 -1l30 1
q-40 -159 -67 -301q-15 -82 -11 -112.5t34 -30.5q33 0 52.5 36.5t34.5 103.5z" />
    <glyph glyph-name="yacute" unicode="&#xfd;" horiz-adv-x="540" 
d="M32 289l-24 1q9 68 41.5 121.5t86.5 53.5q107 0 67 -158l-30 -118q-24 -97 -14.5 -137t53.5 -40q123 0 192 277l35 172q19 -1 29 -1l30 1q-48 -194 -90 -417q-45 -243 -245 -243q-75 0 -105 29t-17 68q13 40 55 40q20 0 31 -13t7 -33q-5 -22 -27 -29.5t-41 3.5
q11 -42 98 -42q78 0 121.5 50.5t65.5 157.5l22 110q-32 -80 -78.5 -119.5t-99.5 -39.5q-69 0 -87.5 45.5t7.5 161.5l28 118q17 64 13.5 96t-31.5 32q-32 0 -56 -41.5t-37 -105.5zM287 526l-6 8q110 115 134 136q12 10 25 4.5t14 -18t-11 -22.5q-10 -7 -40 -27.5t-61 -41.5
t-55 -39z" />
    <glyph glyph-name="thorn" unicode="&#xfe;" horiz-adv-x="508" 
d="M206 595l-55 -276q30 70 76.5 108t98.5 38q150 0 120 -201q-21 -137 -81 -209t-145 -72q-46 0 -76 24t-39 68q-26 -119 -32 -163q-5 -33 5.5 -44t46.5 -11h41l-3 -31q-2 0 -51.5 1t-76.5 1q-21 0 -51 -0.5t-52.5 -1t-24.5 -0.5l3 31h41q34 1 45.5 12t20.5 45
q9 32 62 303.5t74 386.5q5 30 -2 42.5t-32 12.5h-48l2 31q73 -4 149 0q-1 -20 -16 -95zM312 436q-60 0 -111 -63.5t-75 -187.5q-17 -86 7.5 -129.5t79.5 -43.5q128 0 171 249q15 87 -1.5 131t-70.5 44z" />
    <glyph glyph-name="ydieresis" unicode="&#xff;" horiz-adv-x="540" 
d="M32 289l-24 1q9 68 41.5 121.5t86.5 53.5q107 0 67 -158l-30 -118q-24 -97 -14.5 -137t53.5 -40q123 0 192 277l35 172q19 -1 29 -1l30 1q-48 -194 -90 -417q-45 -243 -245 -243q-75 0 -105 29t-17 68q13 40 55 40q20 0 31 -13t7 -33q-5 -22 -27 -29.5t-41 3.5
q11 -42 98 -42q78 0 121.5 50.5t65.5 157.5l22 110q-32 -80 -78.5 -119.5t-99.5 -39.5q-69 0 -87.5 45.5t7.5 161.5l28 118q17 64 13.5 96t-31.5 32q-32 0 -56 -41.5t-37 -105.5zM277 583q-1 -19 -14.5 -31.5t-32.5 -12.5q-18 0 -29 12t-9 30q1 20 14.5 31.5t32.5 11.5
q18 0 28.5 -11.5t9.5 -29.5zM452 582q-2 -19 -16 -31t-31 -12q-19 0 -30 12t-9 31q1 18 15 30t32 12t29 -11t10 -31z" />
    <glyph glyph-name="Amacron" unicode="&#x100;" horiz-adv-x="835" 
d="M548 229q-158 4 -301 0q-59 -100 -68 -118q-24 -39 -13.5 -58t60.5 -19h51l-3 -37q-93 2 -145 2l-146 -2l3 37h34q47 0 69.5 12.5t49.5 61.5q1 2 165.5 280.5t175.5 302.5l12 -1h16l27 1q53 -325 105 -583q9 -47 23.5 -60.5t62.5 -13.5h43l-3 -37q-101 2 -158 2l-158 -2
l3 37h46q51 0 63 15.5t5 62.5q-18 109 -19 117zM265 260q134 -2 278 0q-33 207 -63 367zM400 782q6 12 6 41q121 -4 242 0q-8 -24 -6 -41q-121 4 -242 0z" />
    <glyph glyph-name="amacron" unicode="&#x101;" horiz-adv-x="549" 
d="M530 154q-11 -77 -43 -124t-82 -47q-49 0 -67.5 29.5t-4.5 101.5q-30 -62 -74.5 -96.5t-93.5 -34.5q-69 0 -101 50t-17 154q20 131 82 204.5t144 73.5q52 0 83 -29t34 -82q37 84 45 107h34q-34 -124 -79 -332q-13 -61 -6 -87t36 -26q59 0 87 140zM180 12q59 0 111 66.5
t76 191.5q17 85 -7 125.5t-80 40.5q-59 0 -104 -58.5t-67 -186.5q-30 -179 71 -179zM190 543q6 12 6 41q121 -4 242 0q-8 -24 -6 -41q-121 4 -242 0z" />
    <glyph glyph-name="Abreve" unicode="&#x102;" horiz-adv-x="835" 
d="M548 230q-158 4 -301 0q-59 -100 -68 -118q-24 -39 -13.5 -58t60.5 -19h51l-3 -37q-93 2 -145 2l-146 -2l3 37h34q47 0 69.5 12.5t49.5 61.5q1 2 165.5 280.5t175.5 302.5h12q11 -1 16 -1l27 1q53 -325 105 -583q9 -47 23.5 -60.5t62.5 -13.5h43l-3 -37q-101 2 -158 2
l-158 -2l3 37h46q51 0 63 15.5t5 62.5q-18 109 -19 117zM265 261q134 -2 278 0q-33 207 -63 367zM508 760q-69 0 -95 40.5t-11 104.5l13 2q-5 -56 16 -79t82 -23q60 0 89 25t39 77l14 -2q-5 -65 -41.5 -105t-105.5 -40z" />
    <glyph glyph-name="abreve" unicode="&#x103;" horiz-adv-x="549" 
d="M530 154q-11 -77 -43 -124t-82 -47q-49 0 -67.5 29.5t-4.5 101.5q-30 -62 -74.5 -96.5t-93.5 -34.5q-69 0 -101 50t-17 154q20 131 82 204.5t144 73.5q52 0 83 -29t34 -82q37 84 45 107h34q-34 -124 -79 -332q-13 -61 -6 -87t36 -26q59 0 87 140zM180 12q59 0 111 66.5
t76 191.5q17 85 -7 125.5t-80 40.5q-59 0 -104 -58.5t-67 -186.5q-30 -179 71 -179zM322 534q-69 0 -95 40.5t-11 104.5l13 2q-5 -56 16 -79t82 -23q60 0 89 25t39 77l14 -2q-5 -65 -41.5 -105t-105.5 -40z" />
    <glyph glyph-name="Aogonek" unicode="&#x104;" horiz-adv-x="835" 
d="M745 -84q-11 -55 -47.5 -88.5t-88.5 -33.5q-48 0 -70 24t-17 62q6 39 39 70.5t85 49.5h-38l-158 -2l3 37h46q51 0 63 15.5t5 62.5q-18 109 -19 117q-158 4 -301 0q-59 -100 -68 -118q-24 -39 -13.5 -58t60.5 -19h51l-3 -37q-93 2 -145 2l-146 -2l3 37h34q47 0 69.5 12.5
t49.5 61.5q1 2 165.5 280.5t175.5 302.5h12q11 -1 16 -1l27 1q53 -325 105 -583q9 -47 23.5 -60.5t62.5 -13.5h43l-3 -37q-43 1 -88 2q-50 -18 -78.5 -47t-31.5 -61q-9 -65 56 -65q37 0 64.5 26.5t38.5 66.5zM265 261q134 -2 278 0q-33 207 -63 367z" />
    <glyph glyph-name="aogonek" unicode="&#x105;" horiz-adv-x="549" 
d="M565 -84q-10 -54 -46.5 -88t-89.5 -34q-48 0 -70 24t-16 62q10 67 83 107q-14 -4 -21 -4q-49 0 -67.5 29.5t-4.5 101.5q-30 -62 -74.5 -96.5t-93.5 -34.5q-69 0 -101 50t-17 154q20 131 82 204.5t144 73.5q52 0 83 -29t34 -82q37 84 45 107h34q-22 -80 -79 -332
q-12 -61 -5 -86.5t35 -26.5q59 0 87 140l23 -2q-10 -59 -25 -93t-45 -60q-64 -59 -72 -109q-9 -65 57 -65q37 0 64 26.5t38 66.5zM180 12q59 0 111 66.5t76 191.5q17 85 -7 125.5t-80 40.5q-59 0 -104 -58.5t-67 -186.5q-30 -179 71 -179z" />
    <glyph glyph-name="Cacute" unicode="&#x106;" horiz-adv-x="727" 
d="M444 756l-6 8q110 115 134 136q12 10 25 4.5t14 -18t-11 -22.5q-10 -7 -40 -27.5t-61 -41.5t-55 -39zM456 708q102 0 175 -47q48 -31 62 29q3 -1 19 -1t19 1q-46 -103 -55 -228h-33q18 106 -25 159.5t-159 53.5q-125 0 -213 -80t-119 -249q-16 -77 -12 -133.5t19 -94.5
t45.5 -60.5t66.5 -32.5t83 -10q70 0 121 17t83 52t50.5 74t32.5 96q1 0 9 -0.5t13 -0.5t13 0.5t9 0.5q-34 -149 -113.5 -211t-228.5 -62q-157 0 -226 89t-35 276q34 185 140.5 273.5t258.5 88.5z" />
    <glyph glyph-name="cacute" unicode="&#x107;" horiz-adv-x="462" 
d="M266 526l-6 8q110 115 134 136q12 10 25 4.5t14 -18t-11 -22.5q-10 -7 -40 -27.5t-61 -41.5t-55 -39zM201 -17q-102 0 -137 61.5t-12 179.5q23 116 89.5 178.5t152.5 62.5q65 0 97.5 -26t27.5 -74q-2 -32 -17.5 -48t-39.5 -16q-43 0 -38 43q3 23 24.5 33t42.5 1
q-5 60 -98 60q-64 0 -109 -48.5t-68 -165.5q-24 -122 0.5 -168t93.5 -46q102 0 148 114l30 -7q-30 -66 -74 -100t-113 -34z" />
    <glyph glyph-name="Ccircumflex" unicode="&#x108;" horiz-adv-x="727" 
d="M589 763l-9 -6q-23 22 -94 109q-52 -49 -141 -109l-6 7q62 80 135 140h35q41 -53 80 -141zM456 708q102 0 175 -47q48 -31 62 29q3 -1 19 -1t19 1q-46 -103 -55 -228h-33q18 106 -25 159.5t-159 53.5q-125 0 -213 -80t-119 -249q-16 -77 -12 -133.5t19 -94.5t45.5 -60.5
t66.5 -32.5t83 -10q70 0 121 17t83 52t50.5 74t32.5 96q1 0 9 -0.5t13 -0.5t13 0.5t9 0.5q-34 -149 -113.5 -211t-228.5 -62q-157 0 -226 89t-35 276q34 185 140.5 273.5t258.5 88.5z" />
    <glyph glyph-name="ccircumflex" unicode="&#x109;" horiz-adv-x="462" 
d="M424 529l-9 -6q-23 22 -94 109q-52 -49 -141 -109l-6 7q62 80 135 140h35q41 -53 80 -141zM201 -17q-102 0 -137 61.5t-12 179.5q23 116 89.5 178.5t152.5 62.5q65 0 97.5 -26t27.5 -74q-2 -32 -17.5 -48t-39.5 -16q-43 0 -38 43q3 23 24.5 33t42.5 1q-5 60 -98 60
q-64 0 -109 -48.5t-68 -165.5q-24 -122 0.5 -168t93.5 -46q102 0 148 114l30 -7q-30 -66 -74 -100t-113 -34z" />
    <glyph glyph-name="Cdotaccent" unicode="&#x10a;" horiz-adv-x="727" 
d="M456 708q102 0 175 -47q48 -31 62 29q3 -1 19 -1t19 1q-46 -103 -55 -228h-33q18 106 -25 159.5t-159 53.5q-125 0 -213 -80t-119 -249q-16 -77 -12 -133.5t19 -94.5t45.5 -60.5t66.5 -32.5t83 -10q70 0 121 17t83 52t50.5 74t32.5 96q1 0 9 -0.5t13 -0.5t13 0.5t9 0.5
q-34 -149 -113.5 -211t-228.5 -62q-157 0 -226 89t-35 276q34 185 140.5 273.5t258.5 88.5zM509 825q0 -19 -13 -32t-32 -13q-18 0 -31 13t-13 32q0 18 13 31t31 13q19 0 32 -13t13 -31z" />
    <glyph glyph-name="cdotaccent" unicode="&#x10b;" horiz-adv-x="462" 
d="M201 -17q-102 0 -137 61.5t-12 179.5q23 116 89.5 178.5t152.5 62.5q65 0 97.5 -26t27.5 -74q-2 -32 -17.5 -48t-39.5 -16q-43 0 -38 43q3 23 24.5 33t42.5 1q-5 60 -98 60q-64 0 -109 -48.5t-68 -165.5q-24 -122 0.5 -168t93.5 -46q102 0 148 114l30 -7
q-30 -66 -74 -100t-113 -34zM345 595q0 -19 -13 -32t-32 -13q-18 0 -31 13t-13 32q0 18 13 31t31 13q19 0 32 -13t13 -31z" />
    <glyph glyph-name="Ccaron" unicode="&#x10c;" horiz-adv-x="727" 
d="M366 901l9 6q37 -37 99 -111q89 79 135 111l6 -7q-62 -82 -132 -140h-34q-49 61 -83 141zM456 708q102 0 175 -47q48 -31 62 29q3 -1 19 -1t19 1q-46 -103 -55 -228h-33q18 106 -25 159.5t-159 53.5q-125 0 -213 -80t-119 -249q-16 -77 -12 -133.5t19 -94.5t45.5 -60.5
t66.5 -32.5t83 -10q70 0 121 17t83 52t50.5 74t32.5 96q1 0 9 -0.5t13 -0.5t13 0.5t9 0.5q-34 -149 -113.5 -211t-228.5 -62q-157 0 -226 89t-35 276q34 185 140.5 273.5t258.5 88.5z" />
    <glyph glyph-name="ccaron" unicode="&#x10d;" horiz-adv-x="462" 
d="M210 663l9 6q37 -37 99 -111q89 79 135 111l6 -7q-62 -82 -132 -140h-34q-49 61 -83 141zM201 -17q-102 0 -137 61.5t-12 179.5q23 116 89.5 178.5t152.5 62.5q65 0 97.5 -26t27.5 -74q-2 -32 -17.5 -48t-39.5 -16q-43 0 -38 43q3 23 24.5 33t42.5 1q-5 60 -98 60
q-64 0 -109 -48.5t-68 -165.5q-24 -122 0.5 -168t93.5 -46q102 0 148 114l30 -7q-30 -66 -74 -100t-113 -34z" />
    <glyph glyph-name="Dcaron" unicode="&#x10e;" horiz-adv-x="781" 
d="M341 901l9 6q37 -37 99 -111q89 79 135 111l6 -7q-62 -82 -132 -140h-34q-49 61 -83 141zM438 689q358 0 300 -348q-59 -342 -427 -342q-14 0 -81.5 0.5t-85.5 0.5q-19 0 -81 -0.5t-73 -0.5l2 36h62q35 0 47 7.5t19 32.5q7 33 51 268t48 263q4 30 -4.5 39.5t-39.5 9.5
h-72l3 35l32 -1q31 -1 70.5 -1.5t60.5 -0.5q22 0 85.5 1t83.5 1zM187 82q-4 -29 4.5 -39t35.5 -10h79q73 0 127.5 13.5t102.5 47t80.5 95t50.5 152.5q14 91 9 152t-39.5 97.5t-85.5 51.5t-128 15h-81q-25 0 -38 -10.5t-19 -37.5q-7 -28 -50 -259.5t-48 -267.5z" />
    <glyph glyph-name="dcaron" unicode="&#x10f;" horiz-adv-x="660" 
d="M596 604q-38 0 -35 41q1 18 15.5 31.5t35.5 13.5q27 0 37 -18.5t7 -46.5q-11 -94 -126 -140l-6 16q100 41 109 122q-12 -19 -37 -19zM485 595q-49 -224 -87 -448q-12 -65 -8 -98t31 -33q58 0 86 140l23 -2q-10 -73 -41.5 -122t-83.5 -49q-48 0 -63.5 33t-4.5 100
q-31 -63 -76 -98t-93 -35q-70 0 -103 50t-18 154q20 131 82.5 204.5t144.5 73.5q45 0 75 -22.5t39 -63.5l44 225q5 29 -2 42t-32 13h-62l2 31q26 -2 81 -2t81 2q-4 -47 -15 -95zM182 12q59 0 110.5 66.5t76.5 191.5q17 85 -7.5 125.5t-80.5 40.5q-59 0 -104.5 -59
t-67.5 -186q-30 -179 73 -179z" />
    <glyph glyph-name="Dcroat" unicode="&#x110;" horiz-adv-x="781" 
d="M438 689q359 0 300 -348q-58 -342 -427 -342q-14 0 -81.5 0.5t-85.5 0.5q-19 0 -81 -0.5t-73 -0.5l2 36h62q35 0 47 7.5t19 32.5l50 259q-21 0 -52 -0.5t-39 -0.5q5 10 5 38q40 -2 92 -2l43 237q4 30 -4.5 39.5t-39.5 9.5h-72l3 35l32 -1q31 -1 70.5 -1.5t60.5 -0.5
q22 0 85.5 1t83.5 1zM187 82q-4 -29 4.5 -39t35.5 -10h79q73 0 128 13.5t103 47t80.5 95t49.5 152.5q16 73 11.5 126.5t-20.5 90t-50 58.5t-78.5 31.5t-106.5 9.5h-81q-25 0 -38 -10.5t-19 -37.5q-8 -32 -46 -240q89 0 149 2q-7 -21 -5 -38q-31 1 -151 1q-39 -204 -45 -252z
" />
    <glyph glyph-name="dcroat" unicode="&#x111;" horiz-adv-x="551" 
d="M485 595l-9 -41q40 0 84 2q-4 -11 -6 -35q-10 0 -39 0.5t-46 0.5q-53 -261 -71 -375q-12 -65 -8 -98t31 -33q58 0 86 140l23 -2q-10 -73 -41.5 -122t-83.5 -49q-48 0 -63.5 33t-4.5 100q-31 -63 -76 -98t-93 -35q-70 0 -103 50t-18 154q20 131 82.5 204.5t144.5 73.5
q45 0 75 -22.5t39 -63.5l28 143q-78 0 -104 -1q4 19 6 35q52 -2 104 -2l10 50q5 29 -2 42t-32 13h-62l2 31q26 -2 81 -2t81 2q-4 -47 -15 -95zM182 12q59 0 110.5 66.5t76.5 191.5q17 85 -7.5 125.5t-80.5 40.5q-59 0 -104.5 -59t-67.5 -186q-30 -179 73 -179z" />
    <glyph glyph-name="Emacron" unicode="&#x112;" horiz-adv-x="716" 
d="M478 492l2 15h34q-23 -89 -36 -155q-13 -69 -22 -160h-33l2 16q13 78 -8 103.5t-102 25.5h-83q-45 -237 -46 -260q-2 -25 8 -33.5t41 -8.5h206q94 0 123.5 31t50.5 146l3 16h37q-18 -76 -46 -232q-44 4 -199 4h-249q-107 0 -171 -2l3 37h63q31 0 45 10t21 36
q5 22 49 259.5t48 265.5q4 29 -5.5 39t-37.5 10h-72l3 35q8 0 77.5 -1t79.5 -1h304q97 0 153 7q-35 -181 -41 -227h-33l6 29q23 89 5.5 123t-99.5 34h-213q-29 0 -42 -9t-20 -39q-8 -35 -46 -240h84q86 0 113 22.5t43 103.5zM331 782q6 12 6 41q121 -4 242 0q-8 -24 -6 -41
q-121 4 -242 0z" />
    <glyph glyph-name="emacron" unicode="&#x113;" horiz-adv-x="466" 
d="M359 124l30 -7q-31 -68 -73 -101t-113 -33q-103 0 -138.5 61.5t-12.5 179.5q23 117 88 179t151 62q74 0 100.5 -38.5t14.5 -101.5q-29 -146 -296 -134q-16 -100 9 -140.5t89 -40.5q106 0 151 114zM116 224l-3 -15q126 -3 173 22t62 91q12 52 -3 84t-60 32
q-61 0 -103.5 -48.5t-65.5 -165.5zM172 543q6 12 6 41q121 -4 242 0q-8 -24 -6 -41q-121 4 -242 0z" />
    <glyph glyph-name="Ebreve" unicode="&#x114;" horiz-adv-x="716" 
d="M478 492l2 15h34q-23 -89 -36 -155q-13 -69 -22 -160h-33l2 16q13 78 -8 103.5t-102 25.5h-83q-45 -237 -46 -260q-2 -25 8 -33.5t41 -8.5h206q94 0 123.5 31t50.5 146l3 16h37q-18 -76 -46 -232q-44 4 -199 4h-249q-107 0 -171 -2l3 37h63q31 0 45 10t21 36
q5 22 49 259.5t48 265.5q4 29 -5.5 39t-37.5 10h-72l3 35q8 0 77.5 -1t79.5 -1h304q97 0 153 7q-35 -181 -41 -227h-33l6 29q23 89 5.5 123t-99.5 34h-213q-29 0 -42 -9t-20 -39q-8 -35 -46 -240h84q86 0 113 22.5t43 103.5zM461 760q-69 0 -95 40.5t-11 104.5l13 2
q-5 -56 16 -79t82 -23q60 0 89 25t39 77l14 -2q-5 -65 -41.5 -105t-105.5 -40z" />
    <glyph glyph-name="ebreve" unicode="&#x115;" horiz-adv-x="466" 
d="M359 124l30 -7q-31 -68 -73 -101t-113 -33q-199 0 -151 241q22 117 87.5 179t151.5 62q74 0 100.5 -38.5t14.5 -101.5q-29 -146 -296 -134q-16 -100 9 -140.5t89 -40.5q106 0 151 114zM116 224l-3 -15q126 -3 173 22t62 91q12 52 -3 84t-60 32q-61 0 -103.5 -48.5
t-65.5 -165.5zM308 534q-69 0 -95 40.5t-11 104.5l13 2q-5 -56 16 -79t82 -23q60 0 89 25t39 77l14 -2q-5 -65 -41.5 -105t-105.5 -40z" />
    <glyph glyph-name="Edotaccent" unicode="&#x116;" horiz-adv-x="716" 
d="M478 492l2 15h34q-23 -89 -36 -155q-13 -69 -22 -160h-33l2 16q13 78 -8 103.5t-102 25.5h-83q-45 -237 -46 -260q-2 -25 8 -33.5t41 -8.5h206q94 0 123.5 31t50.5 146l3 16h37q-18 -76 -46 -232q-44 4 -199 4h-249q-107 0 -171 -2l3 37h63q31 0 45 10t21 36
q5 22 49 259.5t48 265.5q4 29 -5.5 39t-37.5 10h-72l3 35q8 0 77.5 -1t79.5 -1h304q97 0 153 7q-35 -181 -41 -227h-33l6 29q23 89 5.5 123t-99.5 34h-213q-29 0 -42 -9t-20 -39q-8 -35 -46 -240h84q86 0 113 22.5t43 103.5zM478 825q0 -19 -13 -32t-32 -13q-18 0 -31 13
t-13 32q0 18 13 31t31 13q19 0 32 -13t13 -31z" />
    <glyph glyph-name="edotaccent" unicode="&#x117;" horiz-adv-x="466" 
d="M359 124l30 -7q-31 -68 -73 -101t-113 -33q-103 0 -138.5 61.5t-12.5 179.5q23 117 88 179t151 62q74 0 100.5 -38.5t14.5 -101.5q-29 -146 -296 -134q-16 -100 9 -140.5t89 -40.5q106 0 151 114zM116 224l-3 -15q126 -3 173 22t62 91q12 52 -3 84t-60 32
q-61 0 -103.5 -48.5t-65.5 -165.5zM325 595q0 -19 -13 -32t-32 -13q-18 0 -31 13t-13 32q0 18 13 31t31 13q19 0 32 -13t13 -31z" />
    <glyph glyph-name="Eogonek" unicode="&#x118;" horiz-adv-x="716" 
d="M478 492l2 15h34q-23 -89 -36 -155q-13 -69 -22 -160h-33l2 16q13 78 -8 103.5t-102 25.5h-83q-45 -237 -46 -260q-2 -25 8 -33.5t41 -8.5h206q94 0 123.5 31t50.5 146l3 16h37q-18 -76 -46 -232q-19 2 -71 4q-50 -18 -78.5 -47t-31.5 -61q-9 -65 56 -65q37 0 64.5 26.5
t38.5 66.5l18 -4q-11 -55 -47.5 -88.5t-88.5 -33.5q-48 0 -70 24t-17 62q6 39 38.5 70.5t85.5 49.5h-345q-107 0 -171 -2l3 37h63q31 0 45 10t21 36q5 22 49 259.5t48 265.5q4 29 -5.5 39t-37.5 10h-72l3 35q8 0 77.5 -1t79.5 -1h304q97 0 153 7q-35 -181 -41 -227h-33l6 29
q23 89 5.5 123t-99.5 34h-213q-29 0 -42 -9t-20 -39q-8 -35 -46 -240h84q86 0 113 22.5t43 103.5z" />
    <glyph glyph-name="eogonek" unicode="&#x119;" horiz-adv-x="466" 
d="M389 -84q-10 -54 -46.5 -88t-89.5 -34q-48 0 -70 24t-16 62q9 66 89 109q-22 -6 -53 -6q-199 0 -151 241q22 117 87.5 179t151.5 62q74 0 100.5 -38.5t14.5 -101.5q-29 -146 -296 -134q-16 -100 9 -140.5t89 -40.5q106 0 151 114l30 -7q-17 -38 -37.5 -64t-57.5 -52
q-74 -55 -82 -109q-9 -65 57 -65q37 0 64 26.5t38 66.5zM116 224l-3 -15q126 -3 173 22t62 91q12 52 -3 84t-60 32q-61 0 -103.5 -48.5t-65.5 -165.5z" />
    <glyph glyph-name="Ecaron" unicode="&#x11a;" horiz-adv-x="716" 
d="M335 901l9 6q37 -37 99 -111q89 79 135 111l6 -7q-62 -82 -132 -140h-34q-49 61 -83 141zM478 492l2 15h34q-23 -89 -36 -155q-13 -69 -22 -160h-33l2 16q13 78 -8 103.5t-102 25.5h-83q-45 -237 -46 -260q-2 -25 8 -33.5t41 -8.5h206q94 0 123.5 31t50.5 146l3 16h37
q-18 -76 -46 -232q-44 4 -199 4h-249q-107 0 -171 -2l3 37h63q31 0 45 10t21 36q5 22 49 259.5t48 265.5q4 29 -5.5 39t-37.5 10h-72l3 35q8 0 77.5 -1t79.5 -1h304q97 0 153 7q-35 -181 -41 -227h-33l6 29q23 89 5.5 123t-99.5 34h-213q-29 0 -42 -9t-20 -39
q-8 -35 -46 -240h84q86 0 113 22.5t43 103.5z" />
    <glyph glyph-name="ecaron" unicode="&#x11b;" horiz-adv-x="466" 
d="M205 663l9 6q37 -37 99 -111q89 79 135 111l6 -7q-62 -82 -132 -140h-34q-49 61 -83 141zM359 124l30 -7q-31 -68 -73 -101t-113 -33q-103 0 -138.5 61.5t-12.5 179.5q23 117 88 179t151 62q74 0 100.5 -38.5t14.5 -101.5q-29 -146 -296 -134q-16 -100 9 -140.5t89 -40.5
q106 0 151 114zM116 224l-3 -15q126 -3 173 22t62 91q12 52 -3 84t-60 32q-61 0 -103.5 -48.5t-65.5 -165.5z" />
    <glyph glyph-name="Gcircumflex" unicode="&#x11c;" horiz-adv-x="805" 
d="M596 763l-9 -6q-23 22 -94 109q-52 -49 -141 -109l-6 7q62 80 135 140h35q41 -53 80 -141zM327 14q94 -2 169.5 57.5t93.5 155.5q9 48 0.5 65t-43.5 17h-63l2 34q92 -2 143 -2l143 2l-2 -34h-49q-26 0 -38 -11.5t-20 -41.5q-32 -118 -38 -257h-38l1 129
q-37 -62 -109.5 -104.5t-161.5 -42.5q-325 0 -260 365q17 94 55.5 165t93 113.5t118 63t135.5 20.5q102 0 175 -47q20 -15 38.5 -8.5t25.5 37.5q3 -1 19 -1t19 1q-47 -102 -56 -228h-33q18 107 -24 160t-163 53q-126 0 -213.5 -79.5t-119.5 -249.5q-32 -176 20 -253t180 -79
z" />
    <glyph glyph-name="gcircumflex" unicode="&#x11d;" horiz-adv-x="500" 
d="M424 529l-9 -6q-23 22 -94 109q-52 -49 -141 -109l-6 7q62 80 135 140h35q41 -53 80 -141zM318 32l18 91q-30 -67 -75.5 -103.5t-95.5 -36.5q-69 0 -101.5 50t-17.5 154q19 131 81 204.5t145 73.5q48 0 78 -25t37 -71q15 22 22.5 34t18 39t16.5 60h20q-45 -201 -87 -444
q-44 -257 -246 -257q-76 0 -105.5 29t-16.5 68q12 40 54 40q21 0 32 -13t7 -33q-6 -22 -28 -29.5t-40 3.5q10 -42 98 -42q78 0 121.5 50.5t64.5 157.5zM179 12q59 0 111 66.5t76 191.5q17 85 -7.5 125.5t-80.5 40.5q-59 0 -104 -59t-66 -186q-32 -179 71 -179z" />
    <glyph glyph-name="Gbreve" unicode="&#x11e;" horiz-adv-x="805" 
d="M327 14q94 -2 169.5 57.5t93.5 155.5q9 48 0.5 65t-43.5 17h-63l2 34q92 -2 143 -2l143 2l-2 -34h-49q-26 0 -38 -11.5t-20 -41.5q-32 -118 -38 -257h-38l1 129q-37 -62 -109.5 -104.5t-161.5 -42.5q-325 0 -260 365q17 94 55.5 165t93 113.5t118 63t135.5 20.5
q102 0 175 -47q20 -15 38.5 -8.5t25.5 37.5q3 -1 19 -1t19 1q-47 -102 -56 -228h-33q18 107 -24 160t-163 53q-126 0 -213.5 -79.5t-119.5 -249.5q-32 -176 20 -253t180 -79zM462 760q-69 0 -95 40.5t-11 104.5l13 2q-5 -56 16 -79t82 -23q60 0 89 25t39 77l14 -2
q-5 -65 -41.5 -105t-105.5 -40z" />
    <glyph glyph-name="gbreve" unicode="&#x11f;" horiz-adv-x="500" 
d="M318 32l18 91q-30 -67 -75.5 -103.5t-95.5 -36.5q-69 0 -101.5 50t-17.5 154q19 131 81 204.5t145 73.5q48 0 78 -25t37 -71q15 22 22.5 34t18 39t16.5 60h20q-45 -201 -87 -444q-44 -257 -246 -257q-76 0 -105.5 29t-16.5 68q12 40 54 40q21 0 32 -13t7 -33
q-6 -22 -28 -29.5t-40 3.5q10 -42 98 -42q78 0 121.5 50.5t64.5 157.5zM179 12q59 0 111 66.5t76 191.5q17 85 -7.5 125.5t-80.5 40.5q-59 0 -104 -59t-66 -186q-32 -179 71 -179zM290 534q-69 0 -95 40.5t-11 104.5l13 2q-5 -56 16 -79t82 -23q60 0 89 25t39 77l14 -2
q-5 -65 -41.5 -105t-105.5 -40z" />
    <glyph glyph-name="Gdotaccent" unicode="&#x120;" horiz-adv-x="805" 
d="M327 14q94 -2 169.5 57.5t93.5 155.5q9 48 0.5 65t-43.5 17h-63l2 34q92 -2 143 -2l143 2l-2 -34h-49q-26 0 -38 -11.5t-20 -41.5q-32 -118 -38 -257h-38l1 129q-37 -62 -109.5 -104.5t-161.5 -42.5q-325 0 -260 365q17 94 55.5 165t93 113.5t118 63t135.5 20.5
q102 0 175 -47q20 -15 38.5 -8.5t25.5 37.5q3 -1 19 -1t19 1q-47 -102 -56 -228h-33q18 107 -24 160t-163 53q-126 0 -213.5 -79.5t-119.5 -249.5q-32 -176 20 -253t180 -79zM525 826q0 -19 -13 -32t-32 -13q-18 0 -31 13t-13 32q0 18 13 31t31 13q19 0 32 -13t13 -31z" />
    <glyph glyph-name="gdotaccent" unicode="&#x121;" horiz-adv-x="500" 
d="M318 32l18 91q-30 -67 -75.5 -103.5t-95.5 -36.5q-69 0 -101.5 50t-17.5 154q19 131 81 204.5t145 73.5q48 0 78 -25t37 -71q15 22 22.5 34t18 39t16.5 60h20q-45 -201 -87 -444q-44 -257 -246 -257q-76 0 -105.5 29t-16.5 68q12 40 54 40q21 0 32 -13t7 -33
q-6 -22 -28 -29.5t-40 3.5q10 -42 98 -42q78 0 121.5 50.5t64.5 157.5zM179 12q59 0 111 66.5t76 191.5q17 85 -7.5 125.5t-80.5 40.5q-59 0 -104 -59t-66 -186q-32 -179 71 -179zM347 595q0 -19 -13 -32t-32 -13q-18 0 -31 13t-13 32q0 18 13 31t31 13q19 0 32 -13t13 -31z
" />
    <glyph glyph-name="Gcommaaccent" unicode="&#x122;" horiz-adv-x="805" 
d="M344 -144q-38 0 -35 41q1 18 15.5 31.5t35.5 13.5q27 0 37 -18.5t7 -46.5q-11 -94 -126 -140l-6 16q100 41 109 122q-12 -19 -37 -19zM327 14q94 -2 169.5 57.5t93.5 155.5q9 48 0.5 65t-43.5 17h-63l2 34q92 -2 143 -2l143 2l-2 -34h-49q-26 0 -38 -11.5t-20 -41.5
q-32 -118 -38 -257h-38l1 129q-37 -62 -109.5 -104.5t-161.5 -42.5q-325 0 -260 365q17 94 55.5 165t93 113.5t118 63t135.5 20.5q102 0 175 -47q20 -15 38.5 -8.5t25.5 37.5q3 -1 19 -1t19 1q-47 -102 -56 -228h-33q18 107 -24 160t-163 53q-126 0 -213.5 -79.5
t-119.5 -249.5q-32 -176 20 -253t180 -79z" />
    <glyph glyph-name="gcommaaccent" unicode="&#x123;" horiz-adv-x="500" 
d="M306 610q38 0 35 -41q-1 -18 -15.5 -31.5t-35.5 -13.5q-27 0 -37 18.5t-7 46.5q11 94 126 140l6 -16q-100 -41 -109 -122q12 19 37 19zM318 32l18 91q-30 -67 -75.5 -103.5t-95.5 -36.5q-69 0 -101.5 50t-17.5 154q19 131 81 204.5t145 73.5q48 0 78 -25t37 -71
q15 22 22.5 34t18 39t16.5 60h20q-45 -201 -87 -444q-44 -257 -246 -257q-76 0 -105.5 29t-16.5 68q12 40 54 40q21 0 32 -13t7 -33q-6 -22 -28 -29.5t-40 3.5q10 -42 98 -42q78 0 121.5 50.5t64.5 157.5zM179 12q59 0 111 66.5t76 191.5q17 85 -7.5 125.5t-80.5 40.5
q-59 0 -104 -59t-66 -186q-32 -179 71 -179z" />
    <glyph glyph-name="Hcircumflex" unicode="&#x124;" horiz-adv-x="845" 
d="M628 763l-9 -6q-23 22 -94 109q-52 -49 -141 -109l-6 7q62 80 135 140h35q41 -53 80 -141zM-10 -2l2 37h63q35 0 47 7t19 33q7 28 52 266t47 265q2 29 -7 39t-36 10h-72l2 35q101 -2 156 -2q33 0 93.5 1t63.5 1l-3 -35h-72q-27 0 -40 -10t-20 -39q-8 -29 -49 -251
q193 -2 393 0q43 229 45 251q3 29 -6.5 39t-36.5 10h-73l3 35q100 -2 157 -2q33 0 93.5 1t63.5 1l-3 -35h-73q-28 0 -41 -10t-20 -39q-8 -32 -53 -269.5t-46 -261.5q-1 -25 8 -32.5t44 -7.5h67l-2 -37q-100 2 -156 2l-158 -2l3 37h64q35 0 47 7.5t19 32.5q8 30 48 249
q-199 4 -393 0q-43 -232 -44 -249q-2 -25 7.5 -32.5t44.5 -7.5h65l-2 -37q-100 2 -156 2z" />
    <glyph glyph-name="hcircumflex" unicode="&#x125;" horiz-adv-x="544" 
d="M308 736l-9 -6q-23 22 -94 109q-52 -49 -141 -109l-6 7q62 80 135 140h35q41 -53 80 -141zM493 155l23 -2q-10 -72 -41 -121.5t-87 -49.5q-104 0 -64 157l31 120q24 97 13.5 136.5t-55.5 39.5q-60 0 -108.5 -64.5t-87.5 -224.5l-1 -7l-28 -141q-18 1 -28 1l-28 -1
q73 332 120 605q5 30 -2 42.5t-32 12.5h-48l2 31q73 -4 149 0q-2 -23 -16 -95l-58 -297q62 167 183 167q70 0 90.5 -45.5t-6.5 -160.5l-30 -118q-17 -62 -12.5 -93.5t35.5 -31.5q58 0 86 140z" />
    <glyph glyph-name="Hbar" unicode="&#x126;" horiz-adv-x="846" 
d="M-9 -2l2 37h63q35 0 47 7t19 33q16 64 79 414q-13 0 -30 -0.5t-19 -0.5q6 18 6 32q8 -1 49 -1q11 61 14 87q2 29 -7 39t-36 10h-72l2 35q101 -2 156 -2q33 0 93.5 1t63.5 1l-3 -35h-72q-27 0 -40 -10t-20 -39q-1 -4 -18 -88h392q14 80 15 88q3 29 -6.5 39t-36.5 10h-73
l3 35q100 -2 157 -2q33 0 93.5 1t63.5 1l-3 -35h-73q-28 0 -41 -10t-20 -39q-1 -5 -18 -87q39 0 47 1q-6 -18 -6 -32q-2 0 -18.5 0.5t-28.5 0.5q-74 -381 -75 -414q-1 -25 8 -32.5t44 -7.5h67l-2 -37q-100 2 -156 2l-158 -2l3 37h64q35 0 47 7.5t19 32.5q8 30 48 249
q-199 4 -393 0q-43 -232 -44 -249q-2 -25 7.5 -32.5t44.5 -7.5h65l-2 -37q-100 2 -156 2zM655 489q-197 2 -393 0q-4 -22 -12.5 -68t-12.5 -66q193 -2 393 0q4 20 12.5 66t12.5 68z" />
    <glyph glyph-name="hbar" unicode="&#x127;" horiz-adv-x="544" 
d="M42 521q4 19 6 35q48 -2 95 -2l9 50q5 30 -2 42.5t-32 12.5h-48l2 31q73 -4 149 0q-2 -23 -16 -95l-8 -41q45 0 93 2q-4 -11 -6 -35q-24 1 -93 1l-44 -224q62 167 183 167q70 0 90.5 -45.5t-6.5 -160.5l-30 -118q-17 -61 -12.5 -93t35.5 -32q58 0 86 140l23 -2
q-10 -72 -41 -121.5t-87 -49.5q-104 0 -64 157l31 120q24 97 13.5 136.5t-55.5 39.5q-60 0 -108.5 -64.5t-87.5 -224.5l-1 -7l-28 -141q-18 1 -28 1l-28 -1q56 255 105 523q-71 0 -95 -1z" />
    <glyph glyph-name="Itilde" unicode="&#x128;" horiz-adv-x="390" 
d="M-11 -2l2 37h63q36 0 48.5 7t17.5 33q7 25 51.5 263t48.5 268q3 29 -6.5 39t-37.5 10h-72l3 35q100 -2 156 -2q34 0 93.5 1t62.5 1l-2 -35h-72q-28 0 -41 -10t-20 -39t-51.5 -267t-47.5 -264q-2 -25 7.5 -32.5t44.5 -7.5h65l-2 -37q-99 2 -155 2zM417 886l19 3
q11 -70 -16.5 -105.5t-73.5 -33.5q-31 1 -50.5 15.5t-36.5 47.5q-18 37 -30 49.5t-35 12.5q-25 0 -40 -26.5t-10 -81.5l-18 -3q-11 70 16 105.5t74 34.5q33 -1 51 -15.5t35 -48.5q20 -37 32.5 -50t32.5 -13q27 0 41 28t9 81z" />
    <glyph glyph-name="itilde" unicode="&#x129;" horiz-adv-x="321" 
d="M204 298l-47 -164q-32 -115 29 -117q59 0 87 139l23 -2q-10 -71 -41 -121t-87 -50q-54 0 -73 39t2 110l50 170q39 134 -21 134q-31 0 -55.5 -41.5t-38.5 -105.5l-24 1q9 70 43 122.5t83 52.5q119 0 70 -167zM337 656l19 3q11 -70 -16.5 -105.5t-73.5 -33.5
q-31 1 -50.5 15.5t-36.5 47.5q-18 37 -30 49.5t-35 12.5q-25 0 -40 -26.5t-10 -81.5l-18 -3q-11 70 16 105.5t74 34.5q33 -1 51 -15.5t35 -48.5q20 -37 32.5 -50t32.5 -13q27 0 41 28t9 81z" />
    <glyph glyph-name="Imacron" unicode="&#x12a;" horiz-adv-x="390" 
d="M-11 -2l2 37h63q36 0 48.5 7t17.5 33q7 25 51.5 263t48.5 268q3 29 -6.5 39t-37.5 10h-72l3 35q100 -2 156 -2q34 0 93.5 1t62.5 1l-2 -35h-72q-28 0 -41 -10t-20 -39t-51.5 -267t-47.5 -264q-2 -25 7.5 -32.5t44.5 -7.5h65l-2 -37q-99 2 -155 2zM161 782q6 12 6 41
q121 -4 242 0q-8 -24 -6 -41q-121 4 -242 0z" />
    <glyph glyph-name="imacron" unicode="&#x12b;" horiz-adv-x="321" 
d="M204 298l-47 -164q-32 -115 29 -117q59 0 87 139l23 -2q-10 -71 -41 -121t-87 -50q-54 0 -73 39t2 110l50 170q39 134 -21 134q-31 0 -55.5 -41.5t-38.5 -105.5l-24 1q9 70 43 122.5t83 52.5q119 0 70 -167zM69 543q6 12 6 41q121 -4 242 0q-8 -24 -6 -41q-121 4 -242 0z
" />
    <glyph glyph-name="Ibreve" unicode="&#x12c;" horiz-adv-x="390" 
d="M-11 -2l2 37h63q36 0 48.5 7t17.5 33q7 25 51.5 263t48.5 268q3 29 -6.5 39t-37.5 10h-72l3 35q100 -2 156 -2q34 0 93.5 1t62.5 1l-2 -35h-72q-28 0 -41 -10t-20 -39t-51.5 -267t-47.5 -264q-2 -25 7.5 -32.5t44.5 -7.5h65l-2 -37q-99 2 -155 2zM269 760q-69 0 -95 40.5
t-11 104.5l13 2q-5 -56 16 -79t82 -23q60 0 89 25t39 77l14 -2q-5 -65 -41.5 -105t-105.5 -40z" />
    <glyph glyph-name="ibreve" unicode="&#x12d;" horiz-adv-x="321" 
d="M204 298l-47 -164q-32 -115 29 -117q59 0 87 139l23 -2q-10 -71 -41 -121t-87 -50q-54 0 -73 39t2 110l50 170q39 134 -21 134q-31 0 -55.5 -41.5t-38.5 -105.5l-24 1q9 70 43 122.5t83 52.5q119 0 70 -167zM185 534q-69 0 -95 40.5t-11 104.5l13 2q-5 -56 16 -79t82 -23
q60 0 89 25t39 77l14 -2q-5 -65 -41.5 -105t-105.5 -40z" />
    <glyph glyph-name="Iogonek" unicode="&#x12e;" horiz-adv-x="390" 
d="M255 -84q-11 -55 -47.5 -88.5t-88.5 -33.5q-48 0 -70 24t-17 62q6 39 39 70.5t85 49.5h-11l-156 -2l2 37h63q36 0 48.5 7t17.5 33q7 25 51.5 263t48.5 268q3 29 -6.5 39t-37.5 10h-72l3 35q100 -2 156 -2q34 0 93.5 1t62.5 1l-2 -35h-72q-28 0 -41 -10t-20 -39
t-51.5 -267t-47.5 -264q-2 -25 7.5 -32.5t44.5 -7.5h65l-2 -37q-59 2 -111 2q-50 -18 -79 -46.5t-32 -61.5q-9 -65 56 -65q37 0 64.5 26.5t38.5 66.5z" />
    <glyph glyph-name="iogonek" unicode="&#x12f;" horiz-adv-x="321" 
d="M330 -84q-10 -54 -47 -88t-89 -34q-48 0 -70 24t-17 62q10 63 86 108q-13 -5 -28 -5q-52 0 -70.5 39t2.5 110l50 170q39 134 -21 134q-31 0 -55.5 -41.5t-38.5 -105.5l-24 1q9 70 43 122.5t83 52.5q119 0 70 -167l-47 -164q-34 -117 29 -117q58 0 86 139l23 -2
q-8 -52 -22.5 -87t-45.5 -64q-36 -35 -53 -59.5t-21 -51.5q-9 -65 56 -65q37 0 64.5 26.5t38.5 66.5zM252 627q-1 -20 -15.5 -34t-34.5 -14t-33.5 14t-12.5 35q1 20 15.5 34t35.5 14q20 0 33 -14t12 -35z" />
    <glyph glyph-name="Idotaccent" unicode="&#x130;" horiz-adv-x="390" 
d="M-11 -2l2 37h63q36 0 48.5 7t17.5 33q7 25 51.5 263t48.5 268q3 29 -6.5 39t-37.5 10h-72l3 35q100 -2 156 -2q34 0 93.5 1t62.5 1l-2 -35h-72q-28 0 -41 -10t-20 -39t-51.5 -267t-47.5 -264q-2 -25 7.5 -32.5t44.5 -7.5h65l-2 -37q-99 2 -155 2zM327 825q0 -19 -13 -32
t-32 -13q-18 0 -31 13t-13 32q0 18 13 31t31 13q19 0 32 -13t13 -31z" />
    <glyph glyph-name="dotlessi" unicode="&#x131;" horiz-adv-x="321" 
d="M204 298l-47 -164q-32 -115 29 -117q59 0 87 139l23 -2q-10 -71 -41 -121t-87 -50q-54 0 -73 39t2 110l50 170q39 134 -21 134q-31 0 -55.5 -41.5t-38.5 -105.5l-24 1q9 70 43 122.5t83 52.5q119 0 70 -167z" />
    <glyph glyph-name="IJ" unicode="&#x132;" horiz-adv-x="932" 
d="M-11 -2l2 37h63q36 0 48.5 7t17.5 33q7 25 51.5 263t48.5 268q3 29 -6.5 39t-37.5 10h-72l3 35q100 -2 156 -2q34 0 93.5 1t62.5 1l-2 -35h-72q-28 0 -41 -10t-20 -39t-51.5 -267t-47.5 -264q-2 -25 7.5 -32.5t44.5 -7.5h65l-2 -37q-99 2 -155 2zM419 109q-21 0 -33 12
q-4 -50 26 -80.5t92 -30.5q80 0 122.5 47t64.5 157q69 352 72 392q3 29 -6.5 39t-36.5 10h-69l3 35q28 -2 153 -2q24 0 58.5 0.5t63 1t32.5 0.5l-3 -35h-70q-27 0 -40 -10t-20 -39l-73 -391q-23 -122 -81.5 -180t-169.5 -58q-84 0 -121 46.5t-25 106.5q6 34 25 54t46 20
q25 0 37 -14t8 -36q-7 -45 -55 -45z" />
    <glyph glyph-name="ij" unicode="&#x133;" horiz-adv-x="540" 
d="M295 594q-2 -22 -17 -36t-38 -14q-21 0 -33 13.5t-10 34.5q2 22 17.5 36t38.5 14q20 0 32 -13.5t10 -34.5zM483 593q-2 -21 -17.5 -35t-37.5 -14q-21 0 -33 14t-10 35t17.5 35t37.5 14q20 0 32 -13.5t11 -35.5zM32 289l-24 1q9 68 41.5 121.5t86.5 53.5q107 0 67 -158
l-30 -118q-24 -97 -14.5 -137t53.5 -40q123 0 192 277l35 172q19 -1 29 -1l30 1q-48 -194 -90 -417q-45 -243 -245 -243q-75 0 -105 29t-17 68q13 40 55 40q20 0 31 -13t7 -33q-5 -22 -27 -29.5t-41 3.5q11 -42 98 -42q78 0 121.5 50.5t65.5 157.5l22 110
q-32 -80 -78.5 -119.5t-99.5 -39.5q-69 0 -87.5 45.5t7.5 161.5l28 118q17 64 13.5 96t-31.5 32q-32 0 -56 -41.5t-37 -105.5z" />
    <glyph glyph-name="Jcircumflex" unicode="&#x134;" horiz-adv-x="579" 
d="M587 763l-9 -6q-23 22 -94 109q-52 -49 -141 -109l-6 7q62 80 135 140h35q41 -53 80 -141zM66 109q-21 0 -33 12q-4 -50 26 -80.5t92 -30.5q80 0 122.5 47t64.5 157q69 352 72 392q3 29 -6.5 39t-36.5 10h-69l3 35q28 -2 153 -2q24 0 58.5 0.5t63 1t32.5 0.5l-3 -35h-70
q-27 0 -40 -10t-20 -39l-73 -391q-23 -122 -81.5 -180t-169.5 -58q-84 0 -121 46.5t-25 106.5q6 34 25 54t46 20q25 0 37 -14t8 -36q-7 -45 -55 -45z" />
    <glyph glyph-name="jcircumflex" unicode="&#x135;" horiz-adv-x="288" 
d="M196 293l-54 -275q-43 -217 -194 -217q-51 0 -73.5 24t-14.5 58q9 45 52 45q19 0 29.5 -12t6.5 -30q-4 -21 -24.5 -29t-36.5 1q7 -34 58 -34q50 0 83 40.5t52 140.5l57 292q16 71 15 105t-29 34q-31 0 -55 -41.5t-38 -105.5l-24 1q10 72 44 123.5t84 51.5
q57 0 69.5 -47.5t-7.5 -124.5zM291 529l-9 -6q-23 22 -94 109q-52 -49 -141 -109l-6 7q62 80 135 140h35q41 -53 80 -141z" />
    <glyph glyph-name="Kcommaaccent" unicode="&#x136;" horiz-adv-x="806" 
d="M310 -144q-38 0 -35 41q1 18 15.5 31.5t35.5 13.5q27 0 37 -18.5t7 -46.5q-11 -94 -126 -140l-6 16q100 41 109 122q-12 -19 -37 -19zM-10 -2l3 37h60q38 0 49 7.5t19 35.5q8 30 52 265.5t46 261.5q3 28 -7 39t-37 11h-71l2 35q138 -2 157 -2q25 0 60 0.5t63.5 1
t32.5 0.5l-3 -35h-72q-26 0 -39.5 -11t-20.5 -39q-7 -25 -59 -303l364 298q28 24 21.5 39.5t-44.5 15.5h-48l3 35q100 -2 157 -2q33 0 93 1t63 1l-3 -35h-40q-51 0 -83 -12t-86 -56l-225 -181q126 -206 198 -314q25 -37 39 -47t51 -10h49l-3 -37q-100 2 -157 2l-157 -2l3 37
h46q43 0 56 11.5t-3 41.5q-92 159 -172 278l-129 -104q-31 -169 -32 -184q-2 -26 7.5 -34.5t46.5 -8.5h64l-3 -37q-99 2 -155 2z" />
    <glyph glyph-name="kcommaaccent" unicode="&#x137;" horiz-adv-x="498" 
d="M181 -144q-38 0 -35 41q1 18 15.5 31.5t35.5 13.5q27 0 37 -18.5t7 -46.5q-11 -94 -126 -140l-6 16q100 41 109 122q-12 -19 -37 -19zM442 156l24 -2q-2 -75 -29 -123t-86 -48q-88 0 -74 103q5 40 5 68t-35.5 40.5t-115.5 3.5q-8 -26 -19 -76l-24 -123q-18 2 -28 2
l-28 -2q75 342 120 605q5 30 -2 42.5t-32 12.5h-48l2 31q73 -4 149 0q-2 -26 -16 -95l-58 -296q32 84 79.5 125t101.5 41q57 0 82 -29.5t14 -84.5q-9 -46 -60.5 -83t-114.5 -53q101 -5 88 -124q-9 -74 34 -75q33 0 51 40t20 100zM311 433q-53 0 -96.5 -49.5t-78.5 -168.5
q98 2 157 38t73 95q8 37 -6.5 61t-48.5 24z" />
    <glyph glyph-name="kgreenlandic" unicode="&#x138;" horiz-adv-x="543" 
d="M28 289l-24 1q9 69 42.5 122t83.5 53q37 0 56 -20.5t19.5 -54.5t-7.5 -79q34 77 81.5 115.5t99.5 38.5q112 0 89 -114q-9 -46 -60 -83t-115 -53q54 -3 75 -34.5t14 -89.5q-9 -74 33 -75q33 0 51.5 40t20.5 100l23 -2q-1 -74 -28 -122.5t-87 -48.5q-89 0 -73 103
q3 21 4 29t2 24t-2.5 22t-9 16.5t-17.5 14t-28.5 7.5t-40.5 3t-55 -4l-10 -36l-35 -163q-19 2 -29 2l-30 -2q50 204 67 291q17 79 14.5 112.5t-32.5 33.5t-54 -41.5t-38 -105.5zM362 433q-115 0 -182 -218q98 2 157 38t73 95q8 37 -5 61t-43 24z" />
    <glyph glyph-name="Lacute" unicode="&#x139;" horiz-adv-x="641" 
d="M266 756l-6 8q110 115 134 136q12 10 25 4.5t14 -18t-11 -22.5q-10 -7 -40 -27.5t-61 -41.5t-55 -39zM420 690l-3 -35h-71q-28 0 -41 -10t-20 -39q-8 -28 -52.5 -266.5t-46.5 -264.5q-2 -25 7.5 -32.5t41.5 -7.5h134q90 1 124.5 28.5t53.5 114.5l12 58h36
q0 -2 -24.5 -115t-26.5 -125q-47 4 -199 4h-200l-155 -2l2 37h64q35 0 47 7.5t18 32.5q7 30 51.5 267t47.5 264q3 29 -6.5 39t-36.5 10h-72l2 35q105 -2 157 -2q25 0 62.5 0.5t65 1t28.5 0.5z" />
    <glyph glyph-name="lacute" unicode="&#x13a;" horiz-adv-x="274" 
d="M164 728l-6 8q110 115 134 136q12 10 25 4.5t14 -18t-11 -22.5q-10 -7 -40 -27.5t-61 -41.5t-55 -39zM207 595q-50 -242 -89 -454q-12 -70 -6.5 -97t35.5 -28q58 0 86 140l23 -2q-8 -72 -40 -121.5t-86 -49.5q-102 0 -68 157q18 84 51 251.5t40 212.5q4 30 -3 42.5
t-32 12.5h-48l2 31q75 -4 150 0q-2 -27 -15 -95z" />
    <glyph glyph-name="Lcommaaccent" unicode="&#x13b;" horiz-adv-x="642" 
d="M227 -144q-38 0 -35 41q1 18 15.5 31.5t35.5 13.5q27 0 37 -18.5t7 -46.5q-11 -94 -126 -140l-6 16q100 41 109 122q-12 -19 -37 -19zM420 690l-3 -35h-71q-28 0 -41 -10t-20 -39q-8 -28 -52.5 -266.5t-46.5 -264.5q-2 -25 7.5 -32.5t41.5 -7.5h134q90 1 124.5 28.5
t53.5 114.5l12 58h36q0 -2 -24.5 -115t-26.5 -125q-47 4 -199 4h-200l-155 -2l2 37h64q35 0 47 7.5t18 32.5q7 30 51.5 267t47.5 264q3 29 -6.5 39t-36.5 10h-72l2 35q105 -2 157 -2q25 0 62.5 0.5t65 1t28.5 0.5z" />
    <glyph glyph-name="lcommaaccent" unicode="&#x13c;" horiz-adv-x="274" 
d="M88 -144q-38 0 -35 41q1 18 15.5 31.5t35.5 13.5q27 0 37 -18.5t7 -46.5q-11 -94 -126 -140l-6 16q100 41 109 122q-12 -19 -37 -19zM207 595q-50 -242 -89 -454q-12 -70 -6.5 -97t35.5 -28q58 0 86 140l23 -2q-8 -72 -40 -121.5t-86 -49.5q-102 0 -68 157
q18 84 51 251.5t40 212.5q4 30 -3 42.5t-32 12.5h-48l2 31q75 -4 150 0q-2 -27 -15 -95z" />
    <glyph glyph-name="Lcaron" unicode="&#x13d;" horiz-adv-x="641" 
d="M566 612q-38 0 -35 41q1 18 15.5 31.5t35.5 13.5q27 0 37 -18.5t7 -46.5q-11 -94 -126 -140l-6 16q100 41 109 122q-12 -19 -37 -19zM420 690l-3 -35h-71q-28 0 -41 -10t-20 -39q-8 -28 -52.5 -266.5t-46.5 -264.5q-2 -25 7.5 -32.5t41.5 -7.5h134q90 1 124.5 28.5
t53.5 114.5l12 58h36q0 -2 -24.5 -115t-26.5 -125q-47 4 -199 4h-200l-155 -2l2 37h64q35 0 47 7.5t18 32.5q7 30 51.5 267t47.5 264q3 29 -6.5 39t-36.5 10h-72l2 35q105 -2 157 -2q25 0 62.5 0.5t65 1t28.5 0.5z" />
    <glyph glyph-name="lcaron" unicode="&#x13e;" horiz-adv-x="383" 
d="M318 604q-38 0 -35 41q1 18 15.5 31.5t35.5 13.5q27 0 37 -18.5t7 -46.5q-11 -94 -126 -140l-6 16q100 41 109 122q-12 -19 -37 -19zM207 595q-50 -242 -89 -454q-12 -70 -6.5 -97t35.5 -28q58 0 86 140l23 -2q-8 -72 -40 -121.5t-86 -49.5q-102 0 -68 157
q18 84 51 251.5t40 212.5q4 30 -3 42.5t-32 12.5h-48l2 31q75 -4 150 0q-2 -27 -15 -95z" />
    <glyph glyph-name="Ldot" unicode="&#x13f;" horiz-adv-x="641" 
d="M420 690l-3 -35h-71q-28 0 -41 -10t-20 -39q-8 -28 -52.5 -266.5t-46.5 -264.5q-2 -25 7.5 -32.5t41.5 -7.5h134q90 1 124.5 28.5t53.5 114.5l12 58h36q0 -2 -24.5 -115t-26.5 -125q-47 4 -199 4h-200l-155 -2l2 37h64q35 0 47 7.5t18 32.5q7 30 51.5 267t47.5 264
q3 29 -6.5 39t-36.5 10h-72l2 35q105 -2 157 -2q25 0 62.5 0.5t65 1t28.5 0.5zM500 358q0 -19 -13 -32t-32 -13q-18 0 -31 13t-13 32q0 18 13 31t31 13q19 0 32 -13t13 -31z" />
    <glyph glyph-name="ldot" unicode="&#x140;" horiz-adv-x="367" 
d="M207 595q-50 -242 -89 -454q-12 -70 -6.5 -97t35.5 -28q58 0 86 140l23 -2q-8 -72 -40 -121.5t-86 -49.5q-102 0 -68 157q18 84 51 251.5t40 212.5q4 30 -3 42.5t-32 12.5h-48l2 31q75 -4 150 0q-2 -27 -15 -95zM358 305q0 -19 -13 -32t-32 -13q-18 0 -31 13t-13 32
q0 18 13 31t31 13q19 0 32 -13t13 -31z" />
    <glyph glyph-name="Lslash" unicode="&#x141;" horiz-adv-x="641" 
d="M420 690l-3 -35h-71q-28 0 -41 -10t-20 -39q-7 -25 -44 -221q71 38 95 53l15 -28q-7 -4 -49 -26t-68 -36q-47 -261 -48 -273q-2 -25 7.5 -32.5t41.5 -7.5h134q90 1 124.5 28.5t53.5 114.5l12 58h36q0 -2 -24.5 -115t-26.5 -125q-47 4 -199 4h-200l-155 -2l2 37h64
q35 0 47.5 7.5t17.5 32.5l46 237l-43 -24l-15 27q27 13 65 34q44 243 46 257q3 29 -6.5 39t-36.5 10h-72l2 35q105 -2 157 -2q25 0 62.5 0.5t65 1t28.5 0.5z" />
    <glyph glyph-name="lslash" unicode="&#x142;" horiz-adv-x="274" 
d="M207 595q-7 -32 -21 -103.5t-20 -98.5q23 12 65 39l17 -29l-90 -50l-40 -212q-13 -70 -7 -97.5t36 -27.5q58 0 86 140l23 -2q-8 -72 -40 -121.5t-86 -49.5q-102 0 -68 157q19 85 37 178q-7 -4 -19 -11t-17 -10l-16 29q11 5 32.5 17.5t27.5 15.5q39 195 46 245
q4 30 -3 42.5t-32 12.5h-48l2 31q75 -4 150 0q-2 -27 -15 -95z" />
    <glyph glyph-name="Nacute" unicode="&#x143;" horiz-adv-x="828" 
d="M473 756l-6 8q110 115 134 136q12 10 25 4.5t14 -18t-11 -22.5q-10 -7 -40 -27.5t-61 -41.5t-55 -39zM301 690q24 -54 286 -592q87 438 95 507q3 29 -6.5 39.5t-37.5 10.5h-72l2 35q3 0 60 -1t88 -1q32 0 87 1l55 1l-3 -35h-71q-28 0 -41 -10.5t-20 -39.5
q-8 -28 -51 -258t-64 -350h-48q-29 65 -300 621q-24 -116 -59 -305t-39 -221q-8 -57 53 -57h62l-2 -37q-129 2 -145 2l-140 -2l3 37h55q35 0 52.5 13t24.5 44q8 33 50.5 260.5t44.5 253.5q3 29 -6.5 39t-37.5 10h-72l2 35q12 -1 97.5 -1t97.5 1z" />
    <glyph glyph-name="nacute" unicode="&#x144;" horiz-adv-x="590" 
d="M317 526l-6 8q110 115 134 136q12 10 25 4.5t14 -18t-11 -22.5q-10 -7 -40 -27.5t-61 -41.5t-55 -39zM28 289l-24 1q8 65 41.5 120t87.5 55q50 0 64.5 -37t1.5 -109q64 146 175 146q70 0 92 -46t-6 -160l-31 -118q-17 -61 -12 -93t36 -32q59 0 85 140l24 -2
q-11 -72 -42 -121.5t-87 -49.5q-106 0 -64 157l33 120q47 176 -45 176q-124 0 -192 -279l-34 -158q-19 2 -30 2l-29 -2q65 287 66 291q18 78 15 112t-33 34q-27 0 -52.5 -39.5t-39.5 -107.5z" />
    <glyph glyph-name="Ncommaaccent" unicode="&#x145;" horiz-adv-x="828" 
d="M357 -144q-38 0 -35 41q1 18 15.5 31.5t35.5 13.5q27 0 37 -18.5t7 -46.5q-11 -94 -126 -140l-6 16q100 41 109 122q-12 -19 -37 -19zM301 690q24 -54 286 -592q87 438 95 507q3 29 -6.5 39.5t-37.5 10.5h-72l2 35q3 0 60 -1t88 -1q32 0 87 1l55 1l-3 -35h-71
q-28 0 -41 -10.5t-20 -39.5q-8 -28 -51 -258t-64 -350h-48q-29 65 -300 621q-24 -116 -59 -305t-39 -221q-8 -57 53 -57h62l-2 -37q-129 2 -145 2l-140 -2l3 37h55q35 0 52.5 13t24.5 44q8 33 50.5 260.5t44.5 253.5q3 29 -6.5 39t-37.5 10h-72l2 35q12 -1 97.5 -1t97.5 1z
" />
    <glyph glyph-name="ncommaaccent" unicode="&#x146;" horiz-adv-x="589" 
d="M219 -144q-38 0 -35 41q1 18 15.5 31.5t35.5 13.5q27 0 37 -18.5t7 -46.5q-11 -94 -126 -140l-6 16q100 41 109 122q-12 -19 -37 -19zM28 289l-24 1q8 65 41.5 120t87.5 55q50 0 64.5 -37t1.5 -109q64 146 175 146q70 0 92 -46t-6 -160l-31 -118q-17 -61 -12 -93t36 -32
q59 0 85 140l24 -2q-11 -72 -42 -121.5t-87 -49.5q-106 0 -64 157l33 120q47 176 -45 176q-124 0 -192 -279l-34 -158q-19 2 -30 2l-29 -2q65 287 66 291q18 78 15 112t-33 34q-27 0 -52.5 -39.5t-39.5 -107.5z" />
    <glyph glyph-name="Ncaron" unicode="&#x147;" horiz-adv-x="828" 
d="M395 901l9 6q37 -37 99 -111q89 79 135 111l6 -7q-62 -82 -132 -140h-34q-49 61 -83 141zM301 690q24 -54 286 -592q87 438 95 507q3 29 -6.5 39.5t-37.5 10.5h-72l2 35q3 0 60 -1t88 -1q32 0 87 1l55 1l-3 -35h-71q-28 0 -41 -10.5t-20 -39.5q-8 -28 -51 -258t-64 -350
h-48q-29 65 -300 621q-24 -116 -59 -305t-39 -221q-8 -57 53 -57h62l-2 -37q-129 2 -145 2l-140 -2l3 37h55q35 0 52.5 13t24.5 44q8 33 50.5 260.5t44.5 253.5q3 29 -6.5 39t-37.5 10h-72l2 35q12 -1 97.5 -1t97.5 1z" />
    <glyph glyph-name="ncaron" unicode="&#x148;" horiz-adv-x="590" 
d="M244 663l9 6q37 -37 99 -111q89 79 135 111l6 -7q-62 -82 -132 -140h-34q-49 61 -83 141zM28 289l-24 1q8 65 41.5 120t87.5 55q50 0 64.5 -37t1.5 -109q64 146 175 146q70 0 92 -46t-6 -160l-31 -118q-17 -61 -12 -93t36 -32q59 0 85 140l24 -2q-11 -72 -42 -121.5
t-87 -49.5q-106 0 -64 157l33 120q47 176 -45 176q-124 0 -192 -279l-34 -158q-19 2 -30 2l-29 -2q65 287 66 291q18 78 15 112t-33 34q-27 0 -52.5 -39.5t-39.5 -107.5z" />
    <glyph glyph-name="napostrophe" unicode="&#x149;" horiz-adv-x="590" 
d="M133 619q-38 0 -35 41q1 18 15.5 31.5t35.5 13.5q27 0 37 -18.5t7 -46.5q-11 -94 -126 -140l-6 16q100 41 109 122q-12 -19 -37 -19zM28 289l-24 1q8 65 41.5 120t87.5 55q50 0 64.5 -37t1.5 -109q64 146 175 146q70 0 92 -46t-6 -160l-31 -118q-17 -61 -12 -93t36 -32
q59 0 85 140l24 -2q-11 -72 -42 -121.5t-87 -49.5q-106 0 -64 157l33 120q47 176 -45 176q-124 0 -192 -279l-34 -158q-19 2 -30 2l-29 -2q65 287 66 291q18 78 15 112t-33 34q-27 0 -52.5 -39.5t-39.5 -107.5z" />
    <glyph glyph-name="Eng" unicode="&#x14a;" horiz-adv-x="828" 
d="M301 690q24 -54 286 -592q87 438 95 507q3 29 -6.5 39.5t-37.5 10.5h-72l2 35q3 0 60 -1t88 -1q32 0 87 1l55 1l-3 -35h-71q-28 0 -41 -10.5t-20 -39.5q-15 -55 -115 -608q-34 -196 -189 -196q-51 0 -73.5 24t-14.5 58q9 45 52 45q19 0 29.5 -12t6.5 -30
q-4 -21 -25 -28.5t-37 1.5q7 -35 60 -35q124 0 146 173h-3q-29 65 -300 621q-24 -116 -59 -305t-39 -221q-8 -57 53 -57h62l-2 -37q-129 2 -145 2l-140 -2l3 37h55q35 0 52.5 13t24.5 44q8 33 50.5 260.5t44.5 253.5q3 29 -6.5 39t-37.5 10h-72l2 35q12 -1 97.5 -1t97.5 1z
" />
    <glyph glyph-name="eng" unicode="&#x14b;" horiz-adv-x="526" 
d="M28 289l-24 1q9 69 43 122t84 53q54 0 69.5 -40t-1.5 -106q63 146 175 146q70 0 90.5 -43.5t-4.5 -162.5l-57 -241q-28 -119 -77 -168t-119 -49q-51 0 -73 24t-15 58q10 45 52 45q19 0 29.5 -12t6.5 -30q-4 -21 -25 -28.5t-38 1.5q7 -35 59 -35q50 0 82 38.5t54 131.5
l61 259q23 104 12.5 143.5t-55.5 39.5q-124 0 -192 -279l-34 -158q-19 2 -30 2l-29 -2q65 287 66 291q19 78 15.5 112t-33.5 34t-54 -41.5t-38 -105.5z" />
    <glyph glyph-name="Omacron" unicode="&#x14c;" horiz-adv-x="779" 
d="M383 782q6 12 6 41q121 -4 242 0q-8 -24 -6 -41q-121 4 -242 0zM332 10q123 0 211.5 83.5t120.5 253.5q62 329 -205 329q-123 0 -210.5 -79.5t-119.5 -250.5q-35 -180 17.5 -258t185.5 -78zM326 -23q-164 0 -232.5 94.5t-36.5 274.5q32 172 142 267t266 95
q160 0 231 -92.5t39 -268.5q-33 -177 -145.5 -273.5t-263.5 -96.5z" />
    <glyph glyph-name="omacron" unicode="&#x14d;" horiz-adv-x="483" 
d="M185 543q6 12 6 41q121 -4 242 0q-8 -24 -6 -41q-121 4 -242 0zM189 9q63 0 109.5 67.5t66.5 196.5q28 167 -84 167q-60 0 -109 -67.5t-69 -191.5q-27 -172 86 -172zM186 -17q-80 0 -120 51.5t-23 156.5q18 117 83.5 195.5t155.5 78.5q79 0 118.5 -47.5t25.5 -147.5
q-18 -124 -83.5 -205.5t-156.5 -81.5z" />
    <glyph glyph-name="Obreve" unicode="&#x14e;" horiz-adv-x="779" 
d="M332 10q123 0 211.5 83.5t120.5 253.5q62 329 -205 329q-123 0 -210.5 -79.5t-119.5 -250.5q-35 -180 17.5 -258t185.5 -78zM326 -23q-164 0 -232.5 94.5t-36.5 274.5q32 172 142 267t266 95q160 0 231 -92.5t39 -268.5q-33 -177 -145.5 -273.5t-263.5 -96.5zM493 760
q-69 0 -95 40.5t-11 104.5l13 2q-5 -56 16 -79t82 -23q60 0 89 25t39 77l14 -2q-5 -65 -41.5 -105t-105.5 -40z" />
    <glyph glyph-name="obreve" unicode="&#x14f;" horiz-adv-x="483" 
d="M189 9q63 0 109.5 67.5t66.5 196.5q28 167 -84 167q-60 0 -109 -67.5t-69 -191.5q-27 -172 86 -172zM186 -17q-80 0 -120 51.5t-23 156.5q18 117 83.5 195.5t155.5 78.5q79 0 118.5 -47.5t25.5 -147.5q-18 -124 -83.5 -205.5t-156.5 -81.5zM335 534q-69 0 -95 40.5
t-11 104.5l13 2q-5 -56 16 -79t82 -23q60 0 89 25t39 77l14 -2q-5 -65 -41.5 -105t-105.5 -40z" />
    <glyph glyph-name="Ohungarumlaut" unicode="&#x150;" horiz-adv-x="779" 
d="M359 759l-8 8q92 125 113 149q11 12 25 8t17 -16t-7 -25q-39 -41 -140 -124zM522 759l-8 8q96 129 113 149q11 12 25.5 8t17.5 -16t-7 -25q-43 -43 -141 -124zM332 10q123 0 211.5 83.5t120.5 253.5q62 329 -205 329q-123 0 -210.5 -79.5t-119.5 -250.5
q-35 -180 17.5 -258t185.5 -78zM326 -23q-164 0 -232.5 94.5t-36.5 274.5q32 172 142 267t266 95q160 0 231 -92.5t39 -268.5q-33 -177 -145.5 -273.5t-263.5 -96.5z" />
    <glyph glyph-name="ohungarumlaut" unicode="&#x151;" horiz-adv-x="483" 
d="M215 529l-8 8q92 125 113 149q11 12 25 8t17 -16t-7 -25q-39 -41 -140 -124zM378 529l-8 8q96 129 113 149q11 12 25.5 8t17.5 -16t-7 -25q-43 -43 -141 -124zM189 9q63 0 109.5 67.5t66.5 196.5q28 167 -84 167q-60 0 -109 -67.5t-69 -191.5q-27 -172 86 -172zM186 -17
q-80 0 -120 51.5t-23 156.5q18 117 83.5 195.5t155.5 78.5q79 0 118.5 -47.5t25.5 -147.5q-18 -124 -83.5 -205.5t-156.5 -81.5z" />
    <glyph glyph-name="OE" unicode="&#x152;" horiz-adv-x="1106" 
d="M867 492l3 15h34q-23 -82 -37 -155q-14 -76 -21 -160h-34l3 16q12 78 -9 103.5t-102 25.5h-83q-41 -217 -46 -260q-2 -25 8 -33.5t42 -8.5h205q95 0 125 31.5t50 146.5l2 15h37q-39 -172 -46 -232q-46 4 -203 4h-317q-73 -25 -152 -25q-164 0 -232.5 95.5t-36.5 275.5
q32 171 142 266.5t264 95.5q76 0 131 -20h59h50.5t115 0.5t131.5 0.5q112 0 160 6q-2 -14 -19 -105.5t-22 -122.5h-33l6 30q11 55 12.5 83.5t-10.5 46.5t-34.5 22.5t-68.5 4.5h-206q-29 0 -41.5 -9t-19.5 -39q-4 -16 -47 -240h100q74 0 99.5 24t40.5 102zM504 49
q9 31 58.5 294.5t51.5 290.5q-18 18 -60 30t-94 12q-123 0 -210.5 -79.5t-120.5 -250.5q-35 -180 18 -259t185 -79q95 0 172 41z" />
    <glyph glyph-name="oe" unicode="&#x153;" horiz-adv-x="773" 
d="M506 -17q-128 0 -154 93q-69 -93 -166 -93q-80 0 -120 51.5t-23 156.5q18 117 83.5 195.5t155.5 78.5q110 0 138 -92q69 92 173 92q137 0 114 -139q-26 -147 -291 -135q-18 -103 5 -142t89 -39q110 0 156 114l25 -7q-31 -68 -72.5 -101t-112.5 -33zM189 9
q63 0 109.5 67.5t66.5 196.5q28 167 -84 167q-60 0 -109 -67.5t-69 -191.5q-27 -172 86 -172zM419 209q84 -1 132 11t68.5 35.5t31.5 67.5q13 52 -2.5 83.5t-61.5 31.5q-60 0 -102 -53t-66 -176z" />
    <glyph glyph-name="Racute" unicode="&#x154;" horiz-adv-x="754" 
d="M393 756l-6 8q110 115 134 136q12 10 25 4.5t14 -18t-11 -22.5q-10 -7 -40 -27.5t-61 -41.5t-55 -39zM544 181q-9 -92 -1.5 -127t37.5 -35q31 0 55.5 46.5t27.5 144.5l31 2q2 -100 -29 -164t-101 -64q-66 0 -86.5 42.5t-5.5 147.5q12 90 -19.5 120.5t-127.5 30.5h-96
q-41 -222 -43 -248q-1 -25 9 -33.5t43 -8.5h65l-3 -37q-136 2 -154 2l-156 -2l2 37h62q36 0 48.5 7t18.5 33q7 27 51.5 265t47.5 266q4 29 -5.5 39t-37.5 10h-73q3 9 3 35q1 0 29 -0.5t66 -1t62 -0.5h177q124 0 179 -49t39 -138q-12 -68 -72.5 -114.5t-135.5 -53.5
q57 -15 78.5 -50.5t14.5 -101.5zM284 607q-3 -11 -50 -253h100q113 0 177.5 33t78.5 114q15 83 -23.5 119.5t-149.5 36.5h-69q-29 0 -42.5 -10.5t-21.5 -39.5z" />
    <glyph glyph-name="racute" unicode="&#x155;" horiz-adv-x="429" 
d="M229 526l-6 8q110 115 134 136q12 10 25 4.5t14 -18t-11 -22.5q-10 -7 -40 -27.5t-61 -41.5t-55 -39zM295 346q4 23 28 32t43 -2q3 63 -52 63q-38 0 -71 -34t-47 -99l-66 -307q-19 2 -29 2l-29 -2q31 127 65 291q17 79 14.5 112.5t-31.5 33.5q-31 0 -55.5 -41.5
t-38.5 -105.5l-24 1q9 69 42.5 122t83.5 53q75 0 77 -83q41 83 114 83q42 0 61 -26t12 -72q-10 -66 -61 -66q-19 0 -29 12t-7 33z" />
    <glyph glyph-name="Rcommaaccent" unicode="&#x156;" horiz-adv-x="754" 
d="M278 -144q-38 0 -35 41q1 18 15.5 31.5t35.5 13.5q27 0 37 -18.5t7 -46.5q-11 -94 -126 -140l-6 16q100 41 109 122q-12 -19 -37 -19zM544 181q-9 -92 -1.5 -127t37.5 -35q31 0 55.5 46.5t27.5 144.5l31 2q2 -100 -29 -164t-101 -64q-66 0 -86.5 42.5t-5.5 147.5
q12 90 -19.5 120.5t-127.5 30.5h-96q-41 -222 -43 -248q-1 -25 9 -33.5t43 -8.5h65l-3 -37q-136 2 -154 2l-156 -2l2 37h62q36 0 48.5 7t18.5 33q7 27 51.5 265t47.5 266q4 29 -5.5 39t-37.5 10h-73q3 9 3 35q1 0 29 -0.5t66 -1t62 -0.5h177q124 0 179 -49t39 -138
q-12 -68 -72.5 -114.5t-135.5 -53.5q57 -15 78.5 -50.5t14.5 -101.5zM284 607q-3 -11 -50 -253h100q113 0 177.5 33t78.5 114q15 83 -23.5 119.5t-149.5 36.5h-69q-29 0 -42.5 -10.5t-21.5 -39.5z" />
    <glyph glyph-name="rcommaaccent" unicode="&#x157;" horiz-adv-x="424" 
d="M61 -144q-38 0 -35 41q1 18 15.5 31.5t35.5 13.5q27 0 37 -18.5t7 -46.5q-11 -94 -126 -140l-6 16q100 41 109 122q-12 -19 -37 -19zM295 346q4 23 28 32t43 -2q3 63 -52 63q-38 0 -71 -34t-47 -99l-66 -307q-19 2 -29 2l-29 -2q31 127 65 291q17 79 14.5 112.5
t-31.5 33.5q-31 0 -55.5 -41.5t-38.5 -105.5l-24 1q9 69 42.5 122t83.5 53q75 0 77 -83q41 83 114 83q42 0 61 -26t12 -72q-10 -66 -61 -66q-19 0 -29 12t-7 33z" />
    <glyph glyph-name="Rcaron" unicode="&#x158;" horiz-adv-x="754" 
d="M315 901l9 6q37 -37 99 -111q89 79 135 111l6 -7q-62 -82 -132 -140h-34q-49 61 -83 141zM544 181q-9 -92 -1.5 -127t37.5 -35q31 0 55.5 46.5t27.5 144.5l31 2q2 -100 -29 -164t-101 -64q-66 0 -86.5 42.5t-5.5 147.5q12 90 -19.5 120.5t-127.5 30.5h-96
q-41 -222 -43 -248q-1 -25 9 -33.5t43 -8.5h65l-3 -37q-136 2 -154 2l-156 -2l2 37h62q36 0 48.5 7t18.5 33q7 27 51.5 265t47.5 266q4 29 -5.5 39t-37.5 10h-73q3 9 3 35q1 0 29 -0.5t66 -1t62 -0.5h177q124 0 179 -49t39 -138q-12 -68 -72.5 -114.5t-135.5 -53.5
q57 -15 78.5 -50.5t14.5 -101.5zM284 607q-3 -11 -50 -253h100q113 0 177.5 33t78.5 114q15 83 -23.5 119.5t-149.5 36.5h-69q-29 0 -42.5 -10.5t-21.5 -39.5z" />
    <glyph glyph-name="rcaron" unicode="&#x159;" horiz-adv-x="429" 
d="M152 663l9 6q37 -37 99 -111q89 79 135 111l6 -7q-62 -82 -132 -140h-34q-49 61 -83 141zM295 346q4 23 28 32t43 -2q3 63 -52 63q-38 0 -71 -34t-47 -99l-66 -307q-19 2 -29 2l-29 -2q31 127 65 291q17 79 14.5 112.5t-31.5 33.5q-31 0 -55.5 -41.5t-38.5 -105.5l-24 1
q9 69 42.5 122t83.5 53q75 0 77 -83q41 83 114 83q42 0 61 -26t12 -72q-10 -66 -61 -66q-19 0 -29 12t-7 33z" />
    <glyph glyph-name="Sacute" unicode="&#x15a;" horiz-adv-x="613" 
d="M351 756l-6 8q110 115 134 136q12 10 25 4.5t14 -18t-11 -22.5q-10 -7 -40 -27.5t-61 -41.5t-55 -39zM351 675q-79 0 -127 -32t-59 -88q-12 -63 26.5 -100.5t143.5 -61.5q117 -27 169 -85.5t30 -159.5q-35 -166 -241 -166q-105 0 -182 48q-27 21 -44.5 16t-30.5 -47
q-3 1 -17.5 1t-18.5 -1q26 62 37.5 111.5t13.5 126.5h36q-15 -109 42 -165t165 -56q171 0 191 134q9 64 -38 104t-148 63q-221 52 -182 231q17 79 81 120.5t158 39.5q84 -1 151 -46q48 -31 62 28q3 -1 18 -1t18 1q-25 -57 -36 -103.5t-16 -117.5h-33q35 206 -169 206z" />
    <glyph glyph-name="sacute" unicode="&#x15b;" horiz-adv-x="421" 
d="M237 526l-6 8q110 115 134 136q12 10 25 4.5t14 -18t-11 -22.5q-10 -7 -40 -27.5t-61 -41.5t-55 -39zM259 441q-52 0 -88 -21t-45 -53q-11 -41 12.5 -66.5t93.5 -44.5q85 -23 112.5 -62.5t13.5 -97.5q-12 -51 -61 -82t-124 -31q-76 0 -120 30.5t-35 85.5q4 20 18 32
t35 12t30 -12t6 -30q-4 -22 -23 -30.5t-39 -0.5q5 -28 41 -44.5t88 -16.5q56 0 94 20t47 55q10 44 -13 69.5t-102 47.5q-146 40 -117 153q13 51 60 81t116 30q64 0 103.5 -26.5t33.5 -77.5q-3 -26 -19 -38.5t-35 -12.5t-29 11.5t-8 29.5q4 21 22.5 29.5t41.5 2.5
q-7 28 -36.5 43t-73.5 15z" />
    <glyph glyph-name="Scircumflex" unicode="&#x15c;" horiz-adv-x="613" 
d="M496 763l-9 -6q-23 22 -94 109q-52 -49 -141 -109l-6 7q62 80 135 140h35q41 -53 80 -141zM351 675q-79 0 -127 -32t-59 -88q-12 -63 26.5 -100.5t143.5 -61.5q117 -27 169 -85.5t30 -159.5q-35 -166 -241 -166q-105 0 -182 48q-27 21 -44.5 16t-30.5 -47q-3 1 -17.5 1
t-18.5 -1q26 62 37.5 111.5t13.5 126.5h36q-15 -109 42 -165t165 -56q171 0 191 134q9 64 -38 104t-148 63q-221 52 -182 231q17 79 81 120.5t158 39.5q84 -1 151 -46q48 -31 62 28q3 -1 18 -1t18 1q-25 -57 -36 -103.5t-16 -117.5h-33q35 206 -169 206z" />
    <glyph glyph-name="scircumflex" unicode="&#x15d;" horiz-adv-x="421" 
d="M394 529l-9 -6q-23 22 -94 109q-52 -49 -141 -109l-6 7q62 80 135 140h35q41 -53 80 -141zM259 441q-52 0 -88 -21t-45 -53q-11 -41 12.5 -66.5t93.5 -44.5q85 -23 112.5 -62.5t13.5 -97.5q-12 -51 -61 -82t-124 -31q-76 0 -120 30.5t-35 85.5q4 20 18 32t35 12t30 -12
t6 -30q-4 -22 -23 -30.5t-39 -0.5q5 -28 41 -44.5t88 -16.5q56 0 94 20t47 55q10 44 -13 69.5t-102 47.5q-146 40 -117 153q13 51 60 81t116 30q64 0 103.5 -26.5t33.5 -77.5q-3 -26 -19 -38.5t-35 -12.5t-29 11.5t-8 29.5q4 21 22.5 29.5t41.5 2.5q-7 28 -36.5 43t-73.5 15
z" />
    <glyph glyph-name="Scedilla" unicode="&#x15e;" horiz-adv-x="613" 
d="M198 -109l-9 18q60 27 76 74q-90 7 -154 47q-27 21 -44.5 16t-30.5 -47q-3 1 -17.5 1t-18.5 -1q26 62 37.5 111.5t13.5 126.5h36q-15 -109 42 -165t165 -56q171 0 191 134q9 64 -38 104t-148 63q-221 52 -182 231q17 79 81 120.5t158 39.5q84 -1 151 -46q48 -31 62 28
q3 -1 18 -1t18 1q-25 -57 -36 -103.5t-16 -117.5h-33q35 206 -169 206q-79 0 -127 -32t-59 -88q-12 -63 26.5 -100.5t143.5 -61.5q117 -27 169 -85.5t30 -159.5q-35 -166 -241 -166h-8q-7 -37 -37 -60q44 6 76 -13.5t31 -61.5q-1 -40 -31.5 -64t-82.5 -24q-71 0 -104 50
l15 13q30 -35 78 -35q70 0 72 61q1 32 -27 46t-77 -3z" />
    <glyph glyph-name="scedilla" unicode="&#x15f;" horiz-adv-x="421" 
d="M96 -109l-9 18q60 27 76 74q-73 2 -113.5 32.5t-31.5 83.5q4 20 18 32t35 12t30 -12t6 -30q-4 -22 -23 -30.5t-39 -0.5q5 -28 41 -44.5t88 -16.5q56 0 94 20t47 55q10 44 -13 69.5t-102 47.5q-146 40 -117 153q13 51 60 81t116 30q64 0 103.5 -26.5t33.5 -77.5
q-3 -26 -19 -38.5t-35 -12.5t-29 11.5t-8 29.5q4 21 22.5 29.5t41.5 2.5q-7 28 -36.5 43t-73.5 15q-52 0 -88 -21t-45 -53q-11 -41 12.5 -66.5t93.5 -44.5q85 -23 112.5 -62.5t13.5 -97.5q-12 -49 -58 -80t-117 -33q-5 -35 -37 -61q44 6 76 -13.5t31 -61.5q-1 -40 -31.5 -64
t-82.5 -24q-71 0 -104 50l15 13q30 -35 78 -35q70 0 72 61q1 32 -27 46t-77 -3z" />
    <glyph glyph-name="Scaron" unicode="&#x160;" horiz-adv-x="613" 
d="M279 901l9 6q37 -37 99 -111q89 79 135 111l6 -7q-62 -82 -132 -140h-34q-49 61 -83 141zM351 675q-79 0 -127 -32t-59 -88q-12 -63 26.5 -100.5t143.5 -61.5q117 -27 169 -85.5t30 -159.5q-35 -166 -241 -166q-105 0 -182 48q-27 21 -44.5 16t-30.5 -47q-3 1 -17.5 1
t-18.5 -1q26 62 37.5 111.5t13.5 126.5h36q-15 -109 42 -165t165 -56q171 0 191 134q9 64 -38 104t-148 63q-221 52 -182 231q17 79 81 120.5t158 39.5q84 -1 151 -46q48 -31 62 28q3 -1 18 -1t18 1q-25 -57 -36 -103.5t-16 -117.5h-33q35 206 -169 206z" />
    <glyph glyph-name="scaron" unicode="&#x161;" horiz-adv-x="421" 
d="M166 663l9 6q37 -37 99 -111q89 79 135 111l6 -7q-62 -82 -132 -140h-34q-49 61 -83 141zM259 441q-52 0 -88 -21t-45 -53q-11 -41 12.5 -66.5t93.5 -44.5q85 -23 112.5 -62.5t13.5 -97.5q-12 -51 -61 -82t-124 -31q-76 0 -120 30.5t-35 85.5q4 20 18 32t35 12t30 -12
t6 -30q-4 -22 -23 -30.5t-39 -0.5q5 -28 41 -44.5t88 -16.5q56 0 94 20t47 55q10 44 -13 69.5t-102 47.5q-146 40 -117 153q13 51 60 81t116 30q64 0 103.5 -26.5t33.5 -77.5q-3 -26 -19 -38.5t-35 -12.5t-29 11.5t-8 29.5q4 21 22.5 29.5t41.5 2.5q-7 28 -36.5 43t-73.5 15
z" />
    <glyph glyph-name="Tcommaaccent" unicode="&#x162;" horiz-adv-x="723" 
d="M226 -109l-9 18q38 17 55.5 38.5t25.5 52.5l-147 -2l2 37h64q35 0 47.5 7t17.5 33q7 30 47 248t59 330h-157q-39 0 -62 -20t-33 -64l-23 -101q-4 1 -16 1t-17 -1q30 141 37 225q38 -5 119 -5h385q59 0 119 5q-24 -85 -46 -225q-4 1 -16 1t-16 -1l14 101q6 44 -8 64
t-53 20h-161q-100 -510 -107 -578q-3 -24 7.5 -32t44.5 -8h65l-2 -37q-116 2 -147 2q0 -47 -39 -78q44 6 76 -13.5t31 -61.5q-1 -40 -31.5 -64t-82.5 -24q-71 0 -104 50l15 13q30 -35 78 -35q70 0 72 61q1 32 -27 46t-77 -3z" />
    <glyph glyph-name="tcommaaccent" unicode="&#x163;" horiz-adv-x="320" 
d="M47 -109l-9 18q60 27 76 75q-48 4 -61 44.5t4 110.5q5 21 18 82.5t25 117.5t19 91h-80l4 28q75 1 99.5 30t53.5 127q3 9 4 13h25q-5 -20 -14.5 -57t-17 -66t-9.5 -41l-1 -6l106 3l-5 -31l-107 1l-58 -292q-13 -78 -6.5 -100t33.5 -22q62 0 85 139l23 -2
q-22 -163 -120 -171q-5 -35 -37 -61q44 6 76 -13.5t31 -61.5q-1 -40 -31.5 -64t-82.5 -24q-71 0 -104 50l15 13q30 -35 78 -35q70 0 72 61q1 32 -27 46t-77 -3z" />
    <glyph glyph-name="Tcaron" unicode="&#x164;" horiz-adv-x="723" 
d="M335 901l9 6q37 -37 99 -111q89 79 135 111l6 -7q-62 -82 -132 -140h-34q-49 61 -83 141zM615 653h-161q-100 -510 -107 -578q-3 -24 7.5 -32t44.5 -8h65l-2 -37q-136 2 -155 2l-156 -2l2 37h64q35 0 47.5 7t17.5 33q7 30 47 248t59 330h-157q-39 0 -62 -20t-33 -64
l-23 -101q-4 1 -16 1t-17 -1q30 141 37 225q38 -5 119 -5h385q59 0 119 5q-24 -85 -46 -225q-4 1 -16 1t-16 -1l14 101q6 44 -8 64t-53 20z" />
    <glyph glyph-name="tcaron" unicode="&#x165;" horiz-adv-x="412" 
d="M347 604q-38 0 -35 41q1 18 15.5 31.5t35.5 13.5q27 0 37 -18.5t7 -46.5q-11 -94 -126 -140l-6 16q100 41 109 122q-12 -19 -37 -19zM231 156l23 -2q-22 -171 -128 -171q-55 0 -71 41t2 115q5 21 18 82.5t25 117.5t19 91h-80l4 28q75 1 99.5 30t53.5 127q3 9 4 13h25
q-5 -20 -14.5 -57t-17 -66t-9.5 -41l-1 -6l106 3l-5 -31l-107 1l-58 -292q-13 -78 -6.5 -100t33.5 -22q62 0 85 139z" />
    <glyph glyph-name="Tbar" unicode="&#x166;" horiz-adv-x="723" 
d="M615 653h-161q-34 -169 -67 -348l147 6l-3 -39q-119 4 -149 6q-30 -162 -35 -203q-3 -24 7.5 -32t44.5 -8h65l-2 -37q-136 2 -155 2l-156 -2l2 37h64q35 0 47.5 7t17.5 33q6 24 39 203q-96 -6 -137 -6l3 39q43 0 139 -6q19 105 62 348h-157q-39 0 -62 -20t-33 -64
l-23 -101q-4 1 -16 1t-17 -1q30 141 37 225q38 -5 119 -5h385q59 0 119 5q-24 -85 -46 -225q-4 1 -16 1t-16 -1l14 101q6 44 -8 64t-53 20z" />
    <glyph glyph-name="tbar" unicode="&#x167;" horiz-adv-x="317" 
d="M231 156l23 -2q-22 -171 -128 -171q-55 0 -71 41t2 115l30 140q-9 0 -24.5 -1t-26 -1.5t-13.5 -0.5l7 32q13 -2 62 -4l27 126h-80l4 28q75 1 99.5 30t53.5 127q3 9 4 13h25q-5 -20 -14.5 -57t-17 -66t-9.5 -41l-1 -6l106 3l-5 -31l-107 1l-26 -128q17 1 47.5 2t50.5 2
t23 1l-8 -32q-3 0 -22.5 1t-47.5 2t-47 1l-28 -141q-13 -78 -6.5 -100t33.5 -22q62 0 85 139z" />
    <glyph glyph-name="Utilde" unicode="&#x168;" horiz-adv-x="866" 
d="M155 285q10 44 32.5 166.5t26.5 151.5q3 30 -6 41t-37 11h-67l3 35q109 -2 153 -2q33 0 91.5 1t61.5 1l-3 -35h-66q-28 0 -41.5 -11t-21.5 -41q-7 -25 -32 -160t-30 -168q-26 -137 18 -195t151 -58t173.5 58.5t92.5 194.5q52 255 61 328q3 29 -7.5 40.5t-37.5 11.5h-66
l3 35q87 -2 140 -2q32 0 88 1t59 1l-3 -35h-65q-27 0 -40.5 -11.5t-20.5 -40.5l-59 -319q-58 -303 -328 -303q-144 0 -199 72.5t-24 231.5zM658 886l19 3q11 -70 -16.5 -105.5t-73.5 -33.5q-31 1 -50.5 15.5t-36.5 47.5q-18 37 -30 49.5t-35 12.5q-25 0 -40 -26.5t-10 -81.5
l-18 -3q-11 70 16 105.5t74 34.5q33 -1 51 -15.5t35 -48.5q20 -37 32.5 -50t32.5 -13q27 0 41 28t9 81z" />
    <glyph glyph-name="utilde" unicode="&#x169;" horiz-adv-x="584" 
d="M542 156l23 -2q-9 -69 -40.5 -120t-84.5 -51q-57 0 -71.5 40.5t3.5 114.5q-65 -155 -176 -155q-69 0 -88 46t7 161l29 118q16 64 12.5 96t-31.5 32q-31 0 -55.5 -42t-37.5 -105l-24 1q9 68 41.5 121.5t86.5 53.5q105 0 67 -158l-29 -118q-16 -65 -17 -103.5t12.5 -56
t43.5 -17.5q124 0 194 293l33 155q19 -1 29 -1l30 1q-40 -159 -67 -301q-15 -82 -11 -112.5t34 -30.5q33 0 52.5 36.5t34.5 103.5zM463 656l19 3q11 -70 -16.5 -105.5t-73.5 -33.5q-31 1 -50.5 15.5t-36.5 47.5q-18 37 -30 49.5t-35 12.5q-25 0 -40 -26.5t-10 -81.5l-18 -3
q-11 70 16 105.5t74 34.5q33 -1 51 -15.5t35 -48.5q20 -37 32.5 -50t32.5 -13q27 0 41 28t9 81z" />
    <glyph glyph-name="Umacron" unicode="&#x16a;" horiz-adv-x="866" 
d="M155 285q10 44 32.5 166.5t26.5 151.5q3 30 -6 41t-37 11h-67l3 35q109 -2 153 -2q33 0 91.5 1t61.5 1l-3 -35h-66q-28 0 -41.5 -11t-21.5 -41q-7 -25 -32 -160t-30 -168q-26 -137 18 -195t151 -58t173.5 58.5t92.5 194.5q52 255 61 328q3 29 -7.5 40.5t-37.5 11.5h-66
l3 35q87 -2 140 -2q32 0 88 1t59 1l-3 -35h-65q-27 0 -40.5 -11.5t-20.5 -40.5l-59 -319q-58 -303 -328 -303q-144 0 -199 72.5t-24 231.5zM408 782q6 12 6 41q121 -4 242 0q-8 -24 -6 -41q-121 4 -242 0z" />
    <glyph glyph-name="umacron" unicode="&#x16b;" horiz-adv-x="584" 
d="M542 156l23 -2q-9 -69 -40.5 -120t-84.5 -51q-57 0 -71.5 40.5t3.5 114.5q-65 -155 -176 -155q-69 0 -88 46t7 161l29 118q16 64 12.5 96t-31.5 32q-31 0 -55.5 -42t-37.5 -105l-24 1q9 68 41.5 121.5t86.5 53.5q105 0 67 -158l-29 -118q-16 -65 -17 -103.5t12.5 -56
t43.5 -17.5q124 0 194 293l33 155q19 -1 29 -1l30 1q-40 -159 -67 -301q-15 -82 -11 -112.5t34 -30.5q33 0 52.5 36.5t34.5 103.5zM204 543q6 12 6 41q121 -4 242 0q-8 -24 -6 -41q-121 4 -242 0z" />
    <glyph glyph-name="Ubreve" unicode="&#x16c;" horiz-adv-x="866" 
d="M155 285q10 44 32.5 166.5t26.5 151.5q3 30 -6 41t-37 11h-67l3 35q109 -2 153 -2q33 0 91.5 1t61.5 1l-3 -35h-66q-28 0 -41.5 -11t-21.5 -41q-7 -25 -32 -160t-30 -168q-26 -137 18 -195t151 -58t173.5 58.5t92.5 194.5q52 255 61 328q3 29 -7.5 40.5t-37.5 11.5h-66
l3 35q87 -2 140 -2q32 0 88 1t59 1l-3 -35h-65q-27 0 -40.5 -11.5t-20.5 -40.5l-59 -319q-58 -303 -328 -303q-144 0 -199 72.5t-24 231.5zM549 760q-69 0 -95 40.5t-11 104.5l13 2q-5 -56 16 -79t82 -23q60 0 89 25t39 77l14 -2q-5 -65 -41.5 -105t-105.5 -40z" />
    <glyph glyph-name="ubreve" unicode="&#x16d;" horiz-adv-x="584" 
d="M542 156l23 -2q-9 -69 -40.5 -120t-84.5 -51q-57 0 -71.5 40.5t3.5 114.5q-65 -155 -176 -155q-69 0 -88 46t7 161l29 118q16 64 12.5 96t-31.5 32q-31 0 -55.5 -42t-37.5 -105l-24 1q9 68 41.5 121.5t86.5 53.5q105 0 67 -158l-29 -118q-16 -65 -17 -103.5t12.5 -56
t43.5 -17.5q124 0 194 293l33 155q19 -1 29 -1l30 1q-40 -159 -67 -301q-15 -82 -11 -112.5t34 -30.5q33 0 52.5 36.5t34.5 103.5zM330 534q-69 0 -95 40.5t-11 104.5l13 2q-5 -56 16 -79t82 -23q60 0 89 25t39 77l14 -2q-5 -65 -41.5 -105t-105.5 -40z" />
    <glyph glyph-name="Uring" unicode="&#x16e;" horiz-adv-x="866" 
d="M515 838q-3 -26 9 -41t35 -15q24 0 39 15t18 41q2 26 -11 40.5t-35 14.5q-50 0 -55 -55zM487 838q4 36 27 56t57 20q35 0 55 -21t16 -55q-3 -36 -26.5 -56.5t-58.5 -20.5q-34 0 -54 21.5t-16 55.5zM155 285q10 44 32.5 166.5t26.5 151.5q3 30 -6 41t-37 11h-67l3 35
q109 -2 153 -2q33 0 91.5 1t61.5 1l-3 -35h-66q-28 0 -41.5 -11t-21.5 -41q-7 -25 -32 -160t-30 -168q-26 -137 18 -195t151 -58t173.5 58.5t92.5 194.5q52 255 61 328q3 29 -7.5 40.5t-37.5 11.5h-66l3 35q87 -2 140 -2q32 0 88 1t59 1l-3 -35h-65q-27 0 -40.5 -11.5
t-20.5 -40.5l-59 -319q-58 -303 -328 -303q-144 0 -199 72.5t-24 231.5z" />
    <glyph glyph-name="uring" unicode="&#x16f;" horiz-adv-x="584" 
d="M290 603q-3 -26 9 -41t35 -15q24 0 39 15t18 41q2 26 -11 40.5t-35 14.5q-50 0 -55 -55zM262 603q4 36 27 56t57 20q35 0 55 -21t16 -55q-3 -36 -26.5 -56.5t-58.5 -20.5q-34 0 -54 21.5t-16 55.5zM542 156l23 -2q-9 -69 -40.5 -120t-84.5 -51q-57 0 -71.5 40.5
t3.5 114.5q-65 -155 -176 -155q-69 0 -88 46t7 161l29 118q16 64 12.5 96t-31.5 32q-31 0 -55.5 -42t-37.5 -105l-24 1q9 68 41.5 121.5t86.5 53.5q105 0 67 -158l-29 -118q-16 -65 -17 -103.5t12.5 -56t43.5 -17.5q124 0 194 293l33 155q19 -1 29 -1l30 1
q-40 -159 -67 -301q-15 -82 -11 -112.5t34 -30.5q33 0 52.5 36.5t34.5 103.5z" />
    <glyph glyph-name="Uhungarumlaut" unicode="&#x170;" horiz-adv-x="866" 
d="M155 285q10 44 32.5 166.5t26.5 151.5q3 30 -6 41t-37 11h-67l3 35q109 -2 153 -2q33 0 91.5 1t61.5 1l-3 -35h-66q-28 0 -41.5 -11t-21.5 -41q-7 -25 -32 -160t-30 -168q-26 -137 18 -195t151 -58t173.5 58.5t92.5 194.5q52 255 61 328q3 29 -7.5 40.5t-37.5 11.5h-66
l3 35q87 -2 140 -2q32 0 88 1t59 1l-3 -35h-65q-27 0 -40.5 -11.5t-20.5 -40.5l-59 -319q-58 -303 -328 -303q-144 0 -199 72.5t-24 231.5zM452 759l-8 8q92 125 113 149q11 12 25 8t17 -16t-7 -25q-39 -41 -140 -124zM615 759l-8 8q96 129 113 149q11 12 25.5 8t17.5 -16
t-7 -25q-43 -43 -141 -124z" />
    <glyph glyph-name="uhungarumlaut" unicode="&#x171;" horiz-adv-x="584" 
d="M542 156l23 -2q-9 -69 -40.5 -120t-84.5 -51q-57 0 -71.5 40.5t3.5 114.5q-65 -155 -176 -155q-69 0 -88 46t7 161l29 118q16 64 12.5 96t-31.5 32q-31 0 -55.5 -42t-37.5 -105l-24 1q9 68 41.5 121.5t86.5 53.5q105 0 67 -158l-29 -118q-16 -65 -17 -103.5t12.5 -56
t43.5 -17.5q124 0 194 293l33 155q19 -1 29 -1l30 1q-40 -159 -67 -301q-15 -82 -11 -112.5t34 -30.5q33 0 52.5 36.5t34.5 103.5zM238 529l-8 8q92 125 113 149q11 12 25 8t17 -16t-7 -25q-39 -41 -140 -124zM401 529l-8 8q96 129 113 149q11 12 25.5 8t17.5 -16t-7 -25
q-43 -43 -141 -124z" />
    <glyph glyph-name="Uogonek" unicode="&#x172;" horiz-adv-x="866" 
d="M155 285q10 44 32.5 166.5t26.5 151.5q3 30 -6 41t-37 11h-67l3 35q109 -2 153 -2q33 0 91.5 1t61.5 1l-3 -35h-66q-28 0 -41.5 -11t-21.5 -41q-7 -25 -32 -160t-30 -168q-26 -137 18 -195t151 -58t173.5 58.5t92.5 194.5q52 255 61 328q3 29 -7.5 40.5t-37.5 11.5h-66
l3 35q87 -2 140 -2q32 0 88 1t59 1l-3 -35h-65q-27 0 -40.5 -11.5t-20.5 -40.5l-59 -319q-56 -292 -311 -302q-53 -60 -57 -97q-9 -65 56 -65q37 0 64.5 26.5t38.5 66.5l18 -4q-10 -54 -47 -88t-89 -34q-48 0 -70 24t-17 62q5 33 30 61.5t59 46.5h-3q-144 0 -199 72.5
t-24 231.5z" />
    <glyph glyph-name="uogonek" unicode="&#x173;" horiz-adv-x="584" 
d="M601 -84q-11 -54 -47.5 -88t-89.5 -34q-48 0 -70 24t-16 62q10 67 82 107q-14 -4 -20 -4q-57 0 -71.5 40.5t3.5 114.5q-65 -155 -176 -155q-69 0 -88 46t7 161l29 118q16 64 12.5 96t-31.5 32q-31 0 -55.5 -42t-37.5 -105l-24 1q9 68 41.5 121.5t86.5 53.5q105 0 67 -158
l-29 -118q-16 -65 -17 -103.5t12.5 -56t43.5 -17.5q56 0 109.5 72t85.5 225l32 151q19 -1 29 -1l30 1q-47 -186 -67 -301q-16 -82 -11.5 -112.5t34.5 -30.5q33 0 52.5 36.5t34.5 103.5l23 -2q-10 -59 -25 -93t-45 -60q-65 -60 -72 -109q-8 -65 57 -65q36 0 63.5 26.5
t39.5 66.5z" />
    <glyph glyph-name="Wcircumflex" unicode="&#x174;" horiz-adv-x="1110" 
d="M760 763l-9 -6q-23 22 -94 109q-52 -49 -141 -109l-6 7q62 80 135 140h35q41 -53 80 -141zM722 -6q-6 1 -29 1t-28 -1q-4 39 -17.5 161.5t-26 230.5t-20.5 180q-142 -279 -281 -572q-5 1 -28.5 1t-28.5 -1q-30 307 -68 589q-6 44 -19 58t-51 14h-43l3 35q131 -2 148 -2
q31 0 88 1t60 1l-2 -35h-52q-43 0 -55 -13.5t-8 -58.5q11 -120 56 -521q74 146 256 522q20 39 11 55t-50 16h-36l3 35q78 -2 130 -2q29 0 82 1t56 1l-3 -35h-50q-33 0 -45 -15t-9 -50q29 -304 58 -525q194 396 244 504q23 52 13 69t-57 17h-32l3 35q119 -2 133 -2q28 0 79 1
t54 1l-2 -35h-38q-44 0 -65.5 -15t-51.5 -72q-117 -226 -281 -574z" />
    <glyph glyph-name="wcircumflex" unicode="&#x175;" horiz-adv-x="769" 
d="M598 529l-9 -6q-23 22 -94 109q-52 -49 -141 -109l-6 7q62 80 135 140h35q41 -53 80 -141zM190 -17q-146 0 -78 207l39 118q42 128 -18 128q-31 0 -55.5 -42t-37.5 -105l-25 1q9 68 41.5 121.5t86.5 53.5q55 0 73 -44t-6 -114l-38 -118q-57 -177 34 -177q106 0 172 216
l55 233q20 -1 31 -1l29 1l-66 -270q-23 -101 -11.5 -140t58.5 -39q44 0 86.5 47.5t68 108t38.5 121.5q12 62 12 99q-7 -3 -18 -3q-21 0 -33.5 12t-7.5 35q8 33 46 33q31 0 42 -27.5t0 -95.5q-5 -35 -17 -77.5t-34.5 -93.5t-50.5 -92t-69 -68.5t-86 -27.5q-54 0 -78.5 32
t-15.5 108q-63 -140 -167 -140z" />
    <glyph glyph-name="Ycircumflex" unicode="&#x176;" horiz-adv-x="765" 
d="M643 586q-149 -204 -248 -349l-26 -152q-3 -18 -2.5 -29.5t12 -16t39.5 -4.5h71l-3 -37q-102 2 -159 2l-159 -2l2 37h67q37 0 49 9.5t18 40.5l27 152q-17 55 -59.5 187.5t-51.5 162.5q-13 41 -35.5 54.5t-70.5 13.5h-32l2 35q105 -2 165 -2l164 2l-3 -35h-50
q-54 0 -67 -13t-2 -56q38 -136 97 -310q142 201 213 310q25 33 17.5 51t-59.5 18h-41l3 35q96 -2 150 -2l149 2l-3 -35h-31q-58 0 -84.5 -12t-58.5 -57zM602 763l-9 -6q-23 22 -94 109q-52 -49 -141 -109l-6 7q62 80 135 140h35q41 -53 80 -141z" />
    <glyph glyph-name="ycircumflex" unicode="&#x177;" horiz-adv-x="540" 
d="M32 289l-24 1q9 68 41.5 121.5t86.5 53.5q107 0 67 -158l-30 -118q-24 -97 -14.5 -137t53.5 -40q123 0 192 277l35 172q19 -1 29 -1l30 1q-48 -194 -90 -417q-45 -243 -245 -243q-75 0 -105 29t-17 68q13 40 55 40q20 0 31 -13t7 -33q-5 -22 -27 -29.5t-41 3.5
q11 -42 98 -42q78 0 121.5 50.5t65.5 157.5l22 110q-32 -80 -78.5 -119.5t-99.5 -39.5q-69 0 -87.5 45.5t7.5 161.5l28 118q17 64 13.5 96t-31.5 32q-32 0 -56 -41.5t-37 -105.5zM450 529l-9 -6q-23 22 -94 109q-52 -49 -141 -109l-6 7q62 80 135 140h35q41 -53 80 -141z
" />
    <glyph glyph-name="Ydieresis" unicode="&#x178;" horiz-adv-x="765" 
d="M643 586q-149 -204 -248 -349l-26 -152q-3 -18 -2.5 -29.5t12 -16t39.5 -4.5h71l-3 -37q-102 2 -159 2l-159 -2l2 37h67q37 0 49 9.5t18 40.5l27 152q-17 55 -59.5 187.5t-51.5 162.5q-13 41 -35.5 54.5t-70.5 13.5h-32l2 35q105 -2 165 -2l164 2l-3 -35h-50
q-54 0 -67 -13t-2 -56q38 -136 97 -310q142 201 213 310q25 33 17.5 51t-59.5 18h-41l3 35q96 -2 150 -2l149 2l-3 -35h-31q-58 0 -84.5 -12t-58.5 -57zM435 813q-1 -19 -14.5 -31.5t-32.5 -12.5q-18 0 -29 12t-9 30q1 20 14.5 31.5t32.5 11.5q18 0 28.5 -11.5t9.5 -29.5z
M610 812q-2 -19 -16 -31t-31 -12q-19 0 -30 12t-9 31q1 18 15 30t32 12t29 -11t10 -31z" />
    <glyph glyph-name="Zacute" unicode="&#x179;" horiz-adv-x="690" 
d="M397 756l-6 8q110 115 134 136q12 10 25 4.5t14 -18t-11 -22.5q-10 -7 -40 -27.5t-61 -41.5t-55 -39zM11 0l2 35q190 190 587 619l-270 -1q-91 0 -122.5 -23t-50.5 -107l-13 -55q-3 1 -17.5 1t-17.5 -1q29 120 45 223q41 -3 172 -3h360l-2 -34q-157 -158 -586 -619h324
q78 0 107.5 25t44.5 105l15 78q3 -1 18.5 -1t18.5 1q-22 -93 -48 -246q-67 3 -159 3h-408z" />
    <glyph glyph-name="zacute" unicode="&#x17a;" horiz-adv-x="473" 
d="M267 526l-6 8q110 115 134 136q12 10 25 4.5t14 -18t-11 -22.5q-10 -7 -40 -27.5t-61 -41.5t-55 -39zM96 289l-23 1q-6 96 27 138t88 42q32 0 56 -14t53 -45q32 -35 61 -44.5t47 9.5q-21 16 -21 46q0 43 30 43q29 0 29 -38q0 -32 -22.5 -62.5t-97.5 -84.5
q-9 -7 -42.5 -30t-58.5 -41t-58.5 -44t-57.5 -48q31 13 62.5 7t54.5 -30q34 -36 54 -49.5t45 -13.5q91 2 83 125l23 -2q5 -88 -28 -129.5t-88 -41.5q-41 0 -67 14t-56 51q-33 41 -69.5 45t-57.5 -22q19 -15 19 -46q-2 -41 -31 -41q-28 0 -28 40q0 33 25.5 65t94.5 88
q36 30 114.5 83.5t103.5 73.5q-54 -16 -113 40q-30 28 -46 39t-35 11q-41 0 -56.5 -32.5t-13.5 -102.5z" />
    <glyph glyph-name="Zdotaccent" unicode="&#x17b;" horiz-adv-x="690" 
d="M11 0l2 35q190 190 587 619l-270 -1q-91 0 -122.5 -23t-50.5 -107l-13 -55q-3 1 -17.5 1t-17.5 -1q29 120 45 223q41 -3 172 -3h360l-2 -34q-157 -158 -586 -619h324q78 0 107.5 25t44.5 105l15 78q3 -1 18.5 -1t18.5 1q-22 -93 -48 -246q-67 3 -159 3h-408zM462 825
q0 -19 -13 -32t-32 -13q-18 0 -31 13t-13 32q0 18 13 31t31 13q19 0 32 -13t13 -31z" />
    <glyph glyph-name="zdotaccent" unicode="&#x17c;" horiz-adv-x="473" 
d="M96 289l-23 1q-6 96 27 138t88 42q32 0 56 -14t53 -45q32 -35 61 -44.5t47 9.5q-21 16 -21 46q0 43 30 43q29 0 29 -38q0 -32 -22.5 -62.5t-97.5 -84.5q-9 -7 -42.5 -30t-58.5 -41t-58.5 -44t-57.5 -48q31 13 62.5 7t54.5 -30q34 -36 54 -49.5t45 -13.5q91 2 83 125
l23 -2q5 -88 -28 -129.5t-88 -41.5q-41 0 -67 14t-56 51q-33 41 -69.5 45t-57.5 -22q19 -15 19 -46q-2 -41 -31 -41q-28 0 -28 40q0 33 25.5 65t94.5 88q36 30 114.5 83.5t103.5 73.5q-54 -16 -113 40q-30 28 -46 39t-35 11q-41 0 -56.5 -32.5t-13.5 -102.5zM332 595
q0 -19 -13 -32t-32 -13q-18 0 -31 13t-13 32q0 18 13 31t31 13q19 0 32 -13t13 -31z" />
    <glyph glyph-name="Zcaron" unicode="&#x17d;" horiz-adv-x="690" 
d="M319 901l9 6q37 -37 99 -111q89 79 135 111l6 -7q-62 -82 -132 -140h-34q-49 61 -83 141zM11 0l2 35q190 190 587 619l-270 -1q-91 0 -122.5 -23t-50.5 -107l-13 -55q-3 1 -17.5 1t-17.5 -1q29 120 45 223q41 -3 172 -3h360l-2 -34q-157 -158 -586 -619h324
q78 0 107.5 25t44.5 105l15 78q3 -1 18.5 -1t18.5 1q-22 -93 -48 -246q-67 3 -159 3h-408z" />
    <glyph glyph-name="zcaron" unicode="&#x17e;" horiz-adv-x="473" 
d="M187 663l9 6q37 -37 99 -111q89 79 135 111l6 -7q-62 -82 -132 -140h-34q-49 61 -83 141zM96 289l-23 1q-6 96 27 138t88 42q32 0 56 -14t53 -45q32 -35 61 -44.5t47 9.5q-21 16 -21 46q0 43 30 43q29 0 29 -38q0 -32 -22.5 -62.5t-97.5 -84.5q-9 -7 -42.5 -30t-58.5 -41
t-58.5 -44t-57.5 -48q31 13 62.5 7t54.5 -30q34 -36 54 -49.5t45 -13.5q91 2 83 125l23 -2q5 -88 -28 -129.5t-88 -41.5q-41 0 -67 14t-56 51q-33 41 -69.5 45t-57.5 -22q19 -15 19 -46q-2 -41 -31 -41q-28 0 -28 40q0 33 25.5 65t94.5 88q36 30 114.5 83.5t103.5 73.5
q-54 -16 -113 40q-30 28 -46 39t-35 11q-41 0 -56.5 -32.5t-13.5 -102.5z" />
    <glyph glyph-name="longs" unicode="&#x17f;" horiz-adv-x="313" 
d="M324 682q-61 0 -98 -75t-56 -248q-18 -168 -43 -280t-58 -171.5t-68 -83t-82 -23.5q-53 0 -75.5 26.5t-11.5 61.5q10 39 51 39q20 0 30 -13t6 -32q-5 -19 -25 -26t-36 1q7 -34 57 -34q39 0 66.5 21t46.5 67t30 105.5t21 151.5q14 134 36.5 233.5t46.5 156t54.5 91
t56.5 45.5t56 11q45 0 67.5 -27t18.5 -69q-7 -66 -57 -66q-21 0 -33 11.5t-9 31.5q4 23 25 32.5t43 0.5q3 62 -60 62z" />
    <glyph glyph-name="florin" unicode="&#x192;" horiz-adv-x="562" 
d="M169 335l5 32l84 -3q34 188 98 265t142 77q52 0 72 -28t12 -74q-12 -57 -56 -57q-20 0 -30 9.5t-8 26.5q7 36 46 36q13 0 21 -2q2 28 -12.5 45t-41.5 17q-37 0 -66 -24.5t-56 -97t-44 -193.5l90 4l-5 -33l-88 3q-33 -225 -98.5 -319t-161.5 -94q-53 0 -76.5 29.5
t-16.5 67.5q4 26 19.5 41t37.5 15q40 0 34 -39q-2 -14 -15 -23t-28 -9q-14 0 -20 5q-2 -24 14.5 -41t53.5 -17q71 0 109 77t65 274q1 11 5 33z" />
    <glyph glyph-name="uni01B5" unicode="&#x1b5;" horiz-adv-x="690" 
d="M11 0l2 35q95 95 258 268q-114 -7 -124 -7v39q11 0 34 -1.5t58 -3.5t55 -3q178 189 306 327l-270 -1q-91 0 -122.5 -23t-50.5 -107l-13 -55q-3 1 -17.5 1t-17.5 -1q29 120 45 223q41 -3 172 -3h360l-2 -34q-79 -79 -311 -325q18 1 56.5 3t53.5 3v-39q-18 1 -64.5 3.5
t-69.5 3.5l-251 -268h324q78 0 107.5 25t44.5 105l15 78q3 -1 18.5 -1t18.5 1q-22 -93 -48 -246q-67 3 -159 3h-408z" />
    <glyph glyph-name="uni01B6" unicode="&#x1b6;" horiz-adv-x="473" 
d="M96 289l-23 1q-6 96 27 138t88 42q32 0 56 -14t53 -45q32 -35 61 -44.5t47 9.5q-21 16 -21 46q0 43 30 43q29 0 29 -38q0 -32 -22.5 -62.5t-97.5 -84.5q-9 -7 -33.5 -23.5t-37.5 -25.5q20 5 44 10t47.5 10t31.5 7l5 -27q-118 -17 -159 -22q-82 -61 -115 -92q31 13 62.5 7
t54.5 -30q34 -36 54 -49.5t45 -13.5q91 2 83 125l23 -2q5 -88 -28 -129.5t-88 -41.5q-41 0 -67 14t-56 51q-33 41 -69.5 45t-57.5 -22q19 -15 19 -46q-2 -41 -31 -41q-28 0 -28 40q0 33 25.5 65t94.5 88l24 19q-70 -19 -103 -24l-5 27l137 19q19 13 55 38t63 43.5t47 34.5
q-54 -16 -113 40q-30 28 -46 39t-35 11q-41 0 -56.5 -32.5t-13.5 -102.5z" />
    <glyph glyph-name="uni01FA" unicode="&#x1fa;" horiz-adv-x="837" 
d="M548 230q-158 4 -301 0q-59 -100 -68 -118q-24 -39 -13.5 -58t60.5 -19h51l-3 -37q-93 2 -145 2l-146 -2l3 37h34q47 0 69.5 12.5t49.5 61.5q1 2 165.5 280.5t175.5 302.5h12q11 -1 16 -1l27 1q53 -325 105 -583q9 -47 23.5 -60.5t62.5 -13.5h43l-3 -37q-101 2 -158 2
l-158 -2l3 37h46q51 0 63 15.5t5 62.5q-18 109 -19 117zM265 261q134 -2 278 0q-33 207 -63 367zM499 948l-6 8q110 115 134 136q12 10 25 4.5t14 -18t-11 -22.5q-10 -7 -40 -27.5t-61 -41.5t-55 -39zM477 838q-3 -26 9 -41t35 -15q24 0 39 15t18 41q2 26 -11 40.5t-35 14.5
q-50 0 -55 -55zM449 838q4 36 27 56t57 20q35 0 55 -21t16 -55q-3 -36 -26.5 -56.5t-58.5 -20.5q-34 0 -54 21.5t-16 55.5z" />
    <glyph glyph-name="aringacute" unicode="&#x1fb;" horiz-adv-x="549" 
d="M530 154q-11 -77 -43 -124t-82 -47q-49 0 -67.5 29.5t-4.5 101.5q-30 -62 -74.5 -96.5t-93.5 -34.5q-69 0 -101 50t-17 154q20 131 82 204.5t144 73.5q52 0 83 -29t34 -82q37 84 45 107h34q-34 -124 -79 -332q-13 -61 -6 -87t36 -26q59 0 87 140zM180 12q59 0 111 66.5
t76 191.5q17 85 -7 125.5t-80 40.5q-59 0 -104 -58.5t-67 -186.5q-30 -179 71 -179zM331 730l-6 8q110 115 134 136q12 10 25 4.5t14 -18t-11 -22.5q-10 -7 -40 -27.5t-61 -41.5t-55 -39zM283 603q-3 -26 9 -41t35 -15q24 0 39 15t18 41q2 26 -11 40.5t-35 14.5
q-50 0 -55 -55zM255 603q4 36 27 56t57 20q35 0 55 -21t16 -55q-3 -36 -26.5 -56.5t-58.5 -20.5q-34 0 -54 21.5t-16 55.5z" />
    <glyph glyph-name="AEacute" unicode="&#x1fc;" horiz-adv-x="1062" 
d="M746 747l-6 8q110 115 134 136q12 10 25 4.5t14 -18t-11 -22.5q-10 -7 -40 -27.5t-61 -41.5t-55 -39zM1000 228q-23 -88 -46 -232q-46 4 -206 4h-264l-141 -2l3 37h59q31 0 43.5 9t17.5 35l25 128q-122 2 -216 -1q-59 -81 -66 -93q-55 -78 32 -78h47l-3 -37q-99 2 -153 2
l-149 -2l2 37h47q45 0 72.5 15.5t60.5 60.5q331 450 367 506q12 18 6.5 29t-27.5 11h-40l2 34q26 -3 136 -3h293q109 0 166 7q-24 -101 -42 -228h-33l8 40q18 93 0 120t-102 27h-217q-42 0 -52 -43q-4 -16 -47 -245h97q74 0 101 24.5t43 101.5l2 15h34q-24 -87 -37 -155
q-13 -69 -22 -160h-34l4 17q13 74 -9.5 101t-105.5 27h-78l-47 -255q-9 -47 29 -47h228q51 0 80.5 7t47.5 29.5t26 49.5t17 83l4 24h37zM297 237q100 -2 200 0q70 367 70 369q-132 -178 -270 -369z" />
    <glyph glyph-name="aeacute" unicode="&#x1fd;" horiz-adv-x="775" 
d="M434 526l-6 8q110 115 134 136q12 10 25 4.5t14 -18t-11 -22.5q-10 -7 -40 -27.5t-61 -41.5t-55 -39zM668 124l26 -7q-32 -68 -73.5 -101t-112.5 -33q-86 0 -124.5 39.5t-36.5 117.5q-30 -74 -79.5 -115.5t-102.5 -41.5q-69 0 -101.5 50t-17.5 154q20 131 82 204.5
t144 73.5q59 0 91 -37t27 -104q34 69 87.5 105t117.5 36q139 0 114 -139q-25 -147 -292 -135q-17 -101 7 -141t88 -40q110 0 156 114zM179 12q59 0 110.5 66.5t76.5 191.5q17 85 -7.5 125.5t-80.5 40.5q-59 0 -103.5 -59t-66.5 -186q-15 -89 1 -134t70 -45zM423 222l-3 -13
q85 -1 132.5 11t68.5 35.5t32 67.5q13 52 -2.5 83.5t-61.5 31.5q-60 0 -101.5 -49.5t-64.5 -166.5z" />
    <glyph glyph-name="Oslashacute" unicode="&#x1fe;" horiz-adv-x="779" 
d="M326 -23q-114 0 -184 47l-66 -74l-16 13l59 80q-100 92 -62 303q32 172 142 267t266 95q103 0 169 -39l61 66l15 -12l-52 -70q116 -90 77 -306q-33 -177 -145.5 -273.5t-263.5 -96.5zM332 10q123 0 211.5 83.5t120.5 253.5q35 186 -34 267l-6 -8l-223 -259l-229 -290
q53 -47 160 -47zM376 346l221 283l7 8q-52 39 -145 39q-123 0 -210.5 -79.5t-119.5 -250.5q-35 -183 21 -263zM445 756l-6 8q110 115 134 136q12 10 25 4.5t14 -18t-11 -22.5q-10 -7 -40 -27.5t-61 -41.5t-55 -39z" />
    <glyph glyph-name="oslashacute" unicode="&#x1ff;" horiz-adv-x="483" 
d="M186 -17q-37 0 -67 12l-43 -68l-13 8l36 69q-79 48 -56 187q18 117 83.5 195.5t155.5 78.5q37 0 64 -10l28 45l13 -7l-22 -46q79 -45 61 -177q-18 -124 -83.5 -205.5t-156.5 -81.5zM189 9q63 0 109.5 67.5t66.5 196.5q17 101 -17 141l-113 -201l-99 -190q20 -14 53 -14z
M118 39l114 204l100 185q-21 12 -51 12q-60 0 -109 -67.5t-69 -191.5q-15 -100 15 -142zM301 526l-6 8q110 115 134 136q12 10 25 4.5t14 -18t-11 -22.5q-10 -7 -40 -27.5t-61 -41.5t-55 -39z" />
    <glyph glyph-name="Scommaaccent" unicode="&#x218;" horiz-adv-x="613" 
d="M234 -144q-38 0 -35 41q1 18 15.5 31.5t35.5 13.5q27 0 37 -18.5t7 -46.5q-11 -94 -126 -140l-6 16q100 41 109 122q-12 -19 -37 -19zM351 675q-79 0 -127 -32t-59 -88q-12 -63 26.5 -100.5t143.5 -61.5q117 -27 169 -85.5t30 -159.5q-35 -166 -241 -166q-105 0 -182 48
q-27 21 -44.5 16t-30.5 -47q-3 1 -17.5 1t-18.5 -1q26 62 37.5 111.5t13.5 126.5h36q-15 -109 42 -165t165 -56q171 0 191 134q9 64 -38 104t-148 63q-221 52 -182 231q17 79 81 120.5t158 39.5q84 -1 151 -46q48 -31 62 28q3 -1 18 -1t18 1q-25 -57 -36 -103.5t-16 -117.5
h-33q35 206 -169 206z" />
    <glyph glyph-name="scommaaccent" unicode="&#x219;" horiz-adv-x="421" 
d="M156 -144q-38 0 -35 41q1 18 15.5 31.5t35.5 13.5q27 0 37 -18.5t7 -46.5q-11 -94 -126 -140l-6 16q100 41 109 122q-12 -19 -37 -19zM259 441q-52 0 -88 -21t-45 -53q-11 -41 12.5 -66.5t93.5 -44.5q85 -23 112.5 -62.5t13.5 -97.5q-12 -51 -61 -82t-124 -31
q-76 0 -120 30.5t-35 85.5q4 20 18 32t35 12t30 -12t6 -30q-4 -22 -23 -30.5t-39 -0.5q5 -28 41 -44.5t88 -16.5q56 0 94 20t47 55q10 44 -13 69.5t-102 47.5q-146 40 -117 153q13 51 60 81t116 30q64 0 103.5 -26.5t33.5 -77.5q-3 -26 -19 -38.5t-35 -12.5t-29 11.5
t-8 29.5q4 21 22.5 29.5t41.5 2.5q-7 28 -36.5 43t-73.5 15z" />
    <glyph glyph-name="uni021A" unicode="&#x21a;" horiz-adv-x="723" 
d="M264 -144q-38 0 -35 41q1 18 15.5 31.5t35.5 13.5q27 0 37 -18.5t7 -46.5q-11 -94 -126 -140l-6 16q100 41 109 122q-12 -19 -37 -19zM615 653h-161q-100 -510 -107 -578q-3 -24 7.5 -32t44.5 -8h65l-2 -37q-136 2 -155 2l-156 -2l2 37h64q35 0 47.5 7t17.5 33
q7 30 47 248t59 330h-157q-39 0 -62 -20t-33 -64l-23 -101q-4 1 -16 1t-17 -1q30 141 37 225q38 -5 119 -5h385q59 0 119 5q-24 -85 -46 -225q-4 1 -16 1t-16 -1l14 101q6 44 -8 64t-53 20z" />
    <glyph glyph-name="uni021B" unicode="&#x21b;" horiz-adv-x="320" 
d="M87 -144q-38 0 -35 41q1 18 15.5 31.5t35.5 13.5q27 0 37 -18.5t7 -46.5q-11 -94 -126 -140l-6 16q100 41 109 122q-12 -19 -37 -19zM231 156l23 -2q-22 -171 -128 -171q-55 0 -71 41t2 115q5 21 18 82.5t25 117.5t19 91h-80l4 28q75 1 99.5 30t53.5 127q3 9 4 13h25
q-5 -20 -14.5 -57t-17 -66t-9.5 -41l-1 -6l106 3l-5 -31l-107 1l-58 -292q-13 -78 -6.5 -100t33.5 -22q62 0 85 139z" />
    <glyph glyph-name="uni0237" unicode="&#x237;" horiz-adv-x="288" 
d="M196 293l-54 -275q-43 -217 -194 -217q-51 0 -73.5 24t-14.5 58q9 45 52 45q19 0 29.5 -12t6.5 -30q-4 -21 -24.5 -29t-36.5 1q7 -34 58 -34q50 0 83 40.5t52 140.5l57 292q16 71 15 105t-29 34q-31 0 -55 -41.5t-38 -105.5l-24 1q10 72 44 123.5t84 51.5
q57 0 69.5 -47.5t-7.5 -124.5z" />
    <glyph glyph-name="circumflex" unicode="&#x2c6;" horiz-adv-x="532" 
d="M370 533l-9 -6q-23 22 -94 109q-52 -49 -141 -109l-6 7q62 80 135 140h35q41 -53 80 -141z" />
    <glyph glyph-name="caron" unicode="&#x2c7;" horiz-adv-x="532" 
d="M156 671l9 6q37 -37 99 -111q89 79 135 111l6 -7q-62 -82 -132 -140h-34q-49 61 -83 141z" />
    <glyph glyph-name="breve" unicode="&#x2d8;" horiz-adv-x="532" 
d="M246 534q-69 0 -95 40.5t-11 104.5l13 2q-5 -56 16 -79t82 -23q60 0 89 25t39 77l14 -2q-5 -65 -41.5 -105t-105.5 -40z" />
    <glyph glyph-name="dotaccent" unicode="&#x2d9;" horiz-adv-x="532" 
d="M320 595q0 -19 -13 -32t-32 -13q-18 0 -31 13t-13 32q0 18 13 31t31 13q19 0 32 -13t13 -31z" />
    <glyph glyph-name="ring" unicode="&#x2da;" horiz-adv-x="532" 
d="M222 608q-3 -26 9 -41t35 -15q24 0 39 15t18 41q2 26 -11 40.5t-35 14.5q-50 0 -55 -55zM194 608q4 36 27 56t57 20q35 0 55 -21t16 -55q-3 -36 -26.5 -56.5t-58.5 -20.5q-34 0 -54 21.5t-16 55.5z" />
    <glyph glyph-name="ogonek" unicode="&#x2db;" horiz-adv-x="532" 
d="M396 -84q-11 -55 -47.5 -88.5t-88.5 -33.5q-48 0 -70 24t-17 62q7 49 56 85t125 50l6 -6q-63 -16 -100 -48t-41 -69q-9 -65 56 -65q37 0 64.5 26.5t38.5 66.5z" />
    <glyph glyph-name="tilde" unicode="&#x2dc;" horiz-adv-x="532" 
d="M395 656l19 3q11 -70 -16.5 -105.5t-73.5 -33.5q-31 1 -50.5 15.5t-36.5 47.5q-18 37 -30 49.5t-35 12.5q-25 0 -40 -26.5t-10 -81.5l-18 -3q-11 70 16 105.5t74 34.5q33 -1 51 -15.5t35 -48.5q20 -37 32.5 -50t32.5 -13q27 0 41 28t9 81z" />
    <glyph glyph-name="hungarumlaut" unicode="&#x2dd;" horiz-adv-x="532" 
d="M116 529l-8 8q92 125 113 149q11 12 25 8t17 -16t-7 -25q-39 -41 -140 -124zM279 529l-8 8q96 129 113 149q11 12 25.5 8t17.5 -16t-7 -25q-43 -43 -141 -124z" />
    <glyph glyph-name="Wgrave" unicode="&#x1e80;" horiz-adv-x="1110" 
d="M722 -6q-6 1 -29 1t-28 -1q-4 39 -17.5 161.5t-26 230.5t-20.5 180q-142 -279 -281 -572q-5 1 -28.5 1t-28.5 -1q-30 307 -68 589q-6 44 -19 58t-51 14h-43l3 35q131 -2 148 -2q31 0 88 1t60 1l-2 -35h-52q-43 0 -55 -13.5t-8 -58.5q11 -120 56 -521q74 146 256 522
q20 39 11 55t-50 16h-36l3 35q78 -2 130 -2q29 0 82 1t56 1l-3 -35h-50q-33 0 -45 -15t-9 -50q29 -304 58 -525q194 396 244 504q23 52 13 69t-57 17h-32l3 35q119 -2 133 -2q28 0 79 1t54 1l-2 -35h-38q-44 0 -65.5 -15t-51.5 -72q-117 -226 -281 -574zM673 759l-6 -8
q-55 39 -157 108q-13 9 -10.5 22.5t14 18t25.5 -4.5q10 -10 134 -136z" />
    <glyph glyph-name="wgrave" unicode="&#x1e81;" horiz-adv-x="769" 
d="M190 -17q-146 0 -78 207l39 118q42 128 -18 128q-31 0 -55.5 -42t-37.5 -105l-25 1q9 68 41.5 121.5t86.5 53.5q55 0 73 -44t-6 -114l-38 -118q-57 -177 34 -177q106 0 172 216l55 233q20 -1 31 -1l29 1l-66 -270q-23 -101 -11.5 -140t58.5 -39q44 0 86.5 47.5t68 108
t38.5 121.5q12 62 12 99q-7 -3 -18 -3q-21 0 -33.5 12t-7.5 35q8 33 46 33q31 0 42 -27.5t0 -95.5q-5 -35 -17 -77.5t-34.5 -93.5t-50.5 -92t-69 -68.5t-86 -27.5q-54 0 -78.5 32t-15.5 108q-63 -140 -167 -140zM490 535l-6 -8q-55 39 -157 108q-13 9 -10.5 22.5t14 18
t25.5 -4.5q10 -10 134 -136z" />
    <glyph glyph-name="Wacute" unicode="&#x1e82;" horiz-adv-x="1110" 
d="M625 756l-6 8q110 115 134 136q12 10 25 4.5t14 -18t-11 -22.5q-10 -7 -40 -27.5t-61 -41.5t-55 -39zM722 -6q-6 1 -29 1t-28 -1q-4 39 -17.5 161.5t-26 230.5t-20.5 180q-142 -279 -281 -572q-5 1 -28.5 1t-28.5 -1q-30 307 -68 589q-6 44 -19 58t-51 14h-43l3 35
q131 -2 148 -2q31 0 88 1t60 1l-2 -35h-52q-43 0 -55 -13.5t-8 -58.5q11 -120 56 -521q74 146 256 522q20 39 11 55t-50 16h-36l3 35q78 -2 130 -2q29 0 82 1t56 1l-3 -35h-50q-33 0 -45 -15t-9 -50q29 -304 58 -525q194 396 244 504q23 52 13 69t-57 17h-32l3 35
q119 -2 133 -2q28 0 79 1t54 1l-2 -35h-38q-44 0 -65.5 -15t-51.5 -72q-117 -226 -281 -574z" />
    <glyph glyph-name="wacute" unicode="&#x1e83;" horiz-adv-x="769" 
d="M469 526l-6 8q110 115 134 136q12 10 25 4.5t14 -18t-11 -22.5q-10 -7 -40 -27.5t-61 -41.5t-55 -39zM190 -17q-146 0 -78 207l39 118q42 128 -18 128q-31 0 -55.5 -42t-37.5 -105l-25 1q9 68 41.5 121.5t86.5 53.5q55 0 73 -44t-6 -114l-38 -118q-57 -177 34 -177
q106 0 172 216l55 233q20 -1 31 -1l29 1l-66 -270q-23 -101 -11.5 -140t58.5 -39q44 0 86.5 47.5t68 108t38.5 121.5q12 62 12 99q-7 -3 -18 -3q-21 0 -33.5 12t-7.5 35q8 33 46 33q31 0 42 -27.5t0 -95.5q-5 -35 -17 -77.5t-34.5 -93.5t-50.5 -92t-69 -68.5t-86 -27.5
q-54 0 -78.5 32t-15.5 108q-63 -140 -167 -140z" />
    <glyph glyph-name="Wdieresis" unicode="&#x1e84;" horiz-adv-x="1110" 
d="M608 813q-1 -19 -14.5 -31.5t-32.5 -12.5q-18 0 -29 12t-9 30q1 20 14.5 31.5t32.5 11.5q18 0 28.5 -11.5t9.5 -29.5zM783 812q-2 -19 -16 -31t-31 -12q-19 0 -30 12t-9 31q1 18 15 30t32 12t29 -11t10 -31zM722 -6q-6 1 -29 1t-28 -1q-4 39 -17.5 161.5t-26 230.5
t-20.5 180q-142 -279 -281 -572q-5 1 -28.5 1t-28.5 -1q-30 307 -68 589q-6 44 -19 58t-51 14h-43l3 35q131 -2 148 -2q31 0 88 1t60 1l-2 -35h-52q-43 0 -55 -13.5t-8 -58.5q11 -120 56 -521q74 146 256 522q20 39 11 55t-50 16h-36l3 35q78 -2 130 -2q29 0 82 1t56 1
l-3 -35h-50q-33 0 -45 -15t-9 -50q29 -304 58 -525q194 396 244 504q23 52 13 69t-57 17h-32l3 35q119 -2 133 -2q28 0 79 1t54 1l-2 -35h-38q-44 0 -65.5 -15t-51.5 -72q-117 -226 -281 -574z" />
    <glyph glyph-name="wdieresis" unicode="&#x1e85;" horiz-adv-x="769" 
d="M434 583q-1 -19 -14.5 -31.5t-32.5 -12.5q-18 0 -29 12t-9 30q1 20 14.5 31.5t32.5 11.5q18 0 28.5 -11.5t9.5 -29.5zM609 582q-2 -19 -16 -31t-31 -12q-19 0 -30 12t-9 31q1 18 15 30t32 12t29 -11t10 -31zM190 -17q-146 0 -78 207l39 118q42 128 -18 128
q-31 0 -55.5 -42t-37.5 -105l-25 1q9 68 41.5 121.5t86.5 53.5q55 0 73 -44t-6 -114l-38 -118q-57 -177 34 -177q106 0 172 216l55 233q20 -1 31 -1l29 1l-66 -270q-23 -101 -11.5 -140t58.5 -39q44 0 86.5 47.5t68 108t38.5 121.5q12 62 12 99q-7 -3 -18 -3q-21 0 -33.5 12
t-7.5 35q8 33 46 33q31 0 42 -27.5t0 -95.5q-5 -35 -17 -77.5t-34.5 -93.5t-50.5 -92t-69 -68.5t-86 -27.5q-54 0 -78.5 32t-15.5 108q-63 -140 -167 -140z" />
    <glyph glyph-name="uni1E8A" unicode="&#x1e8a;" horiz-adv-x="800" 
d="M501 112q-37 75 -103 198q-185 -195 -187 -198q-62 -77 16 -77h55l-2 -37q-97 2 -153 2l-152 -2l3 37h29q48 0 81.5 16.5t84.5 67.5q132 132 212 217l-133 249q-24 44 -43 57t-72 13h-45l2 35q110 -2 171 -2l163 2l-3 -35h-47q-44 0 -56.5 -20t4.5 -51q5 -10 106 -205
q156 163 190 203q31 36 19.5 54.5t-58.5 18.5h-38l2 35q93 -2 149 -2l151 2l-2 -35h-34q-29 0 -45.5 -2t-36 -15t-27 -20t-37.5 -37q-3 -4 -99 -102.5t-120 -124.5q85 -162 132 -244q27 -46 48 -60.5t61 -14.5h55l-3 -37q-107 2 -168 2l-169 -2l3 37h54q45 0 54 17.5
t-12 59.5zM552 825q0 -19 -13 -32t-32 -13q-18 0 -31 13t-13 32q0 18 13 31t31 13q19 0 32 -13t13 -31z" />
    <glyph glyph-name="uni1E8B" unicode="&#x1e8b;" horiz-adv-x="573" 
d="M490 155q-3 -74 -37 -123t-105 -49q-100 0 -117 99q-17 -45 -50.5 -72t-80.5 -27q-54 0 -75 31.5t-9 78.5q13 50 57 50q19 0 29.5 -12t6.5 -31q-4 -22 -26.5 -30t-42.5 4q-4 -26 10 -45.5t53 -19.5q25 0 46 12.5t34.5 29.5t26 46t18.5 49t14 51q30 99 24.5 169t-62.5 70
q-51 0 -71.5 -44t-9.5 -104l-25 2q-14 68 15.5 121.5t100.5 53.5q100 0 112 -103q46 103 137 103q48 0 68.5 -26t12.5 -72q-10 -66 -60 -66q-20 0 -30 12t-6 33q4 24 28 32.5t43 -2.5q4 63 -59 63q-60 0 -93 -51.5t-58 -148.5q-26 -91 -14.5 -159t63.5 -68q91 0 106 143h26z
M406 595q0 -19 -13 -32t-32 -13q-18 0 -31 13t-13 32q0 18 13 31t31 13q19 0 32 -13t13 -31z" />
    <glyph glyph-name="Ygrave" unicode="&#x1ef2;" horiz-adv-x="765" 
d="M643 586q-149 -204 -248 -349l-26 -152q-3 -18 -2.5 -29.5t12 -16t39.5 -4.5h71l-3 -37q-102 2 -159 2l-159 -2l2 37h67q37 0 49 9.5t18 40.5l27 152q-17 55 -59.5 187.5t-51.5 162.5q-13 41 -35.5 54.5t-70.5 13.5h-32l2 35q105 -2 165 -2l164 2l-3 -35h-50
q-54 0 -67 -13t-2 -56q38 -136 97 -310q142 201 213 310q25 33 17.5 51t-59.5 18h-41l3 35q96 -2 150 -2l149 2l-3 -35h-31q-58 0 -84.5 -12t-58.5 -57zM488 765l-6 -8q-55 39 -157 108q-13 9 -10.5 22.5t14 18t25.5 -4.5q10 -10 134 -136z" />
    <glyph glyph-name="ygrave" unicode="&#x1ef3;" horiz-adv-x="540" 
d="M32 289l-24 1q9 68 41.5 121.5t86.5 53.5q107 0 67 -158l-30 -118q-24 -97 -14.5 -137t53.5 -40q123 0 192 277l35 172q19 -1 29 -1l30 1q-48 -194 -90 -417q-45 -243 -245 -243q-75 0 -105 29t-17 68q13 40 55 40q20 0 31 -13t7 -33q-5 -22 -27 -29.5t-41 3.5
q11 -42 98 -42q78 0 121.5 50.5t65.5 157.5l22 110q-32 -80 -78.5 -119.5t-99.5 -39.5q-69 0 -87.5 45.5t7.5 161.5l28 118q17 64 13.5 96t-31.5 32q-32 0 -56 -41.5t-37 -105.5zM346 535l-6 -8q-55 39 -157 108q-13 9 -10.5 22.5t14 18t25.5 -4.5q10 -10 134 -136z" />
    <glyph glyph-name="uni2009" unicode="&#x2009;" horiz-adv-x="94" 
 />
    <glyph glyph-name="endash" unicode="&#x2013;" horiz-adv-x="500" 
d="M37 214q1 4 3 22t2 19q199 -6 420 0q-1 -3 -3 -21.5t-2 -19.5q-220 4 -420 0z" />
    <glyph glyph-name="emdash" unicode="&#x2014;" horiz-adv-x="1000" 
d="M40 214q1 3 3 21.5t2 19.5q110 -2 455 -2.5t463 2.5q-5 -13 -5 -41q-137 3 -472 2.5t-446 -2.5z" />
    <glyph glyph-name="quoteleft" unicode="&#x2018;" horiz-adv-x="236" 
d="M133 537q18 0 27.5 -11.5t8.5 -31.5q-2 -20 -16 -33.5t-36 -13.5q-54 0 -49 71q5 60 51 109t124 67l7 -18q-66 -17 -110 -56t-47 -103q14 20 40 20z" />
    <glyph glyph-name="quoteright" unicode="&#x2019;" horiz-adv-x="236" 
d="M182 605q-40 0 -37 42q2 20 16.5 33.5t36.5 13.5q54 0 49 -71q-6 -60 -52 -109t-124 -67l-7 18q66 17 110 56t47 102q-12 -18 -39 -18z" />
    <glyph glyph-name="quotesinglbase" unicode="&#x201a;" horiz-adv-x="243" 
d="M62 17q-40 0 -37 42q2 20 16.5 33.5t36.5 13.5q54 0 49 -71q-6 -60 -52 -109t-124 -67l-7 18q66 17 110 56t47 102q-12 -18 -39 -18z" />
    <glyph glyph-name="quotedblleft" unicode="&#x201c;" horiz-adv-x="407" 
d="M133 537q18 0 27.5 -11.5t8.5 -31.5q-2 -20 -16 -33.5t-36 -13.5q-54 0 -49 71q5 60 51 109t124 67l7 -18q-66 -17 -110 -56t-47 -103q14 20 40 20zM304 537q18 0 27.5 -11.5t8.5 -31.5q-2 -20 -16 -33.5t-36 -13.5q-54 0 -49 71q5 60 51 109t124 67l7 -18
q-66 -17 -110 -56t-47 -103q14 20 40 20z" />
    <glyph glyph-name="quotedblright" unicode="&#x201d;" horiz-adv-x="407" 
d="M182 605q-40 0 -37 42q2 20 16.5 33.5t36.5 13.5q54 0 49 -71q-6 -60 -52 -109t-124 -67l-7 18q66 17 110 56t47 102q-12 -18 -39 -18zM353 605q-40 0 -37 42q2 20 16.5 33.5t36.5 13.5q54 0 49 -71q-6 -60 -52 -109t-124 -67l-7 18q66 17 110 56t47 102q-12 -18 -39 -18
z" />
    <glyph glyph-name="quotedblbase" unicode="&#x201e;" horiz-adv-x="415" 
d="M62 17q-40 0 -37 42q2 20 16.5 33.5t36.5 13.5q54 0 49 -71q-6 -60 -52 -109t-124 -67l-7 18q66 17 110 56t47 102q-12 -18 -39 -18zM234 17q-40 0 -37 42q2 20 16.5 33.5t36.5 13.5q54 0 49 -71q-6 -60 -52 -109t-124 -67l-7 18q66 17 110 56t47 102q-12 -18 -39 -18z
" />
    <glyph glyph-name="dagger" unicode="&#x2020;" 
d="M227 488q-23 -10 -55 -8.5t-32 28.5t32 28.5t55 -8.5q48 -9 80 -11q7 17 24 20q12 55 12 101q0 121 46 121q15 0 20.5 -10.5t1.5 -30t-10.5 -38.5t-17.5 -44q-21 -48 -33 -103q10 -5 13 -16q48 3 82 11q24 9 55.5 8t31.5 -28t-31.5 -28.5t-55.5 8.5q-35 8 -82 11
q-6 -18 -25 -20q-16 -80 -11.5 -107.5t32.5 -30.5l-5 -20q-30 -4 -47 -37.5t-38 -131.5q-17 -83 -17 -127q0 -122 -46 -122q-15 0 -20.5 11t-1.5 30.5t10.5 38.5t17.5 43q22 49 38 126q21 100 18.5 132.5t-32.5 36.5l5 20q28 3 44 31.5t35 110.5q-10 5 -13 16
q-48 -3 -80 -11z" />
    <glyph glyph-name="daggerdbl" unicode="&#x2021;" 
d="M227 488q-23 -10 -55 -8.5t-32 28.5t32 28.5t55 -8.5q48 -9 82 -11q6 16 22 19q12 57 12 102q0 121 46 121q15 0 20.5 -10.5t1.5 -30t-10.5 -38.5t-17.5 -44q-20 -45 -33 -102q11 -6 14 -17q47 3 81 11q24 9 55.5 8t31.5 -28t-31.5 -28.5t-55.5 8.5q-35 8 -81 11
q-5 -20 -26 -20q-16 -80 -11.5 -107.5t32.5 -30.5l-5 -20q-29 -4 -46 -35.5t-37 -122.5q57 2 97 12q23 9 55 7.5t32 -28.5t-32 -28t-55 8q-42 10 -101 12q-15 -81 -15 -121q0 -122 -46 -122q-15 0 -20.5 11t-1.5 30.5t10.5 38.5t17.5 43q22 49 37 120q-48 -1 -99 -12
q-87 -22 -87 20q0 27 31.5 28.5t55.5 -7.5q48 -12 102 -12q20 92 16.5 123t-32.5 35l5 20q28 3 44 32t35 111q-8 4 -11 15q-50 -3 -82 -11z" />
    <glyph glyph-name="bullet" unicode="&#x2022;" horiz-adv-x="449" 
d="M359 241q0 -59 -35.5 -92.5t-95.5 -33.5q-58 0 -94 33.5t-36 95.5q0 58 37 93t93 35q59 0 95 -36t36 -95z" />
    <glyph glyph-name="ellipsis" unicode="&#x2026;" horiz-adv-x="692" 
d="M139 48q-3 -27 -21 -42.5t-43 -15.5q-24 0 -39 15.5t-13 42.5q2 26 20 42t43 16t40 -16t13 -42zM370 48q-3 -27 -21 -42.5t-43 -15.5q-24 0 -39 15.5t-13 42.5q2 26 20 42t43 16t40 -16t13 -42zM600 48q-3 -27 -21 -42.5t-43 -15.5q-24 0 -39 15.5t-13 42.5q2 26 20 42
t43 16t40 -16t13 -42z" />
    <glyph glyph-name="perthousand" unicode="&#x2030;" horiz-adv-x="900" 
d="M106 87q0 7 7 7t7 -7t-7 -7t-7 7zM143 140q0 11 11 11t11 -11t-11 -11t-11 11zM180 193q0 6 4.5 10.5t11.5 4.5q6 0 10.5 -4.5t4.5 -10.5q0 -7 -4.5 -11.5t-10.5 -4.5q-16 0 -16 16zM218 245q0 7 5.5 13t12.5 6q8 0 14 -5.5t6 -13.5q0 -7 -6 -12.5t-14 -5.5
q-7 0 -12.5 5.5t-5.5 12.5zM257 298q0 8 6.5 14t14.5 6t14 -6t6 -14t-6 -14.5t-14 -6.5t-14.5 6.5t-6.5 14.5zM298 351q0 8 6 14t15 6t15.5 -6t6.5 -14q0 -9 -6.5 -15.5t-15.5 -6.5t-15 6.5t-6 15.5zM340 403q0 8 6 14.5t14 6.5t14.5 -6.5t6.5 -14.5t-6.5 -14t-14.5 -6
t-14 6t-6 14zM382 456q0 7 6 12.5t14 5.5t13 -5t5 -13t-5.5 -13.5t-12.5 -5.5q-8 0 -14 5.5t-6 13.5zM427 508q0 7 4.5 11.5t10.5 4.5q16 0 16 -16q0 -6 -4.5 -10.5t-11.5 -4.5q-6 0 -10.5 4.5t-4.5 10.5zM473 561q0 11 11 11t11 -11t-11 -11t-11 11zM518 614q0 7 7 7t7 -7
q0 -8 -7 -8t-7 8zM367 -18q39 0 66.5 31.5t45.5 109.5q16 83 3.5 113t-50.5 30q-39 0 -66 -32t-45 -111q-16 -83 -4 -112t50 -29zM366 -36q-60 0 -85 40t-9 119q17 81 60.5 120.5t101.5 39.5q62 0 86 -41.5t7 -118.5q-17 -80 -59.5 -119.5t-101.5 -39.5zM668 -18
q39 0 66.5 31.5t45.5 109.5q16 83 3.5 113t-50.5 30q-39 0 -66 -32t-45 -111q-16 -83 -4 -112t50 -29zM667 -36q-60 0 -85 40t-9 119q17 81 60.5 120.5t101.5 39.5q62 0 86 -41.5t7 -118.5q-17 -80 -59.5 -119.5t-101.5 -39.5zM194 414q40 0 67.5 31.5t45.5 109.5
q16 83 3.5 113t-50.5 30q-40 0 -67 -31.5t-44 -111.5q-16 -83 -4 -112t49 -29zM193 396q-59 0 -84 40t-9 119q17 81 60 120.5t102 39.5q61 0 85.5 -41.5t7.5 -118.5q-16 -80 -59.5 -119.5t-102.5 -39.5z" />
    <glyph glyph-name="guilsinglleft" unicode="&#x2039;" horiz-adv-x="309" 
d="M269 411l9 -9q-87 -87 -174 -151q56 -63 116 -152l-12 -9q-77 77 -157 147l6 33q122 76 212 141z" />
    <glyph glyph-name="guilsinglright" unicode="&#x203a;" horiz-adv-x="309" 
d="M91 402l12 9q65 -69 157 -147l-6 -33q-122 -76 -212 -141l-9 9q80 80 174 151q-56 62 -116 152z" />
    <glyph glyph-name="fraction" unicode="&#x2044;" horiz-adv-x="150" 
d="M-218 -32q0 7 7 7t7 -7t-7 -7t-7 7zM-178 24q0 11 11 11t11 -11t-11 -11t-11 11zM-137 80q0 14 14 14t14 -14t-14 -14t-14 14zM-95 136q0 17 16 17t16 -17q0 -16 -16 -16t-16 16zM-54 192q0 19 19 19q18 0 18 -19q0 -18 -18 -18q-8 0 -13.5 5t-5.5 13zM-12 248
q0 9 6.5 15t14.5 6t14.5 -6t6.5 -15q0 -8 -6.5 -14t-14.5 -6t-14.5 6t-6.5 14zM32 304q0 9 6 15.5t15 6.5t15.5 -6.5t6.5 -15.5q0 -8 -6.5 -14t-15.5 -6t-15 6t-6 14zM76 361q0 8 6 14.5t15 6.5t15.5 -6.5t6.5 -14.5q0 -9 -6.5 -15t-15.5 -6t-15 6t-6 15zM121 417q0 8 6 14
t14 6t14.5 -6t6.5 -14q0 -9 -6 -14.5t-15 -5.5q-8 0 -14 5.5t-6 14.5zM167 473q0 19 18 19q8 0 13.5 -5.5t5.5 -13.5q0 -19 -19 -19q-18 0 -18 19zM213 529q0 16 16 16t16 -16q0 -17 -16 -17t-16 17zM259 585q0 14 14 14t14 -14t-14 -14t-14 14zM306 641q0 11 11 11t11 -11
t-11 -11t-11 11zM354 697q0 7 7 7t7 -7t-7 -7t-7 7z" />
    <glyph glyph-name="Euro" unicode="&#x20ac;" 
d="M35 426l45 -3q41 128 127.5 195t204.5 67q98 0 142.5 -34.5t36.5 -90.5q-4 -30 -22.5 -46.5t-43.5 -16.5q-26 0 -38 14t-8 38q3 21 18.5 33.5t38.5 12.5q9 0 23 -4q-10 31 -47.5 48.5t-93.5 17.5q-203 0 -272 -237l246 6l-6 -35l-246 4q-8 -30 -12 -59q-3 -17 -7 -49
l246 5l-6 -35l-241 5q-15 -254 198 -254q108 0 169 64h-10q-23 0 -35 14.5t-8 36.5q9 48 60 48q25 0 37.5 -16.5t7.5 -44.5q-9 -56 -73.5 -93.5t-159.5 -37.5q-132 0 -197 70t-58 211l-47 -3l6 35l43 -3q4 33 7 47q4 30 12 57l-43 -2z" />
    <glyph glyph-name="uni2116" unicode="&#x2116;" horiz-adv-x="1093" 
d="M944 48q-3 -27 -21 -42.5t-43 -15.5q-24 0 -39 15.5t-13 42.5q2 26 20 42t43 16t40 -16t13 -42zM935 269q93 0 112 135q19 137 -74 137q-41 0 -71.5 -33t-40.5 -104q-11 -74 9 -104.5t65 -30.5zM931 245q-62 0 -90 40t-16 119q11 79 53 119.5t98 40.5q62 0 90.5 -40
t16.5 -120q-11 -78 -53.5 -118.5t-98.5 -40.5zM301 690q24 -54 286 -592q87 438 95 507q3 29 -6.5 39.5t-37.5 10.5h-72l2 35q3 0 60 -1t88 -1q32 0 87 1l55 1l-3 -35h-71q-28 0 -41 -10.5t-20 -39.5q-8 -28 -51 -258t-64 -350h-48q-29 65 -300 621q-24 -116 -59 -305
t-39 -221q-8 -57 53 -57h62l-2 -37q-129 2 -145 2l-140 -2l3 37h55q35 0 52.5 13t24.5 44q8 33 50.5 260.5t44.5 253.5q3 29 -6.5 39t-37.5 10h-72l2 35q12 -1 97.5 -1t97.5 1z" />
    <glyph glyph-name="trademark" unicode="&#x2122;" horiz-adv-x="723" 
d="M760 662h-25q-20 0 -26 -22q-22 -95 -34 -165q-3 -24 20 -24h22q0 -1 -2.5 -13t-2.5 -13q-45 1 -71 1l-70 -1q0 1 2.5 13t2.5 13h22q24 0 29 24q3 13 16 77t17 83q-51 -68 -134 -193h-13q-29 107 -56 191l-31 -157q-5 -25 20 -25h23q0 -1 -2.5 -13t-2.5 -13q-39 1 -59 1
l-61 -1q0 1 2.5 13t2.5 13h21q22 0 29 25q3 12 18 83t16 82q3 21 -19 21h-21q0 1 2.5 13.5t2.5 13.5q49 -2 100 0q18 -71 52 -178q112 163 121 178q48 -2 94 0q0 -1 -2.5 -13.5t-2.5 -13.5zM162 688h135q42 0 63 3q-10 -30 -22 -101h-27l5 30q7 41 -32 41h-37
q-34 -155 -38 -188q-1 -12 2.5 -17t16.5 -5h25q0 -1 -2.5 -13t-2.5 -13q-46 1 -72 1l-71 -1q0 1 2.5 13t2.5 13h24q23 0 29 22q22 97 37 188h-37q-38 0 -47 -41l-7 -30h-28q15 49 19 101q17 -3 62 -3z" />
    <glyph glyph-name="onethird" unicode="&#x2153;" horiz-adv-x="378" 
d="M209 447q15 65 33 188q-34 -2 -67 -2l3 23h18q38 0 56.5 15t27.5 43h24q-14 -52 -24 -102l-29 -165q-2 -12 3.5 -17t23.5 -5h37l-3 -22q-58 1 -90 1l-89 -1l3 22h39q28 0 34 22zM277 211q-12 -58 -84 -71q39 -4 58 -26t12 -55q-19 -88 -150 -88q-51 0 -77 21t-20 51
q9 38 44 38q14 0 21 -7.5t6 -18.5q-2 -28 -31 -28q-15 0 -23 8q1 -22 22.5 -34t55.5 -12q89 0 105 70q7 34 -10 51.5t-67 17.5h-18l3 19h18q42 0 62 15t28 49q6 28 -9 43.5t-47 15.5q-64 0 -86 -40q10 4 18 4q12 0 18.5 -8t4.5 -19q-3 -26 -33 -26q-14 0 -22.5 9t-5.5 28
q6 29 38.5 50.5t77.5 21.5q50 0 74.5 -21t16.5 -58zM17 344q0 14 15 14q5 0 9.5 -4.5t4.5 -9.5q0 -15 -14 -15q-15 0 -15 15zM81 344q0 14 14 14q5 0 9.5 -4.5t4.5 -9.5q0 -14 -14 -14t-14 14zM144 344q0 13 14 13q13 0 13 -13q0 -14 -13 -14q-14 0 -14 14zM207 344
q0 13 14 13q13 0 13 -13q0 -14 -13 -14q-14 0 -14 14zM270 344q0 14 14 14q5 0 9.5 -4.5t4.5 -9.5q0 -14 -14 -14t-14 14zM332 344q0 14 15 14q5 0 9.5 -4.5t4.5 -9.5q0 -15 -14 -15q-15 0 -15 15z" />
    <glyph glyph-name="twothirds" unicode="&#x2154;" horiz-adv-x="378" 
d="M344 488q8 -37 -11 -65t-60 -28q-37 0 -75 31q-26 21 -45 21q-15 0 -20 -6.5t2 -14.5q10 -14 7.5 -22.5t-12.5 -8.5q-19 0 -16 28q7 51 90 90q63 30 87.5 53.5t30.5 56.5q6 32 -8 52t-51 20q-68 0 -87 -43q10 4 17 4q29 0 25 -28q-5 -25 -33 -25q-15 0 -23.5 10t-5.5 27
q6 31 39 53t82 22q52 0 74.5 -24.5t14.5 -66.5q-7 -38 -43 -68t-112 -58q-40 -15 -59 -34q11 5 25 5t22.5 -2t25.5 -8t22 -7q30 -12 56.5 -3.5t25.5 38.5zM277 211q-12 -58 -84 -71q39 -4 58 -26t12 -55q-19 -88 -150 -88q-51 0 -77 21t-20 51q9 38 44 38q14 0 21 -7.5
t6 -18.5q-2 -28 -31 -28q-15 0 -23 8q1 -22 22.5 -34t55.5 -12q89 0 105 70q7 34 -10 51.5t-67 17.5h-18l3 19h18q42 0 62 15t28 49q6 28 -9 43.5t-47 15.5q-64 0 -86 -40q10 4 18 4q12 0 18.5 -8t4.5 -19q-3 -26 -33 -26q-14 0 -22.5 9t-5.5 28q6 29 38.5 50.5t77.5 21.5
q50 0 74.5 -21t16.5 -58zM17 344q0 14 15 14q5 0 9.5 -4.5t4.5 -9.5q0 -15 -14 -15q-15 0 -15 15zM81 344q0 14 14 14q5 0 9.5 -4.5t4.5 -9.5q0 -14 -14 -14t-14 14zM144 344q0 13 14 13q13 0 13 -13q0 -14 -13 -14q-14 0 -14 14zM207 344q0 13 14 13q13 0 13 -13
q0 -14 -13 -14q-14 0 -14 14zM270 344q0 14 14 14q5 0 9.5 -4.5t4.5 -9.5q0 -14 -14 -14t-14 14zM332 344q0 14 15 14q5 0 9.5 -4.5t4.5 -9.5q0 -15 -14 -15q-15 0 -15 15z" />
    <glyph glyph-name="oneeighth" unicode="&#x215b;" horiz-adv-x="378" 
d="M209 447q15 65 33 188q-34 -2 -67 -2l3 23h18q38 0 56.5 15t27.5 43h24q-14 -52 -24 -102l-29 -165q-2 -12 3.5 -17t23.5 -5h37l-3 -22q-58 1 -90 1l-89 -1l3 22h39q28 0 34 22zM294 217q-10 -46 -75 -74q70 -26 56 -87q-9 -39 -48 -62t-93 -23q-63 0 -89.5 20.5
t-18.5 58.5q5 26 28.5 46t58.5 30q-44 28 -32 81q9 37 43.5 60t81.5 23q50 0 72.5 -20t15.5 -53zM154 111q-8 1 -28 9q-60 -21 -71 -70q-6 -25 14 -41.5t67 -16.5q46 0 75.5 15t34.5 37q6 25 -14 39t-78 28zM201 271q-38 0 -61.5 -14.5t-29.5 -36.5q-6 -25 11 -41t66 -27
l18 -5q53 29 61 70q5 24 -9.5 39t-55.5 15zM17 344q0 14 15 14q5 0 9.5 -4.5t4.5 -9.5q0 -15 -14 -15q-15 0 -15 15zM81 344q0 14 14 14q5 0 9.5 -4.5t4.5 -9.5q0 -14 -14 -14t-14 14zM144 344q0 13 14 13q13 0 13 -13q0 -14 -13 -14q-14 0 -14 14zM207 344q0 13 14 13
q13 0 13 -13q0 -14 -13 -14q-14 0 -14 14zM270 344q0 14 14 14q5 0 9.5 -4.5t4.5 -9.5q0 -14 -14 -14t-14 14zM332 344q0 14 15 14q5 0 9.5 -4.5t4.5 -9.5q0 -15 -14 -15q-15 0 -15 15z" />
    <glyph glyph-name="threeeighths" unicode="&#x215c;" horiz-adv-x="378" 
d="M368 636q-12 -58 -83 -71q39 -4 57.5 -26t11.5 -55q-19 -88 -150 -88q-51 0 -77 21t-19 51q4 18 16 28t27 10q27 0 27 -26q0 -12 -8.5 -20t-22.5 -8t-22 8q0 -22 22 -34t55 -12q89 0 105 70q7 34 -9.5 51.5t-67.5 17.5h-18l4 19h17q42 0 62.5 15t28.5 49q6 28 -9.5 43.5
t-47.5 15.5q-64 0 -86 -40q10 4 18 4q13 0 19 -8t4 -19q-3 -26 -33 -26q-14 0 -22.5 9t-5.5 28q5 29 38 50.5t78 21.5q50 0 74.5 -21t16.5 -58zM294 217q-10 -46 -75 -74q70 -26 56 -87q-9 -39 -48 -62t-93 -23q-63 0 -89.5 20.5t-18.5 58.5q5 26 28.5 46t58.5 30
q-44 28 -32 81q9 37 43.5 60t81.5 23q50 0 72.5 -20t15.5 -53zM154 111q-8 1 -28 9q-60 -21 -71 -70q-6 -25 14 -41.5t67 -16.5q46 0 75.5 15t34.5 37q6 25 -14 39t-78 28zM201 271q-38 0 -61.5 -14.5t-29.5 -36.5q-6 -25 11 -41t66 -27l18 -5q53 29 61 70q5 24 -9.5 39
t-55.5 15zM17 344q0 14 15 14q5 0 9.5 -4.5t4.5 -9.5q0 -15 -14 -15q-15 0 -15 15zM81 344q0 14 14 14q5 0 9.5 -4.5t4.5 -9.5q0 -14 -14 -14t-14 14zM144 344q0 13 14 13q13 0 13 -13q0 -14 -13 -14q-14 0 -14 14zM207 344q0 13 14 13q13 0 13 -13q0 -14 -13 -14
q-14 0 -14 14zM270 344q0 14 14 14q5 0 9.5 -4.5t4.5 -9.5q0 -14 -14 -14t-14 14zM332 344q0 14 15 14q5 0 9.5 -4.5t4.5 -9.5q0 -15 -14 -15q-15 0 -15 15z" />
    <glyph glyph-name="fiveeighths" unicode="&#x215d;" horiz-adv-x="378" 
d="M254 575q-46 0 -88 -26l-9 9q26 39 50 147q31 -11 89 -11q60 0 99 16l6 -10q-38 -50 -114 -50q-49 0 -72 13q-18 -61 -34 -90q42 22 90 22q114 0 93 -97q-10 -47 -51.5 -74.5t-101.5 -27.5q-52 0 -76 18.5t-18 49.5q3 15 15.5 25t28.5 10q14 0 21.5 -8.5t6.5 -19.5
q-3 -28 -37 -28q-7 0 -16 3q6 -32 74 -32q87 0 105 83q18 78 -61 78zM294 217q-10 -46 -75 -74q70 -26 56 -87q-9 -39 -48 -62t-93 -23q-63 0 -89.5 20.5t-18.5 58.5q5 26 28.5 46t58.5 30q-44 28 -32 81q9 37 43.5 60t81.5 23q50 0 72.5 -20t15.5 -53zM154 111q-8 1 -28 9
q-60 -21 -71 -70q-6 -25 14 -41.5t67 -16.5q46 0 75.5 15t34.5 37q6 25 -14 39t-78 28zM201 271q-38 0 -61.5 -14.5t-29.5 -36.5q-6 -25 11 -41t66 -27l18 -5q53 29 61 70q5 24 -9.5 39t-55.5 15zM17 344q0 14 15 14q5 0 9.5 -4.5t4.5 -9.5q0 -15 -14 -15q-15 0 -15 15z
M81 344q0 14 14 14q5 0 9.5 -4.5t4.5 -9.5q0 -14 -14 -14t-14 14zM144 344q0 13 14 13q13 0 13 -13q0 -14 -13 -14q-14 0 -14 14zM207 344q0 13 14 13q13 0 13 -13q0 -14 -13 -14q-14 0 -14 14zM270 344q0 14 14 14q5 0 9.5 -4.5t4.5 -9.5q0 -14 -14 -14t-14 14zM332 344
q0 14 15 14q5 0 9.5 -4.5t4.5 -9.5q0 -15 -14 -15q-15 0 -15 15z" />
    <glyph glyph-name="seveneighths" unicode="&#x215e;" horiz-adv-x="378" 
d="M178 715l-2 -30q18 26 58 26q31 0 64 -23q32 -23 52 -23q10 0 14 6.5t-3 13.5q-10 11 -8.5 21t12.5 10q22 0 18 -28q-4 -31 -41 -63q-43 -36 -62.5 -56.5t-35 -57.5t-15.5 -86q0 -30 -25 -30q-31 0 -28 33q7 101 136 192q38 27 43 33q-20 -14 -50.5 -13.5t-57.5 18.5
q-18 12 -40 12q-37 0 -43 -43h-21q13 39 15 88h20zM294 217q-10 -46 -75 -74q70 -26 56 -87q-9 -39 -48 -62t-93 -23q-63 0 -89.5 20.5t-18.5 58.5q5 26 28.5 46t58.5 30q-44 28 -32 81q9 37 43.5 60t81.5 23q50 0 72.5 -20t15.5 -53zM154 111q-8 1 -28 9q-60 -21 -71 -70
q-6 -25 14 -41.5t67 -16.5q46 0 75.5 15t34.5 37q6 25 -14 39t-78 28zM201 271q-38 0 -61.5 -14.5t-29.5 -36.5q-6 -25 11 -41t66 -27l18 -5q53 29 61 70q5 24 -9.5 39t-55.5 15zM17 344q0 14 15 14q5 0 9.5 -4.5t4.5 -9.5q0 -15 -14 -15q-15 0 -15 15zM81 344q0 14 14 14
q5 0 9.5 -4.5t4.5 -9.5q0 -14 -14 -14t-14 14zM144 344q0 13 14 13q13 0 13 -13q0 -14 -13 -14q-14 0 -14 14zM207 344q0 13 14 13q13 0 13 -13q0 -14 -13 -14q-14 0 -14 14zM270 344q0 14 14 14q5 0 9.5 -4.5t4.5 -9.5q0 -14 -14 -14t-14 14zM332 344q0 14 15 14
q5 0 9.5 -4.5t4.5 -9.5q0 -15 -14 -15q-15 0 -15 15z" />
    <glyph glyph-name="minus" unicode="&#x2212;" 
d="M75 228q9 45 9 47q219 -4 440 0q-9 -45 -9 -47q-219 4 -440 0z" />
    <glyph glyph-name="notequal" unicode="&#x2260;" 
d="M91 308l9 42q104 -2 215 -2l44 142q14 -4 29 0l-47 -142q101 0 199 2l-9 -42q-49 1 -202 1q-25 -76 -37 -117q110 0 216 2l-9 -42q-53 1 -220 1l-47 -153q-14 4 -29 0l50 153q-146 0 -194 -1l9 42q96 -2 198 -2q12 41 37 117q-160 0 -212 -1z" />
    <glyph glyph-name="lessequal" unicode="&#x2264;" 
d="M134 238l4 22q184 100 319 196l21 -36q-58 -42 -152.5 -92.5t-162.5 -78.5q53 -26 123.5 -76.5t118.5 -96.5l-32 -34q-40 41 -118 105.5t-121 90.5zM34 0l9 42q217 -4 440 0q-9 -23 -9 -42q-219 4 -440 0z" />
    <glyph glyph-name="greaterequal" unicode="&#x2265;" 
d="M438 260l-4 -22q-176 -95 -319 -196l-21 35q57 41 154 93.5t162 79.5q-50 24 -124.5 77t-117.5 97l31 32q38 -41 116 -105t123 -91zM34 0l9 42q217 -4 440 0q-9 -23 -9 -42q-219 4 -440 0z" />
    <glyph glyph-name="space_uni0326" horiz-adv-x="188" 
d="M107 228q-38 0 -35 41q1 18 15.5 31.5t35.5 13.5q27 0 37 -18.5t7 -46.5q-11 -94 -126 -140l-6 16q100 41 109 122q-12 -19 -37 -19z" />
    <glyph glyph-name="dotlessI" horiz-adv-x="391" 
d="M-10 -2l2 37h63q36 0 48.5 7t17.5 33q7 25 51.5 263t48.5 268q3 29 -6.5 39t-37.5 10h-72l3 35q100 -2 156 -2q34 0 93.5 1t62.5 1l-2 -35h-72q-28 0 -41 -10t-20 -39t-51.5 -267t-47.5 -264q-2 -25 7.5 -32.5t44.5 -7.5h65l-2 -37q-99 2 -155 2z" />
    <glyph glyph-name="Jacute" horiz-adv-x="579" 
d="M444 740l-6 8q110 115 134 136q12 10 25 4.5t14 -18t-11 -22.5q-10 -7 -40 -27.5t-61 -41.5t-55 -39zM66 109q-21 0 -33 12q-4 -50 26 -80.5t92 -30.5q80 0 122.5 47t64.5 157q69 352 72 392q3 29 -6.5 39t-36.5 10h-69l3 35q28 -2 153 -2q24 0 58.5 0.5t63 1t32.5 0.5
l-3 -35h-70q-27 0 -40 -10t-20 -39l-73 -391q-23 -122 -81.5 -180t-169.5 -58q-84 0 -121 46.5t-25 106.5q6 34 25 54t46 20q25 0 37 -14t8 -36q-7 -45 -55 -45z" />
    <glyph glyph-name="idotaccent" horiz-adv-x="321" 
d="M252 627q-1 -20 -15.5 -34t-34.5 -14t-33.5 14t-12.5 35q1 20 15.5 34t35.5 14q20 0 33 -14t12 -35zM204 298l-47 -164q-34 -116 29 -117q58 0 86 139l23 -2q-10 -71 -41 -121t-89 -50q-52 0 -70.5 39t2.5 110l50 170q39 134 -21 134q-31 0 -55.5 -41.5t-38.5 -105.5
l-24 1q9 70 43 122.5t83 52.5q119 0 70 -167z" />
    <glyph glyph-name="jacute" horiz-adv-x="288" 
d="M196 293l-54 -275q-43 -217 -194 -217q-51 0 -73 24t-15 58q10 45 52 45q19 0 29.5 -12t6.5 -30q-4 -21 -24.5 -29t-36.5 1q7 -34 58 -34q50 0 83 40.5t52 140.5l57 292q16 71 15 105t-29 34q-31 0 -55 -41.5t-38 -105.5l-24 1q10 72 44 123.5t84 51.5q57 0 69.5 -47.5
t-7.5 -124.5zM154 526l-6 8q110 115 134 136q12 10 25 4.5t14 -18t-11 -22.5q-10 -7 -40 -27.5t-61 -41.5t-55 -39z" />
    <glyph glyph-name="C.round" horiz-adv-x="727" 
d="M459 708q184 0 207 -126q22 46 40 108q3 -1 18 -1t18 1q-33 -105 -49 -198q-1 0 -10 0.5t-16 0.5q-6 0 -15 -0.5t-10 -0.5q5 183 -182 183q-126 0 -213.5 -79.5t-119.5 -249.5q-16 -77 -12 -133.5t19 -94.5t45.5 -60.5t66.5 -32.5t83 -10q70 0 121 17t83 52t50.5 74
t32.5 96q1 0 9 -0.5t13 -0.5t13 0.5t9 0.5q-34 -149 -113.5 -211t-228.5 -62q-157 0 -226 89t-35 276q17 94 55.5 165t93 113.5t118 63t135.5 20.5z" />
    <glyph glyph-name="G.round" horiz-adv-x="805" 
d="M327 15q94 -2 169.5 57t93.5 155q9 48 0.5 65t-43.5 17h-63l2 34q92 -2 143 -2l143 2l-2 -34h-49q-26 0 -38 -11.5t-20 -41.5q-32 -118 -38 -256h-38l1 129q-37 -63 -109 -105.5t-162 -42.5q-156 0 -225 89t-35 276q17 94 55.5 165t93 113.5t118 63t135.5 20.5
q179 0 207 -122q21 44 39 104q3 -1 18.5 -1t18.5 1q-38 -106 -48 -198h-52q2 183 -182 183q-126 0 -213.5 -79.5t-119.5 -249.5q-32 -176 20 -252.5t180 -78.5z" />
    <glyph glyph-name="S.round" horiz-adv-x="613" 
d="M351 675q-79 0 -126.5 -32t-59.5 -87q-14 -63 24.5 -100.5t143.5 -61.5q118 -27 170.5 -85t30.5 -161q-17 -79 -78 -122.5t-161 -43.5q-162 0 -222 109q-32 -32 -44 -92q-3 1 -17 1t-17 -1q35 109 48 235h30q4 -107 63.5 -162.5t159.5 -55.5q165 0 187 125
q14 71 -32.5 111t-151.5 65q-107 24 -154 82.5t-28 148.5q18 78 81.5 119t157.5 41q57 0 103.5 -22t70.5 -62q29 19 46 73q3 -1 15 -1t15 1q-16 -40 -33 -112.5t-20 -113.5h-27q5 98 -39.5 151t-135.5 53z" />
    <glyph glyph-name="Cacute.round" horiz-adv-x="727" 
d="M442 756l-6 8q110 115 134 136q12 10 25 4.5t14 -18t-11 -22.5q-10 -7 -40 -27.5t-61 -41.5t-55 -39zM459 708q184 0 207 -126q22 46 40 108q3 -1 18 -1t18 1q-33 -105 -49 -198q-1 0 -10 0.5t-16 0.5q-6 0 -15 -0.5t-10 -0.5q5 183 -182 183q-126 0 -213.5 -79.5
t-119.5 -249.5q-16 -77 -12 -133.5t19 -94.5t45.5 -60.5t66.5 -32.5t83 -10q70 0 121 17t83 52t50.5 74t32.5 96q1 0 9 -0.5t13 -0.5t13 0.5t9 0.5q-34 -149 -113.5 -211t-228.5 -62q-157 0 -226 89t-35 276q17 94 55.5 165t93 113.5t118 63t135.5 20.5z" />
    <glyph glyph-name="Ccaron.round" horiz-adv-x="727" 
d="M364 901l9 6q37 -37 99 -111q89 79 135 111l6 -7q-62 -82 -132 -140h-34q-49 61 -83 141zM459 708q184 0 207 -126q22 46 40 108q3 -1 18 -1t18 1q-33 -105 -49 -198q-1 0 -10 0.5t-16 0.5q-6 0 -15 -0.5t-10 -0.5q5 183 -182 183q-126 0 -213.5 -79.5t-119.5 -249.5
q-16 -77 -12 -133.5t19 -94.5t45.5 -60.5t66.5 -32.5t83 -10q70 0 121 17t83 52t50.5 74t32.5 96q1 0 9 -0.5t13 -0.5t13 0.5t9 0.5q-34 -149 -113.5 -211t-228.5 -62q-157 0 -226 89t-35 276q17 94 55.5 165t93 113.5t118 63t135.5 20.5z" />
    <glyph glyph-name="Ccedilla.round" horiz-adv-x="727" 
d="M459 708q184 0 207 -126q22 46 40 108q3 -1 18 -1t18 1q-33 -105 -49 -198q-1 0 -10 0.5t-16 0.5q-6 0 -15 -0.5t-10 -0.5q5 183 -182 183q-126 0 -213.5 -79.5t-119.5 -249.5q-16 -77 -12 -133.5t19 -94.5t45.5 -60.5t66.5 -32.5t83 -10q70 0 121 17t83 52t50.5 74
t32.5 96q1 0 9 -0.5t13 -0.5t13 0.5t9 0.5q-34 -149 -113 -211t-228 -62q-7 -36 -37 -59q44 6 76 -13.5t31 -61.5q-1 -40 -31.5 -64t-82.5 -24q-71 0 -104 50l15 13q30 -35 78 -35q70 0 72 61q1 32 -27 46t-77 -3l-9 18q58 26 76 73q-307 10 -242 364q17 94 55.5 165
t93 113.5t118 63t135.5 20.5z" />
    <glyph glyph-name="Ccircumflex.round" horiz-adv-x="727" 
d="M587 763l-9 -6q-23 22 -94 109q-52 -49 -141 -109l-6 7q62 80 135 140h35q41 -53 80 -141zM459 708q184 0 207 -126q22 46 40 108q3 -1 18 -1t18 1q-33 -105 -49 -198q-1 0 -10 0.5t-16 0.5q-6 0 -15 -0.5t-10 -0.5q5 183 -182 183q-126 0 -213.5 -79.5t-119.5 -249.5
q-16 -77 -12 -133.5t19 -94.5t45.5 -60.5t66.5 -32.5t83 -10q70 0 121 17t83 52t50.5 74t32.5 96q1 0 9 -0.5t13 -0.5t13 0.5t9 0.5q-34 -149 -113.5 -211t-228.5 -62q-157 0 -226 89t-35 276q17 94 55.5 165t93 113.5t118 63t135.5 20.5z" />
    <glyph glyph-name="Cdotaccent.round" horiz-adv-x="727" 
d="M459 708q184 0 207 -126q22 46 40 108q3 -1 18 -1t18 1q-33 -105 -49 -198q-1 0 -10 0.5t-16 0.5q-6 0 -15 -0.5t-10 -0.5q5 183 -182 183q-126 0 -213.5 -79.5t-119.5 -249.5q-16 -77 -12 -133.5t19 -94.5t45.5 -60.5t66.5 -32.5t83 -10q70 0 121 17t83 52t50.5 74
t32.5 96q1 0 9 -0.5t13 -0.5t13 0.5t9 0.5q-34 -149 -113.5 -211t-228.5 -62q-157 0 -226 89t-35 276q17 94 55.5 165t93 113.5t118 63t135.5 20.5zM507 825q0 -19 -13 -32t-32 -13q-18 0 -31 13t-13 32q0 18 13 31t31 13q19 0 32 -13t13 -31z" />
    <glyph glyph-name="Gbreve.round" horiz-adv-x="805" 
d="M327 15q94 -2 169.5 57t93.5 155q9 48 0.5 65t-43.5 17h-63l2 34q92 -2 143 -2l143 2l-2 -34h-49q-26 0 -38 -11.5t-20 -41.5q-32 -118 -38 -256h-38l1 129q-37 -63 -109 -105.5t-162 -42.5q-156 0 -225 89t-35 276q17 94 55.5 165t93 113.5t118 63t135.5 20.5
q179 0 207 -122q21 44 39 104q3 -1 18.5 -1t18.5 1q-38 -106 -48 -198h-52q2 183 -182 183q-126 0 -213.5 -79.5t-119.5 -249.5q-32 -176 20 -252.5t180 -78.5zM468 760q-69 0 -95 40.5t-11 104.5l13 2q-5 -56 16 -79t82 -23q60 0 89 25t39 77l14 -2q-5 -65 -41.5 -105
t-105.5 -40z" />
    <glyph glyph-name="Gcircumflex.round" horiz-adv-x="805" 
d="M596 763l-9 -6q-23 22 -94 109q-52 -49 -141 -109l-6 7q62 80 135 140h35q41 -53 80 -141zM327 15q94 -2 169.5 57t93.5 155q9 48 0.5 65t-43.5 17h-63l2 34q92 -2 143 -2l143 2l-2 -34h-49q-26 0 -38 -11.5t-20 -41.5q-32 -118 -38 -256h-38l1 129q-37 -63 -109 -105.5
t-162 -42.5q-156 0 -225 89t-35 276q17 94 55.5 165t93 113.5t118 63t135.5 20.5q179 0 207 -122q21 44 39 104q3 -1 18.5 -1t18.5 1q-38 -106 -48 -198h-52q2 183 -182 183q-126 0 -213.5 -79.5t-119.5 -249.5q-32 -176 20 -252.5t180 -78.5z" />
    <glyph glyph-name="Gcommaaccent.round" horiz-adv-x="805" 
d="M345 -144q-38 0 -35 41q1 18 15.5 31.5t35.5 13.5q27 0 37 -18.5t7 -46.5q-11 -94 -126 -140l-6 16q100 41 109 122q-12 -19 -37 -19zM327 15q94 -2 169.5 57t93.5 155q9 48 0.5 65t-43.5 17h-63l2 34q92 -2 143 -2l143 2l-2 -34h-49q-26 0 -38 -11.5t-20 -41.5
q-32 -118 -38 -256h-38l1 129q-37 -63 -109 -105.5t-162 -42.5q-156 0 -225 89t-35 276q17 94 55.5 165t93 113.5t118 63t135.5 20.5q179 0 207 -122q21 44 39 104q3 -1 18.5 -1t18.5 1q-38 -106 -48 -198h-52q2 183 -182 183q-126 0 -213.5 -79.5t-119.5 -249.5
q-32 -176 20 -252.5t180 -78.5z" />
    <glyph glyph-name="Gdotaccent.round" horiz-adv-x="805" 
d="M327 15q94 -2 169.5 57t93.5 155q9 48 0.5 65t-43.5 17h-63l2 34q92 -2 143 -2l143 2l-2 -34h-49q-26 0 -38 -11.5t-20 -41.5q-32 -118 -38 -256h-38l1 129q-37 -63 -109 -105.5t-162 -42.5q-156 0 -225 89t-35 276q17 94 55.5 165t93 113.5t118 63t135.5 20.5
q179 0 207 -122q21 44 39 104q3 -1 18.5 -1t18.5 1q-38 -106 -48 -198h-52q2 183 -182 183q-126 0 -213.5 -79.5t-119.5 -249.5q-32 -176 20 -252.5t180 -78.5zM525 826q0 -19 -13 -32t-32 -13q-18 0 -31 13t-13 32q0 18 13 31t31 13q19 0 32 -13t13 -31z" />
    <glyph glyph-name="Sacute.round" horiz-adv-x="613" 
d="M354 756l-6 8q110 115 134 136q12 10 25 4.5t14 -18t-11 -22.5q-10 -7 -40 -27.5t-61 -41.5t-55 -39zM351 675q-79 0 -126.5 -32t-59.5 -87q-14 -63 24.5 -100.5t143.5 -61.5q118 -27 170.5 -85t30.5 -161q-17 -79 -78 -122.5t-161 -43.5q-162 0 -222 109
q-32 -32 -44 -92q-3 1 -17 1t-17 -1q35 109 48 235h30q4 -107 63.5 -162.5t159.5 -55.5q165 0 187 125q14 71 -32.5 111t-151.5 65q-107 24 -154 82.5t-28 148.5q18 78 81.5 119t157.5 41q57 0 103.5 -22t70.5 -62q29 19 46 73q3 -1 15 -1t15 1q-16 -40 -33 -112.5
t-20 -113.5h-27q5 98 -39.5 151t-135.5 53z" />
    <glyph glyph-name="Scaron.round" horiz-adv-x="613" 
d="M282 901l9 6q37 -37 99 -111q89 79 135 111l6 -7q-62 -82 -132 -140h-34q-49 61 -83 141zM351 675q-79 0 -126.5 -32t-59.5 -87q-14 -63 24.5 -100.5t143.5 -61.5q118 -27 170.5 -85t30.5 -161q-17 -79 -78 -122.5t-161 -43.5q-162 0 -222 109q-32 -32 -44 -92
q-3 1 -17 1t-17 -1q35 109 48 235h30q4 -107 63.5 -162.5t159.5 -55.5q165 0 187 125q14 71 -32.5 111t-151.5 65q-107 24 -154 82.5t-28 148.5q18 78 81.5 119t157.5 41q57 0 103.5 -22t70.5 -62q29 19 46 73q3 -1 15 -1t15 1q-16 -40 -33 -112.5t-20 -113.5h-27
q5 98 -39.5 151t-135.5 53z" />
    <glyph glyph-name="Scedilla.round" horiz-adv-x="613" 
d="M351 675q-79 0 -126.5 -32t-59.5 -87q-14 -63 24.5 -100.5t143.5 -61.5q118 -27 170.5 -85t30.5 -161q-17 -79 -78 -122.5t-161 -43.5h-5q-7 -37 -37 -60q44 6 76 -13.5t31 -61.5q-1 -40 -31.5 -64t-82.5 -24q-71 0 -104 50l15 13q30 -35 78 -35q70 0 72 61q1 32 -27 46
t-77 -3l-9 18q59 26 76 74q-142 8 -197 108q-32 -32 -44 -92q-3 1 -17 1t-17 -1q35 109 48 235h30q4 -107 63.5 -162.5t159.5 -55.5q165 0 187 125q14 71 -32.5 111t-151.5 65q-107 24 -154 82.5t-28 148.5q18 78 81.5 119t157.5 41q57 0 103.5 -22t70.5 -62q29 19 46 73
q3 -1 15 -1t15 1q-16 -40 -33 -112.5t-20 -113.5h-27q5 98 -39.5 151t-135.5 53z" />
    <glyph glyph-name="Scircumflex.round" horiz-adv-x="613" 
d="M499 763l-9 -6q-23 22 -94 109q-52 -49 -141 -109l-6 7q62 80 135 140h35q41 -53 80 -141zM351 675q-79 0 -126.5 -32t-59.5 -87q-14 -63 24.5 -100.5t143.5 -61.5q118 -27 170.5 -85t30.5 -161q-17 -79 -78 -122.5t-161 -43.5q-162 0 -222 109q-32 -32 -44 -92
q-3 1 -17 1t-17 -1q35 109 48 235h30q4 -107 63.5 -162.5t159.5 -55.5q165 0 187 125q14 71 -32.5 111t-151.5 65q-107 24 -154 82.5t-28 148.5q18 78 81.5 119t157.5 41q57 0 103.5 -22t70.5 -62q29 19 46 73q3 -1 15 -1t15 1q-16 -40 -33 -112.5t-20 -113.5h-27
q5 98 -39.5 151t-135.5 53z" />
    </font>
</defs>
</svg>
