<?xml version="1.0" standalone="no"?>
<!DOCTYPE svg PUBLIC "-//W3C//DTD SVG 1.1//EN" "http://www.w3.org/Graphics/SVG/1.1/DTD/svg11.dtd" >
<svg xmlns="http://www.w3.org/2000/svg">
<metadata></metadata>
<defs>
<font id="avenir_65medium" horiz-adv-x="1138" >
<font-face units-per-em="2048" ascent="1638" descent="-410" />
<missing-glyph horiz-adv-x="569" />
<glyph horiz-adv-x="2048" />
<glyph horiz-adv-x="2048" />
<glyph unicode="&#xd;" horiz-adv-x="681" />
<glyph unicode=" "  horiz-adv-x="569" />
<glyph unicode="&#x09;" horiz-adv-x="569" />
<glyph unicode="&#xa0;" horiz-adv-x="569" />
<glyph unicode="!" horiz-adv-x="569" d="M150 123q0 55 39.5 95t95 40t95.5 -40t40 -95t-40 -95t-95.5 -40t-95 40t-39.5 95zM182 418v1032h197v-1032h-197z" />
<glyph unicode="&#x22;" horiz-adv-x="1062" d="M299 946v504h160v-504h-160zM604 946v504h160v-504h-160z" />
<glyph unicode="#" d="M51 418v160h217l41 294h-194v160h217l57 418h162l-57 -418h237l57 418h162l-57 -418h194v-160h-217l-41 -294h195v-160h-217l-57 -418h-162l57 418h-237l-58 -418h-162l58 418h-195zM430 578h238l41 294h-238z" />
<glyph unicode="$" d="M53 172l158 141q45 -76 125 -118.5t168 -47.5v504q-193 49 -305.5 145.5t-112.5 274.5q0 168 123 278.5t295 125.5v147h110v-147q254 0 406 -158l-148 -143q-96 125 -258 129v-484l-4 -2q106 -29 173 -55.5t136.5 -73.5t103.5 -118.5t34 -172.5q0 -180 -128 -295.5 t-315 -126.5v-147h-110v147q-299 0 -451 197zM283 1071q0 -160 221 -223v455q-100 -16 -160.5 -77t-60.5 -155zM614 147q106 12 176 77t70 165q0 96 -65.5 146.5t-180.5 87.5v-476z" />
<glyph unicode="%" horiz-adv-x="1744" d="M76 1124.5q0 149.5 105.5 256t257 106.5t257 -106.5t105.5 -256t-105.5 -256t-257 -106.5t-257 106.5t-105.5 256zM236 1124q0 -84 59 -143t143 -59t143.5 59t59.5 143t-59.5 143.5t-143.5 59.5t-143 -59.5t-59 -143.5zM358 0l912 1516l123 -64l-912 -1515zM944 325.5 q0 149.5 105.5 256t257 106.5t257 -106.5t105.5 -256t-105.5 -256t-257 -106.5t-257 106.5t-105.5 256zM1104 326q0 -84 59.5 -143.5t143.5 -59.5t143 59.5t59 143.5t-59 143t-143 59t-143.5 -59t-59.5 -143z" />
<glyph unicode="&#x26;" horiz-adv-x="1478" d="M96 383q0 258 330 416q-84 90 -127 164.5t-43 171.5q0 160 111.5 250t275.5 90q162 0 268.5 -85t106.5 -243q0 -215 -301 -373l287 -299l182 297h223l-281 -434l330 -338h-264l-178 193q-96 -117 -200.5 -173.5t-244.5 -56.5q-231 0 -353 123t-122 297zM305 389 q0 -104 83 -179t190 -75q165 0 321 184l-350 365q-55 -33 -89 -55.5t-75 -59.5t-60.5 -82t-19.5 -98zM453 1133q0 -98 143 -242q70 39 107.5 63.5t77.5 78t40 114.5q0 72 -49 114t-127 42q-82 0 -137 -46.5t-55 -123.5z" />
<glyph unicode="'" horiz-adv-x="569" d="M205 946v504h160v-504h-160z" />
<glyph unicode="(" horiz-adv-x="569" d="M98 590q0 238 77 473t222 436l123 -78q-137 -217 -199.5 -405.5t-62.5 -425.5q0 -467 262 -828l-123 -81q-299 406 -299 909z" />
<glyph unicode=")" horiz-adv-x="569" d="M49 -242q137 217 199.5 405.5t62.5 426.5q0 467 -262 827l123 82q299 -406 299 -909q0 -238 -77 -473t-222 -436z" />
<glyph unicode="*" horiz-adv-x="950" d="M72 1114l43 133l288 -98v301h148v-301l285 96l43 -137l-285 -92l180 -244l-112 -84l-187 250l-182 -246l-113 84l182 240z" />
<glyph unicode="+" horiz-adv-x="1363" d="M135 541v159h467v467h160v-467h467v-159h-467v-467h-160v467h-467z" />
<glyph unicode="," horiz-adv-x="569" d="M98 -270l142 503h198l-172 -503h-168z" />
<glyph unicode="-" horiz-adv-x="647" d="M72 410v172h503v-172h-503z" />
<glyph unicode="." horiz-adv-x="569" d="M150 123q0 55 39.5 95t95 40t95.5 -40t40 -95t-40 -95t-95.5 -40t-95 40t-39.5 95z" />
<glyph unicode="/" horiz-adv-x="796" d="M0 -37l655 1577l142 -53l-654 -1577z" />
<glyph unicode="0" d="M70 725q0 104 12 200.5t46 200t87 178t144.5 123t210 48.5t209.5 -48.5t144.5 -123t87 -178t46 -200t12.5 -200.5q0 -129 -21.5 -248t-72.5 -238.5t-155.5 -191.5t-250 -72t-250 72t-155.5 191.5t-72.5 238.5t-21.5 248zM266 725q0 -90 10.5 -173t38 -183.5t93 -161 t162 -60.5t162 60.5t93 161t37.5 183.5t10 173q0 578 -303 578t-303 -578z" />
<glyph unicode="1" d="M172 1116l403 334h175v-1450h-197v1225l-266 -246z" />
<glyph unicode="2" d="M94 0v209l582 577q160 156 160 297q0 104 -72 168t-178 64q-104 0 -175 -59.5t-89 -163.5l-213 18q29 186 156.5 281.5t322.5 95.5q197 0 326.5 -104.5t129.5 -297.5q0 -129 -65.5 -232t-185.5 -220l-478 -461h729v-172h-950z" />
<glyph unicode="3" d="M94 291l207 63q37 -109 96.5 -158t169.5 -49q117 0 199 74t82 189q0 86 -36 143t-101.5 83t-127 35t-143.5 9v172q213 0 292 55.5t79 171.5q0 113 -67.5 174.5t-176.5 61.5q-80 0 -144.5 -46t-96.5 -122l-201 67q55 133 172 203t266 70q190 0 317.5 -101.5t127.5 -293.5 q0 -115 -69 -205t-179 -123v-4q133 -23 208.5 -125.5t75.5 -239.5q0 -199 -139 -309.5t-344 -110.5q-174 0 -297 79t-170 237z" />
<glyph unicode="4" d="M70 319v201l577 930h238v-958h205v-173h-205v-319h-197v319h-618zM242 492h446v725h-4z" />
<glyph unicode="5" d="M70 268l198 68q72 -188 269 -189q121 0 201.5 81t80.5 216q0 154 -95 236t-255 82q-147 0 -299 -76l16 764h779v-184h-588l-6 -363q68 31 194 31q203 0 327 -133t124 -346t-146.5 -346.5t-363.5 -133.5q-150 0 -268.5 77t-167.5 216z" />
<glyph unicode="6" d="M72 442q0 123 34.5 216.5t110.5 211.5l367 580h231l-364 -561h8q68 33 159 33q176 0 312.5 -119t136.5 -340q0 -231 -141.5 -359.5t-356.5 -128.5q-209 0 -353 130.5t-144 336.5zM268 448.5q0 -133.5 83 -217.5t218.5 -84t218 84t82.5 217.5t-82.5 217.5t-218 84 t-218.5 -84t-83 -217.5z" />
<glyph unicode="7" d="M86 1278v172h911v-168l-577 -1282h-221l587 1278h-700z" />
<glyph unicode="8" d="M96 416q0 131 77 226t200 128v6q-92 25 -160 112t-68 226q0 160 124 260.5t300 100.5t300 -100.5t124 -260.5q0 -139 -67.5 -226t-159.5 -112v-6q123 -33 199.5 -128t76.5 -226q0 -201 -135 -321t-337.5 -120t-338 120t-135.5 321zM293 416q0 -123 79.5 -196t196.5 -73 q123 0 200 75t77 194q0 127 -78 196.5t-199 71.5q-121 -2 -198.5 -78t-77.5 -190zM342 1085q0 -90 61.5 -159.5t165.5 -69.5q109 0 168.5 66.5t59.5 162.5q0 100 -63.5 165t-164.5 65q-96 0 -161.5 -65t-65.5 -165z" />
<glyph unicode="9" d="M72 987q0 231 141 359.5t356 128.5q209 0 353.5 -130.5t144.5 -336.5q0 -123 -35 -216.5t-110 -211.5l-367 -580h-231l364 561h-8q-68 -33 -160 -33q-176 0 -312 119t-136 340zM268 1001.5q0 -133.5 83 -217.5t218.5 -84t218 84t82.5 217.5t-82.5 217.5t-218 84 t-218.5 -84t-83 -217.5z" />
<glyph unicode=":" horiz-adv-x="569" d="M150 123q0 55 39.5 95t95 40t95.5 -40t40 -95t-40 -95t-95.5 -40t-95 40t-39.5 95zM150 848q0 55 39.5 95t95 40t95.5 -40t40 -95t-40 -95t-95.5 -40t-95 40t-39.5 95z" />
<glyph unicode=";" horiz-adv-x="569" d="M98 -270l142 503h198l-172 -503h-168zM150 846q0 55 39.5 95t95 40t95.5 -40t40 -95t-40 -95t-95.5 -40t-95 40t-39.5 95z" />
<glyph unicode="&#x3c;" horiz-adv-x="1363" d="M135 537v168l1094 450v-162l-926 -372l926 -373v-160z" />
<glyph unicode="=" horiz-adv-x="1363" d="M135 379v160h1094v-160h-1094zM135 700v160h1094v-160h-1094z" />
<glyph unicode="&#x3e;" horiz-adv-x="1363" d="M135 86v162l926 373l-926 372v160l1094 -448v-168z" />
<glyph unicode="?" horiz-adv-x="1024" d="M98 1106q27 176 149 278.5t302 102.5q178 0 293.5 -101.5t115.5 -277.5q0 -160 -86 -246l-143 -145q-66 -68 -84 -103.5t-18 -117.5v-90h-197v124q0 74 17.5 121t39 73t88.5 89q6 6 42 40t46.5 45t36 42t34.5 50.5t18.5 49t9.5 58.5q0 92 -62.5 154.5t-154.5 62.5 q-98 0 -162 -63.5t-76 -166.5zM391 123q0 55 40 95t95.5 40t95.5 -40t40 -95t-40 -95t-95.5 -40t-95.5 40t-40 95z" />
<glyph unicode="@" horiz-adv-x="1638" d="M90 729q0 313 223.5 535.5t536.5 222.5q291 0 494.5 -178.5t203.5 -444.5q0 -125 -48 -236.5t-120.5 -184t-155.5 -114.5t-157 -42q-53 0 -90 34.5t-39 96.5h-8q-123 -131 -254 -131q-127 0 -204 92t-77 229q0 213 129 379t330 166q168 0 219 -156h4l33 117h150 l-173 -567q-10 -35 -10 -51q0 -49 60 -50q90 0 171 122t81 280q0 233 -155 368.5t-382 135.5q-260 0 -431 -181.5t-171 -449.5q0 -270 176 -446.5t436 -176.5q150 0 278 54.5t199 152.5h162q-86 -154 -265 -248t-378 -94q-324 0 -546 222.5t-222 543.5zM567 610 q0 -164 146 -164q117 0 198.5 120t81.5 247q0 76 -34 128t-95 52q-137 0 -217 -112.5t-80 -270.5z" />
<glyph unicode="A" horiz-adv-x="1441" d="M2 0l639 1450h178l621 -1450h-230l-145 358h-690l-144 -358h-229zM444 530h549l-270 666h-4z" />
<glyph unicode="B" horiz-adv-x="1290" d="M186 0v1450h504q199 0 319.5 -92t120.5 -271q0 -236 -249 -319v-4q131 -10 222 -112.5t91 -248.5q0 -188 -144.5 -295.5t-365.5 -107.5h-498zM383 172h289q72 0 136 16.5t120.5 76t56.5 153.5q0 127 -83 192.5t-228 65.5h-291v-504zM383 848h268q121 0 196 52t75 165 q0 92 -58.5 152.5t-171.5 60.5h-309v-430z" />
<glyph unicode="C" horiz-adv-x="1441" d="M96 713q0 340 211 557t545 217q150 0 287 -57t221 -168l-164 -125q-61 78 -154.5 122t-195.5 44q-240 0 -390.5 -169t-150.5 -421q0 -238 147.5 -402t393.5 -164q240 0 379 195l166 -125q-23 -31 -60 -65.5t-103.5 -81.5t-169 -77t-216.5 -30q-221 0 -395.5 112.5 t-262.5 281.5t-88 356z" />
<glyph unicode="D" horiz-adv-x="1517" d="M154 0v1450h505q176 0 314.5 -50t220.5 -127t135 -177.5t72.5 -191.5t19.5 -179q0 -141 -52 -270t-149.5 -231.5t-251 -163t-341.5 -60.5h-473zM350 184h248q262 0 438 141.5t176 399.5q0 63 -13 128t-51 141.5t-98.5 135t-165 97.5t-239.5 39h-295v-1082z" />
<glyph unicode="E" horiz-adv-x="1251" d="M186 0v1450h936v-184h-739v-432h688v-185h-688v-465h776v-184h-973z" />
<glyph unicode="F" horiz-adv-x="1175" d="M186 0v1450h912v-184h-715v-455h666v-184h-666v-627h-197z" />
<glyph unicode="G" horiz-adv-x="1593" d="M96 725q0 326 213 544t543 218q358 0 541 -189l-140 -149q-160 154 -401 154q-244 0 -395.5 -167t-151.5 -411q0 -246 162 -412t401 -166q221 0 357 76v404h-322v184h518v-715q-102 -61 -255.5 -97t-293.5 -36q-356 0 -566 220t-210 542z" />
<glyph unicode="H" horiz-adv-x="1517" d="M186 0v1450h197v-602h752v602h196v-1450h-196v664h-752v-664h-197z" />
<glyph unicode="I" horiz-adv-x="569" d="M186 0v1450h197v-1450h-197z" />
<glyph unicode="J" horiz-adv-x="987" d="M18 281l193 43q37 -176 201 -177q92 0 145 51.5t67.5 118t14.5 160.5v973h197v-1036q0 -104 -29 -186.5t-73 -130.5t-103.5 -79.5t-112.5 -43t-106 -11.5q-158 0 -261.5 81t-132.5 237z" />
<glyph unicode="K" horiz-adv-x="1327" d="M186 0v1450h197v-627h16l641 627h275l-701 -670l748 -780h-287l-676 725h-16v-725h-197z" />
<glyph unicode="L" horiz-adv-x="1062" d="M186 0v1450h197v-1266h666v-184h-863z" />
<glyph unicode="M" horiz-adv-x="1855" d="M172 0v1450h293l461 -1098h8l457 1098h292v-1450h-196v1192h-4l-490 -1192h-131l-489 1192h-4v-1192h-197z" />
<glyph unicode="N" horiz-adv-x="1630" d="M186 0v1450h258l799 -1192h4v1192h197v-1450h-250l-807 1192h-4v-1192h-197z" />
<glyph unicode="O" horiz-adv-x="1703" d="M96 725q0 326 213 544t543 218t543 -218t213 -544t-213 -544t-543 -218t-543 218t-213 544zM305 725q0 -244 151.5 -411t395.5 -167t395.5 167t151.5 411t-151.5 411t-395.5 167t-395.5 -167t-151.5 -411z" />
<glyph unicode="P" horiz-adv-x="1214" d="M186 0v1450h510q133 0 228.5 -37t144.5 -99.5t70.5 -128t21.5 -141t-21.5 -141t-70.5 -128t-144.5 -99.5t-228.5 -37h-313v-639h-197zM383 811h258q311 0 311 233.5t-311 233.5h-258v-467z" />
<glyph unicode="Q" horiz-adv-x="1703" d="M96 741.5q0 319.5 215 532.5t535 213q307 0 523 -209t216 -516q0 -190 -88 -352t-244 -234v-4h430v-172h-835q-313 0 -532.5 211t-219.5 530.5zM305 758q0 -242 151 -408t384 -166q236 0 386 164t150 406q0 231 -153.5 390t-382.5 159q-225 0 -380 -159t-155 -386z" />
<glyph unicode="R" horiz-adv-x="1251" d="M186 0v1450h510q133 0 228.5 -37t144.5 -99.5t70.5 -128t21.5 -141.5q0 -143 -98 -253.5t-258 -128.5l412 -662h-246l-369 639h-219v-639h-197zM383 811h258q311 0 311 233.5t-311 233.5h-258v-467z" />
<glyph unicode="S" d="M68 164l161 139q102 -156 308 -156q109 0 198.5 66t89.5 176q0 90 -73.5 143.5t-178 84t-210 71.5t-179 139.5t-73.5 253.5q0 68 28.5 136.5t85 130t154.5 100.5t223 39q283 0 418 -166l-160 -145q-37 57 -105.5 92t-152.5 35q-147 0 -215 -69t-68 -153q0 -86 53.5 -141 t132.5 -78.5t172 -56.5t172 -69t132 -118.5t53 -205.5q0 -205 -144.5 -327t-359.5 -122q-145 0 -267.5 50.5t-194.5 150.5z" />
<glyph unicode="T" horiz-adv-x="1175" d="M23 1266v184h1130v-184h-467v-1266h-197v1266h-466z" />
<glyph unicode="U" horiz-adv-x="1441" d="M160 530v920h196v-889q0 -162 89.5 -288t275.5 -126t275 126t89 288v889h197v-920q0 -250 -159.5 -408.5t-401.5 -158.5t-401.5 159t-159.5 408z" />
<glyph unicode="V" horiz-adv-x="1290" d="M-12 1450h227l426 -1180h4l442 1180h216l-572 -1450h-184z" />
<glyph unicode="W" horiz-adv-x="1970" d="M2 1450h205l319 -1159h4l342 1159h226l342 -1159h4l319 1159h205l-422 -1450h-207l-352 1184h-4l-350 -1184h-207z" />
<glyph unicode="X" horiz-adv-x="1327" d="M-4 0l526 762l-487 688h252l377 -557l372 557h246l-483 -686l532 -764h-258l-416 629l-417 -629h-244z" />
<glyph unicode="Y" horiz-adv-x="1253" d="M-20 1450h251l396 -637l407 637h240l-549 -832v-618h-197v618z" />
<glyph unicode="Z" horiz-adv-x="1214" d="M66 0v184l825 1082h-801v184h1047v-184l-822 -1082h834v-184h-1083z" />
<glyph unicode="[" horiz-adv-x="569" d="M147 -319v1818h357v-135h-185v-1548h185v-135h-357z" />
<glyph unicode="\" horiz-adv-x="796" d="M0 1487l141 53l656 -1577l-144 -53z" />
<glyph unicode="]" horiz-adv-x="569" d="M66 -184h184v1548h-184v135h356v-1818h-356v135z" />
<glyph unicode="^" horiz-adv-x="1363" d="M164 565l436 885h164l436 -885h-170l-348 723l-348 -723h-170z" />
<glyph unicode="_" horiz-adv-x="1024" d="M0 -154h1024v-102h-1024v102z" />
<glyph unicode="`" horiz-adv-x="491" d="M-94 1450h262l213 -295h-170z" />
<glyph unicode="a" horiz-adv-x="1062" d="M92 266q0 176 146.5 256t388.5 80h135v41q0 82 -60.5 143.5t-171.5 61.5q-66 0 -124 -20.5t-78.5 -35t-73.5 -55.5l-111 115q152 143 385 143q203 0 304.5 -93t101.5 -230v-496q0 -109 8 -176h-164q-6 74 -6 147h-4q-113 -172 -340 -172q-141 0 -238.5 78t-97.5 213z M276 281q0 -158 209 -158q141 0 209 84t68 199v61h-98q-387 0 -388 -186z" />
<glyph unicode="b" horiz-adv-x="1251" d="M139 0v1548h185v-717h4q49 76 141 120t197 44q221 0 357 -144t136 -366q0 -219 -136 -364.5t-357 -145.5q-100 0 -192.5 44t-145.5 120h-4v-139h-185zM324 485.5q0 -149.5 87 -244t232 -94.5t232.5 94.5t87.5 244t-87.5 243.5t-232.5 94t-232 -94t-87 -243.5z" />
<glyph unicode="c" horiz-adv-x="987" d="M92 481q0 225 141.5 368.5t366.5 143.5h3q230 0 370 -153l-139 -127q-101 108 -239 108h-3q-143 0 -223 -99t-80 -245q0 -139 87 -234.5t226 -95.5q143 0 236 109l131 -131q-135 -150 -369 -150q-225 0 -366.5 141.5t-141.5 364.5z" />
<glyph unicode="d" horiz-adv-x="1251" d="M92 485q0 221 136.5 365.5t357.5 144.5q104 0 196 -44t142 -120h4v717h184v-1548h-184v139h-4q-53 -76 -145.5 -120t-192.5 -44q-221 0 -357.5 145.5t-136.5 364.5zM289 485.5q0 -149.5 87 -244t232.5 -94.5t232.5 94.5t87 244t-87 243.5t-232.5 94t-232.5 -94 t-87 -243.5z" />
<glyph unicode="e" d="M82 485q0 219 142.5 364.5t359.5 145.5q238 0 355.5 -150.5t117.5 -361.5v-65h-778q0 -123 97 -203t230 -80q147 0 266 146l140 -107q-154 -199 -430 -199q-225 0 -362.5 144.5t-137.5 365.5zM279 565h581q-4 127 -74.5 205t-205.5 78q-129 0 -215 -89.5t-86 -193.5z" />
<glyph unicode="f" horiz-adv-x="681" d="M2 811v160h209v217q0 199 77 292t255 93q78 0 137 -14l-21 -164q-45 18 -104 18q-94 0 -126 -53t-32 -166v-223h219v-160h-221v-811h-184v811h-209z" />
<glyph unicode="g" horiz-adv-x="1251" d="M92 485q0 219 136.5 364.5t357.5 145.5q100 0 192 -44t146 -120h4v140h184v-963q0 -221 -146.5 -360.5t-383.5 -139.5q-287 0 -476 175l125 155q146 -157 344 -157h3q188 0 269 96t81 239v144h-6q-51 -84 -141.5 -128t-194.5 -44q-213 0 -354 142q-140 140 -140 349v6z M289 485q0 -147 86 -236t233.5 -89t233.5 89t86 236q0 150 -87 244t-232.5 94t-232.5 -94t-87 -244z" />
<glyph unicode="h" d="M139 0v1548h185v-727h4q37 78 123 126t196 48q152 0 252 -93t100 -277v-625h-184v573q0 129 -62.5 189.5t-158.5 60.5q-121 0 -195.5 -80.5t-74.5 -242.5v-500h-185z" />
<glyph unicode="i" horiz-adv-x="491" d="M111 1319q0 55 39.5 95t95 40t95.5 -40t40 -95t-40 -95t-95.5 -40t-95 40t-39.5 95zM154 0v971h184v-971h-184z" />
<glyph unicode="j" horiz-adv-x="491" d="M-78 -473l21 170q45 -16 75 -16q74 0 105 46t31 142v1102h184v-1110q0 -45 -2 -77t-18.5 -89t-45 -93t-88 -65t-143.5 -29q-70 0 -119 19zM111 1319q0 55 39.5 95t95 40t95.5 -40t40 -95t-40 -95t-95.5 -40t-95 40t-39.5 95z" />
<glyph unicode="k" horiz-adv-x="1062" d="M139 0v1548h185v-999l417 420h256l-452 -441l491 -528h-262l-450 504v-504h-185z" />
<glyph unicode="l" horiz-adv-x="491" d="M154 0v1548h184v-1548h-184z" />
<glyph unicode="m" horiz-adv-x="1744" d="M139 0v971h172v-152h4q18 55 106.5 115.5t205.5 60.5q209 0 303 -180q45 86 130 133t177 47q369 0 369 -430v-565h-185v541q0 61 -8 107t-28.5 88t-64.5 64.5t-108 22.5q-248 0 -247 -293v-530h-185v508q0 158 -41 236.5t-164 78.5q-106 0 -178.5 -82t-72.5 -237v-504 h-185z" />
<glyph unicode="n" d="M139 0v971h185v-150h4q37 78 123 126t196 48q152 0 252 -93t100 -277v-625h-184v573q0 129 -62.5 189.5t-158.5 60.5q-121 0 -195.5 -80.5t-74.5 -242.5v-500h-185z" />
<glyph unicode="o" horiz-adv-x="1216" d="M92 485q0 213 149.5 361.5t366.5 148.5t366.5 -148.5t149.5 -361.5t-149.5 -361.5t-366.5 -148.5t-366.5 148.5t-149.5 361.5zM289 485.5q0 -149.5 87 -244t232.5 -94.5t232.5 94.5t87 244t-87 243.5t-232.5 94t-232.5 -94t-87 -243.5z" />
<glyph unicode="p" horiz-adv-x="1251" d="M139 -578v1549h185v-140h4q53 76 145 120t193 44q221 0 357 -145t136 -365q0 -221 -136 -365.5t-357 -144.5q-104 0 -196.5 44t-141.5 120h-4v-717h-185zM324 485.5q0 -149.5 87 -244t232 -94.5t232.5 94.5t87.5 244t-87.5 243.5t-232.5 94t-232 -94t-87 -243.5z" />
<glyph unicode="q" horiz-adv-x="1251" d="M92 485q0 219 136.5 364.5t357.5 145.5q100 0 192 -44t146 -120h4v140h184v-1438h-184v606h-4q-49 -76 -141.5 -120t-196.5 -44q-221 0 -357.5 144.5t-136.5 365.5zM289 485.5q0 -149.5 87 -244t232.5 -94.5t232.5 94.5t87 244t-87 243.5t-232.5 94t-232.5 -94 t-87 -243.5z" />
<glyph unicode="r" horiz-adv-x="757" d="M139 0v971h185v-150h4q35 76 116.5 125t173.5 49q45 0 82 -12l-8 -199q-53 14 -90 15q-279 0 -278 -312v-487h-185z" />
<glyph unicode="s" horiz-adv-x="909" d="M57 147l140 115q115 -115 235 -115q78 0 137.5 32t59.5 91q0 23 -7.5 42.5t-25.5 33.5t-32.5 23.5t-44.5 18.5t-42 13.5t-45 11.5t-37 7q-70 16 -114.5 33.5t-91 48t-69 79t-22.5 115.5q0 143 109.5 221t259.5 78h3q234 0 329 -159l-144 -109q-78 96 -198 96 q-68 0 -115 -28.5t-47 -79.5q0 -29 14.5 -51.5t30.5 -36t50 -25.5t51.5 -17t56.5 -12.5t45 -9.5q137 -33 209.5 -94t72.5 -188q0 -154 -115.5 -230t-277.5 -76q-125 0 -215 39t-160 133z" />
<glyph unicode="t" horiz-adv-x="757" d="M-2 811v160h213v272h184v-272h264v-160h-264v-440q0 -55 3 -83t14.5 -67t42 -56.5t80.5 -17.5q84 0 131 29v-168q-57 -33 -166 -33q-82 0 -139.5 21.5t-86 48.5t-44 78t-17.5 86t-2 96v506h-213z" />
<glyph unicode="u" d="M139 346v625h185v-574q0 -129 62.5 -189.5t158.5 -60.5q121 0 195.5 81t74.5 243v500h184v-971h-184v150h-4q-37 -78 -123 -126.5t-196 -48.5q-152 0 -252.5 93.5t-100.5 277.5z" />
<glyph unicode="v" horiz-adv-x="1024" d="M23 971h213l290 -744l279 744h196l-380 -971h-203z" />
<glyph unicode="w" horiz-adv-x="1554" d="M23 971h206l220 -725h4l231 725h195l245 -725h4l209 725h195l-313 -971h-187l-256 725h-4l-231 -725h-199z" />
<glyph unicode="x" horiz-adv-x="1062" d="M12 0l394 518l-345 453h238l236 -344l231 344h223l-332 -453l394 -518h-238l-287 408l-286 -408h-228z" />
<glyph unicode="y" horiz-adv-x="1024" d="M23 971h213l288 -758h4l275 758h198l-460 -1180q-57 -147 -125 -215t-207 -68q-98 0 -164 27l23 168q53 -22 105 -22h5q80 0 118 37.5t71 121.5l59 154z" />
<glyph unicode="z" horiz-adv-x="948" d="M72 0v166l551 645h-533v160h758v-164l-555 -647h584v-160h-805z" />
<glyph unicode="{" horiz-adv-x="681" d="M82 508v160q72 0 120 64.5t52 174.5v324q0 123 65.5 195.5t149.5 72.5h154v-147h-93q-104 0 -104 -178v-310q4 -125 -55.5 -191.5t-116.5 -80.5v-6q23 -2 48.5 -16.5t56 -44t50 -85t17.5 -129.5v-307q0 -74 24.5 -125t79.5 -51h93v-147h-154q-86 0 -150.5 79.5 t-64.5 233.5v274q-4 111 -52 175.5t-120 64.5z" />
<glyph unicode="|" horiz-adv-x="454" d="M147 -512v2048h160v-2048h-160z" />
<glyph unicode="}" horiz-adv-x="681" d="M59 -172h93q104 0 104 178v309q-4 125 55.5 191.5t116.5 81.5v6q-23 2 -48.5 16.5t-56 44t-50 85t-17.5 128.5v308q0 74 -24.5 125t-79.5 51h-93v147h154q86 0 150.5 -80t64.5 -233v-275q0 -109 50 -174t122 -65v-160q-72 0 -122 -65.5t-50 -174.5v-323 q0 -123 -65.5 -195.5t-149.5 -72.5h-154v147z" />
<glyph unicode="~" horiz-adv-x="1363" d="M197 594q106 180 272 180q88 0 231 -74q147 -76 203 -75q106 -1 182 149l82 -127q-106 -180 -262 -180q-82 0 -237.5 73.5t-216.5 73.5q-98 0 -172 -147z" />
<glyph unicode="&#xa1;" horiz-adv-x="569" d="M150 872.5q0 55.5 39.5 95.5t95 40t95.5 -40t40 -95.5t-40 -95.5t-95.5 -40t-95 40t-39.5 95.5zM190 -455v1033h197v-1033h-197z" />
<glyph unicode="&#xa2;" d="M147 485q0 207 119 344.5t324 165.5v135h110v-135q219 -10 342 -155l-133 -121q-41 49 -97.5 82t-111.5 35v-701q129 4 218 107l120 -119q-117 -131 -338 -148v-135h-110v135q-201 20 -322 163t-121 347zM332 489.5q0 -131.5 69.5 -231.5t188.5 -123v701 q-123 -18 -190.5 -116.5t-67.5 -230z" />
<glyph unicode="&#xa3;" d="M147 0v172h209v500h-196v147h196v205q0 190 119 320.5t332 130.5t346 -127l-125 -144q-102 98 -201 99q-119 0 -196.5 -80t-77.5 -248v-156h332v-147h-332v-500h504v-172h-910z" />
<glyph unicode="&#xa4;" d="M43 317l100 101q-100 137 -100 309t100 309l-100 101l117 114l100 -98q143 100 309 100q170 0 310 -100l100 98l117 -114l-101 -101q100 -137 100.5 -309t-100.5 -309l101 -101l-117 -116l-100 100q-133 -100 -310 -100q-168 0 -309 100l-100 -100zM203 727 q0 -152 107.5 -259.5t259 -107.5t259 107.5t107.5 259.5t-107.5 259.5t-259 107.5t-259 -107.5t-107.5 -259.5z" />
<glyph unicode="&#xa5;" d="M-10 1450h205l366 -647l379 647h209l-381 -633h238v-135h-316l-35 -57v-109h351v-135h-351v-381h-172v381h-350v135h350v109l-34 57h-316v135h234z" />
<glyph unicode="&#xa6;" horiz-adv-x="454" d="M147 358h160v-716h-160v716zM147 666v716h160v-716h-160z" />
<glyph unicode="&#xa7;" d="M127 -47l178 84q53 -160 254 -160q86 0 146.5 45t60.5 133q0 57 -62.5 105.5t-150.5 87.5t-177 83t-151.5 112.5t-62.5 156.5q0 211 200 309q-164 92 -163 242q0 156 125 246t290 90q121 0 224.5 -51.5t150.5 -153.5l-172 -94q-49 123 -207 127q-86 0 -144 -41t-58 -119 q0 -66 62 -117t150.5 -89t177.5 -81t151.5 -118.5t62.5 -178.5q0 -178 -170 -268q133 -90 133 -248q0 -166 -127 -258t-303 -92q-143 0 -254 61.5t-164 186.5zM346 657q0 -23 6 -43t12.5 -35.5t22.5 -32t25.5 -24.5t33 -22.5t31.5 -18.5t37 -17t33 -15l158 -76 q51 31 86.5 80t35.5 100q0 47 -29.5 86t-58.5 57t-80 45l-161 78q-152 -59 -152 -162z" />
<glyph unicode="&#xa8;" horiz-adv-x="491" d="M-90 1346q0 49 39 82.5t88 33.5t88 -33.5t39 -82.5q0 -55 -36 -92t-91 -37t-91 36.5t-36 92.5zM328 1346q0 49 39 82.5t88 33.5t88 -33.5t39 -82.5q0 -55 -36 -92t-91.5 -37t-91 36.5t-35.5 92.5z" />
<glyph unicode="&#xa9;" horiz-adv-x="1638" d="M57 725q0 315 223.5 538.5t539 223.5t538.5 -223.5t223 -538.5t-223 -538.5t-538.5 -223.5t-539 223.5t-223.5 538.5zM193 725q0 -260 183 -443.5t443 -183.5t443.5 183.5t183.5 443.5t-183.5 443.5t-443.5 183.5t-443 -183.5t-183 -443.5zM371 731q0 215 117.5 341 t330.5 126q156 0 259.5 -81t127.5 -232h-157q-43 166 -228 166q-143 0 -217 -83t-74 -233q0 -139 80 -231t215 -92q187 0 224 174h157q-33 -147 -134 -234.5t-247 -87.5q-211 0 -332.5 128t-121.5 339z" />
<glyph unicode="&#xaa;" horiz-adv-x="690" d="M70 1034q0 57 28.5 99.5t66.5 63t99.5 32.5t104.5 14t102 2h25v21q0 41 -37 69.5t-103 28.5q-109 0 -182 -68l-72 93q98 86 252 86q162 0 219.5 -54.5t57.5 -148.5v-402h-135v91l-4 2q-49 -104 -205 -105q-90 0 -153.5 46t-63.5 130zM205 1042q0 -74 123 -73 q84 0 126 37.5t42 101.5v39h-4q-61 0 -97.5 -2t-87.5 -10.5t-76.5 -32t-25.5 -60.5z" />
<glyph unicode="&#xab;" horiz-adv-x="1024" d="M96 498l297 442l127 -84l-239 -358l241 -359l-127 -84zM502 498l297 442l127 -84l-240 -358l242 -359l-127 -84z" />
<glyph unicode="&#xac;" horiz-adv-x="1363" d="M135 700v160h1094v-571h-160v411h-934z" />
<glyph unicode="&#xad;" horiz-adv-x="647" d="M72 410v172h503v-172h-503z" />
<glyph unicode="&#xae;" horiz-adv-x="1638" d="M57 725q0 315 223.5 538.5t539 223.5t538.5 -223.5t223 -538.5t-223 -538.5t-538.5 -223.5t-539 223.5t-223.5 538.5zM193 725q0 -260 183 -443.5t443 -183.5t443.5 183.5t183.5 443.5t-183.5 443.5t-443.5 183.5t-443 -183.5t-183 -443.5zM526 295v870h336 q307 0 307 -262q0 -109 -57 -168t-151 -71l227 -369h-168l-217 356h-117v-356h-160zM686 786h117q63 0 100 5.5t72 34t35 84t-35 84t-73 33.5t-99 3h-117v-244z" />
<glyph unicode="&#xaf;" horiz-adv-x="491" d="M-49 1229v135h590v-135h-590z" />
<glyph unicode="&#xb0;" horiz-adv-x="819" d="M104 1169q0 125 89.5 215.5t216.5 90.5t216 -90.5t89 -215.5t-89 -215t-216 -90t-216.5 90t-89.5 215zM240 1169.5q0 -71.5 50 -121t119.5 -49.5t120 49.5t50.5 121t-50.5 120.5t-120 49t-119.5 -49t-50 -120.5z" />
<glyph unicode="&#xb1;" horiz-adv-x="1363" d="M135 104v160h1094v-160h-1094zM135 645v160h467v334h160v-334h467v-160h-467v-307h-160v307h-467z" />
<glyph unicode="&#xb2;" horiz-adv-x="739" d="M53 592v156l367 327q92 84 92 150q0 53 -38 83.5t-95 30.5q-59 0 -97 -32.5t-42 -87.5l-172 12q10 117 95 180.5t216 63.5q135 0 220 -63.5t85 -182.5q0 -129 -145 -254l-289 -248h436v-135h-633z" />
<glyph unicode="&#xb3;" horiz-adv-x="739" d="M49 782l170 41q33 -109 154 -108q66 0 111.5 36.5t45.5 94.5q0 135 -208 131h-35v135h37q55 0 91 6t64.5 34t28.5 77t-37 79.5t-96 30.5q-106 0 -142 -92l-170 41q29 92 111 139.5t193 47.5q129 0 215 -60.5t86 -169.5q0 -72 -43 -126t-117 -70v-5q86 -10 134 -68 t48 -142q0 -119 -92 -186.5t-225 -67.5q-266 0 -324 202z" />
<glyph unicode="&#xb4;" horiz-adv-x="491" d="M111 1155l213 295h262l-305 -295h-170z" />
<glyph unicode="&#xb5;" d="M139 -467v1438h185v-574q0 -129 62.5 -189.5t158.5 -60.5q121 0 195.5 81t74.5 243v500h184v-971h-184v150h-4q-37 -78 -123 -126.5t-196 -48.5q-94 0 -168 37v-479h-185z" />
<glyph unicode="&#xb6;" horiz-adv-x="1228" d="M104 1030q0 199 125 309.5t342 110.5h510v-1708h-159v1573h-230v-1573h-160v909q-186 0 -307 108.5t-121 270.5z" />
<glyph unicode="&#xb7;" horiz-adv-x="569" d="M150 620.5q0 55.5 39.5 95.5t95 40t95.5 -40t40 -95.5t-40 -95.5t-95.5 -40t-95 40t-39.5 95.5z" />
<glyph unicode="&#xb8;" horiz-adv-x="491" d="M10 -420l39 82q76 -31 160 -31q47 0 86 19.5t39 66.5q0 70 -67.5 81.5t-125.5 -13.5l-43 37l125 178h101l-91 -125h60q76 2 132 -37t56 -110q0 -100 -76.5 -147.5t-179.5 -47.5q-119 0 -215 47z" />
<glyph unicode="&#xb9;" horiz-adv-x="739" d="M55 1274l262 201h146v-883h-148v735l-174 -147z" />
<glyph unicode="&#xba;" horiz-adv-x="790" d="M59 1165.5q0 139.5 91.5 224.5t245 85t244.5 -85t91 -224.5t-91 -223.5t-244.5 -84t-245 84t-91.5 223.5zM207 1165q0 -86 49 -135t139 -49t139.5 49t49.5 135t-49.5 136.5t-139.5 50.5t-139 -50.5t-49 -136.5z" />
<glyph unicode="&#xbb;" horiz-adv-x="1024" d="M96 856l127 84l299 -442l-297 -443l-127 84l240 359zM502 856l127 84l299 -442l-297 -443l-127 84l239 359z" />
<glyph unicode="&#xbc;" horiz-adv-x="1708" d="M68 1274l262 201h145v-883h-147v735l-174 -147zM311 0l899 1516l123 -66l-899 -1516zM977 193v118l375 572h161v-555h127v-135h-127v-193h-135v193h-401zM1124 328h242v383h-4z" />
<glyph unicode="&#xbd;" horiz-adv-x="1708" d="M63 1274l263 201h145v-883h-147v735l-174 -147zM287 0l899 1516l123 -66l-899 -1516zM1012 0v156l366 327q92 82 92 150q0 53 -37.5 84t-95.5 31q-59 0 -97 -33t-42 -88l-172 12q10 117 95 180.5t216 63.5q135 0 220 -63.5t85 -182.5q0 -129 -145 -254l-289 -248h437 v-135h-633z" />
<glyph unicode="&#xbe;" horiz-adv-x="1708" d="M47 782l170 41q33 -109 154 -108q66 0 111.5 36.5t45.5 94.5q0 135 -209 131h-34v135h37q55 0 91 6t64.5 34t28.5 77t-37 79.5t-96 30.5q-106 0 -142 -92l-170 41q29 92 111 139.5t193 47.5q129 0 215 -60.5t86 -169.5q0 -72 -43 -126t-117 -70v-5q86 -10 134 -68 t48 -142q0 -119 -92 -186.5t-225 -67.5q-266 0 -324 202zM393 0l899 1516l123 -66l-899 -1516zM1018 193v118l375 572h161v-555h127v-135h-127v-193h-135v193h-401zM1178 328h241v383h-4z" />
<glyph unicode="&#xbf;" horiz-adv-x="1024" d="M66 -113q0 160 86 246l143 146q66 68 84 103.5t18 117.5v90h197v-125q0 -74 -17.5 -121t-39 -72.5t-88.5 -89.5q-6 -6 -42 -39.5t-46.5 -45t-36 -42t-34.5 -50t-18.5 -49.5t-9.5 -58q0 -92 62.5 -154.5t154.5 -62.5q98 0 162 63t76 166l209 -21q-27 -176 -149 -278.5 t-302 -102.5q-178 0 -293.5 101.5t-115.5 277.5zM362 872.5q0 55.5 40 95.5t95.5 40t95.5 -40t40 -95.5t-40 -95.5t-95.5 -40t-95.5 40t-40 95.5z" />
<glyph unicode="&#xc0;" horiz-adv-x="1441" d="M2 0l639 1450h178l621 -1450h-230l-145 358h-690l-144 -358h-229zM381 1827h262l213 -295h-170zM444 530h549l-270 666h-4z" />
<glyph unicode="&#xc1;" horiz-adv-x="1441" d="M2 0l639 1450h178l621 -1450h-230l-145 358h-690l-144 -358h-229zM444 530h549l-270 666h-4zM586 1532l213 295h262l-305 -295h-170z" />
<glyph unicode="&#xc2;" horiz-adv-x="1441" d="M2 0l639 1450h178l621 -1450h-230l-145 358h-690l-144 -358h-229zM383 1532l229 295h217l230 -295h-187l-151 197l-152 -197h-186zM444 530h549l-270 666h-4z" />
<glyph unicode="&#xc3;" horiz-adv-x="1441" d="M2 0l639 1450h178l621 -1450h-230l-145 358h-690l-144 -358h-229zM377 1556q14 88 68.5 150.5t138.5 62.5q57 0 172 -47q10 -4 27.5 -12t27.5 -12t25.5 -7t29.5 -3q74 0 101 90h98q-14 -90 -61.5 -151.5t-131.5 -61.5q-57 0 -165 43q-96 39 -136 39q-67 -1 -96 -91h-98z M444 530h549l-270 666h-4z" />
<glyph unicode="&#xc4;" horiz-adv-x="1441" d="M2 0l639 1450h178l621 -1450h-230l-145 358h-690l-144 -358h-229zM385 1722q0 49 39 83t88 34t88 -33.5t39 -83.5q0 -55 -36 -92t-91 -37t-91 37t-36 92zM444 530h549l-270 666h-4zM803 1722q0 49 39 83t88 34t88 -33.5t39 -83.5q0 -55 -36 -92t-91.5 -37t-91 37 t-35.5 92z" />
<glyph unicode="&#xc5;" horiz-adv-x="1441" d="M2 0l639 1450h178l621 -1450h-230l-145 358h-690l-144 -358h-229zM444 530h549l-270 666h-4zM512 1690q0 84 62.5 143t146.5 59q86 0 148.5 -58t60.5 -142q2 -86 -60.5 -144.5t-148.5 -58.5q-84 0 -146.5 58.5t-62.5 142.5zM598 1690q0 -47 37 -81t86 -34t86 34t37 81 q0 49 -37 82.5t-86 33.5t-86 -33.5t-37 -82.5z" />
<glyph unicode="&#xc6;" horiz-adv-x="1972" d="M-16 0l938 1450h933v-184h-604v-432h568v-185h-568v-465h629v-184h-825v352h-623l-207 -352h-241zM539 537h516v729h-39z" />
<glyph unicode="&#xc7;" horiz-adv-x="1441" d="M96 713q0 340 211 557t545 217q150 0 287 -57t221 -168l-164 -125q-61 78 -154.5 122t-195.5 44q-240 0 -390.5 -169t-150.5 -421q0 -238 147.5 -402t393.5 -164q240 0 379 195l166 -125q-23 -31 -60 -65.5t-103.5 -81.5t-169 -77t-216.5 -30q-16 0 -27 2l-65 -90h59 q76 2 132 -37t56 -110q0 -100 -76.5 -147.5t-179.5 -47.5q-119 0 -215 47l39 82q78 -31 160 -31q47 0 86 19.5t39 66.5q0 70 -67.5 81.5t-125.5 -13.5l-43 37l107 151q-281 43 -453 260.5t-172 479.5z" />
<glyph unicode="&#xc8;" horiz-adv-x="1251" d="M186 0v1450h936v-184h-739v-432h688v-185h-688v-465h776v-184h-973zM287 1827h262l213 -295h-170z" />
<glyph unicode="&#xc9;" horiz-adv-x="1251" d="M186 0v1450h936v-184h-739v-432h688v-185h-688v-465h776v-184h-973zM492 1532l213 295h262l-305 -295h-170z" />
<glyph unicode="&#xca;" horiz-adv-x="1251" d="M186 0v1450h936v-184h-739v-432h688v-185h-688v-465h776v-184h-973zM289 1532l229 295h217l230 -295h-187l-151 197l-152 -197h-186z" />
<glyph unicode="&#xcb;" horiz-adv-x="1251" d="M186 0v1450h936v-184h-739v-432h688v-185h-688v-465h776v-184h-973zM291 1722q0 49 39 83t88 34t88 -33.5t39 -83.5q0 -55 -36 -92t-91.5 -37t-91 37t-35.5 92zM709 1722q0 49 38.5 83t88 34t88.5 -33.5t39 -83.5q0 -55 -36 -92t-91.5 -37t-91 37t-35.5 92z" />
<glyph unicode="&#xcc;" horiz-adv-x="569" d="M-55 1827h262l213 -295h-170zM186 0v1450h197v-1450h-197z" />
<glyph unicode="&#xcd;" horiz-adv-x="569" d="M150 1532l212 295h263l-306 -295h-169zM186 0v1450h197v-1450h-197z" />
<glyph unicode="&#xce;" horiz-adv-x="569" d="M-53 1532l229 295h217l230 -295h-187l-151 197l-152 -197h-186zM186 0v1450h197v-1450h-197z" />
<glyph unicode="&#xcf;" horiz-adv-x="569" d="M-51 1722q0 49 39 83t88 34t88 -33.5t39 -83.5q0 -55 -36 -92t-91.5 -37t-91 37t-35.5 92zM186 0v1450h197v-1450h-197zM367 1722q0 49 38.5 83t88 34t88.5 -33.5t39 -83.5q0 -55 -36 -92t-91.5 -37t-91 37t-35.5 92z" />
<glyph unicode="&#xd0;" horiz-adv-x="1517" d="M6 688v135h148v627h505q176 0 314.5 -50t220.5 -127t135 -177.5t72.5 -191.5t19.5 -179q0 -141 -52 -270t-149.5 -231.5t-251 -163t-341.5 -60.5h-473v688h-148zM350 184h248q262 0 438 141.5t176 399.5q0 63 -13 128t-51 141.5t-98.5 135t-165 97.5t-239.5 39h-295v-443 h479v-135h-479v-504z" />
<glyph unicode="&#xd1;" horiz-adv-x="1630" d="M186 0v1450h258l799 -1192h4v1192h197v-1450h-250l-807 1192h-4v-1192h-197zM471 1556q14 88 68.5 150.5t138.5 62.5q57 0 172 -47q10 -4 27.5 -12t27.5 -12t25.5 -7t30.5 -3q74 0 100 90h98q-14 -90 -61 -151.5t-131 -61.5q-57 0 -166 43q-98 39 -135 39q-68 -1 -97 -91 h-98z" />
<glyph unicode="&#xd2;" horiz-adv-x="1703" d="M96 725q0 326 213 544t543 218t543 -218t213 -544t-213 -544t-543 -218t-543 218t-213 544zM305 725q0 -244 151.5 -411t395.5 -167t395.5 167t151.5 411t-151.5 411t-395.5 167t-395.5 -167t-151.5 -411zM512 1827h262l213 -295h-170z" />
<glyph unicode="&#xd3;" horiz-adv-x="1703" d="M96 725q0 326 213 544t543 218t543 -218t213 -544t-213 -544t-543 -218t-543 218t-213 544zM305 725q0 -244 151.5 -411t395.5 -167t395.5 167t151.5 411t-151.5 411t-395.5 167t-395.5 -167t-151.5 -411zM717 1532l213 295h262l-305 -295h-170z" />
<glyph unicode="&#xd4;" horiz-adv-x="1703" d="M96 725q0 326 213 544t543 218t543 -218t213 -544t-213 -544t-543 -218t-543 218t-213 544zM305 725q0 -244 151.5 -411t395.5 -167t395.5 167t151.5 411t-151.5 411t-395.5 167t-395.5 -167t-151.5 -411zM514 1532l229 295h218l229 -295h-186l-152 197l-152 -197h-186z " />
<glyph unicode="&#xd5;" horiz-adv-x="1703" d="M96 725q0 326 213 544t543 218t543 -218t213 -544t-213 -544t-543 -218t-543 218t-213 544zM305 725q0 -244 151.5 -411t395.5 -167t395.5 167t151.5 411t-151.5 411t-395.5 167t-395.5 -167t-151.5 -411zM508 1556q14 88 68.5 150.5t138.5 62.5q57 0 172 -47 q10 -4 27.5 -12t27.5 -12t25.5 -7t29.5 -3q74 0 101 90h98q-14 -90 -61.5 -151.5t-130.5 -61.5q-57 0 -166 43q-96 39 -136 39q-67 -1 -96 -91h-98z" />
<glyph unicode="&#xd6;" horiz-adv-x="1703" d="M96 725q0 326 213 544t543 218t543 -218t213 -544t-213 -544t-543 -218t-543 218t-213 544zM305 725q0 -244 151.5 -411t395.5 -167t395.5 167t151.5 411t-151.5 411t-395.5 167t-395.5 -167t-151.5 -411zM516 1722q0 49 39 83t88 34t88 -33.5t39 -83.5q0 -55 -36 -92 t-91 -37t-91 37t-36 92zM934 1722q0 49 39 83t88 34t88 -33.5t39 -83.5q0 -55 -36 -92t-91 -37t-91 37t-36 92z" />
<glyph unicode="&#xd7;" horiz-adv-x="1363" d="M135 1055l113 112l434 -434l436 434l111 -112l-434 -434l434 -435l-115 -112l-432 434l-432 -434l-111 114l430 433z" />
<glyph unicode="&#xd8;" horiz-adv-x="1703" d="M96 725q0 326 213 544t543 218q270 0 471 -156l170 185l86 -78l-170 -185q199 -211 199 -528q0 -326 -213 -544t-543 -218q-279 0 -479 162l-172 -186l-88 77l174 191q-190 213 -191 518zM305 725q0 -213 119 -371l766 834q-143 115 -338 115q-244 0 -395.5 -167 t-151.5 -411zM504 268q147 -121 348 -121q244 0 395.5 167t151.5 411q0 221 -127 381z" />
<glyph unicode="&#xd9;" horiz-adv-x="1441" d="M160 530v920h196v-889q0 -162 89.5 -288t275.5 -126t275 126t89 288v889h197v-920q0 -250 -159.5 -408.5t-401.5 -158.5t-401.5 159t-159.5 408zM381 1827h262l213 -295h-170z" />
<glyph unicode="&#xda;" horiz-adv-x="1441" d="M160 530v920h196v-889q0 -162 89.5 -288t275.5 -126t275 126t89 288v889h197v-920q0 -250 -159.5 -408.5t-401.5 -158.5t-401.5 159t-159.5 408zM586 1532l213 295h262l-305 -295h-170z" />
<glyph unicode="&#xdb;" horiz-adv-x="1441" d="M160 530v920h196v-889q0 -162 89.5 -288t275.5 -126t275 126t89 288v889h197v-920q0 -250 -159.5 -408.5t-401.5 -158.5t-401.5 159t-159.5 408zM383 1532l229 295h217l230 -295h-187l-151 197l-152 -197h-186z" />
<glyph unicode="&#xdc;" horiz-adv-x="1441" d="M160 530v920h196v-889q0 -162 89.5 -288t275.5 -126t275 126t89 288v889h197v-920q0 -250 -159.5 -408.5t-401.5 -158.5t-401.5 159t-159.5 408zM385 1722q0 49 39 83t88 34t88 -33.5t39 -83.5q0 -55 -36 -92t-91 -37t-91 37t-36 92zM803 1722q0 49 39 83t88 34t88 -33.5 t39 -83.5q0 -55 -36 -92t-91.5 -37t-91 37t-35.5 92z" />
<glyph unicode="&#xdd;" horiz-adv-x="1253" d="M-20 1450h251l396 -637l407 637h240l-549 -832v-618h-197v618zM492 1532l213 295h262l-305 -295h-170z" />
<glyph unicode="&#xde;" horiz-adv-x="1214" d="M186 0v1450h197v-297h313q133 0 228.5 -37t144.5 -99.5t70.5 -128t21.5 -141t-21.5 -141t-70.5 -128t-144.5 -99.5t-228.5 -37h-313v-342h-197zM383 514h258q311 0 311 233.5t-311 233.5h-258v-467z" />
<glyph unicode="&#xdf;" horiz-adv-x="1251" d="M139 0v1042q0 119 19.5 207t66.5 165t141.5 118t233.5 41q178 0 297 -98.5t119 -272.5q0 -123 -60.5 -205t-167.5 -112v-4q139 -20 244 -130t105 -300q0 -217 -138.5 -346.5t-357.5 -129.5q-76 0 -145 19v166q53 -12 108 -13q154 0 245 85t91 235q0 156 -99.5 236.5 t-256.5 80.5h-29v172h33q104 0 167.5 60.5t63.5 163.5q0 115 -67.5 168t-161.5 53q-266 0 -266 -336v-1065h-185z" />
<glyph unicode="&#xe0;" horiz-adv-x="1062" d="M92 266q0 176 146.5 256t388.5 80h135v41q0 82 -60.5 143.5t-171.5 61.5q-66 0 -124 -20.5t-78.5 -35t-73.5 -55.5l-111 115q152 143 385 143q203 0 304.5 -93t101.5 -230v-496q0 -109 8 -176h-164q-6 74 -6 147h-4q-113 -172 -340 -172q-141 0 -238.5 78t-97.5 213z M193 1450h262l213 -295h-170zM276 281q0 -158 209 -158q141 0 209 84t68 199v61h-98q-387 0 -388 -186z" />
<glyph unicode="&#xe1;" horiz-adv-x="1062" d="M92 266q0 176 146.5 256t388.5 80h135v41q0 82 -60.5 143.5t-171.5 61.5q-66 0 -124 -20.5t-78.5 -35t-73.5 -55.5l-111 115q152 143 385 143q203 0 304.5 -93t101.5 -230v-496q0 -109 8 -176h-164q-6 74 -6 147h-4q-113 -172 -340 -172q-141 0 -238.5 78t-97.5 213z M276 281q0 -158 209 -158q141 0 209 84t68 199v61h-98q-387 0 -388 -186zM397 1155l213 295h262l-305 -295h-170z" />
<glyph unicode="&#xe2;" horiz-adv-x="1062" d="M92 266q0 176 146.5 256t388.5 80h135v41q0 82 -60.5 143.5t-171.5 61.5q-66 0 -124 -20.5t-78.5 -35t-73.5 -55.5l-111 115q152 143 385 143q203 0 304.5 -93t101.5 -230v-496q0 -109 8 -176h-164q-6 74 -6 147h-4q-113 -172 -340 -172q-141 0 -238.5 78t-97.5 213z M195 1155l229 295h217l229 -295h-186l-152 197l-151 -197h-186zM276 281q0 -158 209 -158q141 0 209 84t68 199v61h-98q-387 0 -388 -186z" />
<glyph unicode="&#xe3;" horiz-adv-x="1062" d="M92 266q0 176 146.5 256t388.5 80h135v41q0 82 -60.5 143.5t-171.5 61.5q-66 0 -124 -20.5t-78.5 -35t-73.5 -55.5l-111 115q152 143 385 143q203 0 304.5 -93t101.5 -230v-496q0 -109 8 -176h-164q-6 74 -6 147h-4q-113 -172 -340 -172q-141 0 -238.5 78t-97.5 213z M188 1180q14 88 68.5 150.5t138.5 62.5q57 0 172 -47q86 -35 111 -35q74 0 100 90h99q-14 -90 -61.5 -151.5t-131.5 -61.5q-57 0 -166 43q-96 39 -135 39q-67 0 -96 -90h-99zM276 281q0 -158 209 -158q141 0 209 84t68 199v61h-98q-387 0 -388 -186z" />
<glyph unicode="&#xe4;" horiz-adv-x="1062" d="M92 266q0 176 146.5 256t388.5 80h135v41q0 82 -60.5 143.5t-171.5 61.5q-66 0 -124 -20.5t-78.5 -35t-73.5 -55.5l-111 115q152 143 385 143q203 0 304.5 -93t101.5 -230v-496q0 -109 8 -176h-164q-6 74 -6 147h-4q-113 -172 -340 -172q-141 0 -238.5 78t-97.5 213z M197 1346q0 49 38.5 82.5t88 33.5t88.5 -33.5t39 -82.5q0 -55 -36 -92t-91.5 -37t-91 36.5t-35.5 92.5zM276 281q0 -158 209 -158q141 0 209 84t68 199v61h-98q-387 0 -388 -186zM614 1346q0 49 39 82.5t88.5 33.5t88 -33.5t38.5 -82.5q0 -55 -35.5 -92t-91 -37t-91.5 36.5 t-36 92.5z" />
<glyph unicode="&#xe5;" horiz-adv-x="1062" d="M92 266q0 176 146.5 256t388.5 80h135v41q0 82 -60.5 143.5t-171.5 61.5q-66 0 -124 -20.5t-78.5 -35t-73.5 -55.5l-111 115q152 143 385 143q203 0 304.5 -93t101.5 -230v-496q0 -109 8 -176h-164q-6 74 -6 147h-4q-113 -172 -340 -172q-141 0 -238.5 78t-97.5 213z M276 281q0 -158 209 -158q141 0 209 84t68 199v61h-98q-387 0 -388 -186zM324 1333q0 84 62.5 143.5t145.5 59.5q86 0 148.5 -58.5t60.5 -142.5q2 -86 -60.5 -144t-148.5 -58q-84 0 -146 58t-62 142zM410 1333q0 -47 36.5 -80.5t86 -33.5t86 33.5t36.5 80.5q0 49 -36.5 83 t-86 34t-86 -34t-36.5 -83z" />
<glyph unicode="&#xe6;" horiz-adv-x="1744" d="M80 276q0 109 63.5 176.5t147.5 90t192 22.5h287v31q0 109 -64.5 180.5t-179.5 71.5q-137 0 -274 -111l-115 117q158 141 387 141q246 0 348 -155q137 156 340 155q106 0 189.5 -35.5t131.5 -89t78.5 -123t42 -129t11.5 -114.5v-86h-723q0 -123 79 -209t214 -86 q166 0 252 153l149 -112q-88 -102 -183 -151.5t-222 -49.5q-262 0 -379 199q-145 -199 -397 -199q-184 0 -279.5 93.5t-95.5 219.5zM276 276q0 -70 59.5 -117.5t143.5 -47.5q119 0 205 76.5t86 201.5v29h-291q-203 0 -203 -142zM942 565h526q-8 270 -258 271 q-125 0 -196.5 -77t-71.5 -194z" />
<glyph unicode="&#xe7;" horiz-adv-x="987" d="M92 481q0 225 141.5 368.5t366.5 143.5q232 1 373 -153l-139 -127q-102 109 -242 108q-143 0 -223 -99t-80 -245q0 -139 87 -234.5t226 -95.5q143 0 236 109l131 -131q-129 -143 -353 -148l-73 -102h59q76 2 132.5 -37t56.5 -110q0 -100 -77 -147.5t-179 -47.5 q-119 0 -216 47l39 82q76 -31 160 -31q47 0 86 19.5t39 66.5q0 70 -67.5 81.5t-124.5 -13.5l-43 37l112 162q-193 23 -310.5 159t-117.5 338z" />
<glyph unicode="&#xe8;" d="M82 485q0 219 142.5 364.5t359.5 145.5q238 0 355.5 -150.5t117.5 -361.5v-65h-778q0 -123 97 -203t230 -80q147 0 266 146l140 -107q-154 -199 -430 -199q-225 0 -362.5 144.5t-137.5 365.5zM229 1450h263l213 -295h-170zM279 565h581q-4 127 -74.5 205t-205.5 78 q-129 0 -215 -89.5t-86 -193.5z" />
<glyph unicode="&#xe9;" d="M82 485q0 219 142.5 364.5t359.5 145.5q238 0 355.5 -150.5t117.5 -361.5v-65h-778q0 -123 97 -203t230 -80q147 0 266 146l140 -107q-154 -199 -430 -199q-225 0 -362.5 144.5t-137.5 365.5zM279 565h581q-4 127 -74.5 205t-205.5 78q-129 0 -215 -89.5t-86 -193.5z M434 1155l213 295h262l-305 -295h-170z" />
<glyph unicode="&#xea;" d="M82 485q0 219 142.5 364.5t359.5 145.5q238 0 355.5 -150.5t117.5 -361.5v-65h-778q0 -123 97 -203t230 -80q147 0 266 146l140 -107q-154 -199 -430 -199q-225 0 -362.5 144.5t-137.5 365.5zM231 1155l230 295h217l229 -295h-186l-152 197l-151 -197h-187zM279 565h581 q-4 127 -74.5 205t-205.5 78q-129 0 -215 -89.5t-86 -193.5z" />
<glyph unicode="&#xeb;" d="M82 485q0 219 142.5 364.5t359.5 145.5q238 0 355.5 -150.5t117.5 -361.5v-65h-778q0 -123 97 -203t230 -80q147 0 266 146l140 -107q-154 -199 -430 -199q-225 0 -362.5 144.5t-137.5 365.5zM233 1346q0 49 39 82.5t88.5 33.5t88 -33.5t38.5 -82.5q0 -55 -35.5 -92 t-91 -37t-91.5 36.5t-36 92.5zM279 565h581q-4 127 -74.5 205t-205.5 78q-129 0 -215 -89.5t-86 -193.5zM651 1346q0 49 39 82.5t88 33.5t88 -33.5t39 -82.5q0 -55 -35.5 -92t-91 -37t-91.5 36.5t-36 92.5z" />
<glyph unicode="&#xec;" horiz-adv-x="491" d="M-94 1450h262l213 -295h-170zM154 0v971h184v-971h-184z" />
<glyph unicode="&#xed;" horiz-adv-x="491" d="M111 1155l213 295h262l-305 -295h-170zM154 0v971h184v-971h-184z" />
<glyph unicode="&#xee;" horiz-adv-x="491" d="M-92 1155l229 295h217l230 -295h-187l-151 197l-152 -197h-186zM154 0v971h184v-971h-184z" />
<glyph unicode="&#xef;" horiz-adv-x="491" d="M-90 1346q0 49 39 82.5t88 33.5t88 -33.5t39 -82.5q0 -55 -36 -92t-91 -37t-91 36.5t-36 92.5zM154 0v971h184v-971h-184zM328 1346q0 49 39 82.5t88 33.5t88 -33.5t39 -82.5q0 -55 -36 -92t-91.5 -37t-91 36.5t-35.5 92.5z" />
<glyph unicode="&#xf0;" horiz-adv-x="1216" d="M92 485q0 213 149.5 361.5t366.5 148.5q168 0 256 -102l4 4q-98 176 -295 369l-219 -107l-96 94l217 109l-174 145l162 95l182 -160l221 106l107 -90l-230 -112q180 -193 280.5 -383.5t100.5 -411.5q0 -262 -137 -419t-379 -157q-217 0 -366.5 148.5t-149.5 361.5z M289 485.5q0 -149.5 87 -244t232.5 -94.5t232.5 94.5t87 244t-87 243.5t-232.5 94t-232.5 -94t-87 -243.5z" />
<glyph unicode="&#xf1;" d="M139 0v971h185v-150h4q37 78 123 126t196 48q152 0 252 -93t100 -277v-625h-184v573q0 129 -62.5 189.5t-158.5 60.5q-121 0 -195.5 -80.5t-74.5 -242.5v-500h-185zM225 1180q14 88 68.5 150.5t138.5 62.5q57 0 172 -47q10 -4 27.5 -12.5t28 -12.5t25.5 -7t30 -3 q74 0 100 90h98q-14 -90 -61 -151.5t-131 -61.5q-57 0 -166 43q-98 39 -135 39q-67 0 -96 -90h-99z" />
<glyph unicode="&#xf2;" horiz-adv-x="1216" d="M92 485q0 213 149.5 361.5t366.5 148.5t366.5 -148.5t149.5 -361.5t-149.5 -361.5t-366.5 -148.5t-366.5 148.5t-149.5 361.5zM268 1450h262l213 -295h-170zM289 485.5q0 -149.5 87 -244t232.5 -94.5t232.5 94.5t87 244t-87 243.5t-232.5 94t-232.5 -94t-87 -243.5z" />
<glyph unicode="&#xf3;" horiz-adv-x="1216" d="M92 485q0 213 149.5 361.5t366.5 148.5t366.5 -148.5t149.5 -361.5t-149.5 -361.5t-366.5 -148.5t-366.5 148.5t-149.5 361.5zM289 485.5q0 -149.5 87 -244t232.5 -94.5t232.5 94.5t87 244t-87 243.5t-232.5 94t-232.5 -94t-87 -243.5zM473 1155l213 295h262l-305 -295 h-170z" />
<glyph unicode="&#xf4;" horiz-adv-x="1216" d="M92 485q0 213 149.5 361.5t366.5 148.5t366.5 -148.5t149.5 -361.5t-149.5 -361.5t-366.5 -148.5t-366.5 148.5t-149.5 361.5zM270 1155l230 295h217l229 -295h-186l-152 197l-151 -197h-187zM289 485.5q0 -149.5 87 -244t232.5 -94.5t232.5 94.5t87 244t-87 243.5 t-232.5 94t-232.5 -94t-87 -243.5z" />
<glyph unicode="&#xf5;" horiz-adv-x="1216" d="M92 485q0 213 149.5 361.5t366.5 148.5t366.5 -148.5t149.5 -361.5t-149.5 -361.5t-366.5 -148.5t-366.5 148.5t-149.5 361.5zM264 1180q14 88 68.5 150.5t138.5 62.5q57 0 172 -47q10 -4 27.5 -12.5t28 -12.5t25.5 -7t30 -3q74 0 100 90h98q-14 -90 -61 -151.5 t-131 -61.5q-59 0 -166 43q-98 39 -135 39q-68 0 -97 -90h-98zM289 485.5q0 -149.5 87 -244t232.5 -94.5t232.5 94.5t87 244t-87 243.5t-232.5 94t-232.5 -94t-87 -243.5z" />
<glyph unicode="&#xf6;" horiz-adv-x="1216" d="M92 485q0 213 149.5 361.5t366.5 148.5t366.5 -148.5t149.5 -361.5t-149.5 -361.5t-366.5 -148.5t-366.5 148.5t-149.5 361.5zM272 1346q0 49 39 82.5t88.5 33.5t88 -33.5t38.5 -82.5q0 -55 -35.5 -92t-91 -37t-91.5 36.5t-36 92.5zM289 485.5q0 -149.5 87 -244 t232.5 -94.5t232.5 94.5t87 244t-87 243.5t-232.5 94t-232.5 -94t-87 -243.5zM690 1346q0 49 39 82.5t88 33.5t88 -33.5t39 -82.5q0 -55 -36 -92t-91 -37t-91 36.5t-36 92.5z" />
<glyph unicode="&#xf7;" horiz-adv-x="1363" d="M135 539v159h1094v-159h-1094zM547 274.5q0 55.5 40 95.5t95 40t95 -40t40 -95.5t-40 -95.5t-95 -40t-95 40t-40 95.5zM547 962.5q0 55.5 40 95.5t95 40t95 -40t40 -95.5t-40 -95.5t-95 -40t-95 40t-40 95.5z" />
<glyph unicode="&#xf8;" horiz-adv-x="1216" d="M84 8l137 139q-129 139 -129 338q0 213 149.5 361.5t366.5 148.5q193 0 332 -118l154 153l73 -74l-153 -155q111 -137 110 -316q0 -213 -149.5 -361.5t-366.5 -148.5q-172 0 -307 101l-141 -142zM289 485q0 -125 61 -209l467 476q-84 72 -209 71q-145 0 -232 -94 t-87 -244zM426 203q74 -55 182 -56q145 0 232.5 94.5t87.5 243.5q0 107 -45 183z" />
<glyph unicode="&#xf9;" d="M139 346v625h185v-574q0 -129 62.5 -189.5t158.5 -60.5q121 0 195.5 81t74.5 243v500h184v-971h-184v150h-4q-37 -78 -123 -126.5t-196 -48.5q-152 0 -252.5 93.5t-100.5 277.5zM229 1450h263l213 -295h-170z" />
<glyph unicode="&#xfa;" d="M139 346v625h185v-574q0 -129 62.5 -189.5t158.5 -60.5q121 0 195.5 81t74.5 243v500h184v-971h-184v150h-4q-37 -78 -123 -126.5t-196 -48.5q-152 0 -252.5 93.5t-100.5 277.5zM434 1155l213 295h262l-305 -295h-170z" />
<glyph unicode="&#xfb;" d="M139 346v625h185v-574q0 -129 62.5 -189.5t158.5 -60.5q121 0 195.5 81t74.5 243v500h184v-971h-184v150h-4q-37 -78 -123 -126.5t-196 -48.5q-152 0 -252.5 93.5t-100.5 277.5zM231 1155l230 295h217l229 -295h-186l-152 197l-151 -197h-187z" />
<glyph unicode="&#xfc;" d="M139 346v625h185v-574q0 -129 62.5 -189.5t158.5 -60.5q121 0 195.5 81t74.5 243v500h184v-971h-184v150h-4q-37 -78 -123 -126.5t-196 -48.5q-152 0 -252.5 93.5t-100.5 277.5zM233 1346q0 49 39 82.5t88.5 33.5t88 -33.5t38.5 -82.5q0 -55 -35.5 -92t-91 -37 t-91.5 36.5t-36 92.5zM651 1346q0 49 39 82.5t88 33.5t88 -33.5t39 -82.5q0 -55 -35.5 -92t-91 -37t-91.5 36.5t-36 92.5z" />
<glyph unicode="&#xfd;" horiz-adv-x="1024" d="M23 971h213l288 -758h4l275 758h198l-460 -1180q-57 -147 -125 -215t-207 -68q-98 0 -164 27l23 168q55 -23 110 -22q80 0 118 37.5t71 121.5l59 154zM377 1155l213 295h262l-305 -295h-170z" />
<glyph unicode="&#xfe;" horiz-adv-x="1251" d="M139 -467v2015h185v-717h4q49 76 141 120t197 44q221 0 357 -144t136 -366q0 -219 -136 -364.5t-357 -145.5q-100 0 -192.5 44t-145.5 120h-4v-606h-185zM324 485.5q0 -149.5 87 -244t232 -94.5t232.5 94.5t87.5 244t-87.5 243.5t-232.5 94t-232 -94t-87 -243.5z" />
<glyph unicode="&#xff;" horiz-adv-x="1024" d="M23 971h213l288 -758h4l275 758h198l-460 -1180q-57 -147 -125 -215t-207 -68q-98 0 -164 27l23 168q55 -23 110 -22q80 0 118 37.5t71 121.5l59 154zM176 1346q0 49 39 82.5t88 33.5t88 -33.5t39 -82.5q0 -55 -36 -92t-91 -37t-91 36.5t-36 92.5zM594 1346q0 49 39 82.5 t88 33.5t88 -33.5t39 -82.5q0 -55 -36 -92t-91 -37t-91 36.5t-36 92.5z" />
<glyph unicode="&#x152;" horiz-adv-x="2009" d="M119 725q0 332 224 528.5t613 196.5h910v-184h-602v-432h565v-185h-565v-465h626v-184h-934q-393 0 -615 200.5t-222 524.5zM328 725q0 -240 160.5 -390.5t453.5 -150.5h125v1082h-125q-289 0 -451.5 -156t-162.5 -385z" />
<glyph unicode="&#x153;" horiz-adv-x="1896" d="M80 485q0 221 140 365.5t364 144.5q250 0 393 -186q141 186 383 186q207 0 332 -135t125 -352v-90h-736q0 -119 74 -201t219 -82q164 0 252 141l152 -100q-139 -201 -408 -201q-281 0 -397 189q-37 -49 -72 -83t-124 -70t-204 -36q-229 0 -361 143.5t-132 366.5zM276 485 q0 -150 79 -250t218 -100q172 0 248 99t76 251q0 145 -78 248t-229.5 103t-232.5 -98.5t-81 -252.5zM1081 565h539q-4 113 -72.5 198t-191.5 85q-121 0 -198 -91.5t-77 -191.5z" />
<glyph unicode="&#x178;" horiz-adv-x="1253" d="M-20 1450h251l396 -637l407 637h240l-549 -832v-618h-197v618zM291 1722q0 49 39 83t88 34t88 -33.5t39 -83.5q0 -55 -36 -92t-91.5 -37t-91 37t-35.5 92zM709 1722q0 49 38.5 83t88 34t88.5 -33.5t39 -83.5q0 -55 -36 -92t-91.5 -37t-91 37t-35.5 92z" />
<glyph unicode="&#x2c6;" horiz-adv-x="491" d="M-92 1155l229 295h217l230 -295h-187l-151 197l-152 -197h-186z" />
<glyph unicode="&#x2dc;" horiz-adv-x="491" d="M-98 1180q14 88 68.5 150.5t138.5 62.5q57 0 172 -47q86 -35 110 -35q74 0 101 90h98q-14 -90 -61.5 -151.5t-131.5 -61.5q-57 0 -166 43q-96 39 -135 39q-67 0 -96 -90h-98z" />
<glyph unicode="&#x2000;" horiz-adv-x="946" />
<glyph unicode="&#x2001;" horiz-adv-x="1892" />
<glyph unicode="&#x2002;" horiz-adv-x="946" />
<glyph unicode="&#x2003;" horiz-adv-x="1892" />
<glyph unicode="&#x2004;" horiz-adv-x="630" />
<glyph unicode="&#x2005;" horiz-adv-x="473" />
<glyph unicode="&#x2006;" horiz-adv-x="315" />
<glyph unicode="&#x2007;" horiz-adv-x="315" />
<glyph unicode="&#x2008;" horiz-adv-x="236" />
<glyph unicode="&#x2009;" horiz-adv-x="378" />
<glyph unicode="&#x200a;" horiz-adv-x="105" />
<glyph unicode="&#x2010;" horiz-adv-x="647" d="M72 410v172h503v-172h-503z" />
<glyph unicode="&#x2011;" horiz-adv-x="647" d="M72 410v172h503v-172h-503z" />
<glyph unicode="&#x2012;" horiz-adv-x="647" d="M72 410v172h503v-172h-503z" />
<glyph unicode="&#x2013;" horiz-adv-x="1024" d="M0 418v160h1024v-160h-1024z" />
<glyph unicode="&#x2014;" horiz-adv-x="2048" d="M0 418v160h2048v-160h-2048z" />
<glyph unicode="&#x2018;" horiz-adv-x="569" d="M115 946l172 504h168l-142 -504h-198z" />
<glyph unicode="&#x2019;" horiz-adv-x="569" d="M115 946l141 504h199l-172 -504h-168z" />
<glyph unicode="&#x201a;" horiz-adv-x="569" d="M115 -270l141 503h199l-172 -503h-168z" />
<glyph unicode="&#x201c;" horiz-adv-x="1062" d="M180 946l172 504h168l-141 -504h-199zM543 946l172 504h168l-142 -504h-198z" />
<glyph unicode="&#x201d;" horiz-adv-x="1062" d="M180 946l142 504h198l-172 -504h-168zM543 946l141 504h199l-172 -504h-168z" />
<glyph unicode="&#x201e;" horiz-adv-x="1062" d="M180 -270l142 503h198l-172 -503h-168zM543 -270l141 503h199l-172 -503h-168z" />
<glyph unicode="&#x2022;" horiz-adv-x="1024" d="M150 725q0 152 105 257t257 105t257 -105t105 -257t-105 -257.5t-257 -105.5t-257 105.5t-105 257.5z" />
<glyph unicode="&#x2026;" horiz-adv-x="2048" d="M207 123q0 55 40 95t95 40t95 -40t40 -95t-40 -95t-95 -40t-95 40t-40 95zM889 123q0 55 40 95t95 40t95 -40t40 -95t-40 -95t-95 -40t-95 40t-40 95zM1571 123q0 55 40 95t95 40t95 -40t40 -95t-40 -95t-95 -40t-95 40t-40 95z" />
<glyph unicode="&#x202f;" horiz-adv-x="378" />
<glyph unicode="&#x2039;" horiz-adv-x="645" d="M111 498l297 442l127 -84l-240 -358l242 -359l-127 -84z" />
<glyph unicode="&#x203a;" horiz-adv-x="645" d="M109 856l127 84l299 -442l-297 -443l-127 84l239 359z" />
<glyph unicode="&#x205f;" horiz-adv-x="473" />
<glyph unicode="&#x2122;" horiz-adv-x="2048" d="M70 1315v135h667v-135h-254v-709h-159v709h-254zM899 606v844h244l227 -647h6l228 647h243v-844h-159v705h-5l-245 -705h-129l-246 705h-4v-705h-160z" />
<glyph unicode="&#x25fc;" horiz-adv-x="972" d="M0 0v973h973v-973h-973z" />
<glyph unicode="&#xfb01;" d="M2 811v160h209v217q0 199 77 292t255 93q78 0 137 -14l-21 -164q-45 18 -104 18q-94 0 -126 -53t-32 -166v-223h219v-160h-221v-811h-184v811h-209zM758 1317q0 55 40 95t95 40t95 -40t40 -95t-40 -95t-95 -40t-95 40t-40 95zM799 0v971h184v-971h-184z" />
<glyph unicode="&#xfb02;" d="M2 811v160h209v217q0 199 77 292t255 93q78 0 137 -14l-21 -164q-45 18 -104 18q-94 0 -126 -53t-32 -166v-223h219v-160h-221v-811h-184v811h-209zM801 0v1548h184v-1548h-184z" />
</font>
</defs>
</svg>
