<?xml version="1.0" standalone="no"?>
<!DOCTYPE svg PUBLIC "-//W3C//DTD SVG 1.1//EN" "http://www.w3.org/Graphics/SVG/1.1/DTD/svg11.dtd" >
<svg xmlns="http://www.w3.org/2000/svg">
<metadata></metadata>
<defs>
<font id="avenirregular" horiz-adv-x="532" >
<font-face units-per-em="2048" ascent="1638" descent="-410" />
<missing-glyph horiz-adv-x="606" />
<glyph horiz-adv-x="2048" />
<glyph horiz-adv-x="2048" />
<glyph unicode="&#xd;" horiz-adv-x="1024" />
<glyph horiz-adv-x="1554" d="M27 664h135v-664h540q131 0 267.5 44t248 133t182 225.5t70.5 322.5q0 184 -61 320.5t-163.5 226.5t-235.5 134t-277 44h-571v-614h-135v-172zM420 233v431h442v172h-442v381h235q119 0 218.5 -28t172 -86.5t113.5 -151.5t41 -226q0 -131 -46 -225t-126 -152.5 t-187.5 -86.5t-228.5 -28h-192z" />
<glyph horiz-adv-x="1249" d="M90 492q0 -117 42 -212.5t113.5 -163t170 -104.5t209.5 -37q133 0 232 44t167 123t101.5 187.5t33.5 237.5q0 115 -28.5 221.5t-79 204t-116 186.5t-138.5 169l239 110l-131 115l-227 -105q-23 23 -71 67t-103 87l-205 -119q16 -12 36.5 -29.5t43 -36t43 -36t35.5 -31.5 l-219 -102l122 -117l218 100l6 -6q72 -74 138 -149.5t120 -161.5l-4 -4q-45 43 -105.5 60.5t-128.5 17.5q-104 0 -197.5 -37t-164 -104.5t-111.5 -163t-41 -211.5zM336 492q0 57 19.5 110t57.5 94t91 65.5t121 24.5t121 -24.5t90.5 -65.5t57 -94t19.5 -110t-19.5 -110.5 t-57 -94.5t-90.5 -65.5t-121 -24.5t-121 24.5t-91 65.5t-57.5 94t-19.5 111z" />
<glyph horiz-adv-x="1062" d="M18 256l144 127v-383h874v233h-616v377l422 373v223l-422 -370v614h-258v-842l-144 -127v-225z" />
<glyph d="M2 418l141 141v-559h246v809l141 139v219l-141 -141v522h-246v-766l-141 -141v-223z" />
<glyph horiz-adv-x="1175" d="M63 160q90 -106 215 -151.5t261 -45.5q106 0 202.5 28.5t169 86t115.5 144.5t43 204q0 129 -51 207t-127 125t-166 73.5t-166 55t-127 67.5t-51 113q0 49 20.5 85t54 58.5t75.5 32.5t87 10q76 0 144.5 -27.5t109.5 -86.5l189 198q-86 80 -193.5 115t-222.5 35 q-100 0 -196.5 -26.5t-171 -81t-120.5 -136.5t-46 -194q0 -129 51 -206t127 -123t166 -72.5t165.5 -56.5t127 -73t51.5 -123q0 -49 -22.5 -87t-59.5 -62.5t-82 -36.5t-90 -12q-86 0 -163 39.5t-124 111.5zM218 1843l233 -295h272l236 295h-225l-142 -184l-141 184h-233z" />
<glyph horiz-adv-x="909" d="M51 127q76 -86 172 -119t211 -33q76 0 152 16.5t136 53.5t98 97.5t38 148.5q0 96 -39 151.5t-98 87t-128 47t-128 30t-98 35t-39 65.5q0 55 47 79.5t96 24.5q121 0 193 -100l163 147q-59 82 -155.5 116t-194.5 34q-74 0 -145.5 -18.5t-126.5 -57.5t-89 -99.5t-34 -142.5 q0 -94 39 -147.5t98.5 -83t128 -43t128 -28.5t98 -39.5t38.5 -76.5q0 -29 -15 -50t-40 -34.5t-53.5 -20.5t-54.5 -7q-78 0 -132.5 33.5t-101.5 87.5zM84 1450l233 -295h272l236 295h-225l-142 -184l-141 184h-233z" />
<glyph horiz-adv-x="1290" d="M-29 1450l545 -829v-621h258v621l545 829h-307l-361 -578l-356 578h-324zM549 1548h192l289 295h-278z" />
<glyph horiz-adv-x="1062" d="M6 983l420 -991l-47 -117q-14 -39 -29.5 -66.5t-37 -45t-52.5 -25.5t-76 -8q-33 0 -64.5 7t-60.5 17l-30 -221q92 -25 188 -25q82 0 140.5 17.5t101.5 53.5t74.5 88t58.5 122l465 1194h-256l-246 -682h-4l-275 682h-270zM436 1155h192l289 295h-278z" />
<glyph horiz-adv-x="1251" d="M162 0h258v319h184q115 0 220.5 16.5t185.5 62.5t127 130t47 222q0 121 -44 201.5t-118 128.5t-171 68.5t-202 20.5h-229v281h-258v-1450zM420 541v407h184q53 0 107.5 -6t99.5 -27.5t73.5 -61.5t28.5 -108q0 -74 -31.5 -114.5t-81.5 -61t-109.5 -24.5t-115.5 -4h-155z " />
<glyph horiz-adv-x="1290" d="M139 -467h246v592h6q18 -25 47 -50.5t70 -48t94 -37t123 -14.5q104 0 192.5 40t150.5 110t97 164t35 203t-32.5 202.5t-96 163.5t-153 110t-203.5 40q-104 0 -192.5 -39t-133.5 -113h-4v692h-246v-2015zM377 492q0 57 19.5 110t57.5 94t91 65.5t121 24.5t121 -24.5 t90.5 -65.5t57 -94t19.5 -110t-19.5 -110.5t-57 -94.5t-91 -65.5t-120.5 -24.5q-68 0 -121 24.5t-91 65.5t-57.5 94t-19.5 111z" />
<glyph horiz-adv-x="1251" d="M72 0h1108v233h-793l780 984v233h-1083v-233h762l-774 -984v-233zM256 1843l233 -295h272l236 295h-225l-142 -184l-141 184h-233z" />
<glyph horiz-adv-x="987" d="M70 0h848v197h-558l533 563v223h-799v-197h502v-4l-526 -555v-227zM123 1450l233 -295h272l236 295h-225l-142 -184l-141 184h-233z" />
<glyph horiz-adv-x="1820" d="M66 1223l112 -136l172 154v-649h209v870h-186zM381 12l170 -78l852 1504l-170 78zM1096 0h659v172h-405v4l286 221q119 90 119 224q0 131 -89 196.5t-224 65.5q-141 0 -232.5 -67.5t-101.5 -215.5l197 -12q4 47 37.5 78.5t89.5 31.5q47 0 80.5 -18t33.5 -62 q0 -31 -27.5 -59.5t-56.5 -52.5l-366 -311v-195z" />
<glyph horiz-adv-x="1820" d="M59 1223l113 -136l172 154v-649h209v870h-186zM377 12l170 -78l852 1504l-170 78zM1038 174h406v-174h209v174h108v172h-108v524h-230l-385 -536v-160zM1247 346l195 279l2 -4v-275h-197z" />
<glyph horiz-adv-x="788" d="M82 1223l113 -136l172 154v-649h208v870h-186z" />
<glyph horiz-adv-x="1820" d="M47 821q29 -131 120 -186t218 -55q70 0 131.5 16t107.5 49t73.5 82t27.5 115q0 76 -46 135t-132 70v4q78 14 120 66t42 124q0 59 -27 103.5t-71 73t-101 43t-119 14.5q-59 0 -113.5 -12.5t-98.5 -40t-75.5 -71.5t-48.5 -110l211 -41q10 43 44 66.5t81 23.5q49 0 79 -17.5 t30 -49.5q0 -57 -44 -75t-100 -18h-65v-172h47q35 0 66.5 -2t56 -11t40 -28.5t15.5 -54.5q0 -53 -38 -75.5t-93 -22.5t-86 27.5t-41 74.5zM432 12l170 -78l852 1504l-170 78zM1053 174h405v-174h209v174h107v172h-107v524h-229l-385 -536v-160zM1219 322v4l241 360h4v-364 h-245z" />
<glyph horiz-adv-x="788" d="M55 821q29 -131 120 -186t218 -55q70 0 131.5 16t107.5 49t73.5 82t27.5 115q0 76 -46 135t-132 70v4q78 14 120 66t42 124q0 59 -26.5 103.5t-71 73t-101.5 43t-119 14.5q-59 0 -113.5 -12.5t-98.5 -40t-75.5 -71.5t-48.5 -110l211 -41q10 43 44 66.5t81 23.5 q49 0 79 -17.5t30 -49.5q0 -57 -44 -75t-99 -18h-66v-172h47q35 0 66.5 -2t56.5 -11t40 -28.5t15 -54.5q0 -53 -37.5 -75.5t-93.5 -22.5q-55 0 -86 27.5t-41 74.5z" />
<glyph horiz-adv-x="788" d="M63 592h662v172h-406v4l287 221q119 90 119 223q0 131 -89 197t-224 66q-141 0 -232.5 -68t-101.5 -215l196 -12q4 47 38 78.5t89 31.5q47 0 81 -18.5t34 -61.5q0 -31 -27.5 -59.5t-56.5 -52.5l-369 -312v-194z" />
<glyph horiz-adv-x="454" d="M123 358v-716h209v716h-209zM123 666h209v716h-209v-716z" />
<glyph horiz-adv-x="1363" d="M127 516h1110v209h-1110v-209z" />
<glyph horiz-adv-x="1363" d="M158 242l151 -150l371 371l375 -371l151 152l-379 381l371 370l-143 144l-373 -373l-375 375l-147 -146l377 -381z" />
<glyph unicode=" "  horiz-adv-x="606" />
<glyph unicode="&#x09;" horiz-adv-x="606" />
<glyph unicode="&#xa0;" horiz-adv-x="606" />
<glyph unicode="!" horiz-adv-x="606" d="M139 143q0 -33 13.5 -61.5t36 -49t52 -32.5t62.5 -12q68 0 116 47t48 112q0 66 -49 111t-115 45q-68 0 -116 -47t-48 -113zM180 455h246v995h-246v-995z" />
<glyph unicode="&#x22;" horiz-adv-x="1062" d="M246 909h209v541h-209v-541zM608 909h209v541h-209v-541z" />
<glyph unicode="#" horiz-adv-x="1212" d="M96 428h185l-62 -428h178l62 428h213l-62 -428h178l64 428h205v172h-185l35 250h209v172h-184l61 428h-178l-61 -428h-211l61 428h-180l-62 -428h-206v-172h184l-37 -250h-207v-172zM483 600l35 250h211l-35 -250h-211z" />
<glyph unicode="$" horiz-adv-x="1212" d="M63 158q94 -98 218.5 -141.5t259.5 -41.5v-145h110v147q98 10 183.5 43t149 89.5t100 136.5t36.5 180q0 104 -40 174t-104.5 116t-147.5 74.5t-169 51.5l-8 2v409q72 0 137.5 -29.5t112.5 -80.5l170 190q-78 70 -187.5 106t-213.5 36h-19v135h-110v-137q-86 -8 -166 -41 t-141.5 -87.5t-98.5 -128t-37 -165.5q0 -100 35 -170t95.5 -118t138 -78t163.5 -54l11 -2v-432q-86 8 -164 45t-127 106zM356 1063q0 78 56.5 126t128.5 60v-375q-37 16 -71 30t-58.5 34t-40 49t-15.5 76zM651 197v399q37 -12 74 -26.5t67.5 -35t50 -51t19.5 -75.5 t-17.5 -81t-46 -61.5t-66.5 -43t-81 -25.5z" />
<glyph unicode="%" horiz-adv-x="1857" d="M61 1094q0 -80 30 -148.5t82 -121t120.5 -82t148.5 -29.5t148.5 29.5t121 82t82 121t29.5 148.5t-29.5 148.5t-82 120.5t-121 82t-148.5 30t-148.5 -30t-120.5 -82t-82 -120.5t-30 -148.5zM258 1094q0 78 53.5 131t130.5 53q78 0 131.5 -53t53.5 -131t-53.5 -131.5 t-131.5 -53.5t-131 53.5t-53 131.5zM420 12l170 -78l852 1504l-170 78zM1034 356q0 -80 30 -148.5t82 -120.5t120.5 -82t148.5 -30t148.5 30t121 82t82 120.5t29.5 148.5t-29.5 148.5t-82 121t-121 82t-148.5 29.5t-148.5 -29.5t-120.5 -82t-82 -121t-30 -148.5zM1231 356 q0 78 53 131.5t131 53.5t131 -53.5t53 -131.5t-53 -131t-131 -53t-131 53.5t-53 130.5z" />
<glyph unicode="&#x26;" horiz-adv-x="1517" d="M98 389q0 -104 41 -183t108.5 -133.5t157 -82t185.5 -27.5q139 0 239.5 49t188.5 154l153 -166h318l-313 342l290 420h-288l-162 -246l-234 252q53 29 105.5 65.5t93.5 83t65.5 102.5t24.5 124q0 90 -33.5 154.5t-90 106.5t-130.5 62.5t-155 20.5q-82 0 -158 -22.5 t-133.5 -66.5t-91 -110.5t-33.5 -157.5q0 -53 13 -98t35.5 -84t52.5 -75.5t65 -75.5q-66 -25 -123.5 -65t-99.5 -92t-66.5 -114.5t-24.5 -136.5zM369 403q0 47 17 84t46 66t63.5 53.5t71.5 44.5l297 -323q-55 -53 -118.5 -98.5t-147.5 -45.5q-45 0 -87 16.5t-73.5 46 t-50 69.5t-18.5 87zM492 1120q0 66 51 106t123 40q66 0 112.5 -38t46.5 -98q0 -39 -18.5 -72.5t-48 -61t-64.5 -49t-65 -38.5q-25 23 -48.5 47.5t-44 52t-32.5 55.5t-12 56z" />
<glyph unicode="'" horiz-adv-x="606" d="M199 909h209v541h-209v-541z" />
<glyph unicode="(" horiz-adv-x="606" d="M98 590q0 -252 79 -483.5t220 -425.5l172 112q-123 172 -192.5 378t-69.5 419q0 211 69.5 416.5t192.5 377.5l2 9l-174 106q-141 -195 -220 -427t-79 -482z" />
<glyph unicode=")" horiz-adv-x="606" d="M35 -213l174 -106q141 195 220 427t79 482q0 252 -79 483.5t-220 425.5l-172 -115q123 -172 192.5 -376.5t69.5 -417.5q0 -211 -69.5 -417t-192.5 -378z" />
<glyph unicode="*" horiz-adv-x="948" d="M57 1092l281 -97l-176 -231l137 -105l172 236l176 -242l141 103l-176 239l279 90l-53 164l-277 -90v291h-172v-291l-278 96z" />
<glyph unicode="+" horiz-adv-x="1363" d="M127 516h451v-450h208v450h451v209h-451v451h-208v-451h-451v-209z" />
<glyph unicode="," horiz-adv-x="606" d="M78 -258h219l174 541h-250z" />
<glyph unicode="-" horiz-adv-x="645" d="M70 399h505v209h-505v-209z" />
<glyph unicode="." horiz-adv-x="606" d="M139 143q0 -33 13.5 -61.5t36 -49t52 -32.5t62.5 -12q68 0 116 47t48 112q0 66 -49 111t-115 45q-68 0 -116 -47t-48 -113z" />
<glyph unicode="/" horiz-adv-x="796" d="M-18 -37l170 -61l639 1585l-170 65z" />
<glyph unicode="0" horiz-adv-x="1212" d="M82 725q0 -172 27.5 -294t72.5 -205t101.5 -133t115 -75.5t112.5 -34t95 -8.5t95.5 8.5t112.5 34t114.5 75.5t101.5 133t72.5 205t27.5 294t-27.5 294t-72.5 205t-101.5 133t-114.5 75.5t-112.5 34t-95.5 8.5t-95 -8.5t-112.5 -34t-115 -75.5t-101.5 -133t-72.5 -205 t-27.5 -294zM328 725q0 68 9 157t37.5 168.5t84 135t147.5 55.5t147.5 -55.5t84 -135t38 -168.5t9.5 -157t-9.5 -157t-38 -169t-84 -135t-147.5 -55t-147.5 55t-84 135t-37.5 169t-9 157z" />
<glyph unicode="1" horiz-adv-x="1212" d="M133 1085l143 -170l273 252v-1167h246v1450h-224z" />
<glyph unicode="2" horiz-adv-x="1212" d="M121 0h971v221h-672l448 416q98 90 161 189.5t63 236.5q0 104 -37 182t-100.5 128t-148.5 76t-183 26t-182.5 -27t-148 -78t-102 -128t-49.5 -177l258 -21q12 90 71.5 143.5t152.5 53.5q43 0 80.5 -13.5t66.5 -38t46.5 -59t17.5 -79.5q0 -37 -14.5 -71t-36 -64.5 t-48 -58.5t-51.5 -52l-563 -545v-260z" />
<glyph unicode="3" horiz-adv-x="1212" d="M94 315q25 -90 72 -154.5t111.5 -105.5t145.5 -60.5t169 -19.5q96 0 185 28t156.5 82t107.5 134t40 184q0 135 -71.5 233.5t-210.5 119.5v4q117 29 182.5 120t65.5 207q0 96 -38 169t-101.5 121t-147.5 73t-178 25q-80 0 -154 -18.5t-135.5 -56.5t-106.5 -97.5 t-69 -139.5l260 -69q27 76 85 117.5t132 41.5q92 0 149.5 -53t57.5 -137q0 -66 -24.5 -104.5t-64.5 -59t-90.5 -27t-103.5 -6.5h-63v-221h59q55 0 112.5 -8t103.5 -31.5t76 -66.5t30 -115q0 -51 -19.5 -93t-53.5 -72t-78 -46t-93 -16q-98 0 -155.5 49t-80.5 139z" />
<glyph unicode="4" horiz-adv-x="1212" d="M70 295h616v-295h246v295h211v221h-211v934h-279l-583 -911v-244zM319 516l363 586h4v-586h-367z" />
<glyph unicode="5" horiz-adv-x="1212" d="M90 307q51 -168 173 -250t296 -82q111 0 207 35t167 99.5t110.5 157.5t39.5 210q0 111 -35.5 199t-99 151.5t-152.5 97t-196 33.5q-39 0 -83 -4t-73 -14l7 289h583v221h-825l-14 -782q66 33 144.5 51t158.5 18q68 0 129 -15t108 -49t75 -87.5t28 -128.5 q0 -53 -18.5 -98.5t-52.5 -79t-80 -52t-101 -18.5q-94 0 -153.5 45t-84.5 123z" />
<glyph unicode="6" horiz-adv-x="1212" d="M90 469q0 -115 38 -207t106.5 -155.5t164 -97.5t207.5 -34q111 0 206 35t163.5 99.5t107.5 156.5t39 205q0 94 -31.5 178t-90 147.5t-138.5 100.5t-176 37q-37 0 -75 -6t-60 -19l-4 4l348 537h-299l-371 -584q-59 -96 -97 -189t-38 -208zM348 473q0 55 20.5 103.5 t56.5 84t84 56t103 20.5t103.5 -20.5t84.5 -56t56.5 -84t20.5 -103.5t-20.5 -103t-56.5 -84t-84 -56.5t-104 -20.5q-55 0 -103 20.5t-84 56.5t-56.5 84t-20.5 103z" />
<glyph unicode="7" horiz-adv-x="1212" d="M86 1217h709l-592 -1217h289l579 1225v225h-985v-233z" />
<glyph unicode="8" horiz-adv-x="1212" d="M117 412q0 -106 39 -188.5t104.5 -137.5t155.5 -83t190 -28q102 0 191.5 28t155 83t104.5 137t39 189q0 68 -21.5 127t-58.5 105t-84 78t-101 42v4q111 33 165.5 121t54.5 205q0 92 -35 162.5t-95.5 118.5t-141.5 74t-173 26t-173 -26t-141.5 -74t-95 -118.5 t-34.5 -162.5q0 -117 54 -205t165 -121v-4q-51 -10 -99.5 -42t-85 -78t-58 -105.5t-21.5 -126.5zM362 442q0 49 19.5 91t52.5 73t78 47.5t94 16.5t94 -16.5t78 -47.5t52.5 -72.5t19.5 -91.5q0 -104 -68.5 -168.5t-175.5 -64.5q-106 0 -175 64.5t-69 168.5zM408 1069 q0 82 52 139.5t146 57.5q86 0 142.5 -57.5t56.5 -139.5q0 -43 -15.5 -80t-43 -64.5t-63.5 -43t-77 -15.5q-92 0 -145 58.5t-53 144.5z" />
<glyph unicode="9" horiz-adv-x="1212" d="M90 979q0 -94 32 -178t90 -147.5t138 -100.5t176 -37q37 0 75 6t61 19l4 -4l-349 -537h299l371 584q59 96 97 189t38 208t-37.5 207t-106.5 155.5t-163 97.5t-209 34q-111 0 -206 -35t-163.5 -99.5t-107.5 -156.5t-39 -205zM336 977q0 55 20.5 103t56.5 84t84 56.5 t103 20.5t103.5 -20.5t84 -56.5t56 -84t20.5 -103t-20.5 -103.5t-56 -84t-84 -56t-103.5 -20.5t-103 20.5t-84 56t-56.5 84t-20.5 103.5z" />
<glyph unicode=":" horiz-adv-x="606" d="M139 143q0 -33 13.5 -61.5t36 -49t52 -32.5t62.5 -12q68 0 116 47t48 112q0 66 -49 111t-115 45q-68 0 -116 -47t-48 -113zM139 838q0 -33 13.5 -61.5t36 -49t52 -33t62.5 -12.5q68 0 116 47t48 113t-49 110.5t-115 44.5q-68 0 -116 -46.5t-48 -112.5z" />
<glyph unicode=";" horiz-adv-x="606" d="M78 -258h219l174 541h-250zM139 838q0 -33 13.5 -61.5t36 -49t52 -33t62.5 -12.5q68 0 116 47t48 113t-49 110.5t-115 44.5q-68 0 -116 -46.5t-48 -112.5z" />
<glyph unicode="&#x3c;" horiz-adv-x="1363" d="M164 547l1036 -461v225l-692 310l692 309v225l-1036 -461v-147z" />
<glyph unicode="=" horiz-adv-x="1363" d="M127 332h1110v209h-1110v-209zM127 700h1110v209h-1110v-209z" />
<glyph unicode="&#x3e;" horiz-adv-x="1363" d="M164 86l1036 461v147l-1036 461v-225l692 -309l-692 -310v-225z" />
<glyph unicode="?" horiz-adv-x="1062" d="M98 1073l262 -20q8 84 63.5 142t141.5 58q80 0 132.5 -50t52.5 -130q0 -82 -52 -133l-157 -160q-31 -33 -52.5 -56.5t-35 -49t-18.5 -56t-5 -77.5v-113h246v78q0 41 6 67.5t19.5 48t34 42t48.5 47.5q45 43 85 81.5t71 82t49.5 94.5t18.5 118q0 96 -33 171t-91.5 126.5 t-137 77t-171.5 25.5q-98 0 -180 -27.5t-144.5 -81t-101 -130.5t-51.5 -175zM389 143q0 -33 13.5 -61.5t36 -49t52 -32.5t62.5 -12q68 0 116 47t48 112q0 66 -49.5 111t-114.5 45q-68 0 -116 -47t-48 -113z" />
<glyph unicode="@" horiz-adv-x="1638" d="M66 723q0 -166 62 -306.5t171 -240.5t253 -156.5t308 -56.5q188 0 353 79t276 230h-225q-76 -59 -173.5 -92t-213.5 -33q-129 0 -240 40t-191.5 114t-126 180.5t-45.5 241.5q0 127 41 232.5t116 183.5t179.5 121t231.5 43q117 0 215 -32t168.5 -95.5t110.5 -156.5 t40 -216q0 -80 -15 -137.5t-40 -95.5t-56.5 -55t-64.5 -17t-44 19.5t-11 55.5q0 31 6 60t12 57l76 404h-192l-17 -93h-4q-31 63 -85 90t-136 27q-94 0 -171 -38t-129 -102.5t-81 -147t-29 -173.5q0 -76 21.5 -139t60.5 -108t93.5 -71t119.5 -26q98 0 159.5 35t102.5 76h4 q2 -41 39 -76t123 -35q31 0 77 7.5t96 26t100.5 53t90.5 90t65.5 135.5t25.5 188q0 164 -62.5 289t-165 211t-232.5 130t-265 44q-162 0 -304.5 -58.5t-249 -161t-167.5 -241.5t-61 -303zM604 686q0 51 14.5 96t42 79t68.5 53.5t92 19.5q78 0 115 -53.5t37 -135.5 q0 -43 -9.5 -87t-32 -79.5t-60 -58t-97.5 -22.5q-63 0 -98 23.5t-50.5 54t-18.5 62.5t-3 48z" />
<glyph unicode="A" horiz-adv-x="1478" d="M0 0h289l131 332h629l135 -332h295l-625 1450h-223zM508 553l227 590l223 -590h-450z" />
<glyph unicode="B" horiz-adv-x="1327" d="M162 0h522q102 0 201.5 20.5t176.5 68.5t124 127t47 198q0 70 -23.5 130t-64.5 106t-99.5 76t-125.5 38v4q113 35 182 115t69 202q0 98 -38.5 168t-101 114t-142.5 63.5t-162 19.5h-565v-1450zM420 221v418h248q158 0 232.5 -45t74.5 -160q0 -72 -31 -113.5t-78 -64.5 t-103 -29t-106 -6h-237zM420 860v369h213q147 0 213.5 -46t66.5 -141q0 -82 -64.5 -132t-193.5 -50h-235z" />
<glyph unicode="C" horiz-adv-x="1402" d="M84 719q0 -170 57.5 -309.5t158.5 -238.5t241.5 -153.5t308.5 -54.5q160 0 301 61.5t240 196.5l-213 152q-72 -92 -155 -134t-171 -42q-113 0 -204 41t-156.5 112.5t-101.5 169.5t-36 215q0 109 36 203t101.5 165t156.5 110.5t204 39.5q76 0 150.5 -28.5t154.5 -114.5 l201 147q-109 125 -235 177.5t-273 52.5q-168 0 -308.5 -54.5t-241.5 -154.5t-158.5 -242.5t-57.5 -316.5z" />
<glyph unicode="D" horiz-adv-x="1554" d="M162 0h540q131 0 267.5 44t248 133t182 225.5t70.5 322.5q0 184 -61 320.5t-163.5 226.5t-235.5 134t-277 44h-571v-1450zM420 233v984h235q119 0 218.5 -28t172 -86.5t113.5 -151.5t41 -226q0 -131 -46 -225t-126 -152.5t-187.5 -86.5t-228.5 -28h-192z" />
<glyph unicode="E" horiz-adv-x="1251" d="M162 0h997v233h-739v394h665v233h-665v357h702v233h-960v-1450z" />
<glyph unicode="F" horiz-adv-x="1175" d="M162 0h258v602h639v234h-639v381h678v233h-936v-1450z" />
<glyph unicode="G" horiz-adv-x="1593" d="M84 719q0 -170 57.5 -309.5t158.5 -238.5t241.5 -153.5t308.5 -54.5q332 0 600 143v742h-555v-234h297v-342q-68 -39 -155 -57t-185 -18q-113 0 -204 41t-156.5 112.5t-101.5 169.5t-36 215q0 109 36 203t101.5 165t156.5 110.5t204 39.5q111 0 210 -36.5t169 -104.5 l190 193q-115 102 -260 142t-311 40q-168 0 -308.5 -54.5t-241.5 -154.5t-158.5 -242.5t-57.5 -316.5z" />
<glyph unicode="H" horiz-adv-x="1517" d="M162 0h258v639h678v-639h258v1450h-258v-578h-678v578h-258v-1450z" />
<glyph unicode="I" horiz-adv-x="569" d="M156 0h258v1450h-258v-1450z" />
<glyph unicode="J" horiz-adv-x="1024" d="M10 297q35 -174 144.5 -254t281.5 -80q109 0 191 36t136 96.5t81.5 140t27.5 165.5v1049h-258v-973q0 -131 -39.5 -205.5t-150.5 -74.5q-68 0 -114 43t-58 114z" />
<glyph unicode="K" horiz-adv-x="1402" d="M162 0h258v713h14l629 -713h362l-723 780l678 670h-348l-600 -614h-12v614h-258v-1450z" />
<glyph unicode="L" horiz-adv-x="1062" d="M162 0h874v233h-616v1217h-258v-1450z" />
<glyph unicode="M" horiz-adv-x="1896" d="M168 0h246v1204h4l440 -1204h180l441 1204h4v-1204h246v1450h-390l-391 -1016l-387 1016h-393v-1450z" />
<glyph unicode="N" horiz-adv-x="1630" d="M162 0h258v1112h4l717 -1112h327v1450h-258v-1077l-4 -4h4l-4 4l-702 1077h-342v-1450z" />
<glyph unicode="O" horiz-adv-x="1705" d="M84 719q0 -170 57.5 -309.5t158.5 -238.5t241.5 -153.5t308.5 -54.5q170 2 311.5 58.5t243.5 157t159.5 239.5t57.5 309q0 174 -57.5 315.5t-159.5 241.5q-101 100 -243 154q-132 50 -288 49h-24q-168 0 -308.5 -54.5t-241.5 -154.5t-158.5 -242.5t-57.5 -316.5zM354 735 q0 109 36 203t101.5 165t156.5 110.5t204 39.5t205 -39.5t157.5 -110.5t101.5 -165t36 -203q0 -117 -36 -215t-101.5 -169.5t-157.5 -112.5t-205 -41t-204 41t-156.5 112.5t-101.5 169.5t-36 215z" />
<glyph unicode="P" horiz-adv-x="1251" d="M162 0h258v600h184q115 0 220.5 16.5t185.5 62.5t127 130t47 221q0 121 -44 202t-118 129t-171 68.5t-202 20.5h-487v-1450zM420 821v408h184q53 0 107.5 -6t99.5 -27.5t73.5 -61.5t28.5 -108q0 -74 -31.5 -115t-81.5 -61.5t-109.5 -24.5t-115.5 -4h-155z" />
<glyph unicode="Q" horiz-adv-x="1744" d="M84 756q0 -176 60.5 -316.5t166 -238t251 -149.5t312.5 -52h844v209h-415v4q53 31 106 76t98 111.5t73 154.5t28 201q0 160 -60.5 294t-165 231t-243 151.5t-293.5 54.5q-156 0 -294 -54.5t-242.5 -151.5t-165 -231.5t-60.5 -293.5zM354 750q0 109 37 200.5t101.5 159.5 t154 105.5t193.5 37.5q111 0 202 -37.5t156.5 -105.5t102 -160t36.5 -200q0 -111 -36.5 -206t-102 -164t-156 -108t-198.5 -39q-106 0 -195.5 39t-155 108t-102.5 164t-37 206z" />
<glyph unicode="R" horiz-adv-x="1290" d="M162 0h258v614h188l336 -614h311l-385 641q162 23 249 129.5t87 263.5q0 123 -45 203t-120.5 127t-173 66.5t-201.5 19.5h-504v-1450zM420 836v393h223q49 0 101.5 -6t95.5 -25.5t69.5 -57.5t26.5 -104q0 -70 -28.5 -110.5t-75 -60t-101.5 -24.5t-110 -5h-201z" />
<glyph unicode="S" horiz-adv-x="1175" d="M63 160q90 -106 215 -151.5t261 -45.5q106 0 202.5 28.5t169 86t115.5 144.5t43 204q0 129 -51 207t-127 125t-166 73.5t-166 55t-127 67.5t-51 113q0 49 20.5 85t54 58.5t75.5 32.5t87 10q76 0 144.5 -27.5t109.5 -86.5l189 198q-86 80 -193.5 115t-222.5 35 q-100 0 -196.5 -26.5t-171 -81t-120.5 -136.5t-46 -194q0 -129 51 -206t127 -123t166 -72.5t165.5 -56.5t127 -73t51.5 -123q0 -49 -22.5 -87t-59.5 -62.5t-82 -36.5t-90 -12q-86 0 -163 39.5t-124 111.5z" />
<glyph unicode="T" horiz-adv-x="1175" d="M14 1217h445v-1217h258v1217h444v233h-1147v-233z" />
<glyph unicode="U" horiz-adv-x="1478" d="M156 532q0 -131 45 -236.5t122.5 -179t184 -113.5t231.5 -40t231.5 40t185.5 113.5t123 179t44 236.5v918h-258v-909q0 -53 -16.5 -111.5t-54.5 -108t-100.5 -81t-154.5 -31.5t-154.5 31.5t-100.5 81t-54 107.5t-16 112v909h-258v-918z" />
<glyph unicode="V" horiz-adv-x="1366" d="M-6 1450l569 -1450h223l586 1450h-278l-408 -1096l-395 1096h-297z" />
<glyph unicode="W" horiz-adv-x="2009" d="M0 1450l428 -1450h238l335 1104h5l335 -1104h246l422 1450h-262l-285 -1044h-4l-319 1044h-254l-326 -1044h-4l-272 1044h-283z" />
<glyph unicode="X" horiz-adv-x="1402" d="M0 0h311l381 612l383 -612h328l-526 758l475 692h-314l-338 -537l-342 537h-325l483 -692z" />
<glyph unicode="Y" horiz-adv-x="1290" d="M-29 1450l545 -829v-621h258v621l545 829h-307l-361 -578l-356 578h-324z" />
<glyph unicode="Z" horiz-adv-x="1251" d="M72 0h1108v233h-793l780 984v233h-1083v-233h762l-774 -984v-233z" />
<glyph unicode="[" horiz-adv-x="569" d="M135 -319h393v159h-184v1499h184v160h-393v-1818z" />
<glyph unicode="\" horiz-adv-x="796" d="M6 1487l639 -1585l170 61l-639 1589z" />
<glyph unicode="]" horiz-adv-x="569" d="M41 -160v-159h393v1818h-393v-160h184v-1499h-184z" />
<glyph unicode="^" horiz-adv-x="1363" d="M141 702h242l297 490l301 -490h242l-457 748h-168z" />
<glyph unicode="_" horiz-adv-x="1024" d="M0 -154v-102h1024v102h-1024z" />
<glyph unicode="`" d="M-119 1450l289 -295h192l-202 295h-279z" />
<glyph unicode="a" horiz-adv-x="1099" d="M74 270q0 -74 30.5 -129t81 -92t115 -55.5t131.5 -18.5q98 0 180 38t136 122h6v-135h221v565q0 53 -6 128t-46 145.5t-125 120t-243 49.5q-117 0 -226.5 -37t-191.5 -121l129 -129q49 47 117 74.5t145 27.5q98 0 162 -46t64 -138v-27h-62q-61 0 -130.5 -3t-138.5 -14 t-132.5 -33.5t-111.5 -60.5t-76.5 -94.5t-28.5 -136.5zM319 289q0 53 39 82.5t95.5 45t120 19.5t114.5 4h51v-55q0 -104 -60.5 -164.5t-186.5 -60.5q-31 0 -62 7t-55.5 23.5t-40 41t-15.5 57.5z" />
<glyph unicode="b" horiz-adv-x="1290" d="M139 0h234v147h4q53 -90 143 -131t195 -41q115 0 204 40t152.5 110t96 164t32.5 203t-35 202.5t-97 163.5t-150.5 110t-192.5 40q-70 0 -123 -14.5t-94 -37t-69.5 -48t-47.5 -50.5h-6v690h-246v-1548zM377 492q0 57 19.5 110t57.5 94t91 65.5t121 24.5t121 -24.5 t90.5 -65.5t57 -94t19.5 -110t-19.5 -110.5t-57 -94.5t-91 -65.5t-120.5 -24.5q-68 0 -121 24.5t-91 65.5t-57.5 94t-19.5 111z" />
<glyph unicode="c" horiz-adv-x="987" d="M90 492q0 -117 42 -212.5t113.5 -163t170 -104.5t209.5 -37q33 0 78 7.5t94 24t97 43t85 63.5l-164 176q-35 -45 -84 -68.5t-106 -23.5q-68 0 -121 24.5t-91 65.5t-57.5 94t-19.5 111q0 57 19.5 110t57.5 94t91 65.5t121 24.5q49 0 96 -26.5t90 -71.5l170 170 q-72 78 -167 114t-189 36q-111 0 -209.5 -37t-170 -104.5t-113.5 -163t-42 -211.5z" />
<glyph unicode="d" horiz-adv-x="1290" d="M90 492q0 -109 33 -203t96.5 -164t153.5 -110t202 -40q104 0 194.5 41t143.5 131h5v-147h233v1548h-246v-690h-6q-18 25 -47 50.5t-70 48t-94 37t-123 14.5q-104 0 -192 -40t-150.5 -110t-97.5 -164t-35 -202zM336 492q0 57 19.5 110t57.5 94t91 65.5t121 24.5t121 -24.5 t90.5 -65.5t57 -94t19.5 -110t-19.5 -110.5t-57 -94.5t-91 -65.5t-120.5 -24.5q-68 0 -121 24.5t-91 65.5t-57.5 94.5t-19.5 110.5z" />
<glyph unicode="e" horiz-adv-x="1175" d="M90 492q0 -117 42 -212.5t113.5 -163t170 -104.5t209.5 -37q117 0 223 45.5t192 151.5l-176 133q-47 -57 -109.5 -95t-154.5 -38q-104 0 -178 61.5t-86 172.5h749v67q0 129 -33.5 228.5t-94 167t-145.5 103.5t-187 36q-111 0 -209.5 -37t-170 -104.5t-113.5 -163 t-42 -211.5zM336 590q14 106 78.5 169.5t175.5 63.5q117 0 182.5 -62.5t67.5 -170.5h-504z" />
<glyph unicode="f" horiz-adv-x="720" d="M25 774h202v-774h246v774h227v209h-227v178q0 41 5 78t22.5 64.5t48.5 44t82 16.5q27 0 51.5 -4t50.5 -10l17 209q-72 14 -156 14q-115 0 -186.5 -32t-111.5 -91t-54.5 -142t-14.5 -186v-139h-202v-209z" />
<glyph unicode="g" horiz-adv-x="1290" d="M90 492q0 -104 35 -196.5t99.5 -160t154.5 -107.5t201 -40q92 0 180 35.5t141 107.5h4v-72q0 -74 -15.5 -134t-51 -103t-95 -67.5t-149.5 -24.5q-104 0 -184 36.5t-154 104.5l-147 -201q104 -92 227 -127t260 -35q143 0 247.5 41t173 116t101.5 182.5t33 240.5v895h-233 v-147h-5q-53 90 -143 131t-195 41q-113 0 -202.5 -40t-153 -110t-96.5 -164t-33 -202zM336 494q0 66 21.5 120t59.5 91.5t92.5 59t117.5 21.5q135 0 213 -79.5t78 -208.5q0 -61 -20.5 -114.5t-58.5 -91.5t-92.5 -60.5t-121.5 -22.5q-61 0 -114.5 22.5t-92.5 61.5t-60.5 91 t-21.5 110z" />
<glyph unicode="h" horiz-adv-x="1175" d="M139 0h246v537q0 49 12.5 94t40 79.5t69.5 55t103 20.5q66 0 102 -29.5t53 -73.5t21.5 -94t4.5 -91v-498h245v621q0 76 -18.5 145.5t-61.5 123.5t-111.5 86t-166.5 32q-115 0 -187.5 -50.5t-101.5 -111.5h-4v702h-246v-1548z" />
<glyph unicode="i" d="M109 1317q0 -59 44 -103.5t111 -44.5q68 0 114 42t46 106q0 63 -46 105t-114 42t-111.5 -44t-43.5 -103zM143 0h246v983h-246v-983z" />
<glyph unicode="j" d="M-76 -473q33 -10 66 -14.5t67 -4.5q104 0 170 33t102 91.5t48 137t12 171.5v1042h-246v-1044q0 -35 -2 -72t-13 -67.5t-35.5 -50t-72.5 -19.5q-20 0 -38.5 3t-38.5 7zM109 1317q0 -59 44 -103.5t111 -44.5q68 0 114 42t46 106q0 63 -46 105t-114 42t-111.5 -44 t-43.5 -103z" />
<glyph unicode="k" horiz-adv-x="1099" d="M139 0h246v502h4l391 -502h326l-449 537l422 446h-315l-379 -408v973h-246v-1548z" />
<glyph unicode="l" d="M143 0h246v1548h-246v-1548z" />
<glyph unicode="m" horiz-adv-x="1781" d="M129 0h246v537q0 49 12 94t40 79.5t70 55t103 20.5q90 0 129 -54t39 -146v-586h246v532q0 47 11 93.5t36.5 82t65.5 57t98 21.5q55 0 90 -18t55.5 -50t28.5 -73t8 -88v-557h246v586q0 88 -18.5 164.5t-60.5 134t-109.5 90.5t-166.5 33q-111 0 -190.5 -44t-132.5 -139 q-76 182 -307 183q-123 0 -196 -54.5t-105 -124.5h-5v154h-233v-983z" />
<glyph unicode="n" horiz-adv-x="1175" d="M139 0h246v537q0 49 12.5 94t40 79.5t69.5 55t103 20.5q66 0 102 -29.5t53 -73.5t21.5 -94t4.5 -91v-498h245v621q0 76 -18.5 145.5t-61.5 123.5t-111.5 86t-166.5 32q-123 0 -194.5 -54.5t-106.5 -128.5h-4v158h-234v-983z" />
<glyph unicode="o" horiz-adv-x="1249" d="M90 492q0 -117 42 -212.5t113.5 -163t170 -104.5t209.5 -37t209 37t169.5 104.5t113.5 163t42 212.5t-42 212t-113.5 162.5t-170 104.5t-208.5 37q-111 0 -209.5 -37t-170 -104.5t-113.5 -162.5t-42 -212zM336 492q0 57 19.5 110t57.5 94t91 65.5t121 24.5t121 -24.5 t90.5 -65.5t57 -94t19.5 -110t-19.5 -110.5t-57 -94.5t-91 -65.5t-120.5 -24.5q-68 0 -121 24.5t-91 65.5t-57.5 94.5t-19.5 110.5z" />
<glyph unicode="p" horiz-adv-x="1290" d="M139 -467h246v592h6q18 -25 47 -50.5t70 -48t94 -37t123 -14.5q104 0 192.5 40t150.5 110t97 164t35 203t-32.5 202.5t-96 163.5t-153 110t-203.5 40q-104 0 -194.5 -41t-143.5 -131h-4v147h-234v-1450zM377 492q0 57 19.5 110t57.5 94t91 65.5t121 24.5t121 -24.5 t90.5 -65.5t57 -94t19.5 -110t-19.5 -110.5t-57 -94.5t-91 -65.5t-120.5 -24.5q-68 0 -121 24.5t-91 65.5t-57.5 94t-19.5 111z" />
<glyph unicode="q" horiz-adv-x="1290" d="M90 492q0 -109 35 -203t97.5 -164t150.5 -110t192 -40q70 0 123 14.5t94 37t70 48t47 50.5h6v-592h246v1450h-233v-147h-5q-53 90 -143 131t-195 41q-113 0 -202.5 -40t-153 -110t-96.5 -164t-33 -202zM336 492q0 57 19.5 110t57.5 94t91 65.5t121 24.5t121 -24.5 t90.5 -65.5t57 -94t19.5 -110t-19.5 -110.5t-57 -94.5t-91 -65.5t-120.5 -24.5q-68 0 -121 24.5t-91 65.5t-57.5 94.5t-19.5 110.5z" />
<glyph unicode="r" horiz-adv-x="796" d="M139 0h246v526q0 20 9 61.5t37 83.5t80 72.5t138 30.5q29 0 58.5 -5t60.5 -13v237q-23 6 -44.5 10.5t-43.5 4.5q-98 0 -174 -47.5t-117 -133.5h-4v156h-246v-983z" />
<glyph unicode="s" horiz-adv-x="909" d="M51 127q76 -86 172 -119t211 -33q76 0 152 16.5t136 53.5t98 97.5t38 148.5q0 96 -39 151.5t-98 87t-128 47t-128 30t-98 35t-39 65.5q0 55 47 79.5t96 24.5q121 0 193 -100l163 147q-59 82 -155.5 116t-194.5 34q-74 0 -145.5 -18.5t-126.5 -57.5t-89 -99.5t-34 -142.5 q0 -94 39 -147.5t98.5 -83t128 -43t128 -28.5t98 -39.5t38.5 -76.5q0 -29 -15 -50t-40 -34.5t-53.5 -20.5t-54.5 -7q-78 0 -132.5 33.5t-101.5 87.5z" />
<glyph unicode="t" horiz-adv-x="796" d="M25 774h202v-450q0 -86 13.5 -152t49.5 -110t98.5 -65.5t160.5 -21.5q43 0 99.5 7.5t94.5 25.5v207q-23 -16 -61.5 -23.5t-71.5 -7.5q-82 0 -109.5 43t-27.5 117v430h270v209h-270v285h-246v-285h-202v-209z" />
<glyph unicode="u" horiz-adv-x="1175" d="M139 362q0 -76 18.5 -145.5t61.5 -122.5t111.5 -86t167.5 -33q123 0 194.5 54.5t106.5 128.5h4v-158h233v983h-245v-537q0 -49 -12.5 -94t-40 -79.5t-69.5 -55t-104 -20.5q-63 0 -100 29.5t-54.5 73.5t-21.5 94t-4 91v498h-246v-621z" />
<glyph unicode="v" horiz-adv-x="1062" d="M6 983l402 -983h262l387 983h-252l-264 -688h-4l-263 688h-268z" />
<glyph unicode="w" horiz-adv-x="1630" d="M6 983l342 -983h254l207 672h4l234 -672h243l334 983h-248l-205 -688h-4l-213 688h-266l-199 -688h-4l-213 688h-266z" />
<glyph unicode="x" horiz-adv-x="1099" d="M-2 0h291l258 352l256 -352h299l-395 528l335 455h-280l-213 -295l-197 295h-299l340 -455z" />
<glyph unicode="y" horiz-adv-x="1062" d="M6 983l420 -991l-47 -117q-14 -39 -29.5 -66.5t-37 -45t-52.5 -25.5t-76 -8q-33 0 -64.5 7t-60.5 17l-30 -221q92 -25 188 -25q82 0 140.5 17.5t101.5 53.5t74.5 88t58.5 122l465 1194h-256l-246 -682h-4l-275 682h-270z" />
<glyph unicode="z" horiz-adv-x="987" d="M70 0h848v197h-558l533 563v223h-799v-197h502v-4l-526 -555v-227z" />
<glyph unicode="{" horiz-adv-x="569" d="M0 500q23 0 55.5 -6.5t63.5 -23.5t52.5 -48t21.5 -80v-391q0 -70 28.5 -120t69.5 -84t86 -50t78 -16h186v172h-113q-43 0 -68.5 14t-38.5 35.5t-16.5 46t-3.5 47.5v373q0 72 -22.5 113.5t-54 64t-65.5 31t-58 10.5v4q25 4 58.5 14t65 33t54 61.5t22.5 98.5v385 q0 23 3.5 47t16.5 45.5t38.5 36t68.5 14.5h113v172h-186q-33 0 -78 -16.5t-86 -50t-69.5 -84t-28.5 -119.5v-406q0 -43 -21.5 -71.5t-52.5 -44t-63.5 -21.5t-55.5 -6v-180z" />
<glyph unicode="|" horiz-adv-x="454" d="M123 -512h209v2048h-209v-2048z" />
<glyph unicode="}" horiz-adv-x="569" d="M-72 -147v-172h187q33 0 78 16t85.5 50t69.5 84t29 120v405q0 43 22.5 72t53 44t63.5 21.5t53 6.5v180q-20 0 -53 6t-63.5 23.5t-53 48t-22.5 80.5v391q0 70 -29 120t-69.5 83.5t-86 50t-77.5 16.5h-187v-172h113q43 0 68.5 -14.5t39 -36t16.5 -46t3 -46.5v-373 q0 -72 22.5 -114t54 -64.5t65.5 -30.5t59 -10v-4q-25 -2 -59 -12.5t-65.5 -34t-54 -62.5t-22.5 -98v-385q0 -23 -3 -47.5t-16.5 -46t-39 -35.5t-68.5 -14h-113z" />
<glyph unicode="~" horiz-adv-x="1363" d="M207 612l74 -172q12 25 27.5 49.5t37 44t49 33t62.5 13.5q72 0 129 -21.5t106 -50.5q51 -29 101.5 -48.5t107.5 -19.5q47 0 85 15.5t67.5 40t55.5 56.5t48 64l-74 172q-18 -25 -36.5 -49t-40 -43.5t-48 -33t-57.5 -13.5q-41 0 -95 24.5t-112 49.5q-59 27 -118.5 46 t-118.5 19q-49 0 -88 -15t-70 -39.5t-53.5 -56.5t-38.5 -65z" />
<glyph horiz-adv-x="1478" d="M0 0h289l131 332h629l135 -332h295l-625 1450h-223zM371 1696q0 -59 44 -103.5t111 -44.5q68 0 114 42t46 106q0 63 -46 105t-114 42t-111.5 -44t-43.5 -103zM508 553l227 590l223 -590h-450zM792 1696q0 -59 44.5 -103.5t111.5 -44.5q68 0 114 42t46 106q0 63 -46 105 t-114 42t-112 -44t-44 -103z" />
<glyph horiz-adv-x="1478" d="M0 0h289l131 332h629l135 -332h295l-625 1450h-223zM508 553l227 590l223 -590h-450zM524 1712q0 -90 61.5 -148t153.5 -58t153.5 58t61.5 150t-61.5 150.5t-153.5 58.5q-45 0 -85 -16t-68.5 -44t-45 -67t-16.5 -84zM623 1714q0 47 34.5 79t81.5 32t82 -32t35 -79 q0 -49 -35 -79.5t-82 -30.5t-81.5 31.5t-34.5 78.5z" />
<glyph horiz-adv-x="987" d="M90 492q0 -100 33 -186.5t89 -152t134 -108.5t170 -59l-117 -170l56 -52q18 6 36.5 10.5t38.5 4.5q33 0 69 -16.5t36 -57.5q0 -25 -12.5 -42t-30 -26.5t-37.5 -13.5t-37 -4q-90 0 -168 41l-45 -94q102 -57 217 -58q47 0 97.5 10.5t91.5 33t68.5 61.5t27.5 94 q0 59 -21.5 93t-57.5 51.5t-80 21.5t-89 4l70 98q33 0 78 7.5t93 25t95 43t84 62.5l-164 176q-35 -45 -84 -68.5t-106 -23.5q-68 0 -121 24.5t-91 65.5t-57.5 94t-19.5 111q0 57 19.5 110t57.5 94t91 65.5t121 24.5q49 0 96 -26.5t90 -71.5l170 170q-72 78 -167 114t-189 36 q-111 0 -209.5 -37t-170 -104.5t-113.5 -163t-42 -211.5z" />
<glyph horiz-adv-x="1175" d="M90 492q0 -117 42 -212.5t113.5 -163t170 -104.5t209.5 -37q117 0 223 45.5t192 151.5l-176 133q-47 -57 -109.5 -95t-154.5 -38q-104 0 -178 61.5t-86 172.5h749v67q0 129 -33.5 228.5t-94 167t-145.5 103.5t-187 36q-111 0 -209.5 -37t-170 -104.5t-113.5 -163 t-42 -211.5zM336 590q14 106 78.5 169.5t175.5 63.5q117 0 182.5 -62.5t67.5 -170.5h-504zM492 1155h192l289 295h-278z" />
<glyph horiz-adv-x="1175" d="M90 492q0 -117 42 -212.5t113.5 -163t170 -104.5t209.5 -37q117 0 223 45.5t192 151.5l-176 133q-47 -57 -109.5 -95t-154.5 -38q-104 0 -178 61.5t-86 172.5h749v67q0 129 -33.5 228.5t-94 167t-145.5 103.5t-187 36q-111 0 -209.5 -37t-170 -104.5t-113.5 -163 t-42 -211.5zM203 1450l289 -295h192l-202 295h-279zM336 590q14 106 78.5 169.5t175.5 63.5q117 0 182.5 -62.5t67.5 -170.5h-504z" />
<glyph horiz-adv-x="1175" d="M90 492q0 -117 42 -212.5t113.5 -163t170 -104.5t209.5 -37q117 0 223 45.5t192 151.5l-176 133q-47 -57 -109.5 -95t-154.5 -38q-104 0 -178 61.5t-86 172.5h749v67q0 129 -33.5 228.5t-94 167t-145.5 103.5t-187 36q-111 0 -209.5 -37t-170 -104.5t-113.5 -163 t-42 -211.5zM216 1155h229l141 184l142 -184h233l-233 295h-277zM336 590q14 106 78.5 169.5t175.5 63.5q117 0 182.5 -62.5t67.5 -170.5h-504z" />
<glyph horiz-adv-x="1175" d="M139 362q0 -76 18.5 -145.5t61.5 -122.5t111.5 -86t167.5 -33q123 0 194.5 54.5t106.5 128.5h4v-158h233v983h-245v-537q0 -49 -12.5 -94t-40 -79.5t-69.5 -55t-104 -20.5q-63 0 -100 29.5t-54.5 73.5t-21.5 94t-4 91v498h-246v-621zM203 1450l289 -295h192l-202 295 h-279z" />
<glyph horiz-adv-x="1175" d="M139 362q0 -76 18.5 -145.5t61.5 -122.5t111.5 -86t167.5 -33q123 0 194.5 54.5t106.5 128.5h4v-158h233v983h-245v-537q0 -49 -12.5 -94t-40 -79.5t-69.5 -55t-104 -20.5q-63 0 -100 29.5t-54.5 73.5t-21.5 94t-4 91v498h-246v-621zM216 1155h229l141 184l142 -184h233 l-233 295h-277z" />
<glyph unicode="&#xa0;" horiz-adv-x="1214" d="M84 838h405v-1096h234v1096h407v196h-407v416h-234v-416h-405v-196z" />
<glyph unicode="&#xa1;" horiz-adv-x="819" d="M82 1147q0 -68 25.5 -127t70.5 -104.5t104.5 -71t127.5 -25.5t127 25.5t104 71t70.5 104.5t25.5 127t-25.5 127t-70.5 104t-104.5 71t-126.5 26q-68 0 -127.5 -26t-104.5 -71t-70.5 -104t-25.5 -127zM242 1147q0 70 49 119t119 49t119 -49t49 -119t-49.5 -119t-118.5 -49 q-70 0 -119 49t-49 119z" />
<glyph unicode="&#xa2;" horiz-adv-x="1212" d="M160 494q0 -104 31.5 -194.5t90 -159t143.5 -112.5t189 -53v-147h111v147q96 4 189.5 37t158.5 105l-149 162q-37 -41 -89.5 -68t-109.5 -27v615q55 -4 103.5 -27.5t86.5 -64.5l158 159q-63 76 -156.5 107t-191.5 35v137h-111v-137q-211 -29 -332.5 -164t-121.5 -350z M393 492q0 113 54.5 197.5t166.5 107.5v-613q-111 29 -166 114t-55 194z" />
<glyph unicode="&#xa3;" horiz-adv-x="1212" d="M135 0h973v197h-518v448h332v172h-332v184q0 49 15.5 94.5t46 80t74.5 56t101 21.5q66 0 119 -23.5t98 -64.5l166 178q-76 68 -178 100t-213 32q-127 0 -217 -42t-147.5 -109t-84 -146.5t-26.5 -155.5v-205h-209v-172h209v-448h-209v-197z" />
<glyph unicode="&#xa4;" horiz-adv-x="1214" d="M109 -43q31 -72 79 -120t107 -76.5t126.5 -42t141.5 -13.5q80 0 162 21.5t147.5 66.5t106.5 113.5t41 161.5q0 74 -33 136t-92 107q76 35 125 105.5t49 156.5q0 98 -45 163t-113.5 111t-148.5 78.5t-148.5 64.5t-113.5 70t-45 95q0 35 14 60.5t37.5 42t53.5 24.5t61 8 q66 0 119 -34.5t75 -96.5l215 121q-29 57 -75 97t-102 64.5t-117.5 35t-121.5 10.5q-76 0 -150.5 -20.5t-134 -62.5t-96 -105.5t-36.5 -149.5q0 -78 35.5 -135.5t99.5 -98.5q-88 -47 -142.5 -118.5t-54.5 -184.5q0 -94 45 -157.5t113.5 -107.5t148.5 -75.5t148.5 -62.5 t114 -68t45.5 -94q0 -37 -17.5 -62.5t-45.5 -41t-61.5 -22.5t-64.5 -7q-76 0 -143.5 36t-89.5 113zM369 664q0 59 34.5 89.5t83.5 53.5l183 -86q29 -16 58.5 -31.5t53 -36t39 -47t15.5 -65.5q0 -41 -29 -82t-66 -62l-198 92q-29 12 -59.5 27.5t-56.5 35t-42 47.5t-16 65z " />
<glyph unicode="&#xa5;" horiz-adv-x="1024" d="M150 725q0 -76 28.5 -141.5t77.5 -114.5t114.5 -78t141.5 -29t141.5 29t114.5 78t77.5 114.5t28.5 141.5t-28.5 141.5t-77.5 114.5t-114.5 77.5t-141.5 28.5t-141.5 -28.5t-114.5 -77.5t-77.5 -114.5t-28.5 -141.5z" />
<glyph unicode="&#xa6;" horiz-adv-x="1228" d="M63 1065q0 -80 32 -148.5t89.5 -118.5t138 -78t181.5 -28v-950h184v1561h219v-1561h185v1708h-551q-106 0 -194.5 -21.5t-151 -67.5t-97.5 -120t-35 -176z" />
<glyph unicode="&#xa7;" horiz-adv-x="1251" d="M115 0h245v1104q0 106 57.5 177t180.5 71q86 0 146.5 -52.5t60.5 -138.5q0 -92 -60.5 -142t-152.5 -50h-17v-209h29q137 0 224 -74t87 -219q0 -131 -82.5 -207t-211.5 -76q-31 0 -57.5 4.5t-55.5 16.5v-207q43 -12 86 -17.5t86 -5.5q104 0 193.5 34t153 96.5t99 149.5 t35.5 191q0 80 -20.5 152t-61.5 128t-102.5 93t-142.5 47v4q104 43 160.5 127t56.5 197q0 94 -36 165t-97.5 119t-141.5 71.5t-170 23.5q-248 0 -369.5 -124t-121.5 -402v-1047z" />
<glyph unicode="&#xa8;" horiz-adv-x="1638" d="M57 725q0 -158 60.5 -296t164 -241.5t242 -164t295.5 -60.5q158 0 296 60.5t241.5 164t164 241.5t60.5 296t-60.5 296t-164 241.5t-241.5 164t-296 60.5t-296 -60.5t-241.5 -164t-164 -241.5t-60.5 -296zM254 725q0 123 44 230.5t120 187.5t179 126t222 46t222.5 -46 t179 -126t119.5 -187.5t44 -230.5t-44 -230.5t-119.5 -187.5t-179 -126t-222.5 -46t-222 46t-179 126t-120 187.5t-44 230.5zM526 334h197v307h47l182 -307h215l-204 317q33 4 64.5 23.5t57 50.5t42 75t16.5 97q0 72 -31 118t-81 72.5t-114.5 36t-134.5 9.5h-256v-799z M721 801v172h96q18 0 41 -2t42.5 -10.5t32.5 -25.5t13 -48t-13 -48.5t-32.5 -25.5t-42 -10t-41.5 -2h-96z" />
<glyph unicode="&#xa9;" horiz-adv-x="1638" d="M57 725q0 -158 60.5 -296t164 -241.5t242 -164t295.5 -60.5q158 0 296 60.5t241.5 164t164 241.5t60.5 296t-60.5 296t-164 241.5t-241.5 164t-296 60.5t-296 -60.5t-241.5 -164t-164 -241.5t-60.5 -296zM254 725q0 123 44 230.5t120 187.5t179 126t222 46t222.5 -46 t179 -126t119.5 -187.5t44 -230.5t-44 -230.5t-119.5 -187.5t-179 -126t-222.5 -46t-222 46t-179 126t-120 187.5t-44 230.5zM432 731q0 -92 27.5 -172t80 -139.5t128 -93t172.5 -33.5q68 0 128 20.5t109 60.5t83 99t44 135h-192q-4 -80 -51.5 -111.5t-112.5 -31.5 q-53 0 -94 20.5t-69 57.5t-42 86t-14 106q0 111 52 182.5t171 71.5q55 0 100 -26.5t60 -98.5h192q-12 74 -45 130.5t-82 93t-110.5 55t-130.5 18.5q-98 0 -174 -31.5t-126.5 -89t-77 -136.5t-26.5 -173z" />
<glyph unicode="&#xaa;" horiz-adv-x="2048" d="M82 1266h250v-660h209v660h250v184h-709v-184zM983 606h209v549h4l207 -549h143l207 549h4v-549h209v844h-291l-200 -549l-201 549h-291v-844z" />
<glyph unicode="&#xab;" d="M170 1155h192l289 295h-278z" />
<glyph unicode="&#xac;" d="M-102 1303q0 -59 44 -103.5t111 -44.5q68 0 114 42t46 106q0 63 -46 105t-114 42t-111.5 -44t-43.5 -103zM319 1303q0 -59 44.5 -103.5t111.5 -44.5q68 0 114 42t46 106q0 63 -46 105t-114 42t-112 -44t-44 -103z" />
<glyph unicode="&#xad;" horiz-adv-x="645" d="M70 399h505v209h-505v-209z" />
<glyph unicode="&#xae;" horiz-adv-x="2048" d="M-12 0h313l234 381h548v-381h873v233h-615v394h553v233h-553v357h590v233h-1016zM670 602l383 615h30v-615h-413z" />
<glyph unicode="&#xaf;" horiz-adv-x="1705" d="M84 719q0 -156 48 -285t136 -227l-178 -193l103 -88l174 189q96 -72 219 -112t264 -40q170 2 311.5 58.5t243.5 157t159.5 239.5t57.5 309q0 166 -51 302t-148 237l176 192l-100 88l-178 -192q-98 66 -216 101.5t-255 31.5q-168 0 -308.5 -54.5t-241.5 -154.5 t-158.5 -242.5t-57.5 -316.5zM354 735q0 109 36 203t101.5 165t156.5 110.5t204 39.5q166 0 293 -92l-696 -758q-45 68 -70 152t-25 180zM541 303l700 764q111 -133 111 -332q0 -117 -36 -215t-101.5 -169.5t-157.5 -112.5t-205 -41q-92 0 -170 27.5t-141 78.5z" />
<glyph unicode="&#xb1;" horiz-adv-x="1363" d="M127 66h1110v208h-1110v-208zM127 674h453v-293h208v293h449v209h-449v293h-208v-293h-453v-209z" />
<glyph unicode="&#xb4;" horiz-adv-x="1212" d="M25 1450l331 -600h-221v-160h309l39 -69v-99h-348v-160h348v-362h246v362h348v160h-348v99l39 69h309v160h-221l332 600h-264l-306 -602l-317 602h-276z" />
<glyph unicode="&#xb5;" horiz-adv-x="1175" d="M139 -467h246v457q45 -14 113 -15q123 0 194.5 54.5t106.5 128.5h4v-158h233v983h-245v-537q0 -49 -12.5 -94t-40 -79.5t-69.5 -55t-104 -20.5q-63 0 -100 29.5t-54.5 73.5t-21.5 94t-4 91v498h-246v-1450z" />
<glyph unicode="&#xbb;" horiz-adv-x="714" d="M57 1051q0 -55 26 -91t61.5 -55.5t73.5 -27t65 -7.5q59 0 119.5 20.5t91.5 72.5h4v-80h159v346q0 125 -64.5 185.5t-211.5 60.5q-82 0 -155.5 -22.5t-127.5 -70.5l88 -108q37 31 78 48t92 17q59 0 100.5 -16t41.5 -51v-17h-35q-61 0 -132 -5t-131.5 -25.5t-101.5 -61.5 t-41 -112zM229 1057q0 27 22.5 42t54.5 22t67 9.5t59 2.5h57v-13q0 -55 -34.5 -91t-122.5 -36q-39 0 -71 16.5t-32 47.5z" />
<glyph unicode="&#xbc;" horiz-adv-x="813" d="M63 1171q-2 -68 25 -123t73 -95t108 -61.5t134 -21.5t135.5 21.5t110.5 61.5t74 95.5t27 122.5q0 68 -27 124.5t-74 96.5t-110.5 61.5t-135.5 21.5t-133 -21.5t-107 -61.5t-73 -96.5t-27 -124.5zM231 1171q0 27 11.5 54.5t33 50t53 37t74.5 14.5t76 -14.5t54.5 -37 t33 -50t11.5 -54.5t-11.5 -53t-33 -48.5t-54.5 -37t-76 -14.5t-74.5 14.5t-53 37t-33 49t-11.5 52.5z" />
<glyph unicode="&#xbe;" horiz-adv-x="1744" d="M74 272q0 -76 31.5 -132t82 -92t115 -53.5t129.5 -17.5q123 0 226.5 37t168.5 138q53 -74 147.5 -125.5t219.5 -51.5q135 0 242.5 46.5t189.5 150.5l-170 121q-47 -57 -108.5 -95t-153.5 -38q-39 0 -82 17.5t-79 51t-58.5 81.5t-20.5 108h717v67q0 109 -28.5 204t-88 166 t-147.5 112t-209 41q-106 2 -182 -38t-135 -106q-59 78 -149.5 114t-176.5 32q-117 0 -226.5 -37t-191.5 -121l129 -129q49 47 117 74.5t145 27.5q111 0 166.5 -63.5t55.5 -171.5h-201q-113 0 -202 -16.5t-149.5 -54.5t-92 -98.5t-31.5 -148.5zM319 289q0 41 29 66.5t74 39 t99 18.5t106 5h123v-25q0 -43 -17.5 -85t-50.5 -73.5t-82.5 -52t-110.5 -20.5q-25 0 -54 6t-55 21.5t-43.5 40t-17.5 59.5zM958 590q6 102 71 167.5t167 65.5q109 0 170 -64.5t68 -168.5h-476z" />
<glyph unicode="&#xbf;" horiz-adv-x="1249" d="M74 14l82 -84l143 146q66 -47 148.5 -74t177.5 -27q111 0 209 37t169.5 104.5t113.5 163t42 212.5q0 100 -31.5 184t-85.5 149l144 146l-86 82l-146 -148q-68 49 -151.5 76t-177.5 27q-111 0 -209.5 -37t-170 -104.5t-113.5 -163t-42 -211.5q0 -102 32 -187.5t89 -150.5z M336 492q0 57 19.5 110t57.5 94t91 65.5t121 24.5q47 0 88 -13t73 -36l-403 -409q-47 72 -47 164zM465 244l405 407q43 -70 43 -159q0 -57 -19.5 -110.5t-57 -94.5t-91 -65.5t-120.5 -24.5q-94 0 -160 47z" />
<glyph unicode="&#xc0;" horiz-adv-x="1062" d="M55 -92q0 -96 33 -171t91.5 -126t137 -77t170.5 -26q98 0 180.5 28t144.5 81t101 130t52 175l-263 21q-8 -84 -63 -142.5t-141 -58.5q-80 0 -132.5 50t-52.5 130q0 82 52 133l157 160q31 33 52.5 56.5t35 49t18.5 57.5t5 77v112h-246v-78q0 -39 -6 -66.5t-19.5 -49 t-34 -42t-48.5 -46.5q-45 -43 -85 -82t-71 -82t-49.5 -94.5t-18.5 -118.5zM346 848q0 -66 49 -111t115 -45q68 0 116 47t48 113q0 33 -13.5 61.5t-36 49t-52 33t-62.5 12.5q-68 0 -116 -47.5t-48 -112.5z" />
<glyph unicode="&#xc1;" horiz-adv-x="606" d="M139 848q0 -66 49.5 -111t114.5 -45q68 0 116 47t48 113q0 33 -13.5 61.5t-36 49t-52 33t-62.5 12.5q-68 0 -116 -47.5t-48 -112.5zM180 -455h246v998h-246v-998z" />
<glyph unicode="&#xc2;" horiz-adv-x="1363" d="M127 700h901v-399h209v608h-1110v-209z" />
<glyph unicode="&#xc4;" horiz-adv-x="1212" d="M-8 -236q47 -25 101 -37t108 -12q160 0 252 93.5t131 289.5l116 590h283v184h-250l37 172q8 37 17.5 74t28 66.5t47 49t73.5 19.5q57 0 113 -32l94 190q-57 31 -115.5 47.5t-124.5 16.5q-90 0 -152.5 -30t-105.5 -81t-68.5 -118.5t-41.5 -145.5l-46 -228h-268v-184h232 l-109 -551q-18 -92 -51 -152.5t-113 -60.5q-25 0 -50.5 7.5t-45.5 21.5z" />
<glyph unicode="&#xc7;" horiz-adv-x="1062" d="M61 508l312 -463l155 105l-237 358l235 354l-153 105zM518 508l311 -463l156 105l-237 358l235 354l-154 105z" />
<glyph unicode="&#xc8;" horiz-adv-x="1062" d="M78 862l237 -358l-235 -354l153 -105l312 459l-312 463zM535 862l237 -358l-235 -354l153 -105l311 459l-311 463z" />
<glyph unicode="&#xc9;" horiz-adv-x="2048" d="M178 143q0 -33 13.5 -61.5t36 -49t52 -32.5t62.5 -12q68 0 116 47t48 112q0 66 -49 111t-115 45q-68 0 -116 -47t-48 -113zM860 143q0 -33 13.5 -61.5t36 -49t52 -32.5t62.5 -12q68 0 116 47t48 112q0 66 -49 111t-115 45q-68 0 -116 -47t-48 -113zM1542 143 q0 -33 13.5 -61.5t36 -49t52 -32.5t62.5 -12q68 0 116 47t48 112q0 66 -49 111t-115 45q-68 0 -116 -47t-48 -113z" />
<glyph unicode="&#xcb;" horiz-adv-x="1478" d="M0 0h289l131 332h629l135 -332h295l-625 1450h-223zM354 1843l289 -295h192l-202 295h-279zM508 553l227 590l223 -590h-450z" />
<glyph unicode="&#xcc;" horiz-adv-x="1478" d="M0 0h289l131 332h629l135 -332h295l-625 1450h-223zM362 1556h136q10 35 31.5 61.5t62.5 26.5q25 0 58.5 -12t72.5 -26.5t81 -26.5t83 -12q57 0 97 22.5t66.5 58t42 82.5t23.5 97h-135q-10 -35 -31.5 -60.5t-62.5 -25.5q-25 0 -58.5 12t-72.5 25.5t-81 25.5t-83 12 q-57 0 -97 -22.5t-67 -58t-42 -83t-24 -96.5zM508 553l227 590l223 -590h-450z" />
<glyph unicode="&#xcd;" horiz-adv-x="1705" d="M84 719q0 -170 57.5 -309.5t158.5 -238.5t241.5 -153.5t308.5 -54.5q170 2 311.5 58.5t243.5 157t159.5 239.5t57.5 309q0 174 -57.5 315.5t-159.5 241.5t-243.5 153.5t-311.5 49.5q-168 0 -308.5 -54.5t-241.5 -154.5t-158.5 -242.5t-57.5 -316.5zM354 735q0 109 36 203 t101.5 165t156.5 110.5t204 39.5t205 -39.5t157.5 -110.5t101.5 -165t36 -203q0 -117 -36 -215t-101.5 -169.5t-157.5 -112.5t-205 -41t-204 41t-156.5 112.5t-101.5 169.5t-36 215zM477 1556h136q10 35 31.5 61.5t62.5 26.5q25 0 58.5 -12t72.5 -26.5t81 -26.5t83 -12 q57 0 97 22.5t66.5 58t42 82.5t23.5 97h-135q-10 -35 -31.5 -60.5t-62.5 -25.5q-25 0 -58.5 12t-72.5 25.5t-81 25.5t-83 12q-57 0 -97 -22.5t-67 -58t-42 -83t-24 -96.5z" />
<glyph unicode="&#xce;" horiz-adv-x="2048" d="M102 725q0 -154 55.5 -286t162 -230t259 -153.5t349.5 -55.5h1018v233h-625v394h553v233h-553v357h590v233h-983q-197 0 -349.5 -55.5t-259 -152.5t-162 -229t-55.5 -288zM385 725q0 150 59.5 245t144.5 150.5t180 76t165 20.5h129v-984h-129q-70 0 -165 20.5t-180 76 t-144.5 150.5t-59.5 245z" />
<glyph unicode="&#xcf;" horiz-adv-x="1896" d="M74 492q0 -117 42 -212.5t113.5 -163t170 -104.5t208.5 -37q109 0 204 38t169 120q57 -76 149.5 -117t215.5 -41q135 0 242.5 47.5t189.5 161.5l-170 121q-47 -57 -108.5 -95t-153.5 -38q-39 0 -82 17.5t-79 50t-58.5 77.5t-20.5 101h717v67q0 109 -29 204t-88 166 t-147.5 112t-208.5 41q-111 0 -205 -39t-160 -121q-74 82 -170 121t-207 39t-209 -37t-169.5 -104.5t-113.5 -163t-42 -211.5zM319 492q0 61 19.5 117.5t57.5 98.5t91.5 66.5t120.5 24.5q70 0 124 -24.5t92 -66.5t57.5 -98.5t19.5 -117.5t-19.5 -118t-57.5 -99t-92 -66.5 t-124 -24.5q-68 0 -121 24.5t-91 66.5t-57.5 99t-19.5 118zM1098 590q2 57 24.5 101t58.5 73t81 44t88 15q98 0 161.5 -62.5t65.5 -170.5h-479z" />
<glyph unicode="&#xd0;" horiz-adv-x="1024" d="M0 406h1024v196h-1024v-196z" />
<glyph unicode="&#xd1;" horiz-adv-x="2048" d="M0 406h2048v196h-2048v-196z" />
<glyph unicode="&#xd2;" horiz-adv-x="1062" d="M119 909h250l143 541h-219zM551 909h250l143 541h-219z" />
<glyph unicode="&#xd3;" horiz-adv-x="1062" d="M119 909h219l174 541h-250zM551 909h219l174 541h-250z" />
<glyph unicode="&#xd4;" horiz-adv-x="606" d="M106 909h250l144 541h-219z" />
<glyph unicode="&#xd5;" horiz-adv-x="606" d="M106 909h220l174 541h-250z" />
<glyph unicode="&#xd6;" horiz-adv-x="1363" d="M127 516h1110v209h-1110v-209zM528 252q0 -63 45 -108.5t109 -45.5q63 0 108.5 45t45.5 109q0 63 -45.5 108.5t-108.5 45.5t-108.5 -45.5t-45.5 -108.5zM528 989q0 -63 45 -108t109 -45q63 0 108.5 45t45.5 108t-45.5 108.5t-108.5 45.5t-108.5 -45.5t-45.5 -108.5z" />
<glyph unicode="&#xd8;" horiz-adv-x="1062" d="M6 983l420 -991l-47 -117q-14 -39 -29.5 -66.5t-37 -45t-52.5 -25.5t-76 -8q-33 0 -64.5 7t-60.5 17l-30 -221q92 -25 188 -25q82 0 140.5 17.5t101.5 53.5t74.5 88t58.5 122l465 1194h-256l-246 -682h-4l-275 682h-270zM164 1303q0 -59 44 -103.5t111 -44.5q68 0 114 42 t46 106q0 63 -46 105t-114 42t-111.5 -44t-43.5 -103zM585 1303q0 -59 44.5 -103.5t111.5 -44.5q68 0 114 42t46 106q0 63 -46 105t-114 42t-112 -44t-44 -103z" />
<glyph unicode="&#xd9;" horiz-adv-x="1290" d="M-29 1450l545 -829v-621h258v621l545 829h-307l-361 -578l-356 578h-324zM277 1696q0 -59 44 -103.5t111 -44.5q68 0 114 42t46 106q0 63 -46 105t-114 42t-111.5 -44t-43.5 -103zM698 1696q0 -59 44.5 -103.5t111.5 -44.5q68 0 114 42t46 106q0 63 -46 105t-114 42 t-112 -44t-44 -103z" />
<glyph unicode="&#xda;" horiz-adv-x="342" d="M-340 12l170 -78l852 1504l-170 78z" />
<glyph unicode="&#xdb;" horiz-adv-x="1212" d="M74 317l123 -122l100 100q137 -100 309 -100q88 0 166 26.5t143 73.5l101 -100l123 122l-101 101q47 66 74 144.5t27 164.5q0 172 -101 309l101 101l-123 120l-101 -98q-66 47 -143.5 72.5t-165.5 25.5t-166 -25.5t-143 -72.5l-100 98l-123 -120l100 -101 q-47 -66 -73.5 -144.5t-26.5 -164.5q0 -88 26.5 -166t73.5 -143zM307 727q0 141 81 225t218 84t218 -84t81 -225t-81 -226t-218 -85t-218 85t-81 226z" />
<glyph unicode="&#xdc;" horiz-adv-x="606" d="M61 508l312 -463l155 105l-237 358l235 354l-153 105z" />
<glyph unicode="&#xdd;" horiz-adv-x="606" d="M78 862l237 -358l-235 -354l153 -105l312 459l-312 463z" />
<glyph unicode="&#xde;" horiz-adv-x="1214" d="M25 774h202v-774h246v774h227v209h-227v178q0 41 5 78t22.5 64.5t48.5 44t82 16.5q27 0 51.5 -4t50.5 -10l17 209q-72 14 -156 14q-115 0 -186.5 -32t-111.5 -91t-54.5 -142t-14.5 -186v-139h-202v-209zM827 1317q0 -59 44 -103.5t112 -44.5t114 42t46 106q0 63 -46 105 t-114 42t-112 -44t-44 -103zM860 0h246v983h-246v-983z" />
<glyph unicode="&#xdf;" horiz-adv-x="1214" d="M25 774h202v-774h246v774h227v209h-227v178q0 41 5 78t22.5 64.5t48.5 44t82 16.5q27 0 51.5 -4t50.5 -10l17 209q-72 14 -156 14q-115 0 -186.5 -32t-111.5 -91t-54.5 -142t-14.5 -186v-139h-202v-209zM860 0h246v1548h-246v-1548z" />
<glyph unicode="&#xe0;" horiz-adv-x="1214" d="M96 123h393v-381h234v381h395v196h-395v555h395v197h-395v379h-234v-379h-393v-197h393v-555h-393v-196z" />
<glyph unicode="&#xe1;" horiz-adv-x="606" d="M139 596q0 -33 13.5 -61.5t36 -49t52 -33t62.5 -12.5q68 0 116 47.5t48 112.5q0 66 -49 111t-115 45q-68 0 -116 -47t-48 -113z" />
<glyph unicode="&#xe2;" horiz-adv-x="606" d="M106 -258h220l174 541h-250z" />
<glyph unicode="&#xe3;" horiz-adv-x="1062" d="M121 -258h219l174 541h-250zM549 -258h219l174 541h-250z" />
<glyph unicode="&#xe4;" horiz-adv-x="2390" d="M14 1114q0 -74 29 -140.5t78 -115.5t114.5 -77.5t139.5 -28.5t140.5 28.5t115.5 77.5t77.5 115.5t28.5 140.5t-28.5 139.5t-77.5 114.5t-115.5 78t-140.5 29t-139.5 -29t-114.5 -78t-78 -114.5t-29 -139.5zM199 1114q0 78 49 127t127 49t128 -49t50 -127t-50 -128 t-128 -50t-127 50t-49 128zM274 12l170 -78l852 1504l-170 78zM842 338q0 -74 28.5 -140.5t77.5 -115.5t114.5 -78t139.5 -29t140.5 29t115.5 78t78 115.5t29 140.5t-29 139.5t-78 114.5t-115.5 77.5t-140.5 28.5t-139.5 -28.5t-114.5 -77.5t-77.5 -114.5t-28.5 -139.5z M1026 338q0 78 49 127t127 49t128 -49t50 -127t-50 -128t-128 -50t-127 50t-49 128zM1653 338q0 -74 28.5 -140.5t77.5 -115.5t114.5 -78t139.5 -29t140.5 29t115.5 78t78 115.5t29 140.5t-29 139.5t-78 114.5t-115.5 77.5t-140.5 28.5t-139.5 -28.5t-114.5 -77.5 t-77.5 -114.5t-28.5 -139.5zM1837 338q0 78 49 127t127 49t128 -49t50 -127t-50 -128t-128 -50t-127 50t-49 128z" />
<glyph unicode="&#xe5;" horiz-adv-x="1478" d="M0 0h289l131 332h629l135 -332h295l-625 1450h-223zM367 1548h229l141 184l142 -184h233l-233 295h-277zM508 553l227 590l223 -590h-450z" />
<glyph unicode="&#xe6;" horiz-adv-x="1251" d="M162 0h997v233h-739v394h665v233h-665v357h702v233h-960v-1450zM254 1548h229l141 184l142 -184h233l-233 295h-277z" />
<glyph unicode="&#xe7;" horiz-adv-x="1478" d="M0 0h289l131 332h629l135 -332h295l-625 1450h-223zM508 553l227 590l223 -590h-450zM643 1548h192l289 295h-278z" />
<glyph unicode="&#xe8;" horiz-adv-x="1251" d="M162 0h997v233h-739v394h665v233h-665v357h702v233h-960v-1450zM258 1696q0 -59 44 -103.5t111 -44.5q68 0 114 42t46 106q0 63 -46 105t-114 42t-111.5 -44t-43.5 -103zM679 1696q0 -59 44.5 -103.5t111.5 -44.5q68 0 114 42t46 106q0 63 -46 105t-114 42t-112 -44 t-44 -103z" />
<glyph unicode="&#xe9;" horiz-adv-x="1251" d="M162 0h997v233h-739v394h665v233h-665v357h702v233h-960v-1450zM241 1843l289 -295h192l-202 295h-279z" />
<glyph unicode="&#xea;" horiz-adv-x="569" d="M156 0h258v1450h-258v-1450zM188 1548h192l289 295h-278z" />
<glyph unicode="&#xeb;" horiz-adv-x="569" d="M-88 1548h229l141 184l142 -184h233l-233 295h-277zM156 0h258v1450h-258v-1450z" />
<glyph unicode="&#xec;" horiz-adv-x="569" d="M-84 1696q0 -59 44 -103.5t111 -44.5q68 0 114 42t46 106q0 63 -46 105t-114 42t-111.5 -44t-43.5 -103zM156 0h258v1450h-258v-1450zM337 1696q0 -59 44.5 -103.5t111.5 -44.5q68 0 114 42t46 106q0 63 -46 105t-114 42t-112 -44t-44 -103z" />
<glyph unicode="&#xed;" horiz-adv-x="569" d="M-101 1843l289 -295h192l-202 295h-279zM156 0h258v1450h-258v-1450z" />
<glyph unicode="&#xee;" horiz-adv-x="1705" d="M84 719q0 -170 57.5 -309.5t158.5 -238.5t241.5 -153.5t308.5 -54.5q170 2 311.5 58.5t243.5 157t159.5 239.5t57.5 309q0 174 -57.5 315.5t-159.5 241.5t-243.5 153.5t-311.5 49.5q-168 0 -308.5 -54.5t-241.5 -154.5t-158.5 -242.5t-57.5 -316.5zM354 735q0 109 36 203 t101.5 165t156.5 110.5t204 39.5t205 -39.5t157.5 -110.5t101.5 -165t36 -203q0 -117 -36 -215t-101.5 -169.5t-157.5 -112.5t-205 -41t-204 41t-156.5 112.5t-101.5 169.5t-36 215zM758 1548h192l289 295h-278z" />
<glyph unicode="&#xef;" horiz-adv-x="1705" d="M84 719q0 -170 57.5 -309.5t158.5 -238.5t241.5 -153.5t308.5 -54.5q170 2 311.5 58.5t243.5 157t159.5 239.5t57.5 309q0 174 -57.5 315.5t-159.5 241.5t-243.5 153.5t-311.5 49.5q-168 0 -308.5 -54.5t-241.5 -154.5t-158.5 -242.5t-57.5 -316.5zM354 735q0 109 36 203 t101.5 165t156.5 110.5t204 39.5t205 -39.5t157.5 -110.5t101.5 -165t36 -203q0 -117 -36 -215t-101.5 -169.5t-157.5 -112.5t-205 -41t-204 41t-156.5 112.5t-101.5 169.5t-36 215zM482 1548h229l141 184l142 -184h233l-233 295h-277z" />
<glyph unicode="&#xf1;" horiz-adv-x="1705" d="M84 719q0 -170 57.5 -309.5t158.5 -238.5t241.5 -153.5t308.5 -54.5q170 2 311.5 58.5t243.5 157t159.5 239.5t57.5 309q0 174 -57.5 315.5t-159.5 241.5t-243.5 153.5t-311.5 49.5q-168 0 -308.5 -54.5t-241.5 -154.5t-158.5 -242.5t-57.5 -316.5zM354 735q0 109 36 203 t101.5 165t156.5 110.5t204 39.5t205 -39.5t157.5 -110.5t101.5 -165t36 -203q0 -117 -36 -215t-101.5 -169.5t-157.5 -112.5t-205 -41t-204 41t-156.5 112.5t-101.5 169.5t-36 215zM469 1843l289 -295h192l-202 295h-279z" />
<glyph unicode="&#xf2;" horiz-adv-x="1478" d="M156 532q0 -131 45 -236.5t122.5 -179t184 -113.5t231.5 -40t231.5 40t185.5 113.5t123 179t44 236.5v918h-258v-909q0 -53 -16.5 -111.5t-54.5 -108t-100.5 -81t-154.5 -31.5t-154.5 31.5t-100.5 81t-54 107.5t-16 112v909h-258v-918zM643 1548h192l289 295h-278z" />
<glyph unicode="&#xf3;" horiz-adv-x="1478" d="M156 532q0 -131 45 -236.5t122.5 -179t184 -113.5t231.5 -40t231.5 40t185.5 113.5t123 179t44 236.5v918h-258v-909q0 -53 -16.5 -111.5t-54.5 -108t-100.5 -81t-154.5 -31.5t-154.5 31.5t-100.5 81t-54 107.5t-16 112v909h-258v-918zM367 1548h229l141 184l142 -184 h233l-233 295h-277z" />
<glyph unicode="&#xf4;" horiz-adv-x="1478" d="M156 532q0 -131 45 -236.5t122.5 -179t184 -113.5t231.5 -40t231.5 40t185.5 113.5t123 179t44 236.5v918h-258v-909q0 -53 -16.5 -111.5t-54.5 -108t-100.5 -81t-154.5 -31.5t-154.5 31.5t-100.5 81t-54 107.5t-16 112v909h-258v-918zM354 1843l289 -295h192l-202 295 h-279z" />
<glyph unicode="&#xf5;" d="M143 0h246v983h-246v-983z" />
<glyph unicode="&#xf6;" d="M-106 1155h229l141 184l142 -184h233l-233 295h-277z" />
<glyph unicode="&#xf7;" d="M-111 1163h136q10 35 31.5 61.5t62.5 26.5q25 0 58.5 -12t72.5 -26.5t81 -26.5t83 -12q57 0 97 22.5t66.5 58t42 82.5t23.5 97h-135q-10 -35 -31.5 -60.5t-62.5 -25.5q-25 0 -58.5 12t-72.5 25.5t-81 25.5t-83 12q-57 0 -97 -22.5t-67 -58t-42 -83t-24 -96.5z" />
<glyph unicode="&#xf8;" d="M-61 1219h655v159h-655v-159z" />
<glyph unicode="&#xf9;" d="M-82 1450q10 -154 104.5 -224.5t241.5 -70.5t240.5 71.5t109.5 223.5h-135q-23 -86 -74 -110.5t-139 -24.5q-78 0 -137 28.5t-74 106.5h-137z" />
<glyph unicode="&#xfa;" d="M109 1303q0 -59 44 -103.5t111 -44.5q68 0 114 42t46 106q0 63 -46 105t-114 42t-111.5 -44t-43.5 -103z" />
<glyph unicode="&#xfb;" d="M51 1339q0 -90 61.5 -148t153.5 -58t153.5 58t61.5 150t-61.5 150.5t-153.5 58.5q-45 0 -85 -16t-68.5 -44t-45 -67t-16.5 -84zM150 1341q0 47 34.5 79t81.5 32t82 -32t35 -79q0 -49 -35 -79.5t-82 -30.5t-81.5 31.5t-34.5 78.5z" />
<glyph unicode="&#xfc;" d="M109 -434q102 -57 217 -58q47 0 97 10.5t91 33t68.5 61.5t27.5 94q0 59 -21.5 93t-57 51.5t-79.5 21.5t-90 4l87 123h-119l-127 -184l55 -52q18 6 36.5 10.5t39.5 4.5q33 0 68.5 -16.5t35.5 -57.5q0 -25 -12 -42t-29.5 -26.5t-38 -13.5t-36.5 -4q-90 0 -168 41z" />
<glyph unicode="&#xfd;" d="M-41 1155h193l288 295h-278zM379 1155h192l289 295h-278z" />
<glyph unicode="&#xfe;" d="M-2 -297q0 -45 17.5 -79t47 -57.5t67.5 -34.5t79 -11q57 0 109.5 21.5t95.5 56.5l-52 100q-23 -18 -52 -30.5t-58 -12.5q-39 0 -66.5 27.5t-27.5 66.5q0 33 17.5 71t44 73.5t55 66.5t53.5 51h-125q-33 -25 -69 -60.5t-66.5 -75.5t-50 -85t-19.5 -88z" />
<glyph unicode="&#xff;" d="M-104 1450l233 -295h272l236 295h-225l-142 -184l-141 184h-233z" />
<glyph unicode="&#x152;" horiz-adv-x="1099" d="M74 270q0 -74 30.5 -129t81 -92t115 -55.5t131.5 -18.5q98 0 180 38t136 122h6v-135h221v565q0 53 -6 128t-46 145.5t-125 120t-243 49.5q-117 0 -226.5 -37t-191.5 -121l129 -129q49 47 117 74.5t145 27.5q98 0 162 -46t64 -138v-27h-62q-61 0 -130.5 -3t-138.5 -14 t-132.5 -33.5t-111.5 -60.5t-76.5 -94.5t-28.5 -136.5zM319 289q0 53 39 82.5t95.5 45t120 19.5t114.5 4h51v-55q0 -104 -60.5 -164.5t-186.5 -60.5q-31 0 -62 7t-55.5 23.5t-40 41t-15.5 57.5zM336 1339q0 -90 61.5 -148t153.5 -58t153.5 58t61.5 150t-61.5 150.5 t-153.5 58.5q-45 0 -85 -16t-68.5 -44t-45 -67t-16.5 -84zM435 1341q0 47 34.5 79t81.5 32t82 -32t35 -79q0 -49 -35 -79.5t-82 -30.5t-81.5 31.5t-34.5 78.5z" />
<glyph unicode="&#x153;" horiz-adv-x="1175" d="M139 362q0 -76 18.5 -145.5t61.5 -122.5t111.5 -86t167.5 -33q123 0 194.5 54.5t106.5 128.5h4v-158h233v983h-245v-537q0 -49 -12.5 -94t-40 -79.5t-69.5 -55t-104 -20.5q-63 0 -100 29.5t-54.5 73.5t-21.5 94t-4 91v498h-246v-621zM492 1155h192l289 295h-278z" />
<glyph unicode="&#x178;" horiz-adv-x="1175" d="M139 362q0 -76 18.5 -145.5t61.5 -122.5t111.5 -86t167.5 -33q123 0 194.5 54.5t106.5 128.5h4v-158h233v983h-245v-537q0 -49 -12.5 -94t-40 -79.5t-69.5 -55t-104 -20.5q-63 0 -100 29.5t-54.5 73.5t-21.5 94t-4 91v498h-246v-621zM220 1303q0 -59 44 -103.5t111 -44.5 q68 0 114 42t46 106q0 63 -46 105t-114 42t-111.5 -44t-43.5 -103zM641 1303q0 -59 44.5 -103.5t111.5 -44.5q68 0 114 42t46 106q0 63 -46 105t-114 42t-112 -44t-44 -103z" />
<glyph unicode="&#x2c6;" horiz-adv-x="1099" d="M74 270q0 -74 30.5 -129t81 -92t115 -55.5t131.5 -18.5q98 0 180 38t136 122h6v-135h221v565q0 53 -6 128t-46 145.5t-125 120t-243 49.5q-117 0 -226.5 -37t-191.5 -121l129 -129q49 47 117 74.5t145 27.5q98 0 162 -46t64 -138v-27h-62q-61 0 -130.5 -3t-138.5 -14 t-132.5 -33.5t-111.5 -60.5t-76.5 -94.5t-28.5 -136.5zM166 1450l289 -295h192l-202 295h-279zM319 289q0 53 39 82.5t95.5 45t120 19.5t114.5 4h51v-55q0 -104 -60.5 -164.5t-186.5 -60.5q-31 0 -62 7t-55.5 23.5t-40 41t-15.5 57.5z" />
<glyph unicode="&#x2dc;" horiz-adv-x="1249" d="M90 492q0 -117 42 -212.5t113.5 -163t170 -104.5t209.5 -37t209 37t169.5 104.5t113.5 163t42 212.5t-42 212t-113.5 162.5t-170 104.5t-208.5 37q-111 0 -209.5 -37t-170 -104.5t-113.5 -162.5t-42 -212zM239 1450l289 -295h192l-202 295h-279zM336 492q0 57 19.5 110 t57.5 94t91 65.5t121 24.5t121 -24.5t90.5 -65.5t57 -94t19.5 -110t-19.5 -110.5t-57 -94.5t-91 -65.5t-120.5 -24.5q-68 0 -121 24.5t-91 65.5t-57.5 94.5t-19.5 110.5z" />
<glyph unicode="&#x2000;" horiz-adv-x="961" />
<glyph unicode="&#x2001;" horiz-adv-x="1923" />
<glyph unicode="&#x2002;" horiz-adv-x="961" />
<glyph unicode="&#x2003;" horiz-adv-x="1923" />
<glyph unicode="&#x2004;" horiz-adv-x="641" />
<glyph unicode="&#x2005;" horiz-adv-x="480" />
<glyph unicode="&#x2006;" horiz-adv-x="320" />
<glyph unicode="&#x2007;" horiz-adv-x="320" />
<glyph unicode="&#x2008;" horiz-adv-x="240" />
<glyph unicode="&#x2009;" horiz-adv-x="384" />
<glyph unicode="&#x200a;" horiz-adv-x="106" />
<glyph unicode="&#x2010;" horiz-adv-x="645" d="M70 399h505v209h-505v-209z" />
<glyph unicode="&#x2011;" horiz-adv-x="645" d="M70 399h505v209h-505v-209z" />
<glyph unicode="&#x2012;" horiz-adv-x="645" d="M70 399h505v209h-505v-209z" />
<glyph unicode="&#x2013;" horiz-adv-x="1175" d="M139 0h246v537q0 49 12.5 94t40 79.5t69.5 55t103 20.5q66 0 102 -29.5t53 -73.5t21.5 -94t4.5 -91v-498h245v621q0 76 -18.5 145.5t-61.5 123.5t-111.5 86t-166.5 32q-123 0 -194.5 -54.5t-106.5 -128.5h-4v158h-234v-983zM211 1163h136q10 35 31.5 61.5t62.5 26.5 q25 0 58.5 -12t72.5 -26.5t81 -26.5t83 -12q57 0 97 22.5t66.5 58t42 82.5t23.5 97h-135q-10 -35 -31.5 -60.5t-62.5 -25.5q-25 0 -58.5 12t-72.5 25.5t-81 25.5t-83 12q-57 0 -97 -22.5t-67 -58t-42 -83t-24 -96.5z" />
<glyph unicode="&#x2014;" horiz-adv-x="1249" d="M90 492q0 -117 42 -212.5t113.5 -163t170 -104.5t209.5 -37t209 37t169.5 104.5t113.5 163t42 212.5t-42 212t-113.5 162.5t-170 104.5t-208.5 37q-111 0 -209.5 -37t-170 -104.5t-113.5 -162.5t-42 -212zM336 492q0 57 19.5 110t57.5 94t91 65.5t121 24.5t121 -24.5 t90.5 -65.5t57 -94t19.5 -110t-19.5 -110.5t-57 -94.5t-91 -65.5t-120.5 -24.5q-68 0 -121 24.5t-91 65.5t-57.5 94.5t-19.5 110.5zM528 1155h192l289 295h-278z" />
<glyph unicode="&#x2018;" horiz-adv-x="1175" d="M90 492q0 -117 42 -212.5t113.5 -163t170 -104.5t209.5 -37q117 0 223 45.5t192 151.5l-176 133q-47 -57 -109.5 -95t-154.5 -38q-104 0 -178 61.5t-86 172.5h749v67q0 129 -33.5 228.5t-94 167t-145.5 103.5t-187 36q-111 0 -209.5 -37t-170 -104.5t-113.5 -163 t-42 -211.5zM220 1303q0 -59 44 -103.5t111 -44.5q68 0 114 42t46 106q0 63 -46 105t-114 42t-111.5 -44t-43.5 -103zM336 590q14 106 78.5 169.5t175.5 63.5q117 0 182.5 -62.5t67.5 -170.5h-504zM641 1303q0 -59 44.5 -103.5t111.5 -44.5q68 0 114 42t46 106q0 63 -46 105 t-114 42t-112 -44t-44 -103z" />
<glyph unicode="&#x2019;" d="M143 0h246v983h-246v-983zM147 1155h192l289 295h-278z" />
<glyph unicode="&#x201a;" horiz-adv-x="1402" d="M84 719q0 -156 48 -286t135 -227t208 -158.5t268 -78.5l-104 -153l55 -52q18 6 37 10.5t39 4.5q33 0 68.5 -16.5t35.5 -57.5q0 -25 -12 -42t-29.5 -26.5t-38 -13.5t-36.5 -4q-90 0 -168 41l-45 -94q102 -57 217 -58q47 0 97 10.5t91 33t69 61.5t28 94q0 59 -21.5 93 t-57.5 51.5t-80 21.5t-89 4l59 86q160 2 297 62.5t236 195.5l-213 152q-72 -92 -155 -134t-171 -42q-113 0 -204 41t-156.5 112.5t-101.5 169.5t-36 215q0 109 36 203t101.5 165t156.5 110.5t204 39.5q76 0 150.5 -28.5t154.5 -114.5l201 147q-109 125 -235 177.5t-273 52.5 q-168 0 -308.5 -54.5t-241.5 -154.5t-158.5 -242.5t-57.5 -316.5z" />
<glyph unicode="&#x201c;" d="M-94 1450l289 -295h192l-202 295h-279zM143 0h246v983h-246v-983z" />
<glyph unicode="&#x201d;" d="M-106 1155h229l141 184l142 -184h233l-233 295h-277zM143 0h246v983h-246v-983z" />
<glyph unicode="&#x201e;" horiz-adv-x="1630" d="M162 0h258v1112h4l717 -1112h327v1450h-258v-1077l-4 -4h4l-4 4l-702 1077h-342v-1450zM438 1556h136q10 35 31.5 61.5t62.5 26.5q25 0 58.5 -12t72.5 -26.5t81 -26.5t83 -12q57 0 97 22.5t66.5 58t42 82.5t23.5 97h-135q-10 -35 -31.5 -60.5t-62.5 -25.5q-25 0 -58.5 12 t-72.5 25.5t-81 25.5t-83 12q-57 0 -97 -22.5t-67 -58t-42 -83t-24 -96.5z" />
<glyph unicode="&#x2022;" d="M-102 1303q0 -59 44 -103.5t111 -44.5q68 0 114 42t46 106q0 63 -46 105t-114 42t-111.5 -44t-43.5 -103zM143 0h246v983h-246v-983zM319 1303q0 -59 44.5 -103.5t111.5 -44.5q68 0 114 42t46 106q0 63 -46 105t-114 42t-112 -44t-44 -103z" />
<glyph unicode="&#x2026;" horiz-adv-x="1705" d="M84 719q0 -170 57.5 -309.5t158.5 -238.5t241.5 -153.5t308.5 -54.5q170 2 311.5 58.5t243.5 157t159.5 239.5t57.5 309q0 174 -57.5 315.5t-159.5 241.5t-243.5 153.5t-311.5 49.5q-168 0 -308.5 -54.5t-241.5 -154.5t-158.5 -242.5t-57.5 -316.5zM354 735q0 109 36 203 t101.5 165t156.5 110.5t204 39.5t205 -39.5t157.5 -110.5t101.5 -165t36 -203q0 -117 -36 -215t-101.5 -169.5t-157.5 -112.5t-205 -41t-204 41t-156.5 112.5t-101.5 169.5t-36 215zM486 1696q0 -59 44 -103.5t111 -44.5q68 0 114 42t46 106q0 63 -46 105t-114 42 t-111.5 -44t-43.5 -103zM907 1696q0 -59 44.5 -103.5t111.5 -44.5q68 0 114 42t46 106q0 63 -46 105t-114 42t-112 -44t-44 -103z" />
<glyph unicode="&#x202f;" horiz-adv-x="384" />
<glyph unicode="&#x2039;" horiz-adv-x="1099" d="M74 270q0 -74 30.5 -129t81 -92t115 -55.5t131.5 -18.5q98 0 180 38t136 122h6v-135h221v565q0 53 -6 128t-46 145.5t-125 120t-243 49.5q-117 0 -226.5 -37t-191.5 -121l129 -129q49 47 117 74.5t145 27.5q98 0 162 -46t64 -138v-27h-62q-61 0 -130.5 -3t-138.5 -14 t-132.5 -33.5t-111.5 -60.5t-76.5 -94.5t-28.5 -136.5zM174 1163h136q10 35 31.5 61.5t62.5 26.5q25 0 58.5 -12t72.5 -26.5t81 -26.5t83 -12q57 0 97 22.5t66.5 58t42 82.5t23.5 97h-135q-10 -35 -31.5 -60.5t-62.5 -25.5q-25 0 -58.5 12t-72.5 25.5t-81 25.5t-83 12 q-57 0 -97 -22.5t-67 -58t-42 -83t-24 -96.5zM319 289q0 53 39 82.5t95.5 45t120 19.5t114.5 4h51v-55q0 -104 -60.5 -164.5t-186.5 -60.5q-31 0 -62 7t-55.5 23.5t-40 41t-15.5 57.5z" />
<glyph unicode="&#x203a;" horiz-adv-x="1249" d="M90 492q0 -117 42 -212.5t113.5 -163t170 -104.5t209.5 -37t209 37t169.5 104.5t113.5 163t42 212.5t-42 212t-113.5 162.5t-170 104.5t-208.5 37q-111 0 -209.5 -37t-170 -104.5t-113.5 -162.5t-42 -212zM247 1163h136q10 35 31.5 61.5t62.5 26.5q25 0 58.5 -12 t72.5 -26.5t81 -26.5t83 -12q57 0 97 22.5t66.5 58t42 82.5t23.5 97h-135q-10 -35 -31.5 -60.5t-62.5 -25.5q-25 0 -58.5 12t-72.5 25.5t-81 25.5t-83 12q-57 0 -97 -22.5t-67 -58t-42 -83t-24 -96.5zM336 492q0 57 19.5 110t57.5 94t91 65.5t121 24.5t121 -24.5t90.5 -65.5 t57 -94t19.5 -110t-19.5 -110.5t-57 -94.5t-91 -65.5t-120.5 -24.5q-68 0 -121 24.5t-91 65.5t-57.5 94.5t-19.5 110.5z" />
<glyph unicode="&#x205f;" horiz-adv-x="480" />
<glyph unicode="&#x2122;" horiz-adv-x="1249" d="M90 492q0 -117 42 -212.5t113.5 -163t170 -104.5t209.5 -37t209 37t169.5 104.5t113.5 163t42 212.5t-42 212t-113.5 162.5t-170 104.5t-208.5 37q-111 0 -209.5 -37t-170 -104.5t-113.5 -162.5t-42 -212zM252 1155h229l141 184l142 -184h233l-233 295h-277zM336 492 q0 57 19.5 110t57.5 94t91 65.5t121 24.5t121 -24.5t90.5 -65.5t57 -94t19.5 -110t-19.5 -110.5t-57 -94.5t-91 -65.5t-120.5 -24.5q-68 0 -121 24.5t-91 65.5t-57.5 94.5t-19.5 110.5z" />
<glyph unicode="&#x25fc;" horiz-adv-x="983" d="M0 0v983h983v-983h-983z" />
</font>
</defs>
</svg>
